<?xml version="1.0" standalone="no"?>
<!DOCTYPE svg PUBLIC "-//W3C//DTD SVG 1.1//EN" "http://www.w3.org/Graphics/SVG/1.1/DTD/svg11.dtd" >
<svg xmlns="http://www.w3.org/2000/svg" xmlns:xlink="http://www.w3.org/1999/xlink" version="1.1">
<metadata>
Created by FontForge 20160405 at Mon Jan 21 16:25:17 2019
 By www-data
Copyright (c) 2008 by Stefan Gandl. All rights reserved.
</metadata>
<defs>
<font id="NBInternationalPro-Regular" horiz-adv-x="496" >
  <font-face 
    font-family="NB International"
    font-weight="400"
    font-stretch="normal"
    units-per-em="1000"
    panose-1="2 11 5 3 4 1 0 2 0 4"
    ascent="800"
    descent="-200"
    x-height="506"
    cap-height="704"
    bbox="-68 -208 1114 944"
    underline-thickness="85"
    underline-position="-217"
    unicode-range="U+0009-FB05"
  />
<missing-glyph 
d="M456 5q0 -5 -5 -5h-411q-5 0 -5 5v694q0 5 5 5h411q5 0 5 -5v-694zM419 681h-346l173 -306zM419 24l-173 305l-173 -305h346zM432 48v608q-43 -75 -87 -152t-86 -152zM233 352l-173 305v-610z" />
    <glyph glyph-name="fi" unicode="fi" horiz-adv-x="566" 
d="M326 624q0 -5 -5 -5h-66q-23 0 -35 -13.5t-12 -36.5v-58q0 -5 5 -5h108q5 0 5 -5v-65q0 -5 -5 -5h-108q-5 0 -5 -5v-421q0 -5 -5 -5h-85q-5 0 -5 5v421q0 5 -5 5h-89q-5 0 -5 5v65q0 5 5 5h89q5 0 5 5v75q0 121 141 118h67q5 0 5 -5v-75zM488 5q0 -5 -5 -5h-85q-5 0 -5 5
v496q0 5 5 5h85q5 0 5 -5v-496zM498 594q0 -5 -5 -5h-105q-5 0 -5 5v105q0 5 5 5h105q5 0 5 -5v-105z" />
    <glyph glyph-name="fl" unicode="fl" horiz-adv-x="570" 
d="M326 624q0 -5 -5 -5h-66q-23 0 -35 -13.5t-12 -36.5v-58q0 -5 5 -5h108q5 0 5 -5v-65q0 -5 -5 -5h-108q-5 0 -5 -5v-421q0 -5 -5 -5h-85q-5 0 -5 5v421q0 5 -5 5h-89q-5 0 -5 5v65q0 5 5 5h89q5 0 5 5v75q0 121 141 118h67q5 0 5 -5v-75zM493 5q0 -5 -5 -5h-85q-5 0 -5 5
v694q0 5 5 5h85q5 0 5 -5v-694z" />
    <glyph glyph-name=".notdef" 
d="M456 5q0 -5 -5 -5h-411q-5 0 -5 5v694q0 5 5 5h411q5 0 5 -5v-694zM419 681h-346l173 -306zM419 24l-173 305l-173 -305h346zM432 48v608q-43 -75 -87 -152t-86 -152zM233 352l-173 305v-610z" />
    <glyph glyph-name=".null" horiz-adv-x="5" 
 />
    <glyph glyph-name=".null" horiz-adv-x="5" 
 />
    <glyph glyph-name="nonmarkingreturn" unicode="&#xd;" horiz-adv-x="15" 
 />
    <glyph glyph-name="HT" unicode="&#x9;" horiz-adv-x="265" 
 />
    <glyph glyph-name="LF" unicode="&#xa;" horiz-adv-x="265" 
 />
    <glyph glyph-name="DLE" horiz-adv-x="265" 
 />
    <glyph glyph-name="DC1" horiz-adv-x="265" 
 />
    <glyph glyph-name="DC2" horiz-adv-x="265" 
 />
    <glyph glyph-name="DC3" horiz-adv-x="265" 
 />
    <glyph glyph-name="DC4" horiz-adv-x="265" 
 />
    <glyph glyph-name="RS" horiz-adv-x="15" 
 />
    <glyph glyph-name="US" horiz-adv-x="15" 
 />
    <glyph glyph-name="space" unicode=" " horiz-adv-x="236" 
 />
    <glyph glyph-name="exclam" unicode="!" horiz-adv-x="219" 
d="M70 208q-5 0 -5 5l-10 293v193q0 5 5 5h84q5 0 5 -5v-193l-10 -293q0 -5 -5 -5h-64zM42 0q-5 0 -5 5v122q0 5 5 5h120q5 0 5 -5v-122q0 -5 -5 -5h-120z" />
    <glyph glyph-name="quotedbl" unicode="&#x22;" horiz-adv-x="361" 
d="M228 431q-5 0 -5 5l-10 105v158q0 5 5 5h80q5 0 5 -5v-158l-10 -105q0 -5 -5 -5h-60zM58 431q-5 0 -5 5l-10 105v158q0 5 5 5h80q5 0 5 -5v-158l-10 -105q0 -5 -5 -5h-60z" />
    <glyph glyph-name="numbersign" unicode="#" horiz-adv-x="581" 
d="M169 402q1 6 -5 6h-136q-5 0 -5 5v59q0 5 5 5h154q5 0 6 4l48 220q1 3 5 3h55q7 0 5 -7l-47 -214q-2 -6 5 -6h102q5 0 6 5l48 219q1 3 5 3h55q7 0 5 -7l-47 -214q-2 -6 5 -6h99q5 0 5 -5v-59q0 -5 -5 -5h-117q-4 0 -6 -5l-26 -110q-2 -6 5 -6h144q5 0 5 -5v-59
q0 -5 -5 -5h-162q-4 0 -5 -4l-47 -211q-2 -3 -5 -3h-54q-7 0 -5 7l46 206q2 5 -4 5h-105q-3 0 -5 -5l-47 -210q-2 -3 -5 -3h-54q-7 0 -5 7l45 205q2 6 -5 6h-92q-5 0 -5 5v59q0 5 5 5h110q5 0 6 5zM241 408q-4 0 -6 -5l-26 -109q-2 -7 5 -7h104q3 0 5 5l25 110q2 6 -4 6
h-103z" />
    <glyph glyph-name="dollar" unicode="$" horiz-adv-x="610" 
d="M264 317q0 3 -3 3q-39 6 -77 17.5t-69 33t-50 56t-19 86.5q0 44 17.5 79t47 60.5t68 40.5t80.5 19q5 0 5 5v80q0 5 4 5h69q5 0 5 -5v-84q0 -3 3 -4q39 -6 73.5 -21.5t61 -40t43 -58.5t18.5 -78q0 -5 -5 -5h-90q-5 0 -5 5q0 38 -25.5 68t-68.5 42q-5 2 -5 -4v-208
q0 -5 5 -5q43 -7 83 -19t71 -35t49 -60t18 -92q0 -35 -12 -69t-38.5 -62.5t-68.5 -48.5t-102 -26q-5 0 -5 -4v-83q0 -5 -5 -5h-69q-4 0 -4 5v82q0 5 -5 5q-55 5 -97 23t-70.5 45t-43 61.5t-14.5 71.5q0 5 5 5h89q6 0 6 -6q0 -16 7.5 -34t23 -34t39 -28.5t55.5 -17.5
q5 -1 5 5v234zM347 79q58 10 89.5 43.5t31.5 75.5q0 27 -9.5 46t-26 32t-38.5 20t-47 12q-5 2 -5 -3v-221q0 -6 5 -5zM259 626q-49 -8 -81 -39t-32 -74q0 -25 9.5 -42t25 -28t36 -17.5t42.5 -9.5q5 -1 5 4v202q0 6 -5 4z" />
    <glyph glyph-name="percent" unicode="%" horiz-adv-x="832" 
d="M581 702q2 2 4 2h70q8 0 4 -8l-426 -694q-2 -2 -4 -2h-68q-8 0 -4 8zM764 190q0 -43 -7.5 -79.5t-24.5 -63.5t-45 -42t-70 -15t-70 15t-45.5 42t-25 63.5t-7.5 79.5q0 42 7.5 78.5t25 63.5t45.5 42t70 15t70 -15t45 -42t24.5 -63.5t7.5 -78.5zM700 190q0 66 -19 101.5
t-64 35.5q-46 0 -64.5 -35.5t-18.5 -101.5t18.5 -102t64.5 -36q45 0 64 36t19 102zM348 515q0 -43 -7.5 -79.5t-24.5 -63.5t-45 -42t-70 -15t-70 15t-45.5 42t-25 63.5t-7.5 79.5q0 42 7.5 78.5t25 63.5t45.5 42t70 15t70 -15t45 -42t24.5 -63.5t7.5 -78.5zM284 515
q0 66 -19 101.5t-64 35.5q-46 0 -64.5 -35.5t-18.5 -101.5t18.5 -102t64.5 -36q45 0 64 36t19 102z" />
    <glyph glyph-name="ampersand" unicode="&#x26;" horiz-adv-x="656" 
d="M587 0q-33 0 -60 13.5t-55 41.5q-3 3 -7 0q-34 -26 -84.5 -45.5t-110.5 -19.5q-63 0 -110 19t-78 50t-46.5 71t-15.5 82q0 37 11.5 67t29.5 53t40 40.5t43 29.5q9 5 2 12l-25 28q-21 23 -35.5 48.5t-14.5 63.5q0 33 13 62t38 50.5t59.5 34.5t78.5 13q42 0 76 -13.5
t59 -36t38.5 -51t13.5 -59.5q0 -39 -13 -66.5t-35 -46.5t-49.5 -31.5t-56.5 -22.5q-7 -2 -2 -9l158 -171q2 -3 4 -2t2 2q5 10 6.5 22.5t1.5 24.5v87q0 5 5 5h85q5 0 5 -5v-87q0 -11 -2 -26t-5.5 -31.5t-9.5 -33t-14 -29.5q-4 -6 0 -8l16 -13q14 -9 20.5 -14t23.5 -4
q5 0 5 -5v-85q0 -5 -5 -5zM270 80q37 0 69 8.5t62 32.5q4 4 0 9l-194 211q-2 3 -8 1q-15 -8 -30 -18.5t-27 -25.5t-19.5 -34t-7.5 -42q0 -31 11.5 -57t31.5 -45t48.5 -29.5t63.5 -10.5zM260 634q-42 0 -70.5 -21t-28.5 -59q-1 -26 15.5 -51t51.5 -57q3 -3 8 -1q7 2 13 5
q5 2 9.5 3.5t6.5 2.5q18 8 34.5 15.5t29.5 18t20.5 26t7.5 38.5q0 38 -28 59t-69 21z" />
    <glyph glyph-name="quotesingle" unicode="'" horiz-adv-x="202" 
d="M58 431q-5 0 -5 5l-10 105v158q0 5 5 5h80q5 0 5 -5v-158l-10 -105q0 -5 -5 -5h-60z" />
    <glyph glyph-name="parenleft" unicode="(" horiz-adv-x="235" 
d="M89 253q0 -121 32 -234t95 -212q3 -5 -3 -5h-67q-5 0 -7 5q-26 41 -49 93t-40 110.5t-27 120.5t-10 122t10 122t27 120.5t40 110.5t49 93q2 5 7 5h67q6 0 3 -5q-63 -99 -95 -212t-32 -234z" />
    <glyph glyph-name="parenright" unicode=")" horiz-adv-x="235" 
d="M141 253q0 121 -32 234t-95 212q-3 5 3 5h67q4 0 7 -5q26 -41 49 -93t40 -110.5t27 -120.5t10 -122t-10 -122t-27 -120.5t-40 -110.5t-49 -93q-3 -5 -7 -5h-67q-6 0 -3 5q63 99 95 212t32 234z" />
    <glyph glyph-name="asterisk" unicode="*" horiz-adv-x="473" 
d="M119 542l-49 16q-5 1 -3 6l18 57q2 5 7 3l48 -15l53 -24q3 -2 5.5 -1t1.5 5l-6 59v51q0 5 5 5h60q5 0 5 -5v-51l-7 -59q-1 -7 2.5 -6t5.5 2l53 24l48 15q5 2 7 -3l18 -57q1 -5 -3 -6l-49 -16l-64 -14q-5 -2 -1 -6l41 -44l30 -43q4 -4 -1 -7l-48 -35q-4 -2 -8 2l-29 40
l-26 46q-4 8 -8 0l-27 -47l-29 -40q-4 -4 -8 -2l-48 35q-5 3 -1 7l30 43l41 45q3 4 -2 6zM201 582h-2l2 -1v1zM256 581l2 1h-2v-1z" />
    <glyph glyph-name="plus" unicode="+" horiz-adv-x="613" 
d="M348 5q0 -5 -5 -5h-84q-5 0 -5 5v198q0 5 -5 5h-191q-5 0 -5 5v80q0 5 5 5h191q5 0 5 5v198q0 5 5 5h84q5 0 5 -5v-198q0 -5 5 -5h202q5 0 5 -5v-80q0 -5 -5 -5h-202q-5 0 -5 -5v-198z" />
    <glyph glyph-name="comma" unicode="," horiz-adv-x="251" 
d="M58 0q-5 0 -5 5v122q0 5 5 5h120q5 0 5 -5v-121q0 -57 -34.5 -93t-90.5 -36q-5 0 -5 5v55q0 5 5 5q15 0 32 13.5t17 39.5q0 5 -5 5h-44z" />
    <glyph glyph-name="hyphen" unicode="-" horiz-adv-x="568" 
d="M125 208q-5 0 -5 5v80q0 5 5 5h313q5 0 5 -5v-80q0 -5 -5 -5h-313z" />
    <glyph glyph-name="period" unicode="." horiz-adv-x="251" 
d="M58 0q-5 0 -5 5v122q0 5 5 5h120q5 0 5 -5v-122q0 -5 -5 -5h-120z" />
    <glyph glyph-name="slash" unicode="/" horiz-adv-x="505" 
d="M175 3q-2 -3 -5 -3h-74q-7 0 -5 7l233 694q1 3 5 3h75q7 0 5 -7z" />
    <glyph glyph-name="zero" unicode="0" horiz-adv-x="625" 
d="M582 352q0 -77 -13.5 -143.5t-44.5 -115.5t-82 -76.5t-127 -27.5t-127 27.5t-82.5 76.5t-45 115.5t-13.5 143.5t13.5 143.5t45 115t82.5 76t127 27.5t127 -27.5t82 -76t44.5 -115t13.5 -143.5zM482 352q0 133 -38 205t-129 72q-92 0 -129.5 -72t-37.5 -205
q0 -66 9 -117.5t28.5 -87.5t51.5 -54.5t78 -18.5t77.5 18.5t51.5 54.5t29 87.5t9 117.5z" />
    <glyph glyph-name="one" unicode="1" horiz-adv-x="378" 
d="M202 699q0 5 5 5h85q5 0 5 -5v-694q0 -5 -5 -5h-85q-5 0 -5 5v471q0 15 -10 22.5t-21 7.5h-153q-5 0 -5 5v70q0 5 5 5h124q25 0 42.5 16.5t17.5 41.5v55z" />
    <glyph glyph-name="two" unicode="2" horiz-adv-x="548" 
d="M35 75q0 2 1 6.5t3 6.5l278 271l22.5 22.5t28.5 33.5t24 41.5t10 45.5q0 19 -8 41.5t-24 41.5t-41 31.5t-60 12.5q-29 0 -52 -10t-40 -26.5t-26 -37.5t-9 -44q0 -5 -5 -5h-85q-5 0 -5 5q0 45 16.5 82.5t46.5 64t70.5 41.5t88.5 15q54 0 96.5 -17t71.5 -45.5t44.5 -67.5
t15.5 -82q0 -38 -12.5 -70t-30 -58t-36.5 -45.5t-32 -32.5l-220 -203q-2 -2 -1.5 -5t5.5 -3h322q5 0 5 -5v-75q0 -5 -5 -5h-452q-5 0 -5 5v70z" />
    <glyph glyph-name="three" unicode="3" horiz-adv-x="560" 
d="M223 400q0 5 5 5h35q57 0 92.5 31.5t35.5 79.5q0 22 -9 42.5t-25.5 36t-40.5 25t-53 9.5q-27 0 -50.5 -10.5t-40 -27t-25.5 -37.5t-9 -43q0 -5 -5 -5h-85q-5 0 -5 5q0 44 16 81t45.5 64t70 42.5t88.5 15.5q50 0 91 -15t70.5 -41.5t45.5 -63t16 -78.5q0 -35 -12 -61.5
t-28.5 -44.5t-33 -27.5t-25.5 -12.5q-5 -1 -5 -5t5 -5q13 -4 32.5 -16.5t38 -33.5t31.5 -51t13 -69q0 -44 -16.5 -80.5t-47 -63t-75 -41.5t-100.5 -15t-98 16t-70 43.5t-42.5 64t-14.5 76.5q0 5 5 5h85q5 0 5 -5q0 -20 8 -40.5t24 -37t40.5 -27t57.5 -10.5q31 0 57 9
t45.5 24.5t30.5 36.5t11 45q0 30 -11 54t-30.5 41t-46 26t-56.5 9h-35q-5 0 -5 5v75v0z" />
    <glyph glyph-name="four" unicode="4" horiz-adv-x="612" 
d="M469 704q5 0 5 -5v-448q0 -5 5 -5h111q5 0 5 -5v-75q0 -5 -5 -5h-111q-5 0 -5 -5v-151q0 -5 -5 -5h-85q-5 0 -5 5v151q0 5 -5 5h-329q-5 0 -5 5v70q0 8 1 10.5t2 4.5l332 448q2 4 5 4.5t5 0.5h84zM154 253q-2 -2 0 -4.5t5 -2.5h215q5 0 5 5v294q0 4 -4 4t-6 -3z" />
    <glyph glyph-name="five" unicode="5" horiz-adv-x="579" 
d="M109 697q1 7 7 7h375q5 0 5 -5v-75q0 -5 -5 -5h-294q-5 0 -5 -5q-2 -16 -5.5 -43.5t-7.5 -54.5q-4 -32 -9 -67q-1 -5 1.5 -5.5t6.5 2.5q5 4 16 11.5t26.5 14.5t35.5 12t44 5q55 0 100 -18t77 -50.5t49.5 -78t17.5 -100.5q0 -118 -63.5 -185t-180.5 -67q-69 0 -115.5 22
t-74.5 53.5t-40 66t-12 58.5q0 5 5 5h92q5 0 5 -5q0 -13 7 -32.5t23 -38t43 -31.5t67 -13q33 0 60 11.5t47 33t31 52.5t11 70q0 35 -11 65t-31 51.5t-47 33.5t-60 12q-53 0 -85.5 -16.5t-55.5 -52.5q-2 -2 -5.5 -3.5t-5.5 -1.5h-78q-5 0 -5 5z" />
    <glyph glyph-name="six" unicode="6" horiz-adv-x="588" 
d="M241 481q-2 -3 1 -6t6 -1q2 2 19 6.5t40 4.5q51 0 94.5 -17.5t75 -50t49.5 -78t18 -100.5q0 -54 -17 -100t-49 -79.5t-78.5 -52t-104.5 -18.5q-59 0 -105 18.5t-77.5 52t-48.5 79.5t-17 100q0 41 11 78t27 67l167 315q2 5 7 5h88q7 0 5 -5zM444 239q0 75 -36.5 120
t-112.5 45q-75 0 -111.5 -45t-36.5 -120t36.5 -120t111.5 -45q76 0 112.5 45t36.5 120z" />
    <glyph glyph-name="seven" unicode="7" horiz-adv-x="506" 
d="M478 632q0 -8 -0.5 -11t-2.5 -7l-228 -609q-2 -5 -6 -5h-92q-6 0 -4 5l236 609q2 5 -4 5h-349q-5 0 -5 5v75q0 5 5 5h445q5 0 5 -5v-67z" />
    <glyph glyph-name="eight" unicode="8" horiz-adv-x="591" 
d="M297 -10q-56 0 -100.5 15t-75 41.5t-47 63t-16.5 80.5q0 41 13 71t31.5 50.5t38 32.5t32.5 16q5 1 5 5t-5 5q-9 3 -25.5 12.5t-33 27.5t-28.5 44.5t-12 61.5q0 42 16 78.5t45.5 63t70.5 41.5t91 15t91 -15t70.5 -41.5t45.5 -63t16 -78.5q0 -35 -12 -61.5t-28.5 -44.5
t-33 -27.5t-25.5 -12.5q-5 -1 -5 -5t5 -5q13 -4 32.5 -16t38 -32.5t31.5 -50.5t13 -71q0 -44 -16.5 -80.5t-47 -63t-75 -41.5t-100.5 -15zM297 75q31 0 57 9t45.5 24.5t30.5 36.5t11 45q0 30 -11 54t-30.5 41t-46 26t-56.5 9t-56.5 -9t-46 -26t-30.5 -41t-11 -54
q0 -24 11 -45t30.5 -36.5t45.5 -24.5t57 -9zM425 516q0 22 -9 42.5t-25.5 36t-40.5 25t-53 9.5t-53 -9.5t-40.5 -25t-25.5 -36t-9 -42.5q0 -48 35.5 -79.5t92.5 -31.5t92.5 31.5t35.5 79.5z" />
    <glyph glyph-name="nine" unicode="9" horiz-adv-x="588" 
d="M350 222q2 3 -1 6t-6 1q-2 -2 -19 -6.5t-40 -4.5q-51 0 -94.5 17.5t-75 50t-49.5 77.5t-18 101q0 54 17 100t49 79.5t78 52t105 18.5q58 0 104.5 -18.5t78 -52t48.5 -79.5t17 -100q0 -41 -11 -78t-27 -67l-167 -315q-3 -5 -7 -5h-88q-2 0 -4.5 1t-0.5 4zM147 464
q0 -75 36.5 -120t112.5 -45q75 0 111.5 45t36.5 120t-36.5 120t-111.5 45q-76 0 -112.5 -45t-36.5 -120z" />
    <glyph glyph-name="colon" unicode=":" horiz-adv-x="251" 
d="M58 0q-5 0 -5 5v122q0 5 5 5h120q5 0 5 -5v-122q0 -5 -5 -5h-120zM58 374q-5 0 -5 5v122q0 5 5 5h120q5 0 5 -5v-122q0 -5 -5 -5h-120z" />
    <glyph glyph-name="semicolon" unicode=";" horiz-adv-x="251" 
d="M58 0q-5 0 -5 5v122q0 5 5 5h120q5 0 5 -5v-121q0 -57 -34.5 -93t-90.5 -36q-5 0 -5 5v55q0 5 5 5q15 0 32 13.5t17 39.5q0 5 -5 5h-44zM58 374q-5 0 -5 5v122q0 5 5 5h120q5 0 5 -5v-122q0 -5 -5 -5h-120z" />
    <glyph glyph-name="less" unicode="&#x3c;" horiz-adv-x="511" 
d="M16 307q0 3 3 5l448 193q7 3 7 -5v-78q0 -3 -3 -4l-372 -164q-2 -1 -2 -3t2 -3l372 -160q3 -2 3 -4v-78q0 -3 -2 -5t-5 0l-448 189q-3 1 -3 5v56v56z" />
    <glyph glyph-name="equal" unicode="=" horiz-adv-x="564" 
d="M58 101q-5 0 -5 5v80q0 5 5 5h448q5 0 5 -5v-80q0 -5 -5 -5h-448zM58 318q-5 0 -5 5v79q0 5 5 5h448q5 0 5 -5v-79q0 -5 -5 -5h-448z" />
    <glyph glyph-name="greater" unicode="&#x3e;" horiz-adv-x="511" 
d="M474 251v-56q0 -4 -3 -5l-448 -189q-3 -2 -5 0t-2 5v78q0 2 3 4l372 160q2 1 2 3t-2 3l-372 164q-3 1 -3 4v78q0 8 7 5l448 -193q3 -2 3 -5v-56z" />
    <glyph glyph-name="question" unicode="?" horiz-adv-x="511" 
d="M25 521q0 42 16 77.5t45.5 61t70 40t89.5 14.5q54 0 97.5 -16t73.5 -44t46.5 -65.5t16.5 -79.5q0 -43 -13 -73t-35 -52t-51.5 -39t-62.5 -34q-10 -5 -13 -10t-5 -16v-71q0 -5 -5 -5h-85q-5 0 -5 5v79q0 66 72 96q36 15 57.5 29.5t33 29t15 29.5t3.5 32q0 21 -9 42.5
t-26.5 39t-43.5 28t-61 10.5q-30 0 -53.5 -9t-39.5 -24t-24.5 -34.5t-8.5 -40.5v-10q0 -5 -5 -5h-85q-5 0 -5 5v10zM192 0q-5 0 -5 5v122q0 5 5 5h120q5 0 5 -5v-122q0 -5 -5 -5h-120z" />
    <glyph glyph-name="at" unicode="@" horiz-adv-x="986" 
d="M430 -208q-99 0 -178 36t-131 101t-71 155.5t2 199.5q18 106 65.5 186.5t115.5 134.5t152 81.5t176 27.5q83 0 158.5 -30t128.5 -87.5t76.5 -142.5t2.5 -195q-14 -75 -41.5 -126.5t-61.5 -83t-69 -45.5t-64 -14q-21 0 -36.5 9t-25.5 21.5t-15.5 25.5t-6.5 21q-1 2 -3.5 3
t-4.5 -2q-31 -40 -78 -59t-92 -19q-59 0 -100.5 19.5t-66.5 54t-32.5 83t2.5 106.5q11 66 38 115.5t66 82t87.5 49t103.5 16.5q25 0 45.5 -6.5t35.5 -15.5t24.5 -18.5t13.5 -15.5q2 -4 5.5 -3t5.5 5l14 39q2 5 8 5h74q6 0 4 -5l-78 -380q-2 -7 -1 -15.5t5 -16t11.5 -12.5
t20.5 -5q24 0 47 14.5t43 41t35.5 63.5t24.5 83q18 94 -1 165t-65 119t-114 72.5t-149 24.5q-97 0 -170.5 -34t-125.5 -89.5t-83 -125.5t-44 -141q-14 -78 -0.5 -152t54 -131.5t109 -92.5t164.5 -35q35 0 74.5 7t79 19t77 27.5t68.5 32.5q5 3 5 -3v1l-13 -63q-2 -6 -5 -8
q-21 -14 -53 -27.5t-71.5 -24t-83.5 -17t-88 -6.5zM326 253q-16 -81 11 -131t100 -50t117.5 50t60.5 131q17 91 -8.5 136t-98.5 45q-36 0 -66 -13t-53.5 -37t-39 -57.5t-23.5 -73.5z" />
    <glyph glyph-name="A" unicode="A" horiz-adv-x="682" 
d="M404 704q4 0 6 -5l233 -694q2 -5 -5 -5h-94q-3 0 -5 5l-46 143q-1 5 -7 5h-290q-4 0 -6 -5l-47 -143q-2 -5 -5 -5h-93q-7 0 -6 5l236 694q2 5 6 5h123zM460 233q6 0 4 5l-117 366q-2 5 -5 5t-5 -5l-118 -366q-2 -5 4 -5h237z" />
    <glyph glyph-name="B" unicode="B" horiz-adv-x="645" 
d="M68 699q0 5 5 5h333q41 0 75 -16t58 -43t37.5 -63.5t13.5 -77.5q0 -25 -7 -46t-18 -38t-25 -29t-29 -18q-4 -2 -4 -5t4 -5q18 -7 35 -23.5t30.5 -39t21.5 -48.5t8 -52q0 -45 -15.5 -81.5t-42.5 -63t-64.5 -41t-82.5 -14.5h-328q-5 0 -5 5v694zM168 320q-5 0 -5 -5v-225
q0 -5 5 -5h219q27 0 50 9.5t39.5 25.5t25.5 36.5t9 43.5q0 22 -9.5 43.5t-25 38.5t-37 27.5t-45.5 10.5h-226zM495 504q0 22 -7 43t-20.5 37.5t-33.5 26t-47 9.5h-219q-5 0 -5 -5v-205q0 -5 5 -5h219q19 1 38.5 8.5t35 20t25 30.5t9.5 40z" />
    <glyph glyph-name="C" unicode="C" horiz-adv-x="683" 
d="M551 215q1 5 7 5h88q5 0 5 -5q0 -25 -15.5 -63t-50 -74t-89.5 -62t-133 -26q-83 0 -142.5 26.5t-98 74.5t-57 114.5t-18.5 146.5q0 79 21 145.5t61.5 114.5t99.5 75t134 27q82 0 137 -27.5t88.5 -64.5t48 -74.5t14.5 -58.5q0 -5 -5 -5h-88q-5 0 -7 5q-6 16 -17.5 40
t-33 46t-55 38t-82.5 16q-105 0 -160.5 -73.5t-55.5 -203.5t55.5 -203.5t160.5 -73.5q45 0 77.5 14.5t55 35.5t36 45.5t19.5 44.5z" />
    <glyph glyph-name="D" unicode="D" horiz-adv-x="688" 
d="M64 699q0 5 5 5h258q79 0 137.5 -27t97.5 -74.5t58.5 -113t19.5 -144.5q0 -80 -19.5 -143.5t-58.5 -108.5t-97.5 -69t-137.5 -24h-258q-5 0 -5 5v694zM164 619q-5 0 -5 -5v-524q0 -5 5 -5h163q101 0 157 66t56 194q0 63 -14.5 113.5t-42 86t-67 55t-89.5 19.5h-163z" />
    <glyph glyph-name="E" unicode="E" horiz-adv-x="612" 
d="M63 699q0 5 5 5h481q5 0 5 -5v-75q0 -5 -5 -5h-386q-5 0 -5 -5v-204q0 -5 5 -5h345q5 0 5 -5v-75q0 -5 -5 -5h-345q-5 0 -5 -5v-225q0 -5 5 -5h386q5 0 5 -5v-75q0 -5 -5 -5h-481q-5 0 -5 5v694v0z" />
    <glyph glyph-name="F" unicode="F" horiz-adv-x="542" 
d="M69 699q0 5 5 5h445q5 0 5 -5v-75q0 -5 -5 -5h-350q-5 0 -5 -5v-204q0 -5 5 -5h309q5 0 5 -5v-75q0 -5 -5 -5h-309q-5 0 -5 -5v-310q0 -5 -5 -5h-85q-5 0 -5 5v694v0z" />
    <glyph glyph-name="G" unicode="G" horiz-adv-x="723" 
d="M660 5q0 -5 -5 -5h-73q-6 0 -7 6l-10 70q0 3 -3.5 4t-5.5 -2q-12 -16 -32.5 -31.5t-48 -28t-60 -20.5t-66.5 -8q-83 0 -142.5 26.5t-98 74.5t-57 114.5t-18.5 146.5q0 79 21 145.5t61.5 114.5t99.5 75t134 27q67 0 116 -17.5t83 -46t55 -65t32 -74.5q1 -5 -5 -5h-93
q-5 0 -6 5q-23 59 -71 88.5t-111 29.5q-105 0 -160.5 -73.5t-55.5 -203.5t55.5 -203.5t160.5 -73.5q106 0 161 54.5t55 175.5q0 5 -5 5h-206q-5 0 -5 5v75q0 5 5 5h301q5 0 5 -5v-385v0z" />
    <glyph glyph-name="H" unicode="H" horiz-adv-x="658" 
d="M575 704q5 0 5 -5v-694q0 -5 -5 -5h-85q-5 0 -5 5v310q0 5 -5 5h-317q-5 0 -5 -4v-311q0 -5 -5 -5h-85q-5 0 -5 5v694q0 5 5 5h85q5 0 5 -5v-289q0 -5 5 -5h317q5 0 5 5v289q0 5 5 5h85z" />
    <glyph glyph-name="I" unicode="I" horiz-adv-x="236" 
d="M153 704q5 0 5 -5v-694q0 -5 -5 -5h-85q-5 0 -5 5v694q0 5 5 5h85z" />
    <glyph glyph-name="J" unicode="J" horiz-adv-x="462" 
d="M92 220q5 0 5 -5v-17q0 -21 3 -43t13.5 -39.5t31 -29t56.5 -11.5q35 0 56 11.5t31.5 29t13.5 39.5t3 43v501q0 5 5 5h85q5 0 5 -5v-501q0 -43 -9 -81t-31.5 -66t-61 -44.5t-98.5 -16.5q-55 0 -93 16.5t-61 44.5t-33.5 66t-10.5 81v17q0 5 5 5h85z" />
    <glyph glyph-name="K" unicode="K" horiz-adv-x="623" 
d="M263 358q-2 4 -6 0l-90 -89q-4 -4 -4 -8v-256q0 -5 -5 -5h-85q-5 0 -5 5v694q0 5 5 5h85q5 0 5 -5v-299q0 -6 4 -2l307 301q5 5 8 5h114q2 0 3.5 -1.5t-0.5 -3.5l-269 -267q-3 -3 0 -8l275 -419q2 -2 0.5 -3.5t-3.5 -1.5h-99q-3 0 -8 5z" />
    <glyph glyph-name="L" unicode="L" horiz-adv-x="541" 
d="M69 699q0 5 5 5h85q5 0 5 -5v-609q0 -5 5 -5h350q5 0 5 -5v-75q0 -5 -5 -5h-445q-5 0 -5 5v694z" />
    <glyph glyph-name="M" unicode="M" horiz-adv-x="855" 
d="M603 699q2 5 7 5h162q5 0 5 -5v-694q0 -5 -5 -5h-85q-5 0 -5 5v599q0 5 -4.5 5t-5.5 -4l-176 -600q-2 -5 -8 -5h-136q-6 0 -8 5l-176 600q-2 5 -6 4.5t-4 -5.5v-599q0 -5 -5 -5h-85q-5 0 -5 5v694q0 5 5 5h162q4 0 7 -5l178 -600q2 -4 5 -4t5 4z" />
    <glyph glyph-name="N" unicode="N" horiz-adv-x="709" 
d="M626 704q5 0 5 -5v-694q0 -5 -5 -5h-147q-5 0 -8 5l-303 601q-2 3 -6 3t-4 -5v-599q0 -5 -5 -5h-85q-5 0 -5 5v694q0 5 5 5h148q4 0 7 -5l303 -600q2 -5 6 -4.5t4 5.5v599q0 5 5 5h85z" />
    <glyph glyph-name="O" unicode="O" horiz-adv-x="712" 
d="M664 352q0 -80 -19.5 -146.5t-59 -114.5t-98.5 -74.5t-138 -26.5t-138 26.5t-98.5 74.5t-59.5 114.5t-20 146.5q0 79 20 145.5t59.5 114.5t98.5 75t138 27t138 -27t98.5 -75t59 -114.5t19.5 -145.5zM349 75q105 0 160.5 73.5t55.5 203.5t-55.5 203.5t-160.5 73.5
t-160.5 -73.5t-55.5 -203.5t55.5 -203.5t160.5 -73.5z" />
    <glyph glyph-name="P" unicode="P" horiz-adv-x="602" 
d="M73 699q0 5 5 5h292q41 0 78 -16.5t65 -45.5t44.5 -68t16.5 -84t-16.5 -83t-44.5 -66.5t-65 -44.5t-78 -16h-197q-5 0 -5 -5v-270q0 -5 -5 -5h-85q-5 0 -5 5v694zM173 619q-5 0 -5 -5v-244q0 -5 5 -5h185q24 0 45.5 10t38.5 27t27 39.5t10 48.5t-10 49.5t-27 41t-38.5 28
t-45.5 10.5h-185z" />
    <glyph glyph-name="Q" unicode="Q" horiz-adv-x="731" 
d="M530 28q-2 2 -6 0q-68 -38 -161 -38q-79 0 -138 26.5t-98.5 74.5t-59.5 114.5t-20 146.5q0 79 20 145.5t59.5 114.5t98.5 75t138 27t138 -27t98.5 -75t59 -114.5t19.5 -145.5q0 -85 -22 -154t-67 -118q-4 -4 0 -7l109 -108q5 -5 -2 -5h-94q-3 0 -8 5zM516 146q3 -3 5 0
q30 38 44 89t14 117q0 130 -55.5 203.5t-160.5 73.5t-160.5 -73.5t-55.5 -203.5t55.5 -203.5t160.5 -73.5q54 0 93 19q5 2 0 7l-105 103q-2 2 -1 3.5t3 1.5h96q2 0 4 -1.5t4 -3.5z" />
    <glyph glyph-name="R" unicode="R" horiz-adv-x="609" 
d="M73 699q0 5 5 5h292q41 0 78 -16.5t65 -45.5t44.5 -68t16.5 -84q0 -66 -33.5 -116.5t-85.5 -74.5q-4 -2 -2 -7l128 -287q2 -5 -5 -5h-83q-2 0 -5 0.5t-5 4.5l-120 270q-2 5 -7 5h-183q-5 0 -5 -5v-270q0 -5 -5 -5h-85q-5 0 -5 5v694zM173 619q-5 0 -5 -5v-244q0 -5 5 -5
h189q23 1 44 11t37.5 27t26 39t9.5 48t-10 49.5t-27 41t-38.5 28t-45.5 10.5h-185z" />
    <glyph glyph-name="S" unicode="S" horiz-adv-x="610" 
d="M441 511q0 25 -11 46.5t-31 37.5t-48 25t-61 9q-30 0 -56 -8.5t-45.5 -24t-31 -37t-11.5 -46.5q0 -31 14.5 -49.5t37 -29.5t50 -16t53.5 -8q49 -6 97 -16.5t85.5 -33t61 -61.5t23.5 -101q0 -38 -14.5 -75t-46.5 -66.5t-82.5 -48t-123.5 -18.5q-65 0 -115 16.5t-83.5 44.5
t-51 64.5t-17.5 77.5q0 5 5 5h89q6 0 6 -6q0 -19 10 -39.5t31 -38t52.5 -28.5t73.5 -11q40 0 71 10t52.5 27t32.5 39t11 47q0 34 -14 55t-37 34t-53 19t-63 9q-42 4 -87 14t-82.5 31.5t-61.5 58t-24 94.5q0 48 21 85.5t55.5 63t78 39t89.5 13.5q48 0 92 -12.5t78.5 -37.5
t56.5 -63.5t24 -89.5q0 -5 -5 -5h-90q-5 0 -5 5z" />
    <glyph glyph-name="T" unicode="T" horiz-adv-x="542" 
d="M216 615q-2 4 -5 4h-193q-5 0 -5 5v75q0 5 5 5h491q5 0 5 -5v-75q0 -5 -5 -5h-193q-5 0 -5 -5v-609q0 -5 -5 -5h-85q-5 0 -5 5v610z" />
    <glyph glyph-name="U" unicode="U" horiz-adv-x="621" 
d="M148 239q0 -32 12.5 -61.5t33.5 -52.5t49.5 -36.5t60.5 -13.5t60 13.5t49 36.5t33 52.5t12 61.5v460q0 5 5 5h85q5 0 5 -5v-460q0 -52 -19.5 -97.5t-53 -79t-79 -53t-97.5 -19.5t-98 19.5t-80 53t-53.5 79t-19.5 97.5v460q0 5 5 5h85q5 0 5 -5v-460z" />
    <glyph glyph-name="V" unicode="V" horiz-adv-x="685" 
d="M281 0q-4 0 -6 5l-236 694q-1 5 6 5h93q3 0 5 -5l196 -600q2 -4 5 -4t5 4l193 600q2 5 5 5h94q7 0 5 -5l-233 -694q-2 -5 -5 -5h-127z" />
    <glyph glyph-name="W" unicode="W" horiz-adv-x="948" 
d="M687 100q1 -5 5 -5t5 5l110 599q2 5 5 5h91q7 0 6 -5l-138 -694q-2 -5 -6 -5h-152q-3 0 -5 5l-129 598q-1 4 -5 4t-5 -4l-129 -598q-2 -5 -5 -5h-152q-4 0 -6 5l-138 694q-1 5 6 5h91q3 0 5 -5l110 -599q1 -5 5 -5t5 5l124 599q2 5 5 5h168q3 0 5 -5z" />
    <glyph glyph-name="X" unicode="X" horiz-adv-x="646" 
d="M506 0q-4 0 -7 5l-172 264q-5 7 -10 0q-20 -31 -49 -75.5t-56 -86.5q-32 -49 -66 -102q-3 -5 -8 -5h-101q-6 0 -3 5l230 343q3 4 0 8l-230 343q-3 5 3 5h101q5 0 8 -5l171 -264q5 -7 10 0l172 264q4 5 10 5h99q6 0 3 -5l-230 -343q-3 -4 0 -8l230 -343q3 -5 -3 -5h-102z
" />
    <glyph glyph-name="Y" unicode="Y" horiz-adv-x="659" 
d="M381 313q-2 -4 -2.5 -6t-0.5 -4v-298q0 -5 -5 -5h-85q-5 0 -5 5v298q0 2 -5 10l-236 386q-3 5 3 5h101q5 0 8 -5l171 -285q5 -7 10 0l172 285q4 5 10 5h99q6 0 3 -5z" />
    <glyph glyph-name="Z" unicode="Z" horiz-adv-x="565" 
d="M25 75q0 8 0.5 9.5t2.5 3.5l381 525q4 6 -2 6h-377q-5 0 -5 5v75q0 5 5 5h490q5 0 5 -5v-70v-9.5t-2 -3.5l-383 -526q-3 -5 2 -5h378q5 0 5 -5v-75q0 -5 -5 -5h-490q-5 0 -5 5v70z" />
    <glyph glyph-name="bracketleft" unicode="[" horiz-adv-x="319" 
d="M286 -138q5 0 5 -4v-51q0 -5 -5 -5h-228q-5 0 -5 5v892q0 5 5 5h228q5 0 5 -5v-51q0 -4 -5 -4h-158q-5 0 -5 -5v-772q0 -5 5 -5h158z" />
    <glyph glyph-name="backslash" unicode="\" horiz-adv-x="505" 
d="M91 697q-2 7 5 7h75q3 0 5 -3l233 -694q2 -7 -5 -7h-74q-4 0 -5 3z" />
    <glyph glyph-name="bracketright" unicode="]" horiz-adv-x="319" 
d="M216 -138q5 0 5 5v772q0 5 -5 5h-158q-5 0 -5 4v51q0 5 5 5h228q5 0 5 -5v-892q0 -5 -5 -5h-228q-5 0 -5 5v51q0 4 5 4h158z" />
    <glyph glyph-name="asciicircum" unicode="^" horiz-adv-x="511" 
d="M369 360q-4 0 -5 3l-106 230q-2 4 -5 4t-5 -4l-106 -230q-2 -3 -5 -3h-90q-3 0 -5 2t0 5l149 332q2 5 7 5h110q5 0 7 -5l149 -332q3 -7 -5 -7h-90z" />
    <glyph glyph-name="underscore" unicode="_" horiz-adv-x="632" 
d="M65 0q-5 0 -5 5v75q0 5 5 5h497q5 0 5 -5v-75q0 -5 -5 -5h-497z" />
    <glyph glyph-name="grave" unicode="`" horiz-adv-x="242" 
d="M129 589q-4 0 -6.5 2.5l-4.5 4.5l-72 101q-2 3 0 5t5 2h87q8 0 10 -7l43 -101q3 -7 -5 -7h-57z" />
    <glyph glyph-name="a" unicode="a" horiz-adv-x="601" 
d="M571 5q0 -5 -5 -5h-36q-77 -1 -99 46q-2 4 -4.5 4t-4.5 -2q-18 -19 -63 -38.5t-114 -19.5q-101 0 -151 44t-50 116q0 33 13.5 60.5t41 48t69 32t96.5 11.5h112q25 0 29 8.5t4 22.5q0 15 -3.5 32.5t-16.5 32t-38.5 24t-70.5 9.5q-65 0 -93.5 -26.5t-28.5 -64.5q0 -5 -5 -5
h-86q-5 0 -5 5q0 44 18 77t48.5 55t70 33t81.5 11q104 0 164 -46.5t60 -138.5v-196q0 -23 7 -36.5t36 -13.5h19q5 0 5 -5v-75zM409 222q0 5 -5 5h-140q-40 -2 -64.5 -9.5t-38 -18t-18 -23.5t-4.5 -26q0 -14 5 -27t17.5 -24t32.5 -17.5t50 -6.5q45 0 76.5 12t51 31.5t28 43
t9.5 46.5v14z" />
    <glyph glyph-name="b" unicode="b" horiz-adv-x="608" 
d="M78 0q-5 0 -5 5v694q0 5 5 5h85q5 0 5 -5v-238q0 -3 3 -5t7 3t17.5 14.5t32.5 19t43 16.5t50 7q55 0 99 -19t75 -54t47.5 -83.5t16.5 -106.5q0 -59 -16.5 -107t-47.5 -83t-75 -54t-99 -19q-19 0 -40 5t-40.5 13.5t-36 18.5t-26.5 20q-2 2 -5 2.5t-5 -4.5l-10 -40
q-2 -5 -5 -5h-75zM464 253q0 39 -10.5 71.5t-30 56.5t-48 37t-64.5 13q-34 0 -60.5 -13t-45 -37t-28 -56.5t-9.5 -71.5t9.5 -71.5t28 -56.5t45 -37t60.5 -13q36 0 64.5 13t48 37t30 56.5t10.5 71.5z" />
    <glyph glyph-name="c" unicode="c" horiz-adv-x="568" 
d="M435 335q-4 0 -6 5q-34 91 -138 91q-36 0 -64 -13t-47.5 -37t-30 -56.5t-10.5 -71.5t10.5 -71.5t30 -56.5t47.5 -37t64 -13q104 0 138 91q2 5 6 5h89q6 0 5 -5q-21 -84 -81.5 -130t-156.5 -46q-59 0 -105 19t-77.5 54t-48 83t-16.5 107t16.5 107.5t48 83t77.5 53.5
t105 19q96 0 157 -46.5t81 -129.5q1 -5 -5 -5h-89z" />
    <glyph glyph-name="d" unicode="d" horiz-adv-x="597" 
d="M439 0q-3 0 -5 5l-10 40q-2 5 -5 4.5t-5 -2.5q-10 -10 -26.5 -20t-36 -18.5t-40.5 -13.5t-40 -5q-55 0 -99 19t-75 54t-47.5 83t-16.5 107q0 58 16.5 106.5t47.5 83.5t75 54t99 19q26 0 50 -7t43 -16.5t32 -19t18 -14.5q4 -5 7 -3t3 5v238q0 5 5 5h85q5 0 5 -5v-694
q0 -5 -5 -5h-75zM128 253q0 -39 10.5 -71.5t30 -56.5t48 -37t64.5 -13q34 0 60.5 13t45 37t28 56.5t9.5 71.5t-9.5 71.5t-28 56.5t-45 37t-60.5 13q-36 0 -64.5 -13t-48 -37t-30 -56.5t-10.5 -71.5z" />
    <glyph glyph-name="e" unicode="e" horiz-adv-x="580" 
d="M150 219q-5 0 -5 -5q0 -27 9.5 -52.5t28 -44.5t45 -30.5t59.5 -11.5q54 0 82.5 20t44.5 50q2 5 7 5h89q6 0 5 -5q-20 -74 -81.5 -114.5t-146.5 -40.5q-56 0 -101 19t-76.5 54t-48.5 83t-17 107t16 107.5t47 83t76.5 53.5t103.5 19t103.5 -19t77 -54t47.5 -83.5t16 -106.5
q0 -17 -3 -29q-2 -5 -5 -5h-373zM427 299q0 21 -8 44.5t-25 43t-43.5 32t-63.5 12.5q-36 0 -63 -14t-44.5 -34.5t-26 -43t-8.5 -40.5q0 -5 5 -5h272q5 0 5 5z" />
    <glyph glyph-name="f" unicode="f" horiz-adv-x="345" 
d="M326 624q0 -5 -5 -5h-66q-23 0 -35 -13.5t-12 -36.5v-58q0 -5 5 -5h108q5 0 5 -5v-65q0 -5 -5 -5h-108q-5 0 -5 -5v-421q0 -5 -5 -5h-85q-5 0 -5 5v421q0 5 -5 5h-89q-5 0 -5 5v65q0 5 5 5h89q5 0 5 5v75q0 121 141 118h67q5 0 5 -5v-75z" />
    <glyph glyph-name="g" unicode="g" horiz-adv-x="568" 
d="M154 -59q3 -9 11.5 -20t24 -20.5t38 -16.5t53.5 -7q39 0 66.5 12.5t44 32.5t24 45.5t7.5 51.5v27q0 3 -3.5 5t-6.5 -3q-4 -5 -17 -15t-32.5 -19.5t-43.5 -16.5t-50 -7q-51 0 -94.5 19t-75.5 54t-50 83t-18 107q0 58 16.5 106.5t47.5 83.5t75 54t99 19q19 0 39.5 -5
t40 -12.5t36 -18t27.5 -20.5q2 -2 5 -3t5 4l10 40q2 5 5 5h75q5 0 5 -5v-482q0 -51 -17 -92.5t-48.5 -71.5t-75 -46.5t-96.5 -16.5q-46 0 -85.5 12t-69.5 32.5t-48 47.5t-21 57q0 5 5 5h87q3 0 5 -5zM127 253q0 -39 10.5 -71.5t30 -56.5t48 -37t64.5 -13q34 0 60.5 13t45 37
t28 56.5t9.5 71.5t-9.5 71.5t-28 56.5t-45 37t-60.5 13q-36 0 -64.5 -13t-48 -37t-30 -56.5t-10.5 -71.5z" />
    <glyph glyph-name="h" unicode="h" horiz-adv-x="568" 
d="M150 704q5 0 5 -5v-242q0 -4 4 -5t7 3q23 29 57.5 45t73.5 16q58 0 99.5 -18.5t67.5 -50.5t38.5 -75t12.5 -92v-275q0 -5 -5 -5h-85q-5 0 -5 5v275q0 28 -7 55.5t-22.5 48.5t-41 34t-62.5 13q-32 0 -56.5 -12.5t-41 -33.5t-25.5 -48.5t-9 -56.5v-275q0 -5 -5 -5h-85
q-5 0 -5 5v694q0 5 5 5h85z" />
    <glyph glyph-name="i" unicode="i" horiz-adv-x="246" 
d="M168 5q0 -5 -5 -5h-85q-5 0 -5 5v496q0 5 5 5h85q5 0 5 -5v-496zM178 594q0 -5 -5 -5h-105q-5 0 -5 5v105q0 5 5 5h105q5 0 5 -5v-105z" />
    <glyph glyph-name="j" unicode="j" horiz-adv-x="300" 
d="M236 594q0 -5 -5 -5h-105q-5 0 -5 5v105q0 5 5 5h105q5 0 5 -5v-105zM13 -118q0 5 5 5h59q30 0 42 13.5t12 36.5v564q0 5 5 5h85q5 0 5 -5v-581q0 -62 -34 -91t-97 -27h-77q-5 0 -5 5v75z" />
    <glyph glyph-name="k" unicode="k" horiz-adv-x="568" 
d="M451 0q-6 0 -9 5l-159 273q-3 4 -7 0l-114 -98q-2 -2 -2 -6v-169q0 -5 -5 -5h-85q-5 0 -5 5v694q0 5 5 5h85q5 0 5 -5v-392q0 -2 2.5 -3t4.5 1l230 196q5 4 9 4.5t6 0.5h123q2 0 3.5 -1.5t-0.5 -3.5l-186 -158q-3 -3 0 -8l193 -330q2 -5 -4 -5h-90z" />
    <glyph glyph-name="l" unicode="l" horiz-adv-x="240" 
d="M163 5q0 -5 -5 -5h-85q-5 0 -5 5v694q0 5 5 5h85q5 0 5 -5v-694z" />
    <glyph glyph-name="m" unicode="m" horiz-adv-x="872" 
d="M143 506q3 0 5 -5l10 -45q2 -5 6 -4t6 4q14 27 48 43.5t71 16.5q26 0 45.5 -3t35.5 -10t31 -18.5t33 -28.5q4 -3 6 -3.5t6 3.5q14 16 32.5 27.5t39 19t41 10.5t38.5 3q98 0 147.5 -61.5t49.5 -174.5v-275q0 -5 -5 -5h-85q-5 0 -5 5v275q0 28 -3.5 55.5t-15.5 48.5t-34 34
t-59 13q-35 0 -57 -12.5t-34 -33.5t-16 -48.5t-4 -56.5v-275q0 -2 -2 -4q-1 -1 -3 -1h-85h-1q-3 0 -3 2q-1 1 -1 3v275q0 29 -4 56.5t-16 48.5t-34 33.5t-58 12.5q-32 0 -53 -12.5t-34 -33.5t-18.5 -48.5t-5.5 -56.5v-275q0 -5 -5 -5h-85q-5 0 -5 5v496q0 5 5 5h75z" />
    <glyph glyph-name="n" unicode="n" horiz-adv-x="573" 
d="M140 506q3 0 5 -5l10 -45q2 -5 5.5 -4t5.5 3q16 22 48 41.5t83 19.5q54 0 95 -18.5t68.5 -50.5t41 -75t13.5 -92v-275q0 -5 -5 -5h-85q-5 0 -5 5v275q0 28 -7 55.5t-22.5 48.5t-41 34t-62.5 13q-32 0 -56.5 -12.5t-41 -33.5t-25.5 -48.5t-9 -56.5v-275q0 -5 -5 -5h-85
q-5 0 -5 5v496q0 5 5 5h75z" />
    <glyph glyph-name="o" unicode="o" horiz-adv-x="589" 
d="M540 253q0 -59 -17 -107t-48.5 -83t-78 -54t-104.5 -19q-59 0 -105 19t-78 54t-48.5 83t-16.5 107t16.5 107.5t48.5 83t78 53.5t105 19q58 0 104.5 -19t78 -54t48.5 -83.5t17 -106.5zM445 253q0 39 -10.5 71.5t-30 56.5t-48 37t-64.5 13t-64 -13t-48 -37t-30.5 -56.5
t-10.5 -71.5t10.5 -71.5t30.5 -56.5t48 -37t64 -13t64.5 13t48 37t30 56.5t10.5 71.5z" />
    <glyph glyph-name="p" unicode="p" horiz-adv-x="597" 
d="M143 506q3 0 5 -5l10 -41q2 -5 5 -4t5 3q10 11 26.5 21t36 18t40.5 13t40 5q55 0 99 -19t75 -54t47.5 -83.5t16.5 -106.5q0 -59 -16.5 -107t-47.5 -83t-75 -54t-99 -19q-26 0 -50 7t-43 16.5t-32.5 19t-17.5 14.5t-7 3t-3 -5v-238q0 -5 -5 -5h-85q-5 0 -5 5v694q0 5 5 5
h75zM454 253q0 39 -10.5 71.5t-30 56.5t-48 37t-64.5 13q-34 0 -60.5 -13t-45 -37t-28 -56.5t-9.5 -71.5t9.5 -71.5t28 -56.5t45 -37t60.5 -13q36 0 64.5 13t48 37t30 56.5t10.5 71.5z" />
    <glyph glyph-name="q" unicode="q" horiz-adv-x="597" 
d="M514 506q5 0 5 -5v-694q0 -5 -5 -5h-85q-5 0 -5 5v238q0 3 -3 5t-7 -3q-5 -5 -18 -14.5t-32 -19t-43 -16.5t-50 -7q-55 0 -99 19t-75 54t-47.5 83t-16.5 107q0 58 16.5 106.5t47.5 83.5t75 54t99 19q19 0 40 -5t40.5 -13t36 -18t26.5 -21q2 -2 5 -3t5 4l10 41q2 5 5 5h75
zM128 253q0 -39 10.5 -71.5t30 -56.5t48 -37t64.5 -13q34 0 60.5 13t45 37t28 56.5t9.5 71.5t-9.5 71.5t-28 56.5t-45 37t-60.5 13q-36 0 -64.5 -13t-48 -37t-30 -56.5t-10.5 -71.5z" />
    <glyph glyph-name="r" unicode="r" horiz-adv-x="374" 
d="M290 431q-32 0 -56.5 -12.5t-41 -33.5t-25.5 -48.5t-9 -56.5v-275q0 -5 -5 -5h-85q-5 0 -5 5v496q0 5 5 5h75q3 0 5 -5l10 -45q2 -5 5.5 -4t5.5 3q26 26 54.5 43.5t66.5 17.5h51q5 0 5 -5v-75q0 -5 -5 -5h-51z" />
    <glyph glyph-name="s" unicode="s" horiz-adv-x="536" 
d="M382 335q-5 0 -5 5q0 42 -32 66.5t-93 24.5q-57 0 -82.5 -20.5t-25.5 -43.5q0 -21 12 -33t30 -18t39.5 -8.5t40.5 -5.5q37 -5 76.5 -11t71 -21t52 -43t20.5 -76q0 -43 -17 -73.5t-46.5 -50t-69.5 -28.5t-87 -9q-57 0 -99.5 14t-70.5 38t-42 56t-14 68q0 5 5 5h84
q6 0 6 -5q0 -38 35.5 -64.5t95.5 -26.5q19 0 41 2.5t40.5 11t31 23.5t12.5 39q0 21 -13.5 33.5t-33 19t-41 9t-37.5 4.5q-36 4 -74.5 10.5t-70 22t-52 43t-20.5 74.5q0 31 14.5 58t40.5 47t63.5 32t84.5 12q46 0 86 -11t70 -33t47 -55t17 -77q0 -5 -4 -5h-86z" />
    <glyph glyph-name="t" unicode="t" horiz-adv-x="355" 
d="M326 5q0 -5 -5 -5h-77q-63 -2 -97 27t-34 91v308q0 5 -5 5h-89q-5 0 -5 5v65q0 5 5 5h89q5 0 5 5v135q0 5 5 5h85q5 0 5 -5v-135q0 -5 5 -5h108q5 0 5 -5v-65q0 -5 -5 -5h-108q-5 0 -5 -5v-291q0 -23 12 -36.5t42 -13.5h59q5 0 5 -5v-75z" />
    <glyph glyph-name="u" unicode="u" horiz-adv-x="559" 
d="M423 0q-3 0 -5 5l-10 45q-2 5 -5.5 4t-5.5 -3q-7 -10 -19 -20.5t-29 -19.5t-38 -15t-45 -6q-62 0 -103.5 18.5t-67 50.5t-36.5 75t-11 92v275q0 5 5 5h85q5 0 5 -5v-275q0 -29 7 -56t22.5 -48t41 -34t62.5 -13q31 0 56 12.5t41.5 33.5t25.5 48.5t9 56.5v275q0 5 5 5h85
q5 0 5 -5v-496q0 -5 -5 -5h-75z" />
    <glyph glyph-name="v" unicode="v" horiz-adv-x="568" 
d="M213 0q-4 0 -6 5l-169 496q-1 5 6 5h91q3 0 5 -5l131 -402q2 -4 5 -4t5 4l132 402q2 5 5 5h91q7 0 5 -5l-169 -496q-2 -5 -5 -5h-127z" />
    <glyph glyph-name="w" unicode="w" horiz-adv-x="810" 
d="M518 0q-3 0 -5 5l-97 399q-1 4 -5 4t-5 -4l-96 -399q-2 -5 -5 -5h-127q-4 0 -6 5l-119 496q-1 5 6 5h85q3 0 5 -5l87 -402q1 -4 5 -4t5 4l99 402q2 5 5 5h123q3 0 5 -5l99 -402q1 -4 5 -4t5 4l87 402q2 5 5 5h85q7 0 6 -5l-119 -496q-2 -5 -6 -5h-127z" />
    <glyph glyph-name="x" unicode="x" horiz-adv-x="533" 
d="M405 0q-5 0 -8 5l-126 168q-4 4 -8 0l-127 -168q-4 -5 -8 -5h-99q-2 0 -3 1.5t1 3.5l181 240q3 5 0 10l-181 246q-3 5 2 5h96q4 0 8 -5l129 -173q5 -7 10 0l129 173q3 5 8 5h96q6 0 3 -5l-183 -246q-3 -5 0 -10l183 -240q5 -5 -2 -5h-101z" />
    <glyph glyph-name="y" unicode="y" horiz-adv-x="541" 
d="M37 -118q0 5 5 5h113q45 0 59 25.5t0 65.5l-9 27l-169 496q-1 5 6 5h91q3 0 5 -5l131 -402q2 -4 5 -4t5 4l132 402q2 5 5 5h91q7 0 5 -5l-171 -501l-29 -87q-11 -30 -23 -51.5t-27.5 -34.5t-37.5 -19t-52 -6h-130q-5 0 -5 5v75v0z" />
    <glyph glyph-name="z" unicode="z" horiz-adv-x="478" 
d="M35 80q0 4 4 10l268 323q2 2 1 5t-5 3h-252q-5 0 -5 5v75q0 5 5 5h369q5 0 5 -5v-75q0 -5 -4 -10l-266 -323q-2 -2 -0.5 -5t4.5 -3h274q5 0 5 -5v-75q0 -5 -5 -5h-393q-5 0 -5 5v75z" />
    <glyph glyph-name="braceleft" unicode="{" horiz-adv-x="468" 
d="M375 -193q0 -5 -5 -5h-55q-71 0 -97.5 35t-26.5 106v227q0 22 -15.5 37.5t-37.5 15.5h-55q-5 0 -5 5v50q0 5 5 5h55q21 0 37 15.5t16 38.5v225q0 71 26.5 106.5t97.5 35.5h55q5 0 5 -5v-51q0 -4 -5 -4h-55q-22 0 -38 -16t-16 -38v-223q0 -32 -5.5 -51.5t-14.5 -31.5
t-19.5 -18.5t-19.5 -10.5q-4 -2 0 -4q9 -4 19 -10.5t19 -18.5t15 -32t6 -50v-224q0 -22 16 -38t38 -16h55q5 0 5 -4v-51z" />
    <glyph glyph-name="bar" unicode="|" horiz-adv-x="201" 
d="M58 -198q-4 0 -4 5v892q0 5 4 5h69q5 0 5 -5v-892q0 -5 -5 -5h-69z" />
    <glyph glyph-name="braceright" unicode="}" horiz-adv-x="468" 
d="M78 -142q0 4 5 4h55q22 0 38 16t16 38v224q0 30 6 50t15 32t19 18.5t19 10.5q4 2 0 4q-9 4 -19.5 10.5t-19.5 18.5t-14.5 31.5t-5.5 51.5v223q0 22 -16 38t-38 16h-55q-5 0 -5 4v51q0 5 5 5h55q71 0 97.5 -35.5t26.5 -106.5v-225q0 -23 16 -38.5t37 -15.5h55q5 0 5 -5
v-50q0 -5 -5 -5h-55q-22 0 -37.5 -15.5t-15.5 -37.5v-227q0 -71 -26.5 -106t-97.5 -35h-55q-5 0 -5 5v51z" />
    <glyph glyph-name="asciitilde" unicode="~" horiz-adv-x="511" 
d="M477 296q0 -45 -33 -75.5t-89 -30.5q-29 0 -58.5 11t-57.5 24t-52 24t-42 11q-14 0 -25.5 -10.5t-11.5 -24.5v-30q0 -5 -5 -5l-75 20q-5 2 -5 5v25q0 46 32.5 77t89.5 31q29 0 58.5 -11t57 -24.5t51.5 -24.5t43 -11q14 0 25.5 10t11.5 24v32q0 5 5 5l75 -20q5 -2 5 -5
v-27z" />
    <glyph glyph-name="DEL" horiz-adv-x="265" 
 />
    <glyph glyph-name="nonbreakingspace" unicode="&#xa0;" horiz-adv-x="265" 
 />
    <glyph glyph-name="exclamdown" unicode="&#xa1;" horiz-adv-x="242" 
d="M85 496.025q-5 0 -5 -4.99902l-10 -292.965v-192.977q0 -4.99902 5 -4.99902h84q5 0 5 4.99902v192.977l-10 292.965q0 4.99902 -5 4.99902h-64zM57 704q-5 0 -5 -4.99902v-121.985q0 -5 5 -5h120q5 0 5 5v121.985q0 4.99902 -5 4.99902h-120z" />
    <glyph glyph-name="cent" unicode="&#xa2;" horiz-adv-x="537" 
d="M422 335q-3 0 -5 5q-26 67 -87 84q-2 1 -5 0t-3 -5v-332q0 -7 7 -5q64 18 88 84q2 5 5 5h90q6 0 5 -5q-19 -74 -67.5 -118t-123.5 -55q-5 0 -5 -4v-84q0 -5 -5 -5h-69q-4 0 -4 5v83q0 4 -3 5q-50 6 -88.5 27t-65 55t-40.5 79t-14 99t14 99t40.5 78.5t65 55t88.5 27.5
q3 1 3 5v84q0 5 4 5h69q5 0 5 -5v-86q0 -2 2 -4q77 -10 126.5 -55t67.5 -117q1 -5 -5 -5h-90zM127 253q0 -66 27.5 -112t81.5 -60q7 -2 7 5v334q0 7 -7 5q-54 -14 -81.5 -60t-27.5 -112z" />
    <glyph glyph-name="sterling" unicode="&#xa3;" horiz-adv-x="616" 
d="M38 0q-5 0 -5 5v75q0 5 5 5h34q30 0 42 13.5t12 36.5v181q0 5 -5 5h-83q-5 0 -5 5v75q0 5 5 5h83q5 0 5 5v102q0 48 17.5 85.5t47.5 63t70 39t86 13.5q48 0 89 -12.5t72 -37.5t49.5 -63.5t20.5 -89.5q0 -5 -5 -5h-90q-5 0 -5 5q0 51 -32 84.5t-99 33.5q-60 0 -93 -32.5
t-33 -83.5v-102q0 -5 5 -5h126q5 0 5 -5v-75q0 -5 -5 -5h-126q-5 0 -5 -5v-181q0 -17 -4 -27t-9 -18q-3 -5 2 -5h268q5 0 5 5v106q0 5 5 5h85q5 0 5 -5v-191q0 -5 -5 -5h-535z" />
    <glyph glyph-name="currency" unicode="&#xa4;" horiz-adv-x="640" 
d="M34 119q-5 3 0 7l69 69q4 4 1 8q-34 63 -34 147q0 41 8.5 78.5t25.5 67.5q3 5 -1 9l-69 70q-5 3 0 7l53 53q3 5 7 0l63 -64q6 -6 11 -2q29 20 67 32t83 12q88 0 148 -43q7 -5 13 1l64 64q3 5 7 0l53 -53q5 -4 0 -7l-70 -70q-4 -4 -1 -10q16 -31 25 -67t9 -78
q0 -86 -35 -148q-2 -3 2 -7l70 -69q5 -4 0 -7l-53 -53q-4 -5 -7 0l-65 64q-5 5 -12 0q-60 -43 -148 -43q-90 0 -151 43q-5 4 -9 0l-64 -64q-4 -5 -7 0zM471 350q0 39 -10.5 71.5t-30 56.5t-48 37t-64.5 13t-64 -13t-48 -37t-30.5 -56.5t-10.5 -71.5t10.5 -71.5t30.5 -56.5
t48 -37t64 -13t64.5 13t48 37t30 56.5t10.5 71.5z" />
    <glyph glyph-name="yen" unicode="&#xa5;" horiz-adv-x="659" 
d="M378 203q0 -5 5 -5h202q5 0 5 -5v-80q0 -5 -5 -5h-202q-5 0 -5 -5v-98q0 -5 -5 -5h-85q-5 0 -5 5v98q0 5 -5 5h-190q-5 0 -5 5v80q0 5 5 5h190q5 0 5 5v95v-1q0 6 -5 6h-190q-5 0 -5 5v80q0 5 5 5h136q5 0 2 5l-184 301q-3 5 3 5h101q5 0 8 -5l172 -286q4 -6 8 0l173 286
q4 5 10 5h99q6 0 3 -5l-186 -301q-3 -5 1 -5h151q5 0 5 -5v-80q0 -5 -5 -5h-202q-5 0 -5 -5v-95z" />
    <glyph glyph-name="brokenbar" unicode="&#xa6;" horiz-adv-x="211" 
d="M68 293q-4 0 -4 5v401q0 5 4 5h69q5 0 5 -5v-401q0 -5 -5 -5h-69zM68 -197q-4 0 -4 5v401q0 5 4 5h69q5 0 5 -5v-401q0 -5 -5 -5h-69z" />
    <glyph glyph-name="section" unicode="&#xa7;" horiz-adv-x="615" 
d="M171 -5q0 -51 37 -84.5t104 -33.5q60 0 92 25.5t32 60.5q0 31 -17.5 50.5t-44 31.5t-56.5 19.5t-55 14.5q-48 12 -92.5 27.5t-77 41t-49 65t-7.5 101.5q5 34 20.5 65.5t43.5 54.5q4 4 0 8q-14 20 -22 44.5t-8 56.5q0 40 18 72t48.5 54t71 33.5t86.5 11.5q48 0 90.5 -12.5
t75.5 -37.5t53 -63.5t22 -89.5q0 -5 -5 -5h-90q-5 0 -5 5q0 51 -37 84.5t-104 33.5q-60 0 -92 -25.5t-32 -60.5q0 -31 17.5 -50.5t44 -31.5t56.5 -19.5t55 -14.5q48 -12 92.5 -27.5t77 -41t49 -65.5t7.5 -101q-6 -35 -21 -66.5t-43 -54.5q-3 -3 0 -8q14 -20 22 -44.5
t8 -55.5q0 -41 -18 -72.5t-48.5 -53.5t-71 -33.5t-86.5 -11.5q-48 0 -90.5 12.5t-75.5 37.5t-53 63.5t-22 89.5q0 5 5 5h90q5 0 5 -5zM331 338q-32 8 -67 16.5t-67 21.5q-52 -19 -61 -75q-5 -34 4.5 -56t29 -36.5t47 -23.5t59.5 -17t66.5 -16.5t67.5 -21.5q52 18 61 75
q5 34 -4.5 56t-29 36.5t-47 23.5t-59.5 17z" />
    <glyph glyph-name="dieresis" unicode="&#xa8;" horiz-adv-x="424" 
d="M140 595q0 -5 -5 -5h-105q-5 0 -5 5v104q0 5 5 5h105q5 0 5 -5v-104zM384 595q0 -5 -5 -5h-105q-5 0 -5 5v104q0 5 5 5h105q5 0 5 -5v-104z" />
    <glyph glyph-name="copyright" unicode="&#xa9;" horiz-adv-x="786" 
d="M734 353q0 -73 -27.5 -137t-75 -112t-111.5 -76t-137 -28q-72 0 -136 28t-111.5 76t-75 112t-27.5 137q0 72 27.5 136t75 112t111.5 75.5t136 27.5q73 0 137 -27.5t111.5 -75.5t75 -112t27.5 -136zM704 353q0 66 -25.5 124.5t-69 102t-102 69t-124.5 25.5t-124.5 -25.5
t-102 -69t-68.5 -102t-25 -124.5t25 -125t68.5 -102.5t102 -69t124.5 -25.5t124.5 25.5t102 69t69 102.5t25.5 125zM500 270q1 3 4 3h51q5 0 5 -5q0 -15 -11.5 -37.5t-34 -44t-56.5 -36.5t-79 -15t-80.5 16t-60 45t-37.5 68.5t-13 87.5t13 87.5t37.5 68.5t60 45t80.5 16
q47 0 81 -16.5t56.5 -38.5t33 -45t10.5 -35q0 -3 -3 -3h-53q-3 0 -4 3q-3 10 -10.5 24t-21.5 27.5t-36 23t-53 9.5q-62 0 -96.5 -44t-34.5 -122t34.5 -122t96.5 -44q31 0 52.5 8.5t35.5 21.5t22 27.5t11 26.5z" />
    <glyph glyph-name="ordfeminine" unicode="&#xaa;" horiz-adv-x="264" 
d="M289.327 432.7q0 -2.7002 -2.69922 -2.7002h-19.4395q-41.5781 -0.540039 -53.458 24.8389q-1.08008 2.16016 -2.42969 2.16016t-2.42969 -1.08008q-9.71973 -10.2598 -34.0186 -20.7891q-24.2998 -10.5293 -61.5576 -10.5293q-54.5381 0 -81.5371 23.7588
t-26.999 62.6377q0 17.8193 7.29004 32.668q7.29004 14.8496 22.1387 25.9189q14.8496 11.0703 37.2588 17.2793q22.4092 6.20996 52.1084 6.20996h60.4766q13.5 0 15.6602 4.58984q2.15918 4.58984 2.15918 12.1494q0 8.09961 -1.88965 17.5498
q-1.88965 9.44922 -8.90918 17.2793q-7.02051 7.8291 -20.7891 12.959q-13.7695 5.12988 -38.0693 5.12988q-35.0977 0 -50.4873 -14.3096t-15.3896 -34.8281q0 -2.7002 -2.7002 -2.7002h-46.4375q-2.7002 0 -2.7002 2.7002q0 23.7588 9.71973 41.5781t26.1885 29.6982
q16.4697 11.8799 37.7988 17.8193q21.3291 5.94043 44.0078 5.94043q56.1582 0 88.5566 -25.1094q32.3984 -25.1084 32.3984 -74.7871v-105.835q0 -12.4199 3.78027 -19.71q3.78027 -7.28906 19.4395 -7.28906h10.2598q2.69922 0 2.69922 -2.7002v-40.498zM201.851 549.875
q0 2.7002 -2.69922 2.7002h-75.5967q-21.5996 -1.08008 -34.8291 -5.12988t-20.5195 -9.71973q-7.28906 -5.66992 -9.71875 -12.6895q-2.43066 -7.01953 -2.43066 -14.0391q0 -7.55957 2.7002 -14.5801q2.7002 -7.01953 9.44922 -12.959q6.75 -5.94043 17.5498 -9.4502
t26.999 -3.50977q24.2988 0 41.3076 6.48047q17.0098 6.47949 27.5391 17.0088q10.5303 10.5293 15.1201 23.2188q4.58887 12.6895 5.12891 25.1094v7.55957z" />
    <glyph glyph-name="guillemotleft" unicode="&#xab;" horiz-adv-x="576" 
d="M145 258q-3 -4 0 -9l212 -242q2 -7 -5 -7h-74q-4 0 -5 3l-212 246q-3 4 0 9l212 246q1 3 5 3h74q7 0 5 -7zM330 258q-3 -4 0 -9l212 -242q2 -7 -5 -7h-74q-4 0 -5 3l-212 246q-3 4 0 9l212 246q1 3 5 3h74q7 0 5 -7z" />
    <glyph glyph-name="logicalnot" unicode="&#xac;" horiz-adv-x="636" 
d="M559 297q5 0 5 -5v-286q0 -5 -5 -5h-85q-5 0 -5 5v191q0 5 -5 5h-401q-5 0 -5 5v85q0 5 5 5h496z" />
    <glyph glyph-name="uni00AD" unicode="&#xad;" 
d="M456 5q0 -5 -5 -5h-411q-5 0 -5 5v694q0 5 5 5h411q5 0 5 -5v-694zM419 681h-346l173 -306zM419 24l-173 305l-173 -305h346zM432 48v608q-43 -75 -87 -152t-86 -152zM233 352l-173 305v-610z" />
    <glyph glyph-name="registered" unicode="&#xae;" horiz-adv-x="786" 
d="M734 353q0 -73 -27.5 -137t-75 -112t-111.5 -76t-137 -28q-72 0 -136 28t-111.5 76t-75 112t-27.5 137q0 72 27.5 136t75 112t111.5 76t136 28q73 0 137 -28t111.5 -76t75 -112t27.5 -136zM704 353q0 66 -25.5 124.5t-69 102.5t-102 69.5t-124.5 25.5t-124.5 -25.5
t-102 -69.5t-68.5 -102.5t-25 -124.5t25 -125t68.5 -102.5t102 -69t124.5 -25.5t124.5 25.5t102 69t69 102.5t25.5 125zM218 558q0 5 5 5h207q25 0 47 -10t39 -27.5t27 -40.5t10 -50q0 -39 -19 -69t-51 -44q-5 -2 -2 -7l76 -168q3 -6 -4 -6h-47q-2 0 -5 1t-5 4l-69 159
q-1 4 -7 4h-142q-3 0 -3 -3v-160q0 -5 -5 -5h-47q-5 0 -5 5v412zM280 512q-5 0 -5 -5v-142q0 -5 5 -5h145q28 1 49.5 22.5t21.5 52.5t-22 54t-51 23h-143z" />
    <glyph glyph-name="macron" unicode="&#xaf;" horiz-adv-x="330" 
d="M39 589q-4 0 -4 5v58q0 5 4 5h246q5 0 5 -5v-58q0 -5 -5 -5h-246z" />
    <glyph glyph-name="degree" unicode="&#xb0;" horiz-adv-x="380" 
d="M33 560q0 32 12 60.5t33 49.5t49 33t60 12t60.5 -12t49.5 -33t33 -49.5t12 -60.5t-12 -60t-33 -49t-49.5 -33t-60.5 -12t-60 12t-49 33t-33 49t-12 60zM95 560q0 -19 7 -36t19.5 -29.5t29.5 -19.5t36 -7t36 7t30 19.5t20 29.5t7 36q0 39 -27 66t-66 27q-19 0 -36 -7
t-29.5 -20t-19.5 -30t-7 -36z" />
    <glyph glyph-name="plusminus" unicode="&#xb1;" horiz-adv-x="632" 
d="M65 0q-5 0 -5 5v75q0 5 5 5h497q5 0 5 -5v-75q0 -5 -5 -5h-497zM355 202q0 -5 -5 -5h-84q-5 0 -5 5v198q0 5 -5 5h-191q-5 0 -5 5v80q0 5 5 5h191q5 0 5 5v198q0 5 5 5h84q5 0 5 -5v-198q0 -5 5 -5h202q5 0 5 -5v-80q0 -5 -5 -5h-202q-5 0 -5 -5v-198z" />
    <glyph glyph-name="twosuperior" unicode="&#xb2;" horiz-adv-x="370" 
d="M52.8994 358.498q0 1.08008 0.540039 3.50977q0.540039 2.43066 1.62012 3.50977l150.113 146.335q4.32031 4.31934 12.1494 12.1494q7.83008 7.8291 15.3896 18.0889t12.96 22.4092q5.39941 12.1494 5.39941 24.5693q0 10.2588 -4.32031 22.4092
q-4.31934 12.1494 -12.959 22.4082q-8.63965 10.2598 -22.1396 17.0098q-13.499 6.75 -32.3984 6.75q-15.6592 0 -28.0791 -5.40039q-12.4189 -5.39941 -21.5986 -14.3096q-9.17969 -8.90918 -14.0391 -20.249q-4.86035 -11.3389 -4.86035 -23.7588
q0 -2.7002 -2.7002 -2.7002h-45.8975q-2.7002 0 -2.7002 2.7002q0 24.2988 8.91016 44.5479q8.90918 20.25 25.1084 34.5586q16.1992 14.3096 38.0684 22.4092t47.7881 8.09961q29.1592 0 52.1084 -9.17969q22.9482 -9.17871 38.6084 -24.5684
q15.6592 -15.3896 24.0283 -36.4482q8.37012 -21.0596 8.37012 -44.2783q0 -20.5195 -6.75 -37.7988t-16.1992 -31.3184q-9.44922 -14.04 -19.709 -24.5693t-17.2793 -17.5488l-118.795 -109.616q-1.08008 -1.08008 -0.810547 -2.7002q0.270508 -1.61914 2.96973 -1.61914
h173.873q2.7002 0 2.7002 -2.7002v-40.498q0 -2.7002 -2.7002 -2.7002h-244.069q-2.7002 0 -2.7002 2.7002v37.7979z" />
    <glyph glyph-name="threesuperior" unicode="&#xb3;" horiz-adv-x="371" 
d="M152.415 533.991q0 2.7002 2.7002 2.7002h18.8994q30.7783 0 49.9473 17.0088q19.1699 17.0098 19.1699 42.9287q0 11.8789 -4.86035 22.9492q-4.85938 11.0693 -13.7695 19.4385q-8.90918 8.37012 -21.8691 13.5q-12.959 5.12988 -28.6182 5.12988
q-14.5801 0 -27.2695 -5.66992t-21.5986 -14.5791q-8.91016 -8.91016 -13.7695 -20.25q-4.86035 -11.3389 -4.86035 -23.2188q0 -2.7002 -2.69922 -2.7002h-45.8984q-2.7002 0 -2.7002 2.7002q0 23.7588 8.63965 43.7383t24.5693 34.5586t37.7988 22.9492
q21.8691 8.36914 47.7881 8.36914q26.998 0 49.1377 -8.09961q22.1387 -8.09961 38.0684 -22.4092q15.9297 -14.3086 24.5693 -34.0186q8.63965 -19.709 8.63965 -42.3877q0 -18.8994 -6.48047 -33.209q-6.47949 -14.3096 -15.3887 -24.0293
q-8.91016 -9.71875 -17.8193 -14.8486q-8.91016 -5.12988 -13.7695 -6.75q-2.7002 -0.540039 -2.7002 -2.7002t2.7002 -2.69922q7.01953 -2.16016 17.5488 -8.91016q10.5303 -6.75 20.5195 -18.0889q9.98926 -11.3398 17.0088 -27.5391q7.02051 -16.1992 7.02051 -37.2588
q0 -23.7588 -8.91016 -43.4678q-8.90918 -19.71 -25.3789 -34.0186q-16.4697 -14.3096 -40.498 -22.4092q-24.0293 -8.09961 -54.2676 -8.09961q-30.2393 0 -52.918 8.63965q-22.6797 8.63965 -37.7988 23.4883q-15.1191 14.8496 -22.9492 34.5586
q-7.8291 19.71 -7.8291 41.3086q0 2.7002 2.69922 2.7002h45.8984q2.7002 0 2.7002 -2.7002q0 -10.7998 4.31934 -21.8691q4.32031 -11.0693 12.96 -19.9795q8.63965 -8.90918 21.8691 -14.5791t31.0488 -5.66992q16.7393 0 30.7783 4.86035
q14.0391 4.85938 24.5693 13.2295q10.5293 8.36914 16.4688 19.709q5.94043 11.3398 5.94043 24.2988q0 16.1992 -5.94043 29.1592q-5.93945 12.959 -16.4688 22.1387q-10.5303 9.17969 -24.8389 14.04q-14.3096 4.85938 -30.5088 4.85938h-18.8994
q-2.7002 0 -2.7002 2.7002v40.498v0z" />
    <glyph glyph-name="acute" unicode="&#xb4;" horiz-adv-x="242" 
d="M51 589q-3 0 -5 2t0 5l43 101q2 7 10 7h87q8 0 5 -7l-72 -101l-4.5 -4.5t-6.5 -2.5h-57z" />
    <glyph glyph-name="mu" unicode="&#xb5;" 
d="M456 5q0 -5 -5 -5h-411q-5 0 -5 5v694q0 5 5 5h411q5 0 5 -5v-694zM419 681h-346l173 -306zM419 24l-173 305l-173 -305h346zM432 48v608q-43 -75 -87 -152t-86 -152zM233 352l-173 305v-610z" />
    <glyph glyph-name="paragraph" unicode="&#xb6;" horiz-adv-x="571" 
d="M220 311q0 5 -5 5q-38 0 -71 15.5t-58 42t-39 61.5t-14 75q0 38 13.5 72.5t37.5 61t57 42.5t71 18h288q5 0 5 -5v-892q0 -5 -5 -5h-85q-5 0 -5 5v817q0 5 -5 5h-85q-5 0 -5 -5v-817q0 -5 -5 -5h-85q-5 0 -5 5v504z" />
    <glyph glyph-name="periodcentered" unicode="&#xb7;" horiz-adv-x="220" 
d="M28 276q-5 0 -5 5v151q0 5 5 5h149q5 0 5 -5v-151q0 -5 -5 -5h-149z" />
    <glyph glyph-name="cedilla" unicode="&#xb8;" horiz-adv-x="288" 
d="M210 5q7 0 5 -5l-61 -45q-2 -2 -1.5 -5t4.5 -3q13 0 27 -4t25.5 -13t19 -23t7.5 -34q0 -31 -25.5 -56t-74.5 -25q-45 0 -67 25.5t-22 55.5q0 5 5 5h33q5 0 5 -5q0 -16 13 -29.5t33 -13.5q24 0 37 13.5t13 29.5q0 14 -5.5 23.5t-14 15t-18 8t-17.5 2.5q-13 0 -16 3l-8 8
q-4 4 -3.5 7t2.5 5l50 41q2 6 -5 6q-8 0 -8 6.5t8 6.5h59v0z" />
    <glyph glyph-name="onesuperior" unicode="&#xb9;" horiz-adv-x="274" 
d="M155.075 701.444q0 2.7002 2.7002 2.7002h45.8984q2.69922 0 2.69922 -2.7002v-374.744q0 -2.7002 -2.69922 -2.7002h-45.8984q-2.7002 0 -2.7002 2.7002v254.329q0 8.09961 -5.39941 12.1494t-11.3398 4.0498h-82.6162q-2.7002 0 -2.7002 2.7002v37.7988
q0 2.69922 2.7002 2.69922h66.957q13.5 0 22.9492 8.91016q9.44922 8.90918 9.44922 22.4092v29.6982z" />
    <glyph glyph-name="ordmasculine" unicode="&#xba;" horiz-adv-x="285" 
d="M273.588 563.614q0 -31.8584 -9.17969 -57.7773t-26.1885 -44.8184q-17.0098 -18.8994 -42.1182 -29.1592q-25.1094 -10.2588 -56.4277 -10.2588q-31.8594 0 -56.6982 10.2588q-24.8389 10.2598 -42.1182 29.1592t-26.1885 44.8184q-8.91016 25.9189 -8.91016 57.7773
t8.91016 58.0479q8.90918 26.1885 26.1885 44.8184q17.2793 18.6289 42.1182 28.8887t56.6982 10.2598q31.3184 0 56.4277 -10.2598q25.1084 -10.2598 42.1182 -29.1592q17.0088 -18.8994 26.1885 -45.0879t9.17969 -57.5078zM222.29 563.614q0 21.0596 -5.66992 38.6084
q-5.66895 17.5498 -16.1992 30.5088q-10.5293 12.96 -25.9189 19.9795q-15.3887 7.01953 -34.8281 7.01953t-34.5586 -7.01953t-25.9189 -19.9795q-10.7998 -12.959 -16.4697 -30.5088q-5.66992 -17.5488 -5.66992 -38.6084q0 -21.0586 5.66992 -38.6084
q5.66992 -17.5488 16.4697 -30.5088q10.7998 -12.959 25.9189 -19.9795q15.1191 -7.01953 34.5586 -7.01953t34.8281 7.01953q15.3896 7.02051 25.9189 19.9795q10.5303 12.96 16.1992 30.5088q5.66992 17.5498 5.66992 38.6084z" />
    <glyph glyph-name="guillemotright" unicode="&#xbb;" horiz-adv-x="576" 
d="M59 500q-2 7 5 7h74q3 0 5 -3l212 -246q3 -5 0 -9l-212 -246q-2 -3 -5 -3h-74q-7 0 -5 7l212 242q3 5 0 9zM244 500q-2 7 5 7h74q3 0 5 -3l212 -246q3 -5 0 -9l-212 -246q-2 -3 -5 -3h-74q-7 0 -5 7l212 242q3 5 0 9z" />
    <glyph glyph-name="onequarter" unicode="&#xbc;" horiz-adv-x="696" 
d="M516 702q2 2 4 2h54q8 0 4 -8l-426 -694q-2 -2 -4 -2h-52q-8 0 -4 8zM155 702q0 3 3 3h46q2 0 2 -3v-374q0 -3 -2 -3h-46q-3 0 -3 3v254q0 8 -5.5 12t-11.5 4h-82q-3 0 -3 3v38q0 2 3 2h67q13 0 22.5 9t9.5 23v29zM551 380q3 0 3 -3v-241q0 -3 3 -3h60q2 0 2 -3v-40
q0 -3 -2 -3h-60q-3 0 -3 -3v-81q0 -3 -3 -3h-46q-2 0 -2 3v81q0 3 -3 3h-178q-2 0 -2 3v37q0 5 0.5 6t0.5 3l179 241q2 3 6 3h45zM381 137q-2 -4 3 -4h116q3 0 3 3v158q0 2 -2 2.5t-4 -1.5z" />
    <glyph glyph-name="onehalf" unicode="&#xbd;" horiz-adv-x="722" 
d="M506 702q2 2 4 2h54q8 0 4 -8l-426 -694q-2 -2 -4 -2h-52q-8 0 -4 8zM155 701q0 3 3 3h46q2 0 2 -3v-374q0 -3 -2 -3h-46q-3 0 -3 3v254q0 8 -5.5 12t-11.5 4h-82q-3 0 -3 3v38q0 2 3 2h67q13 0 22.5 9t9.5 23v29zM405 40v4t2 4l150 146l12 12t15.5 18.5t13 22.5t5.5 24
q0 10 -4 22.5t-13 22.5t-22.5 17t-32.5 7q-31 0 -49.5 -19.5t-18.5 -44.5q0 -3 -3 -3h-46q-3 0 -3 3q0 49 34 79.5t86 30.5q29 0 52 -9t38.5 -25t24 -36.5t8.5 -44.5q0 -21 -6.5 -38t-16 -31t-20 -24.5l-17.5 -17.5l-118 -110q-1 -1 -0.5 -2.5t2.5 -1.5h174q2 0 2 -3v-40
q0 -3 -2 -3h-244q-3 0 -3 3v37z" />
    <glyph glyph-name="threequarters" unicode="&#xbe;" horiz-adv-x="759" 
d="M581 702q2 2 4 2h54q8 0 4 -8l-426 -694q-2 -2 -4 -2h-52q-8 0 -4 8zM152 534q0 3 3 3h19q31 0 50 17t19 43q0 23 -18.5 42t-50.5 19q-15 0 -27.5 -6t-21.5 -15t-13.5 -20t-4.5 -23q0 -3 -3 -3h-46q-3 0 -3 3q0 48 33.5 78.5t85.5 31.5q54 0 87 -30.5t33 -76.5
q0 -19 -6.5 -33t-15.5 -24t-18 -15.5t-13 -6.5q-2 -1 -2 -3t2 -3q7 -2 17.5 -9t20.5 -18t17 -27t7 -37q0 -48 -34.5 -78t-94.5 -30q-30 0 -52.5 8.5t-38 23.5t-23 34.5t-7.5 41.5q0 2 2 2h46q3 0 3 -2q0 -23 17 -43t53 -20q33 0 55.5 18t22.5 45q0 32 -22.5 51t-55.5 19h-19
q-3 0 -3 2v41zM614 380q3 0 3 -3v-241q0 -3 3 -3h60q2 0 2 -3v-40q0 -3 -2 -3h-60q-3 0 -3 -3v-81q0 -3 -3 -3h-46q-2 0 -2 3v81q0 3 -3 3h-178q-2 0 -2 3v37q0 5 0.5 6t0.5 3l179 241q2 3 6 3h45zM444 137q-2 -4 3 -4h116q3 0 3 3v158q0 2 -2 2.5t-4 -1.5z" />
    <glyph glyph-name="questiondown" unicode="&#xbf;" horiz-adv-x="511" 
d="M480 183q0 -42 -16.5 -77.5t-45.5 -61t-69.5 -40t-89.5 -14.5q-54 0 -97.5 16t-73.5 44t-46.5 65.5t-16.5 79.5q0 43 13 73t35 52t51.5 39t62.5 34q10 5 13 10t5 16v71q0 5 5 5h85q5 0 5 -5v-79q0 -66 -72 -96q-36 -15 -57.5 -29.5t-33 -29t-15 -29.5t-3.5 -32
q0 -21 9 -42.5t26.5 -39t43.5 -28t61 -10.5q30 0 53.5 9t39.5 24t24.5 34.5t8.5 40.5v10q0 5 5 5h85q5 0 5 -5v-10zM313 704q5 0 5 -5v-122q0 -5 -5 -5h-120q-5 0 -5 5v122q0 5 5 5h120z" />
    <glyph glyph-name="Agrave" unicode="&#xc0;" horiz-adv-x="682" 
d="M404 704q4 0 6 -5l233 -694q2 -5 -5 -5h-94q-3 0 -5 5l-46 143q-1 5 -7 5h-290q-4 0 -6 -5l-47 -143q-2 -5 -5 -5h-93q-7 0 -6 5l236 694q2 5 6 5h123zM460 233q6 0 4 5l-117 366q-2 5 -5 5t-5 -5l-118 -366q-2 -5 4 -5h237zM309 783q-4 0 -6.5 2.5l-4.5 4.5l-72 101
q-2 3 0 5t5 2h87q8 0 10 -7l43 -101q3 -7 -5 -7h-57z" />
    <glyph glyph-name="Aacute" unicode="&#xc1;" horiz-adv-x="682" 
d="M404 704q4 0 6 -5l233 -694q2 -5 -5 -5h-94q-3 0 -5 5l-46 143q-1 5 -7 5h-290q-4 0 -6 -5l-47 -143q-2 -5 -5 -5h-93q-7 0 -6 5l236 694q2 5 6 5h123zM460 233q6 0 4 5l-117 366q-2 5 -5 5t-5 -5l-118 -366q-2 -5 4 -5h237zM321 783q-3 0 -5 2t0 5l43 101q2 7 10 7h87
q8 0 5 -7l-72 -101l-4.5 -4.5t-6.5 -2.5h-57z" />
    <glyph glyph-name="Acircumflex" unicode="&#xc2;" horiz-adv-x="682" 
d="M404 704q4 0 6 -5l233 -694q2 -5 -5 -5h-94q-3 0 -5 5l-46 143q-1 5 -7 5h-290q-4 0 -6 -5l-47 -143q-2 -5 -5 -5h-93q-7 0 -6 5l236 694q2 5 6 5h123zM460 233q6 0 4 5l-117 366q-2 5 -5 5t-5 -5l-118 -366q-2 -5 4 -5h237zM379 783q-3 0 -6 4l-29 41q-6 9 -11 0
l-29 -41q-3 -4 -6 -4h-60q-3 0 -5 2t0 5l44 104q1 4 5 4h114q4 0 5 -4l43 -104q3 -7 -5 -7h-60z" />
    <glyph glyph-name="Atilde" unicode="&#xc3;" horiz-adv-x="682" 
d="M404 704q4 0 6 -5l233 -694q2 -5 -5 -5h-94q-3 0 -5 5l-46 143q-1 5 -7 5h-290q-4 0 -6 -5l-47 -143q-2 -5 -5 -5h-93q-7 0 -6 5l236 694q2 5 6 5h123zM460 233q6 0 4 5l-117 366q-2 5 -5 5t-5 -5l-118 -366q-2 -5 4 -5h237zM193 811q0 13 5 28t16.5 28t31 21.5t49.5 8.5
q22 0 38.5 -7t29 -16t22 -16t17.5 -7q3 0 8.5 0.5t11 4t9 12t3.5 24.5q0 5 5 5h60q5 0 5 -5v-24q0 -13 -5 -28t-17 -27.5t-31.5 -21t-48.5 -8.5q-20 0 -36 7t-29 16t-23 16t-19 7q-3 0 -8.5 -0.5t-11 -4t-9 -12t-3.5 -24.5q0 -5 -5 -5h-60q-5 0 -5 5v23z" />
    <glyph glyph-name="Adieresis" unicode="&#xc4;" horiz-adv-x="682" 
d="M404 704q4 0 6 -5l233 -694q2 -5 -5 -5h-94q-3 0 -5 5l-46 143q-1 5 -7 5h-290q-4 0 -6 -5l-47 -143q-2 -5 -5 -5h-93q-7 0 -6 5l236 694q2 5 6 5h123zM460 233q6 0 4 5l-117 366q-2 5 -5 5t-5 -5l-118 -366q-2 -5 4 -5h237zM274 788q0 -5 -5 -5h-105q-5 0 -5 5v105
q0 5 5 5h105q5 0 5 -5v-105zM518 788q0 -5 -5 -5h-105q-5 0 -5 5v105q0 5 5 5h105q5 0 5 -5v-105z" />
    <glyph glyph-name="Aring" unicode="&#xc5;" horiz-adv-x="682" 
d="M404 704q4 0 6 -5l233 -694q2 -5 -5 -5h-94q-3 0 -5 5l-46 143q-1 5 -7 5h-290q-4 0 -6 -5l-47 -143q-2 -5 -5 -5h-93q-7 0 -6 5l236 694q2 5 6 5h123zM460 233q6 0 4 5l-117 366q-2 5 -5 5t-5 -5l-118 -366q-2 -5 4 -5h237zM428 823q0 -36 -26 -61.5t-62 -25.5
t-61.5 25.5t-25.5 61.5t25.5 62t61.5 26q18 0 34 -7t28 -19t19 -28t7 -34zM385 823q0 19 -13 32t-32 13t-32 -13t-13 -32t13 -32t32 -13t32 13t13 32z" />
    <glyph glyph-name="AE" unicode="&#xc6;" horiz-adv-x="1014" 
d="M479 704h1h471q5 0 5 -5v-75q0 -5 -5 -5h-376q-5 0 -5 -5v-209q0 -5 5 -5h335q5 0 5 -5v-75q0 -5 -5 -5h-335q-5 0 -5 -5v-220q0 -5 5 -5h376q5 0 5 -5v-75q0 -5 -5 -5h-471h-1q-4 0 -4 5v149h-263l-84 -149q-2 -5 -5 -5h-93q-7 0 -6 5l390 694q2 5 6 5h59zM258 234h217
v370q-4 10 -7 0z" />
    <glyph glyph-name="Ccedilla" unicode="&#xc7;" horiz-adv-x="683" 
d="M551 215q1 5 7 5h88q5 0 5 -5q0 -23 -13.5 -58t-43 -69.5t-76.5 -61.5t-114 -34l-53 -37q-2 -2 -1.5 -5t4.5 -3q13 0 27 -4t25.5 -13t19 -23t7.5 -34q0 -31 -25.5 -56t-74.5 -25q-45 0 -67 25.5t-22 55.5q0 5 5 5h33q5 0 5 -5q0 -16 13 -29.5t33 -13.5q24 0 37 13.5
t13 29.5q0 14 -5.5 23.5t-14 15t-18 8t-17.5 2.5q-13 0 -16 3l-8 8q-4 4 -3.5 7t2.5 5l47 36q2 2 2 5.5t-5 3.5q-76 0 -132 27.5t-93.5 76t-56 115t-18.5 143.5q0 79 21 145.5t61.5 114.5t99.5 75t134 27q82 0 137 -27.5t88.5 -64.5t48 -74.5t14.5 -58.5q0 -5 -5 -5h-88
q-5 0 -7 5q-6 16 -17.5 40t-33 46t-55 38t-82.5 16q-105 0 -160.5 -73.5t-55.5 -203.5t55.5 -203.5t160.5 -73.5q45 0 77.5 14.5t55 35.5t36 45.5t19.5 44.5z" />
    <glyph glyph-name="Egrave" unicode="&#xc8;" horiz-adv-x="612" 
d="M63 699q0 5 5 5h481q5 0 5 -5v-75q0 -5 -5 -5h-386q-5 0 -5 -5v-204q0 -5 5 -5h345q5 0 5 -5v-75q0 -5 -5 -5h-345q-5 0 -5 -5v-225q0 -5 5 -5h386q5 0 5 -5v-75q0 -5 -5 -5h-481q-5 0 -5 5v694v0zM314 783q-4 0 -6.5 2.5l-4.5 4.5l-72 101q-2 3 0 5t5 2h87q8 0 10 -7
l43 -101q3 -7 -5 -7h-57z" />
    <glyph glyph-name="Eacute" unicode="&#xc9;" horiz-adv-x="612" 
d="M63 699q0 5 5 5h481q5 0 5 -5v-75q0 -5 -5 -5h-386q-5 0 -5 -5v-204q0 -5 5 -5h345q5 0 5 -5v-75q0 -5 -5 -5h-345q-5 0 -5 -5v-225q0 -5 5 -5h386q5 0 5 -5v-75q0 -5 -5 -5h-481q-5 0 -5 5v694v0zM256 783q-3 0 -5 2t0 5l43 101q2 7 10 7h87q8 0 5 -7l-72 -101
l-4.5 -4.5t-6.5 -2.5h-57z" />
    <glyph glyph-name="Ecircumflex" unicode="&#xca;" horiz-adv-x="612" 
d="M63 699q0 5 5 5h481q5 0 5 -5v-75q0 -5 -5 -5h-386q-5 0 -5 -5v-204q0 -5 5 -5h345q5 0 5 -5v-75q0 -5 -5 -5h-345q-5 0 -5 -5v-225q0 -5 5 -5h386q5 0 5 -5v-75q0 -5 -5 -5h-481q-5 0 -5 5v694v0zM354 783q-3 0 -6 4l-29 41q-6 9 -11 0l-29 -41q-3 -4 -6 -4h-60
q-3 0 -5 2t0 5l44 104q1 4 5 4h114q4 0 5 -4l43 -104q3 -7 -5 -7h-60z" />
    <glyph glyph-name="Edieresis" unicode="&#xcb;" horiz-adv-x="612" 
d="M63 699q0 5 5 5h481q5 0 5 -5v-75q0 -5 -5 -5h-386q-5 0 -5 -5v-204q0 -5 5 -5h345q5 0 5 -5v-75q0 -5 -5 -5h-345q-5 0 -5 -5v-225q0 -5 5 -5h386q5 0 5 -5v-75q0 -5 -5 -5h-481q-5 0 -5 5v694v0zM239 788q0 -5 -5 -5h-105q-5 0 -5 5v105q0 5 5 5h105q5 0 5 -5v-105z
M483 788q0 -5 -5 -5h-105q-5 0 -5 5v105q0 5 5 5h105q5 0 5 -5v-105z" />
    <glyph glyph-name="Igrave" unicode="&#xcc;" horiz-adv-x="236" 
d="M153 704q5 0 5 -5v-694q0 -5 -5 -5h-85q-5 0 -5 5v694q0 5 5 5h85zM86 783q-4 0 -6.5 2.5l-4.5 4.5l-72 101q-2 3 0 5t5 2h87q8 0 10 -7l43 -101q3 -7 -5 -7h-57z" />
    <glyph glyph-name="Iacute" unicode="&#xcd;" horiz-adv-x="236" 
d="M153 704q5 0 5 -5v-694q0 -5 -5 -5h-85q-5 0 -5 5v694q0 5 5 5h85zM84 783q-3 0 -5 2t0 5l43 101q2 7 10 7h87q8 0 5 -7l-72 -101l-4.5 -4.5t-6.5 -2.5h-57z" />
    <glyph glyph-name="Icircumflex" unicode="&#xce;" horiz-adv-x="236" 
d="M153 704q5 0 5 -5v-694q0 -5 -5 -5h-85q-5 0 -5 5v694q0 5 5 5h85zM156 783q-3 0 -6 4l-29 41q-6 9 -11 0l-29 -41q-3 -4 -6 -4h-60q-3 0 -5 2t0 5l44 104q1 4 5 4h114q4 0 5 -4l43 -104q3 -7 -5 -7h-60z" />
    <glyph glyph-name="Idieresis" unicode="&#xcf;" horiz-adv-x="236" 
d="M153 704q5 0 5 -5v-694q0 -5 -5 -5h-85q-5 0 -5 5v694q0 5 5 5h85zM51 788q0 -5 -5 -5h-105q-5 0 -5 5v105q0 5 5 5h105q5 0 5 -5v-105zM295 788q0 -5 -5 -5h-105q-5 0 -5 5v105q0 5 5 5h105q5 0 5 -5v-105z" />
    <glyph glyph-name="Eth" unicode="&#xd0;" horiz-adv-x="701" 
d="M77 296q0 5 -5 5h-54q-5 0 -5 5v75q0 5 5 5h54q5 0 5 5v308q0 5 5 5h258q79 0 137.5 -27t97.5 -74.5t58.5 -113t19.5 -144.5q0 -80 -19.5 -143.5t-58.5 -108.5t-97.5 -69t-137.5 -24h-258q-5 0 -5 5v291zM177 301q-5 0 -5 -5v-206q0 -5 5 -5h163q101 0 157 66t56 194
q0 63 -14.5 113.5t-42 86t-67 55t-89.5 19.5h-163q-5 0 -5 -5v-223q0 -5 5 -5h154q5 0 5 -5v-75q0 -5 -5 -5h-154z" />
    <glyph glyph-name="Ntilde" unicode="&#xd1;" horiz-adv-x="693" 
d="M626 704q5 0 5 -5v-694q0 -5 -5 -5h-147q-5 0 -8 5l-303 601q-2 3 -6 3t-4 -5v-599q0 -5 -5 -5h-85q-5 0 -5 5v694q0 5 5 5h148q4 0 7 -5l303 -600q2 -5 6 -4.5t4 5.5v599q0 5 5 5h85zM194 816q0 13 5 28t16.5 28t31 21.5t49.5 8.5q22 0 38.5 -7t29 -16t22 -16t17.5 -7
q3 0 8.5 0.5t11 4t9 12t3.5 24.5q0 5 5 5h60q5 0 5 -5v-24q0 -13 -5 -28t-17 -27.5t-31.5 -21t-48.5 -8.5q-20 0 -36 7t-29 16t-23 16t-19 7q-3 0 -8.5 -0.5t-11 -4t-9 -12t-3.5 -24.5q0 -5 -5 -5h-60q-5 0 -5 5v23z" />
    <glyph glyph-name="Ograve" unicode="&#xd2;" horiz-adv-x="712" 
d="M664 352q0 -80 -19.5 -146.5t-59 -114.5t-98.5 -74.5t-138 -26.5t-138 26.5t-98.5 74.5t-59.5 114.5t-20 146.5q0 79 20 145.5t59.5 114.5t98.5 75t138 27t138 -27t98.5 -75t59 -114.5t19.5 -145.5zM349 75q105 0 160.5 73.5t55.5 203.5t-55.5 203.5t-160.5 73.5
t-160.5 -73.5t-55.5 -203.5t55.5 -203.5t160.5 -73.5zM344 783q-4 0 -6.5 2.5l-4.5 4.5l-72 101q-2 3 0 5t5 2h87q8 0 10 -7l43 -101q3 -7 -5 -7h-57z" />
    <glyph glyph-name="Oacute" unicode="&#xd3;" horiz-adv-x="712" 
d="M664 352q0 -80 -19.5 -146.5t-59 -114.5t-98.5 -74.5t-138 -26.5t-138 26.5t-98.5 74.5t-59.5 114.5t-20 146.5q0 79 20 145.5t59.5 114.5t98.5 75t138 27t138 -27t98.5 -75t59 -114.5t19.5 -145.5zM349 75q105 0 160.5 73.5t55.5 203.5t-55.5 203.5t-160.5 73.5
t-160.5 -73.5t-55.5 -203.5t55.5 -203.5t160.5 -73.5zM326 783q-3 0 -5 2t0 5l43 101q2 7 10 7h87q8 0 5 -7l-72 -101l-4.5 -4.5t-6.5 -2.5h-57z" />
    <glyph glyph-name="Ocircumflex" unicode="&#xd4;" horiz-adv-x="712" 
d="M664 352q0 -80 -19.5 -146.5t-59 -114.5t-98.5 -74.5t-138 -26.5t-138 26.5t-98.5 74.5t-59.5 114.5t-20 146.5q0 79 20 145.5t59.5 114.5t98.5 75t138 27t138 -27t98.5 -75t59 -114.5t19.5 -145.5zM349 75q105 0 160.5 73.5t55.5 203.5t-55.5 203.5t-160.5 73.5
t-160.5 -73.5t-55.5 -203.5t55.5 -203.5t160.5 -73.5zM394 783q-3 0 -6 4l-29 41q-6 9 -11 0l-29 -41q-3 -4 -6 -4h-60q-3 0 -5 2t0 5l44 104q1 4 5 4h114q4 0 5 -4l43 -104q3 -7 -5 -7h-60z" />
    <glyph glyph-name="Otilde" unicode="&#xd5;" horiz-adv-x="712" 
d="M664 352q0 -80 -19.5 -146.5t-59 -114.5t-98.5 -74.5t-138 -26.5t-138 26.5t-98.5 74.5t-59.5 114.5t-20 146.5q0 79 20 145.5t59.5 114.5t98.5 75t138 27t138 -27t98.5 -75t59 -114.5t19.5 -145.5zM349 75q105 0 160.5 73.5t55.5 203.5t-55.5 203.5t-160.5 73.5
t-160.5 -73.5t-55.5 -203.5t55.5 -203.5t160.5 -73.5zM198 811q0 13 5 28t16.5 28t31 21.5t49.5 8.5q22 0 38.5 -7t29 -16t22 -16t17.5 -7q3 0 8.5 0.5t11 4t9 12t3.5 24.5q0 5 5 5h60q5 0 5 -5v-24q0 -13 -5 -28t-17 -27.5t-31.5 -21t-48.5 -8.5q-20 0 -36 7t-29 16t-23 16
t-19 7q-3 0 -8.5 -0.5t-11 -4t-9 -12t-3.5 -24.5q0 -5 -5 -5h-60q-5 0 -5 5v23z" />
    <glyph glyph-name="Odieresis" unicode="&#xd6;" horiz-adv-x="712" 
d="M664 352q0 -80 -19.5 -146.5t-59 -114.5t-98.5 -74.5t-138 -26.5t-138 26.5t-98.5 74.5t-59.5 114.5t-20 146.5q0 79 20 145.5t59.5 114.5t98.5 75t138 27t138 -27t98.5 -75t59 -114.5t19.5 -145.5zM349 75q105 0 160.5 73.5t55.5 203.5t-55.5 203.5t-160.5 73.5
t-160.5 -73.5t-55.5 -203.5t55.5 -203.5t160.5 -73.5zM289 788q0 -5 -5 -5h-105q-5 0 -5 5v105q0 5 5 5h105q5 0 5 -5v-105zM533 788q0 -5 -5 -5h-105q-5 0 -5 5v105q0 5 5 5h105q5 0 5 -5v-105z" />
    <glyph glyph-name="multiply" unicode="&#xd7;" horiz-adv-x="564" 
d="M473 505q5 2 7 0l50 -49q3 -4 0 -8l-194 -194q-5 -4 0 -7l195 -194q2 -5 0 -7l-47 -47q-4 -4 -7 0l-195 195q-2 2 -7 0l-191 -193q-4 -4 -7 0l-50 49q-2 5 0 7l191 193q3 3 1 8l-192 190q-2 5 0 7l47 46q2 2 4 2t3 -2l192 -191q2 -5 6 1z" />
    <glyph glyph-name="Oslash" unicode="&#xd8;" horiz-adv-x="712" 
d="M664 352q0 -80 -19.5 -146.5t-59 -114.5t-98.5 -74.5t-138 -26.5q-72 0 -126.5 21.5t-94.5 62.5q-6 6 -11 1l-38 -38q-4 -4 -7 0l-39 39q-4 3 0 7l46 46q4 4 2 8q-23 44 -35.5 98t-12.5 117q0 79 20 145.5t59.5 114.5t98.5 75t138 27q72 0 127 -22.5t94 -63.5q4 -4 8 0
l39 39q3 3 7 0l39 -39q3 -4 0 -7l-47 -47q-3 -3 -1 -7q49 -88 49 -215zM349 75q105 0 160.5 73.5t55.5 203.5q0 40 -4.5 74t-15.5 64q-2 5 -5 5t-5 -2l-342 -342q-4 -4 0 -8q28 -34 66 -51t90 -17zM133 352q0 -78 20 -138q1 -2 4 -3t5 1l341 341q4 4 0 9q-27 32 -65.5 49.5
t-88.5 17.5q-105 0 -160.5 -73.5t-55.5 -203.5z" />
    <glyph glyph-name="Ugrave" unicode="&#xd9;" horiz-adv-x="621" 
d="M148 239q0 -32 12.5 -61.5t33.5 -52.5t49.5 -36.5t60.5 -13.5t60 13.5t49 36.5t33 52.5t12 61.5v460q0 5 5 5h85q5 0 5 -5v-460q0 -52 -19.5 -97.5t-53 -79t-79 -53t-97.5 -19.5t-98 19.5t-80 53t-53.5 79t-19.5 97.5v460q0 5 5 5h85q5 0 5 -5v-460zM298 783
q-4 0 -6.5 2.5l-4.5 4.5l-72 101q-2 3 0 5t5 2h87q8 0 10 -7l43 -101q3 -7 -5 -7h-57z" />
    <glyph glyph-name="Uacute" unicode="&#xda;" horiz-adv-x="621" 
d="M148 239q0 -32 12.5 -61.5t33.5 -52.5t49.5 -36.5t60.5 -13.5t60 13.5t49 36.5t33 52.5t12 61.5v460q0 5 5 5h85q5 0 5 -5v-460q0 -52 -19.5 -97.5t-53 -79t-79 -53t-97.5 -19.5t-98 19.5t-80 53t-53.5 79t-19.5 97.5v460q0 5 5 5h85q5 0 5 -5v-460zM260 783q-3 0 -5 2
t0 5l43 101q2 7 10 7h87q8 0 5 -7l-72 -101l-4.5 -4.5t-6.5 -2.5h-57z" />
    <glyph glyph-name="Ucircumflex" unicode="&#xdb;" horiz-adv-x="621" 
d="M148 239q0 -32 12.5 -61.5t33.5 -52.5t49.5 -36.5t60.5 -13.5t60 13.5t49 36.5t33 52.5t12 61.5v460q0 5 5 5h85q5 0 5 -5v-460q0 -52 -19.5 -97.5t-53 -79t-79 -53t-97.5 -19.5t-98 19.5t-80 53t-53.5 79t-19.5 97.5v460q0 5 5 5h85q5 0 5 -5v-460zM348 783q-3 0 -6 4
l-29 41q-6 9 -11 0l-29 -41q-3 -4 -6 -4h-60q-3 0 -5 2t0 5l44 104q1 4 5 4h114q4 0 5 -4l43 -104q3 -7 -5 -7h-60z" />
    <glyph glyph-name="Udieresis" unicode="&#xdc;" horiz-adv-x="621" 
d="M148 239q0 -32 12.5 -61.5t33.5 -52.5t49.5 -36.5t60.5 -13.5t60 13.5t49 36.5t33 52.5t12 61.5v460q0 5 5 5h85q5 0 5 -5v-460q0 -52 -19.5 -97.5t-53 -79t-79 -53t-97.5 -19.5t-98 19.5t-80 53t-53.5 79t-19.5 97.5v460q0 5 5 5h85q5 0 5 -5v-460zM243 788q0 -5 -5 -5
h-105q-5 0 -5 5v105q0 5 5 5h105q5 0 5 -5v-105zM487 788q0 -5 -5 -5h-105q-5 0 -5 5v105q0 5 5 5h105q5 0 5 -5v-105z" />
    <glyph glyph-name="Yacute" unicode="&#xdd;" horiz-adv-x="659" 
d="M381 313q-2 -4 -2.5 -6t-0.5 -4v-298q0 -5 -5 -5h-85q-5 0 -5 5v298q0 2 -5 10l-236 386q-3 5 3 5h101q5 0 8 -5l171 -285q5 -7 10 0l172 285q4 5 10 5h99q6 0 3 -5zM279 783q-3 0 -5 2t0 5l43 101q2 7 10 7h87q8 0 5 -7l-72 -101l-4.5 -4.5t-6.5 -2.5h-57z" />
    <glyph glyph-name="Thorn" unicode="&#xde;" horiz-adv-x="622" 
d="M163 704q5 0 5 -5v-143q0 -5 5 -5h227q41 0 76 -16t61.5 -43t41.5 -63t15 -77t-15 -77t-41.5 -63t-61.5 -43t-76 -16h-227q-5 0 -5 -5v-143q0 -5 -5 -5h-85q-5 0 -5 5v694q0 5 5 5h85zM501 352q0 22 -8.5 42.5t-22.5 36.5t-32.5 25.5t-37.5 9.5h-227q-5 0 -5 -5v-218
q0 -5 5 -5h227q19 0 37.5 9.5t32.5 25.5t22.5 36.5t8.5 42.5z" />
    <glyph glyph-name="germandbls" unicode="&#xdf;" horiz-adv-x="558" 
d="M293 402q21 0 42.5 6.5t38 20t27 35t10.5 52.5q0 30 -11 51.5t-30.5 35t-45.5 20t-56 6.5q-31 0 -52.5 -11.5t-35 -29t-19.5 -38.5t-6 -40v-505q0 -5 -5 -5h-85q-5 0 -5 5v505q0 39 14 75.5t40.5 65t65 46t88.5 17.5q57 0 100.5 -15t72.5 -42t44 -63t15 -78
q0 -48 -27 -89.5t-70 -62.5q-3 -2 -3 -4t3 -3q16 -5 36.5 -18.5t38.5 -34.5t30.5 -48t12.5 -58q0 -98 -58.5 -153t-181.5 -55h-29q-5 0 -5 5v74q0 5 5 5h29q72 0 109 31t37 93q0 30 -13 52.5t-32.5 37.5t-43.5 22.5t-45 7.5h-18q-5 0 -5 5v74q0 5 5 5h18z" />
    <glyph glyph-name="agrave" unicode="&#xe0;" horiz-adv-x="582" 
d="M562 5q0 -5 -5 -5h-36q-77 -1 -99 46q-2 4 -4.5 4t-4.5 -2q-18 -19 -63 -38.5t-114 -19.5q-101 0 -151 44t-50 116q0 33 13.5 60.5t41 48t69 32t96.5 11.5h112q25 0 29 8.5t4 22.5q0 15 -3.5 32.5t-16.5 32t-38.5 24t-70.5 9.5q-65 0 -93.5 -26.5t-28.5 -64.5q0 -5 -5 -5
h-86q-5 0 -5 5q0 44 18 77t48.5 55t70 33t81.5 11q104 0 164 -46.5t60 -138.5v-196q0 -23 7 -36.5t36 -13.5h19q5 0 5 -5v-75zM400 222q0 5 -5 5h-140q-40 -2 -64.5 -9.5t-38 -18t-18 -23.5t-4.5 -26q0 -14 5 -27t17.5 -24t32.5 -17.5t50 -6.5q45 0 76.5 12t51 31.5t28 43
t9.5 46.5v14zM269 589q-4 0 -6.5 2.5l-4.5 4.5l-72 101q-2 3 0 5t5 2h87q8 0 10 -7l43 -101q3 -7 -5 -7h-57z" />
    <glyph glyph-name="aacute" unicode="&#xe1;" horiz-adv-x="582" 
d="M562 5q0 -5 -5 -5h-36q-77 -1 -99 46q-2 4 -4.5 4t-4.5 -2q-18 -19 -63 -38.5t-114 -19.5q-101 0 -151 44t-50 116q0 33 13.5 60.5t41 48t69 32t96.5 11.5h112q25 0 29 8.5t4 22.5q0 15 -3.5 32.5t-16.5 32t-38.5 24t-70.5 9.5q-65 0 -93.5 -26.5t-28.5 -64.5q0 -5 -5 -5
h-86q-5 0 -5 5q0 44 18 77t48.5 55t70 33t81.5 11q104 0 164 -46.5t60 -138.5v-196q0 -23 7 -36.5t36 -13.5h19q5 0 5 -5v-75zM400 222q0 5 -5 5h-140q-40 -2 -64.5 -9.5t-38 -18t-18 -23.5t-4.5 -26q0 -14 5 -27t17.5 -24t32.5 -17.5t50 -6.5q45 0 76.5 12t51 31.5t28 43
t9.5 46.5v14zM241 589q-3 0 -5 2t0 5l43 101q2 7 10 7h87q8 0 5 -7l-72 -101l-4.5 -4.5t-6.5 -2.5h-57z" />
    <glyph glyph-name="acircumflex" unicode="&#xe2;" horiz-adv-x="582" 
d="M562 5q0 -5 -5 -5h-36q-77 -1 -99 46q-2 4 -4.5 4t-4.5 -2q-18 -19 -63 -38.5t-114 -19.5q-101 0 -151 44t-50 116q0 33 13.5 60.5t41 48t69 32t96.5 11.5h112q25 0 29 8.5t4 22.5q0 15 -3.5 32.5t-16.5 32t-38.5 24t-70.5 9.5q-65 0 -93.5 -26.5t-28.5 -64.5q0 -5 -5 -5
h-86q-5 0 -5 5q0 44 18 77t48.5 55t70 33t81.5 11q104 0 164 -46.5t60 -138.5v-196q0 -23 7 -36.5t36 -13.5h19q5 0 5 -5v-75zM400 222q0 5 -5 5h-140q-40 -2 -64.5 -9.5t-38 -18t-18 -23.5t-4.5 -26q0 -14 5 -27t17.5 -24t32.5 -17.5t50 -6.5q45 0 76.5 12t51 31.5t28 43
t9.5 46.5v14zM319 589q-3 0 -6 4l-29 41q-6 9 -11 0l-29 -41q-3 -4 -6 -4h-60q-3 0 -5 2t0 5l44 104q1 4 5 4h114q4 0 5 -4l43 -104q3 -7 -5 -7h-60z" />
    <glyph glyph-name="atilde" unicode="&#xe3;" horiz-adv-x="582" 
d="M562 5q0 -5 -5 -5h-36q-77 -1 -99 46q-2 4 -4.5 4t-4.5 -2q-18 -19 -63 -38.5t-114 -19.5q-101 0 -151 44t-50 116q0 33 13.5 60.5t41 48t69 32t96.5 11.5h112q25 0 29 8.5t4 22.5q0 15 -3.5 32.5t-16.5 32t-38.5 24t-70.5 9.5q-65 0 -93.5 -26.5t-28.5 -64.5q0 -5 -5 -5
h-86q-5 0 -5 5q0 44 18 77t48.5 55t70 33t81.5 11q104 0 164 -46.5t60 -138.5v-196q0 -23 7 -36.5t36 -13.5h19q5 0 5 -5v-75zM400 222q0 5 -5 5h-140q-40 -2 -64.5 -9.5t-38 -18t-18 -23.5t-4.5 -26q0 -14 5 -27t17.5 -24t32.5 -17.5t50 -6.5q45 0 76.5 12t51 31.5t28 43
t9.5 46.5v14zM133 618q0 13 5 28t16.5 28t31 21.5t49.5 8.5q22 0 38.5 -7t29 -16t22 -16t17.5 -7q3 0 8.5 0.5t11 4t9 12t3.5 24.5q0 5 5 5h60q5 0 5 -5v-24q0 -13 -5 -28t-17 -27.5t-31.5 -21t-48.5 -8.5q-20 0 -36 7t-29 16t-23 16t-19 7q-3 0 -8.5 -0.5t-11 -4t-9 -12
t-3.5 -24.5q0 -5 -5 -5h-60q-5 0 -5 5v23z" />
    <glyph glyph-name="adieresis" unicode="&#xe4;" horiz-adv-x="582" 
d="M562 5q0 -5 -5 -5h-36q-77 -1 -99 46q-2 4 -4.5 4t-4.5 -2q-18 -19 -63 -38.5t-114 -19.5q-101 0 -151 44t-50 116q0 33 13.5 60.5t41 48t69 32t96.5 11.5h112q25 0 29 8.5t4 22.5q0 15 -3.5 32.5t-16.5 32t-38.5 24t-70.5 9.5q-65 0 -93.5 -26.5t-28.5 -64.5q0 -5 -5 -5
h-86q-5 0 -5 5q0 44 18 77t48.5 55t70 33t81.5 11q104 0 164 -46.5t60 -138.5v-196q0 -23 7 -36.5t36 -13.5h19q5 0 5 -5v-75zM400 222q0 5 -5 5h-140q-40 -2 -64.5 -9.5t-38 -18t-18 -23.5t-4.5 -26q0 -14 5 -27t17.5 -24t32.5 -17.5t50 -6.5q45 0 76.5 12t51 31.5t28 43
t9.5 46.5v14zM224 595q0 -5 -5 -5h-105q-5 0 -5 5v104q0 5 5 5h105q5 0 5 -5v-104zM468 595q0 -5 -5 -5h-105q-5 0 -5 5v104q0 5 5 5h105q5 0 5 -5v-104z" />
    <glyph glyph-name="aring" unicode="&#xe5;" horiz-adv-x="572" 
d="M562 5q0 -5 -5 -5h-36q-77 -1 -99 46q-2 4 -4.5 4t-4.5 -2q-18 -19 -63 -38.5t-114 -19.5q-101 0 -151 44t-50 116q0 33 13.5 60.5t41 48t69 32t96.5 11.5h112q25 0 29 8.5t4 22.5q0 15 -3.5 32.5t-16.5 32t-38.5 24t-70.5 9.5q-65 0 -93.5 -26.5t-28.5 -64.5q0 -5 -5 -5
h-86q-5 0 -5 5q0 44 18 77t48.5 55t70 33t81.5 11q104 0 164 -46.5t60 -138.5v-196q0 -23 7 -36.5t36 -13.5h19q5 0 5 -5v-75zM400 222q0 5 -5 5h-140q-40 -2 -64.5 -9.5t-38 -18t-18 -23.5t-4.5 -26q0 -14 5 -27t17.5 -24t32.5 -17.5t50 -6.5q45 0 76.5 12t51 31.5t28 43
t9.5 46.5v14zM359 635q0 -36 -26 -61.5t-62 -25.5t-61.5 25.5t-25.5 61.5t25.5 62t61.5 26q18 0 34 -7t28 -19t19 -28t7 -34zM316 635q0 19 -13 32t-32 13t-32 -13t-13 -32t13 -32t32 -13t32 13t13 32z" />
    <glyph glyph-name="ae" unicode="&#xe6;" horiz-adv-x="933" 
d="M501 219q-5 0 -5 -5q0 -27 9.5 -52.5t28 -44.5t45 -30.5t59.5 -11.5q53 0 79.5 20t42.5 50q2 5 7 5h94q6 0 5 -5q-20 -74 -81.5 -114.5t-146.5 -40.5q-64 0 -111.5 23t-79.5 66q-6 8 -12 0q-34 -38 -78.5 -63.5t-114.5 -25.5q-101 0 -153.5 44.5t-52.5 115.5
q0 33 13.5 60.5t40.5 48t67.5 32t94.5 11.5h53q40 0 61 2t28 8q6 5 6.5 10.5t0.5 10.5q0 15 -3.5 32.5t-16.5 32t-38.5 24t-70.5 9.5q-65 0 -93.5 -26.5t-28.5 -64.5q0 -5 -5 -5h-86q-5 0 -5 5q0 44 18 77t48.5 55t70 33t81.5 11q124 0 183 -65q4 -6 9 -1q31 31 74.5 48.5
t99.5 17.5q58 0 103.5 -19t77 -54t47.5 -83.5t16 -106.5q0 -17 -3 -29q-2 -5 -5 -5h-373zM401 222q0 5 -5 5h-140q-40 -2 -64.5 -9.5t-38 -18t-18 -23.5t-4.5 -26q0 -14 5 -27t17.5 -24t32.5 -17.5t50 -6.5q45 0 76.5 12t51 31.5t28 43t9.5 46.5v14zM778 299q0 21 -8 44.5
t-25 43t-43.5 32t-63.5 12.5q-36 0 -63 -14t-44.5 -34.5t-26 -43t-8.5 -40.5q0 -5 5 -5h272q5 0 5 5z" />
    <glyph glyph-name="ccedilla" unicode="&#xe7;" horiz-adv-x="547" 
d="M424 335q-4 0 -6 5q-34 91 -138 91q-36 0 -64 -13t-47.5 -37t-30 -56.5t-10.5 -71.5t10.5 -71.5t30 -56.5t47.5 -37t64 -13q104 0 138 91q2 5 6 5h89q6 0 5 -5q-18 -69 -63.5 -113.5t-115.5 -57.5l-56 -40q-2 -2 -1.5 -5t4.5 -3q13 0 27 -4t25.5 -13t19 -23t7.5 -34
q0 -31 -25.5 -56t-74.5 -25q-45 0 -67 25.5t-22 55.5q0 5 5 5h33q5 0 5 -5q0 -16 13 -29.5t33 -13.5q24 0 37 13.5t13 29.5q0 14 -5.5 23.5t-14 15t-18 8t-17.5 2.5q-13 0 -16 3l-8 8q-4 4 -3 7.5t3 5.5l48 37q2 2 1.5 4.5t-4.5 2.5h-4q-58 0 -103.5 19.5t-76.5 54t-47.5 83
t-16.5 106.5q0 59 16.5 107.5t48 83t77.5 53.5t105 19q96 0 157 -46.5t81 -129.5q1 -5 -5 -5h-89z" />
    <glyph glyph-name="egrave" unicode="&#xe8;" horiz-adv-x="549" 
d="M138 219q-5 0 -5 -5q0 -27 9.5 -52.5t28 -44.5t45 -30.5t59.5 -11.5q54 0 82.5 20t44.5 50q2 5 7 5h89q6 0 5 -5q-20 -74 -81.5 -114.5t-146.5 -40.5q-56 0 -101 19t-76.5 54t-48.5 83t-17 107t16 107.5t47 83t76.5 53.5t103.5 19t103.5 -19t77 -54t47.5 -83.5t16 -106.5
q0 -17 -3 -29q-2 -5 -5 -5h-373zM415 299q0 21 -8 44.5t-25 43t-43.5 32t-63.5 12.5q-36 0 -63 -14t-44.5 -34.5t-26 -43t-8.5 -40.5q0 -5 5 -5h272q5 0 5 5zM262 589q-4 0 -6.5 2.5l-4.5 4.5l-72 101q-2 3 0 5t5 2h87q8 0 10 -7l43 -101q3 -7 -5 -7h-57z" />
    <glyph glyph-name="eacute" unicode="&#xe9;" horiz-adv-x="549" 
d="M138 219q-5 0 -5 -5q0 -27 9.5 -52.5t28 -44.5t45 -30.5t59.5 -11.5q54 0 82.5 20t44.5 50q2 5 7 5h89q6 0 5 -5q-20 -74 -81.5 -114.5t-146.5 -40.5q-56 0 -101 19t-76.5 54t-48.5 83t-17 107t16 107.5t47 83t76.5 53.5t103.5 19t103.5 -19t77 -54t47.5 -83.5t16 -106.5
q0 -17 -3 -29q-2 -5 -5 -5h-373zM415 299q0 21 -8 44.5t-25 43t-43.5 32t-63.5 12.5q-36 0 -63 -14t-44.5 -34.5t-26 -43t-8.5 -40.5q0 -5 5 -5h272q5 0 5 5zM244 589q-3 0 -5 2t0 5l43 101q2 7 10 7h87q8 0 5 -7l-72 -101l-4.5 -4.5t-6.5 -2.5h-57z" />
    <glyph glyph-name="ecircumflex" unicode="&#xea;" horiz-adv-x="549" 
d="M138 219q-5 0 -5 -5q0 -27 9.5 -52.5t28 -44.5t45 -30.5t59.5 -11.5q54 0 82.5 20t44.5 50q2 5 7 5h89q6 0 5 -5q-20 -74 -81.5 -114.5t-146.5 -40.5q-56 0 -101 19t-76.5 54t-48.5 83t-17 107t16 107.5t47 83t76.5 53.5t103.5 19t103.5 -19t77 -54t47.5 -83.5t16 -106.5
q0 -17 -3 -29q-2 -5 -5 -5h-373zM415 299q0 21 -8 44.5t-25 43t-43.5 32t-63.5 12.5q-36 0 -63 -14t-44.5 -34.5t-26 -43t-8.5 -40.5q0 -5 5 -5h272q5 0 5 5zM322 589q-3 0 -6 4l-29 41q-6 9 -11 0l-29 -41q-3 -4 -6 -4h-60q-3 0 -5 2t0 5l44 104q1 4 5 4h114q4 0 5 -4
l43 -104q3 -7 -5 -7h-60z" />
    <glyph glyph-name="edieresis" unicode="&#xeb;" horiz-adv-x="549" 
d="M138 219q-5 0 -5 -5q0 -27 9.5 -52.5t28 -44.5t45 -30.5t59.5 -11.5q54 0 82.5 20t44.5 50q2 5 7 5h89q6 0 5 -5q-20 -74 -81.5 -114.5t-146.5 -40.5q-56 0 -101 19t-76.5 54t-48.5 83t-17 107t16 107.5t47 83t76.5 53.5t103.5 19t103.5 -19t77 -54t47.5 -83.5t16 -106.5
q0 -17 -3 -29q-2 -5 -5 -5h-373zM415 299q0 21 -8 44.5t-25 43t-43.5 32t-63.5 12.5q-36 0 -63 -14t-44.5 -34.5t-26 -43t-8.5 -40.5q0 -5 5 -5h272q5 0 5 5zM217 595q0 -5 -5 -5h-105q-5 0 -5 5v104q0 5 5 5h105q5 0 5 -5v-104zM461 595q0 -5 -5 -5h-105q-5 0 -5 5v104
q0 5 5 5h105q5 0 5 -5v-104z" />
    <glyph glyph-name="igrave" unicode="&#xec;" horiz-adv-x="242" 
d="M158 5q0 -5 -5 -5h-85q-5 0 -5 5v496q0 5 5 5h85q5 0 5 -5v-496zM94 589q-4 0 -6.5 2.5l-4.5 4.5l-72 101q-2 3 0 5t5 2h87q8 0 10 -7l43 -101q3 -7 -5 -7h-57z" />
    <glyph glyph-name="iacute" unicode="&#xed;" horiz-adv-x="242" 
d="M158 5q0 -5 -5 -5h-85q-5 0 -5 5v496q0 5 5 5h85q5 0 5 -5v-496zM68 589q-3 0 -5 2t0 5l43 101q2 7 10 7h87q8 0 5 -7l-72 -101l-4.5 -4.5t-6.5 -2.5h-57z" />
    <glyph glyph-name="icircumflex" unicode="&#xee;" horiz-adv-x="242" 
d="M164 5q0 -5 -5 -5h-85q-5 0 -5 5v496q0 5 5 5h85q5 0 5 -5v-496zM159 589q-3 0 -6 4l-29 41q-6 9 -11 0l-29 -41q-3 -4 -6 -4h-60q-3 0 -5 2t0 5l44 104q1 4 5 4h114q4 0 5 -4l43 -104q3 -7 -5 -7h-60z" />
    <glyph glyph-name="idieresis" unicode="&#xef;" horiz-adv-x="242" 
d="M158 5q0 -5 -5 -5h-85q-5 0 -5 5v496q0 5 5 5h85q5 0 5 -5v-496zM49 595q0 -5 -5 -5h-105q-5 0 -5 5v104q0 5 5 5h105q5 0 5 -5v-104zM293 595q0 -5 -5 -5h-105q-5 0 -5 5v104q0 5 5 5h105q5 0 5 -5v-104z" />
    <glyph glyph-name="eth" unicode="&#xf0;" horiz-adv-x="588" 
d="M305 567q-2 5 -8 2l-63 -33q-5 -3 -7 2l-26 48q-3 5 2 7l62 33q5 2 2 8l-35 65q-2 3 0.5 4t4.5 1h88q4 0 7 -5l13 -25q3 -6 8 -2l57 31q4 3 8 -1l25 -49q2 -3 -2 -7l-57 -30q-4 -2 -2 -6l115 -199q19 -33 30.5 -72.5t11.5 -85.5q0 -59 -17 -107t-48.5 -83t-78 -54
t-104.5 -19q-59 0 -105 19t-78 54t-48.5 83t-16.5 107t16.5 107.5t48.5 83t78 53.5t105 19q19 0 36 -3q5 -1 6 2.5t-1 5.5zM444 253q0 39 -10.5 71.5t-30 56.5t-48 37t-64.5 13t-64 -13t-48 -37t-30.5 -56.5t-10.5 -71.5t10.5 -71.5t30.5 -56.5t48 -37t64 -13t64.5 13t48 37
t30 56.5t10.5 71.5z" />
    <glyph glyph-name="ntilde" unicode="&#xf1;" horiz-adv-x="563" 
d="M140 506q3 0 5 -5l10 -45q2 -5 5.5 -4t5.5 3q16 22 48 41.5t83 19.5q54 0 95 -18.5t68.5 -50.5t41 -75t13.5 -92v-275q0 -5 -5 -5h-85q-5 0 -5 5v275q0 28 -7 55.5t-22.5 48.5t-41 34t-62.5 13q-32 0 -56.5 -12.5t-41 -33.5t-25.5 -48.5t-9 -56.5v-275q0 -5 -5 -5h-85
q-5 0 -5 5v496q0 5 5 5h75zM137 618q0 13 5 28t16.5 28t31 21.5t49.5 8.5q22 0 38.5 -7t29 -16t22 -16t17.5 -7q3 0 8.5 0.5t11 4t9 12t3.5 24.5q0 5 5 5h60q5 0 5 -5v-24q0 -13 -5 -28t-17 -27.5t-31.5 -21t-48.5 -8.5q-20 0 -36 7t-29 16t-23 16t-19 7q-3 0 -8.5 -0.5
t-11 -4t-9 -12t-3.5 -24.5q0 -5 -5 -5h-60q-5 0 -5 5v23z" />
    <glyph glyph-name="ograve" unicode="&#xf2;" horiz-adv-x="567" 
d="M529 253q0 -59 -17 -107t-48.5 -83t-78 -54t-104.5 -19q-59 0 -105 19t-78 54t-48.5 83t-16.5 107t16.5 107.5t48.5 83t78 53.5t105 19q58 0 104.5 -19t78 -54t48.5 -83.5t17 -106.5zM434 253q0 39 -10.5 71.5t-30 56.5t-48 37t-64.5 13t-64 -13t-48 -37t-30.5 -56.5
t-10.5 -71.5t10.5 -71.5t30.5 -56.5t48 -37t64 -13t64.5 13t48 37t30 56.5t10.5 71.5zM271 589q-4 0 -6.5 2.5l-4.5 4.5l-72 101q-2 3 0 5t5 2h87q8 0 10 -7l43 -101q3 -7 -5 -7h-57z" />
    <glyph glyph-name="oacute" unicode="&#xf3;" horiz-adv-x="567" 
d="M529 253q0 -59 -17 -107t-48.5 -83t-78 -54t-104.5 -19q-59 0 -105 19t-78 54t-48.5 83t-16.5 107t16.5 107.5t48.5 83t78 53.5t105 19q58 0 104.5 -19t78 -54t48.5 -83.5t17 -106.5zM434 253q0 39 -10.5 71.5t-30 56.5t-48 37t-64.5 13t-64 -13t-48 -37t-30.5 -56.5
t-10.5 -71.5t10.5 -71.5t30.5 -56.5t48 -37t64 -13t64.5 13t48 37t30 56.5t10.5 71.5zM233 589q-3 0 -5 2t0 5l43 101q2 7 10 7h87q8 0 5 -7l-72 -101l-4.5 -4.5t-6.5 -2.5h-57z" />
    <glyph glyph-name="ocircumflex" unicode="&#xf4;" horiz-adv-x="567" 
d="M529 253q0 -59 -17 -107t-48.5 -83t-78 -54t-104.5 -19q-59 0 -105 19t-78 54t-48.5 83t-16.5 107t16.5 107.5t48.5 83t78 53.5t105 19q58 0 104.5 -19t78 -54t48.5 -83.5t17 -106.5zM434 253q0 39 -10.5 71.5t-30 56.5t-48 37t-64.5 13t-64 -13t-48 -37t-30.5 -56.5
t-10.5 -71.5t10.5 -71.5t30.5 -56.5t48 -37t64 -13t64.5 13t48 37t30 56.5t10.5 71.5zM324 589q-3 0 -6 4l-29 41q-6 9 -11 0l-29 -41q-3 -4 -6 -4h-60q-3 0 -5 2t0 5l44 104q1 4 5 4h114q4 0 5 -4l43 -104q3 -7 -5 -7h-60z" />
    <glyph glyph-name="otilde" unicode="&#xf5;" horiz-adv-x="567" 
d="M529 253q0 -59 -17 -107t-48.5 -83t-78 -54t-104.5 -19q-59 0 -105 19t-78 54t-48.5 83t-16.5 107t16.5 107.5t48.5 83t78 53.5t105 19q58 0 104.5 -19t78 -54t48.5 -83.5t17 -106.5zM434 253q0 39 -10.5 71.5t-30 56.5t-48 37t-64.5 13t-64 -13t-48 -37t-30.5 -56.5
t-10.5 -71.5t10.5 -71.5t30.5 -56.5t48 -37t64 -13t64.5 13t48 37t30 56.5t10.5 71.5zM125 618q0 13 5 28t16.5 28t31 21.5t49.5 8.5q22 0 38.5 -7t29 -16t22 -16t17.5 -7q3 0 8.5 0.5t11 4t9 12t3.5 24.5q0 5 5 5h60q5 0 5 -5v-24q0 -13 -5 -28t-17 -27.5t-31.5 -21
t-48.5 -8.5q-20 0 -36 7t-29 16t-23 16t-19 7q-3 0 -8.5 -0.5t-11 -4t-9 -12t-3.5 -24.5q0 -5 -5 -5h-60q-5 0 -5 5v23z" />
    <glyph glyph-name="odieresis" unicode="&#xf6;" horiz-adv-x="567" 
d="M529 253q0 -59 -17 -107t-48.5 -83t-78 -54t-104.5 -19q-59 0 -105 19t-78 54t-48.5 83t-16.5 107t16.5 107.5t48.5 83t78 53.5t105 19q58 0 104.5 -19t78 -54t48.5 -83.5t17 -106.5zM434 253q0 39 -10.5 71.5t-30 56.5t-48 37t-64.5 13t-64 -13t-48 -37t-30.5 -56.5
t-10.5 -71.5t10.5 -71.5t30.5 -56.5t48 -37t64 -13t64.5 13t48 37t30 56.5t10.5 71.5zM216 595q0 -5 -5 -5h-105q-5 0 -5 5v104q0 5 5 5h105q5 0 5 -5v-104zM460 595q0 -5 -5 -5h-105q-5 0 -5 5v104q0 5 5 5h105q5 0 5 -5v-104z" />
    <glyph glyph-name="divide" unicode="&#xf7;" horiz-adv-x="560" 
d="M215 0q-5 0 -5 5v122q0 5 5 5h120q5 0 5 -5v-122q0 -5 -5 -5h-120zM215 374q-5 0 -5 5v122q0 5 5 5h120q5 0 5 -5v-122q0 -5 -5 -5h-120zM24 208q-5 0 -5 5v80q0 5 5 5h496q5 0 5 -5v-80q0 -5 -5 -5h-496z" />
    <glyph glyph-name="oslash" unicode="&#xf8;" horiz-adv-x="582" 
d="M491 416q-4 -4 0 -11q18 -32 28 -69.5t10 -82.5q0 -59 -17 -107t-48.5 -83t-78 -54t-104.5 -19q-97 0 -158 49q-5 4 -9 0l-37 -37q-4 -4 -7 0l-39 39q-4 3 0 7l40 40q2 2 2.5 3.5t-1.5 5.5q-39 63 -39 156q0 59 16.5 107.5t48.5 83t78 53.5t105 19q48 0 87.5 -13.5
t70.5 -37.5q5 -4 9 0l38 39q3 3 7 0l39 -39q3 -4 0 -7zM128 253q0 -46 14 -83q2 -4 4.5 -4t4.5 2l222 222q6 6 0 11q-39 30 -92 30q-36 0 -64 -13t-48 -37t-30.5 -56.5t-10.5 -71.5zM434 253q0 45 -14 82q-1 2 -4 3t-6 -2l-221 -222q-6 -6 1 -11q35 -28 91 -28q36 0 64.5 13
t48 37t30 56.5t10.5 71.5z" />
    <glyph glyph-name="ugrave" unicode="&#xf9;" horiz-adv-x="559" 
d="M423 0q-3 0 -5 5l-10 45q-2 5 -5.5 4t-5.5 -3q-7 -10 -19 -20.5t-29 -19.5t-38 -15t-45 -6q-62 0 -103.5 18.5t-67 50.5t-36.5 75t-11 92v275q0 5 5 5h85q5 0 5 -5v-275q0 -29 7 -56t22.5 -48t41 -34t62.5 -13q31 0 56 12.5t41.5 33.5t25.5 48.5t9 56.5v275q0 5 5 5h85
q5 0 5 -5v-496q0 -5 -5 -5h-75zM267 589q-4 0 -6.5 2.5l-4.5 4.5l-72 101q-2 3 0 5t5 2h87q8 0 10 -7l43 -101q3 -7 -5 -7h-57z" />
    <glyph glyph-name="uacute" unicode="&#xfa;" horiz-adv-x="559" 
d="M423 0q-3 0 -5 5l-10 45q-2 5 -5.5 4t-5.5 -3q-7 -10 -19 -20.5t-29 -19.5t-38 -15t-45 -6q-62 0 -103.5 18.5t-67 50.5t-36.5 75t-11 92v275q0 5 5 5h85q5 0 5 -5v-275q0 -29 7 -56t22.5 -48t41 -34t62.5 -13q31 0 56 12.5t41.5 33.5t25.5 48.5t9 56.5v275q0 5 5 5h85
q5 0 5 -5v-496q0 -5 -5 -5h-75zM219 589q-3 0 -5 2t0 5l43 101q2 7 10 7h87q8 0 5 -7l-72 -101l-4.5 -4.5t-6.5 -2.5h-57z" />
    <glyph glyph-name="ucircumflex" unicode="&#xfb;" horiz-adv-x="559" 
d="M423 0q-3 0 -5 5l-10 45q-2 5 -5.5 4t-5.5 -3q-7 -10 -19 -20.5t-29 -19.5t-38 -15t-45 -6q-62 0 -103.5 18.5t-67 50.5t-36.5 75t-11 92v275q0 5 5 5h85q5 0 5 -5v-275q0 -29 7 -56t22.5 -48t41 -34t62.5 -13q31 0 56 12.5t41.5 33.5t25.5 48.5t9 56.5v275q0 5 5 5h85
q5 0 5 -5v-496q0 -5 -5 -5h-75zM317 589q-3 0 -6 4l-29 41q-6 9 -11 0l-29 -41q-3 -4 -6 -4h-60q-3 0 -5 2t0 5l44 104q1 4 5 4h114q4 0 5 -4l43 -104q3 -7 -5 -7h-60z" />
    <glyph glyph-name="udieresis" unicode="&#xfc;" horiz-adv-x="559" 
d="M423 0q-3 0 -5 5l-10 45q-2 5 -5.5 4t-5.5 -3q-7 -10 -19 -20.5t-29 -19.5t-38 -15t-45 -6q-62 0 -103.5 18.5t-67 50.5t-36.5 75t-11 92v275q0 5 5 5h85q5 0 5 -5v-275q0 -29 7 -56t22.5 -48t41 -34t62.5 -13q31 0 56 12.5t41.5 33.5t25.5 48.5t9 56.5v275q0 5 5 5h85
q5 0 5 -5v-496q0 -5 -5 -5h-75zM212 595q0 -5 -5 -5h-105q-5 0 -5 5v104q0 5 5 5h105q5 0 5 -5v-104zM456 595q0 -5 -5 -5h-105q-5 0 -5 5v104q0 5 5 5h105q5 0 5 -5v-104z" />
    <glyph glyph-name="yacute" unicode="&#xfd;" horiz-adv-x="537" 
d="M37 -118q0 5 5 5h113q45 0 59 25.5t0 65.5l-9 27l-169 496q-1 5 6 5h91q3 0 5 -5l131 -402q2 -4 5 -4t5 4l132 402q2 5 5 5h91q7 0 5 -5l-171 -501l-29 -87q-11 -30 -23 -51.5t-27.5 -34.5t-37.5 -19t-52 -6h-130q-5 0 -5 5v75v0zM233 589q-3 0 -5 2t0 5l43 101q2 7 10 7
h87q8 0 5 -7l-72 -101l-4.5 -4.5t-6.5 -2.5h-57z" />
    <glyph glyph-name="thorn" unicode="&#xfe;" horiz-adv-x="607" 
d="M68 -198q-5 0 -5 5v892q0 5 5 5h85q5 0 5 -5v-228q0 -7 3 -6.5t7 3.5q8 6 20 14t28.5 15.5t37.5 13t47 5.5q55 0 100.5 -19t78.5 -54t51 -83.5t18 -106.5q0 -59 -17 -107t-48.5 -83t-78 -54t-104.5 -19q-15 0 -33 3t-36 9t-34.5 15.5t-29.5 22.5q-2 2 -5 3.5t-5 -3.5
v-233q-2 -5 -5 -5h-85zM454 253q0 39 -10.5 71.5t-30 56.5t-48 37t-64.5 13q-34 0 -60.5 -13t-45 -37t-28 -56.5t-9.5 -71.5t9.5 -71.5t28 -56.5t45 -37t60.5 -13q36 0 64.5 13t48 37t30 56.5t10.5 71.5z" />
    <glyph glyph-name="ydieresis" unicode="&#xff;" horiz-adv-x="537" 
d="M37 -118q0 5 5 5h113q45 0 59 25.5t0 65.5l-9 27l-169 496q-1 5 6 5h91q3 0 5 -5l131 -402q2 -4 5 -4t5 4l132 402q2 5 5 5h91q7 0 5 -5l-171 -501l-29 -87q-11 -30 -23 -51.5t-27.5 -34.5t-37.5 -19t-52 -6h-130q-5 0 -5 5v75v0zM206 595q0 -5 -5 -5h-105q-5 0 -5 5v104
q0 5 5 5h105q5 0 5 -5v-104zM450 595q0 -5 -5 -5h-105q-5 0 -5 5v104q0 5 5 5h105q5 0 5 -5v-104z" />
    <glyph glyph-name="Amacron" unicode="&#x100;" horiz-adv-x="682" 
d="M404 704q4 0 6 -5l233 -694q2 -5 -5 -5h-94q-3 0 -5 5l-46 143q-1 5 -7 5h-290q-4 0 -6 -5l-47 -143q-2 -5 -5 -5h-93q-7 0 -6 5l236 694q2 5 6 5h123zM460 233q6 0 4 5l-117 366q-2 5 -5 5t-5 -5l-118 -366q-2 -5 4 -5h237zM215 783q-4 0 -4 5v58q0 5 4 5h246q5 0 5 -5
v-58q0 -5 -5 -5h-246z" />
    <glyph glyph-name="amacron" unicode="&#x101;" horiz-adv-x="582" 
d="M562 5q0 -5 -5 -5h-36q-77 -1 -99 46q-2 4 -4.5 4t-4.5 -2q-18 -19 -63 -38.5t-114 -19.5q-101 0 -151 44t-50 116q0 33 13.5 60.5t41 48t69 32t96.5 11.5h112q25 0 29 8.5t4 22.5q0 15 -3.5 32.5t-16.5 32t-38.5 24t-70.5 9.5q-65 0 -93.5 -26.5t-28.5 -64.5q0 -5 -5 -5
h-86q-5 0 -5 5q0 44 18 77t48.5 55t70 33t81.5 11q104 0 164 -46.5t60 -138.5v-196q0 -23 7 -36.5t36 -13.5h19q5 0 5 -5v-75zM400 222q0 5 -5 5h-140q-40 -2 -64.5 -9.5t-38 -18t-18 -23.5t-4.5 -26q0 -14 5 -27t17.5 -24t32.5 -17.5t50 -6.5q45 0 76.5 12t51 31.5t28 43
t9.5 46.5v14zM158 589q-4 0 -4 5v58q0 5 4 5h246q5 0 5 -5v-58q0 -5 -5 -5h-246z" />
    <glyph glyph-name="Abreve" unicode="&#x102;" horiz-adv-x="682" 
d="M404 704q4 0 6 -5l233 -694q2 -5 -5 -5h-94q-3 0 -5 5l-46 143q-1 5 -7 5h-290q-4 0 -6 -5l-47 -143q-2 -5 -5 -5h-93q-7 0 -6 5l236 694q2 5 6 5h123zM460 233q6 0 4 5l-117 366q-2 5 -5 5t-5 -5l-118 -366q-2 -5 4 -5h237zM452 898q5 0 5 -5q0 -31 -10.5 -52t-27 -34
t-36.5 -18.5t-40 -5.5t-40 5.5t-36.5 18.5t-27 34t-10.5 52q0 5 5 5h62q5 0 5 -5q0 -21 14 -29.5t28 -8.5t27.5 8.5t13.5 29.5q0 5 5 5h63z" />
    <glyph glyph-name="abreve" unicode="&#x103;" horiz-adv-x="582" 
d="M562 5q0 -5 -5 -5h-36q-77 -1 -99 46q-2 4 -4.5 4t-4.5 -2q-18 -19 -63 -38.5t-114 -19.5q-101 0 -151 44t-50 116q0 33 13.5 60.5t41 48t69 32t96.5 11.5h112q25 0 29 8.5t4 22.5q0 15 -3.5 32.5t-16.5 32t-38.5 24t-70.5 9.5q-65 0 -93.5 -26.5t-28.5 -64.5q0 -5 -5 -5
h-86q-5 0 -5 5q0 44 18 77t48.5 55t70 33t81.5 11q104 0 164 -46.5t60 -138.5v-196q0 -23 7 -36.5t36 -13.5h19q5 0 5 -5v-75zM400 222q0 5 -5 5h-140q-40 -2 -64.5 -9.5t-38 -18t-18 -23.5t-4.5 -26q0 -14 5 -27t17.5 -24t32.5 -17.5t50 -6.5q45 0 76.5 12t51 31.5t28 43
t9.5 46.5v14zM380 704q5 0 5 -5q0 -31 -10.5 -52t-27 -34t-36.5 -18.5t-40 -5.5t-40 5.5t-36.5 18.5t-27 34t-10.5 52q0 5 5 5h62q5 0 5 -5q0 -21 14 -29.5t28 -8.5t27.5 8.5t13.5 29.5q0 5 5 5h63z" />
    <glyph glyph-name="Aogonek" unicode="&#x104;" horiz-adv-x="682" 
d="M404 704q4 0 6 -5l233 -694q2 -5 -5 -5h-29q-32 0 -53.5 -18.5t-21.5 -43.5q0 -31 20 -46t52 -15h19q5 0 5 -5v-65q0 -5 -5 -5h-29q-59 0 -96 25.5t-38 73.5q0 18 6 33.5t16.5 28t23.5 22t27 15.5q5 2 4 7l-46 141q-1 5 -7 5h-290q-4 0 -6 -5l-47 -143q-2 -5 -5 -5h-93
q-7 0 -6 5l236 694q2 5 6 5h123zM460 233q6 0 4 5l-117 366q-2 5 -5 5t-5 -5l-118 -366q-2 -5 4 -5h237z" />
    <glyph glyph-name="aogonek" unicode="&#x105;" horiz-adv-x="582" 
d="M562 5q0 -5 -5 -5h-17q-29 0 -49 -19t-20 -43q0 -31 20 -46t52 -15h14q5 0 5 -5v-65q0 -5 -5 -5h-24q-59 0 -96 25.5t-38 73.5q-1 34 17 58t50 38q4 2 4 5t-4 5q-31 12 -44 39q-2 4 -4.5 4t-4.5 -2q-18 -19 -63 -38.5t-114 -19.5q-101 0 -151 44t-50 116q0 33 13.5 60.5
t41 48t69 32t96.5 11.5h112q25 0 29 8.5t4 22.5q0 15 -3.5 32.5t-16.5 32t-38.5 24t-70.5 9.5q-65 0 -93.5 -26.5t-28.5 -64.5q0 -5 -5 -5h-86q-5 0 -5 5q0 44 18 77t48.5 55t70 33t81.5 11q104 0 164 -46.5t60 -138.5v-196q0 -23 7 -36.5t36 -13.5h19q5 0 5 -5v-75z
M400 222q0 5 -5 5h-140q-40 -2 -64.5 -9.5t-38 -18t-18 -23.5t-4.5 -26q0 -14 5 -27t17.5 -24t32.5 -17.5t50 -6.5q45 0 76.5 12t51 31.5t28 43t9.5 46.5v14z" />
    <glyph glyph-name="Cacute" unicode="&#x106;" horiz-adv-x="683" 
d="M551 215q1 5 7 5h88q5 0 5 -5q0 -25 -15.5 -63t-50 -74t-89.5 -62t-133 -26q-83 0 -142.5 26.5t-98 74.5t-57 114.5t-18.5 146.5q0 79 21 145.5t61.5 114.5t99.5 75t134 27q82 0 137 -27.5t88.5 -64.5t48 -74.5t14.5 -58.5q0 -5 -5 -5h-88q-5 0 -7 5q-6 16 -17.5 40
t-33 46t-55 38t-82.5 16q-105 0 -160.5 -73.5t-55.5 -203.5t55.5 -203.5t160.5 -73.5q45 0 77.5 14.5t55 35.5t36 45.5t19.5 44.5zM321 783q-3 0 -5 2t0 5l43 101q2 7 10 7h87q8 0 5 -7l-72 -101l-4.5 -4.5t-6.5 -2.5h-57z" />
    <glyph glyph-name="cacute" unicode="&#x107;" horiz-adv-x="547" 
d="M424 335q-4 0 -6 5q-34 91 -138 91q-36 0 -64 -13t-47.5 -37t-30 -56.5t-10.5 -71.5t10.5 -71.5t30 -56.5t47.5 -37t64 -13q104 0 138 91q2 5 6 5h89q6 0 5 -5q-21 -84 -81.5 -130t-156.5 -46q-59 0 -105 19t-77.5 54t-48 83t-16.5 107t16.5 107.5t48 83t77.5 53.5
t105 19q96 0 157 -46.5t81 -129.5q1 -5 -5 -5h-89zM233 589q-3 0 -5 2t0 5l43 101q2 7 10 7h87q8 0 5 -7l-72 -101l-4.5 -4.5t-6.5 -2.5h-57z" />
    <glyph glyph-name="Ccircumflex" unicode="&#x108;" horiz-adv-x="683" 
d="M551 215q1 5 7 5h88q5 0 5 -5q0 -25 -15.5 -63t-50 -74t-89.5 -62t-133 -26q-83 0 -142.5 26.5t-98 74.5t-57 114.5t-18.5 146.5q0 79 21 145.5t61.5 114.5t99.5 75t134 27q82 0 137 -27.5t88.5 -64.5t48 -74.5t14.5 -58.5q0 -5 -5 -5h-88q-5 0 -7 5q-6 16 -17.5 40
t-33 46t-55 38t-82.5 16q-105 0 -160.5 -73.5t-55.5 -203.5t55.5 -203.5t160.5 -73.5q45 0 77.5 14.5t55 35.5t36 45.5t19.5 44.5zM409 783q-3 0 -6 4l-29 41q-6 9 -11 0l-29 -41q-3 -4 -6 -4h-60q-3 0 -5 2t0 5l44 104q1 4 5 4h114q4 0 5 -4l43 -104q3 -7 -5 -7h-60z" />
    <glyph glyph-name="ccircumflex" unicode="&#x109;" horiz-adv-x="547" 
d="M424 335q-4 0 -6 5q-34 91 -138 91q-36 0 -64 -13t-47.5 -37t-30 -56.5t-10.5 -71.5t10.5 -71.5t30 -56.5t47.5 -37t64 -13q104 0 138 91q2 5 6 5h89q6 0 5 -5q-21 -84 -81.5 -130t-156.5 -46q-59 0 -105 19t-77.5 54t-48 83t-16.5 107t16.5 107.5t48 83t77.5 53.5
t105 19q96 0 157 -46.5t81 -129.5q1 -5 -5 -5h-89zM321 589q-3 0 -6 4l-29 41q-6 9 -11 0l-29 -41q-3 -4 -6 -4h-60q-3 0 -5 2t0 5l44 104q1 4 5 4h114q4 0 5 -4l43 -104q3 -7 -5 -7h-60z" />
    <glyph glyph-name="Cdotaccent" unicode="&#x10a;" horiz-adv-x="683" 
d="M551 215q1 5 7 5h88q5 0 5 -5q0 -25 -15.5 -63t-50 -74t-89.5 -62t-133 -26q-83 0 -142.5 26.5t-98 74.5t-57 114.5t-18.5 146.5q0 79 21 145.5t61.5 114.5t99.5 75t134 27q82 0 137 -27.5t88.5 -64.5t48 -74.5t14.5 -58.5q0 -5 -5 -5h-88q-5 0 -7 5q-6 16 -17.5 40
t-33 46t-55 38t-82.5 16q-105 0 -160.5 -73.5t-55.5 -203.5t55.5 -203.5t160.5 -73.5q45 0 77.5 14.5t55 35.5t36 45.5t19.5 44.5zM304 783q-5 0 -5 5v132q0 5 5 5h129q5 0 5 -5v-132q0 -5 -5 -5h-129z" />
    <glyph glyph-name="cdotaccent" unicode="&#x10b;" horiz-adv-x="547" 
d="M424 335q-4 0 -6 5q-34 91 -138 91q-36 0 -64 -13t-47.5 -37t-30 -56.5t-10.5 -71.5t10.5 -71.5t30 -56.5t47.5 -37t64 -13q104 0 138 91q2 5 6 5h89q6 0 5 -5q-21 -84 -81.5 -130t-156.5 -46q-59 0 -105 19t-77.5 54t-48 83t-16.5 107t16.5 107.5t48 83t77.5 53.5
t105 19q96 0 157 -46.5t81 -129.5q1 -5 -5 -5h-89zM216 562q-5 0 -5 5v132q0 5 5 5h129q5 0 5 -5v-132q0 -5 -5 -5h-129z" />
    <glyph glyph-name="Ccaron" unicode="&#x10c;" horiz-adv-x="683" 
d="M551 215q1 5 7 5h88q5 0 5 -5q0 -25 -15.5 -63t-50 -74t-89.5 -62t-133 -26q-83 0 -142.5 26.5t-98 74.5t-57 114.5t-18.5 146.5q0 79 21 145.5t61.5 114.5t99.5 75t134 27q82 0 137 -27.5t88.5 -64.5t48 -74.5t14.5 -58.5q0 -5 -5 -5h-88q-5 0 -7 5q-6 16 -17.5 40
t-33 46t-55 38t-82.5 16q-105 0 -160.5 -73.5t-55.5 -203.5t55.5 -203.5t160.5 -73.5q45 0 77.5 14.5t55 35.5t36 45.5t19.5 44.5zM469 902q8 0 5 -7l-43 -104q-1 -4 -5 -4h-114q-4 0 -5 4l-44 104q-2 3 0 5t5 2h60q3 0 6 -4l30 -41q5 -7 11 0l28 41q3 4 6 4h60z" />
    <glyph glyph-name="ccaron" unicode="&#x10d;" horiz-adv-x="547" 
d="M424 335q-4 0 -6 5q-34 91 -138 91q-36 0 -64 -13t-47.5 -37t-30 -56.5t-10.5 -71.5t10.5 -71.5t30 -56.5t47.5 -37t64 -13q104 0 138 91q2 5 6 5h89q6 0 5 -5q-21 -84 -81.5 -130t-156.5 -46q-59 0 -105 19t-77.5 54t-48 83t-16.5 107t16.5 107.5t48 83t77.5 53.5
t105 19q96 0 157 -46.5t81 -129.5q1 -5 -5 -5h-89zM379 704q8 0 5 -7l-43 -104q-1 -4 -5 -4h-114q-4 0 -5 4l-44 104q-2 3 0 5t5 2h60q3 0 6 -4l30 -41q5 -7 11 0l28 41q3 4 6 4h60z" />
    <glyph glyph-name="Dcaron" unicode="&#x10e;" horiz-adv-x="688" 
d="M64 699q0 5 5 5h258q79 0 137.5 -27t97.5 -74.5t58.5 -113t19.5 -144.5q0 -80 -19.5 -143.5t-58.5 -108.5t-97.5 -69t-137.5 -24h-258q-5 0 -5 5v694zM164 619q-5 0 -5 -5v-524q0 -5 5 -5h163q101 0 157 66t56 194q0 63 -14.5 113.5t-42 86t-67 55t-89.5 19.5h-163z
M412 902q8 0 5 -7l-43 -104q-1 -4 -5 -4h-114q-4 0 -5 4l-44 104q-2 3 0 5t5 2h60q3 0 6 -4l30 -41q5 -7 11 0l28 41q3 4 6 4h60z" />
    <glyph glyph-name="dcaron" unicode="&#x10f;" horiz-adv-x="667" 
d="M574 625q-5 0 -5 5v69q0 5 5 5h68q5 0 5 -5v-71q0 -34 -20 -55.5t-53 -21.5q-5 0 -5 5v29q0 5 5 5q9 0 18 7t9 23q0 5 -5 5h-22zM439 0q-3 0 -5 5l-10 40q-2 5 -5 4.5t-5 -2.5q-10 -10 -26.5 -20t-36 -18.5t-40.5 -13.5t-40 -5q-55 0 -99 19t-75 54t-47.5 83t-16.5 107
q0 58 16.5 106.5t47.5 83.5t75 54t99 19q26 0 50 -7t43 -16.5t32 -19t18 -14.5q4 -5 7 -3t3 5v238q0 5 5 5h85q5 0 5 -5v-694q0 -5 -5 -5h-75zM128 253q0 -39 10.5 -71.5t30 -56.5t48 -37t64.5 -13q34 0 60.5 13t45 37t28 56.5t9.5 71.5t-9.5 71.5t-28 56.5t-45 37t-60.5 13
q-36 0 -64.5 -13t-48 -37t-30 -56.5t-10.5 -71.5z" />
    <glyph glyph-name="Dcroat" unicode="&#x110;" horiz-adv-x="701" 
d="M77 296q0 5 -5 5h-54q-5 0 -5 5v75q0 5 5 5h54q5 0 5 5v308q0 5 5 5h258q79 0 137.5 -27t97.5 -74.5t58.5 -113t19.5 -144.5q0 -80 -19.5 -143.5t-58.5 -108.5t-97.5 -69t-137.5 -24h-258q-5 0 -5 5v291zM177 301q-5 0 -5 -5v-206q0 -5 5 -5h163q101 0 157 66t56 194
q0 63 -14.5 113.5t-42 86t-67 55t-89.5 19.5h-163q-5 0 -5 -5v-223q0 -5 5 -5h154q5 0 5 -5v-75q0 -5 -5 -5h-154z" />
    <glyph glyph-name="dcroat" unicode="&#x111;" horiz-adv-x="597" 
d="M439 0q-3 0 -5 5l-10 41q-2 5 -5 4t-5 -3q-10 -11 -26.5 -21t-36 -18t-40.5 -13t-40 -5q-55 0 -99 19t-75 54t-47.5 83t-16.5 107q0 58 16.5 106.5t47.5 83.5t75 54t99 19q26 0 50 -7t43 -16.5t32 -19t18 -14.5q4 -5 7 -3t3 5v94q0 5 -5 5h-144q-5 0 -5 5v55q0 5 5 5h144
q5 0 5 5v69q0 5 5 5h85q5 0 5 -5v-69q0 -5 5 -5h54q5 0 5 -5v-55q0 -5 -5 -5h-54q-5 0 -5 -5v-550q0 -5 -5 -5h-75zM128 253q0 -39 10.5 -71.5t30 -56.5t48 -37t64.5 -13q34 0 60.5 13t45 37t28 56.5t9.5 71.5t-9.5 71.5t-28 56.5t-45 37t-60.5 13q-36 0 -64.5 -13t-48 -37
t-30 -56.5t-10.5 -71.5z" />
    <glyph glyph-name="Emacron" unicode="&#x112;" horiz-adv-x="612" 
d="M63 699q0 5 5 5h481q5 0 5 -5v-75q0 -5 -5 -5h-386q-5 0 -5 -5v-204q0 -5 5 -5h345q5 0 5 -5v-75q0 -5 -5 -5h-345q-5 0 -5 -5v-225q0 -5 5 -5h386q5 0 5 -5v-75q0 -5 -5 -5h-481q-5 0 -5 5v694v0zM180 783q-4 0 -4 5v58q0 5 4 5h246q5 0 5 -5v-58q0 -5 -5 -5h-246z" />
    <glyph glyph-name="emacron" unicode="&#x113;" horiz-adv-x="549" 
d="M138 219q-5 0 -5 -5q0 -27 9.5 -52.5t28 -44.5t45 -30.5t59.5 -11.5q54 0 82.5 20t44.5 50q2 5 7 5h89q6 0 5 -5q-20 -74 -81.5 -114.5t-146.5 -40.5q-56 0 -101 19t-76.5 54t-48.5 83t-17 107t16 107.5t47 83t76.5 53.5t103.5 19t103.5 -19t77 -54t47.5 -83.5t16 -106.5
q0 -17 -3 -29q-2 -5 -5 -5h-373zM415 299q0 21 -8 44.5t-25 43t-43.5 32t-63.5 12.5q-36 0 -63 -14t-44.5 -34.5t-26 -43t-8.5 -40.5q0 -5 5 -5h272q5 0 5 5zM158 589q-4 0 -4 5v58q0 5 4 5h246q5 0 5 -5v-58q0 -5 -5 -5h-246z" />
    <glyph glyph-name="Ebreve" unicode="&#x114;" horiz-adv-x="612" 
d="M63 699q0 5 5 5h481q5 0 5 -5v-75q0 -5 -5 -5h-386q-5 0 -5 -5v-204q0 -5 5 -5h345q5 0 5 -5v-75q0 -5 -5 -5h-345q-5 0 -5 -5v-225q0 -5 5 -5h386q5 0 5 -5v-75q0 -5 -5 -5h-481q-5 0 -5 5v694v0zM432 898q5 0 5 -5q0 -31 -10.5 -52t-27 -34t-36.5 -18.5t-40 -5.5
t-40 5.5t-36.5 18.5t-27 34t-10.5 52q0 5 5 5h62q5 0 5 -5q0 -21 14 -29.5t28 -8.5t27.5 8.5t13.5 29.5q0 5 5 5h63z" />
    <glyph glyph-name="ebreve" unicode="&#x115;" horiz-adv-x="549" 
d="M138 219q-5 0 -5 -5q0 -27 9.5 -52.5t28 -44.5t45 -30.5t59.5 -11.5q54 0 82.5 20t44.5 50q2 5 7 5h89q6 0 5 -5q-20 -74 -81.5 -114.5t-146.5 -40.5q-56 0 -101 19t-76.5 54t-48.5 83t-17 107t16 107.5t47 83t76.5 53.5t103.5 19t103.5 -19t77 -54t47.5 -83.5t16 -106.5
q0 -17 -3 -29q-2 -5 -5 -5h-373zM415 299q0 21 -8 44.5t-25 43t-43.5 32t-63.5 12.5q-36 0 -63 -14t-44.5 -34.5t-26 -43t-8.5 -40.5q0 -5 5 -5h272q5 0 5 5zM381 704q5 0 5 -5q0 -31 -10.5 -52t-27 -34t-36.5 -18.5t-40 -5.5t-40 5.5t-36.5 18.5t-27 34t-10.5 52q0 5 5 5
h62q5 0 5 -5q0 -21 14 -29.5t28 -8.5t27.5 8.5t13.5 29.5q0 5 5 5h63z" />
    <glyph glyph-name="Edotaccent" unicode="&#x116;" horiz-adv-x="612" 
d="M63 699q0 5 5 5h481q5 0 5 -5v-75q0 -5 -5 -5h-386q-5 0 -5 -5v-204q0 -5 5 -5h345q5 0 5 -5v-75q0 -5 -5 -5h-345q-5 0 -5 -5v-225q0 -5 5 -5h386q5 0 5 -5v-75q0 -5 -5 -5h-481q-5 0 -5 5v694v0zM249 783q-5 0 -5 5v132q0 5 5 5h129q5 0 5 -5v-132q0 -5 -5 -5h-129z
" />
    <glyph glyph-name="edotaccent" unicode="&#x117;" horiz-adv-x="549" 
d="M138 219q-5 0 -5 -5q0 -27 9.5 -52.5t28 -44.5t45 -30.5t59.5 -11.5q54 0 82.5 20t44.5 50q2 5 7 5h89q6 0 5 -5q-20 -74 -81.5 -114.5t-146.5 -40.5q-56 0 -101 19t-76.5 54t-48.5 83t-17 107t16 107.5t47 83t76.5 53.5t103.5 19t103.5 -19t77 -54t47.5 -83.5t16 -106.5
q0 -17 -3 -29q-2 -5 -5 -5h-373zM415 299q0 21 -8 44.5t-25 43t-43.5 32t-63.5 12.5q-36 0 -63 -14t-44.5 -34.5t-26 -43t-8.5 -40.5q0 -5 5 -5h272q5 0 5 5zM207 562q-5 0 -5 5v132q0 5 5 5h129q5 0 5 -5v-132q0 -5 -5 -5h-129z" />
    <glyph glyph-name="Eogonek" unicode="&#x118;" horiz-adv-x="612" 
d="M63 699q0 5 5 5h481q5 0 5 -5v-75q0 -5 -5 -5h-386q-5 0 -5 -5v-204q0 -5 5 -5h345q5 0 5 -5v-75q0 -5 -5 -5h-345q-5 0 -5 -5v-225q0 -5 5 -5h386q5 0 5 -5v-75q0 -5 -5 -5h-11q-32 0 -53.5 -18.5t-21.5 -43.5q0 -31 20 -46t52 -15h14q5 0 5 -5v-65q0 -5 -5 -5h-24
q-59 0 -96 25.5t-38 73.5q0 30 13.5 51t39.5 38q4 2 3 6t-6 4h-373q-5 0 -5 5v694v0z" />
    <glyph glyph-name="eogonek" unicode="&#x119;" horiz-adv-x="549" 
d="M138 219q-5 0 -5 -5q0 -27 9.5 -52.5t28 -44.5t45 -30.5t59.5 -11.5q54 0 82.5 20t44.5 50q2 5 7 5h89q6 0 5 -5q-9 -32 -26.5 -58t-41.5 -46q-14 -11 -28.5 -21t-26.5 -21.5t-20 -26t-8 -34.5q0 -31 20 -46t52 -15h14q5 0 5 -5v-65q0 -5 -5 -5h-24q-59 0 -95.5 25.5
t-38.5 73.5q-1 19 6.5 42t22.5 39q2 2 1 5.5t-5 3.5q-12 -1 -17 -1h-13q-56 0 -101 19t-76.5 54t-48.5 83t-17 107t16 107.5t47 83t76.5 53.5t103.5 19t103.5 -19t77 -54t47.5 -83.5t16 -106.5q0 -17 -3 -29q-2 -5 -5 -5h-373zM415 299q0 21 -8 44.5t-25 43t-43.5 32
t-63.5 12.5q-36 0 -63 -14t-44.5 -34.5t-26 -43t-8.5 -40.5q0 -5 5 -5h272q5 0 5 5z" />
    <glyph glyph-name="Ecaron" unicode="&#x11a;" horiz-adv-x="612" 
d="M63 699q0 5 5 5h481q5 0 5 -5v-75q0 -5 -5 -5h-386q-5 0 -5 -5v-204q0 -5 5 -5h345q5 0 5 -5v-75q0 -5 -5 -5h-345q-5 0 -5 -5v-225q0 -5 5 -5h386q5 0 5 -5v-75q0 -5 -5 -5h-481q-5 0 -5 5v694v0zM424 902q8 0 5 -7l-43 -104q-1 -4 -5 -4h-114q-4 0 -5 4l-44 104
q-2 3 0 5t5 2h60q3 0 6 -4l30 -41q5 -7 11 0l28 41q3 4 6 4h60z" />
    <glyph glyph-name="ecaron" unicode="&#x11b;" horiz-adv-x="549" 
d="M138 219q-5 0 -5 -5q0 -27 9.5 -52.5t28 -44.5t45 -30.5t59.5 -11.5q54 0 82.5 20t44.5 50q2 5 7 5h89q6 0 5 -5q-20 -74 -81.5 -114.5t-146.5 -40.5q-56 0 -101 19t-76.5 54t-48.5 83t-17 107t16 107.5t47 83t76.5 53.5t103.5 19t103.5 -19t77 -54t47.5 -83.5t16 -106.5
q0 -17 -3 -29q-2 -5 -5 -5h-373zM415 299q0 21 -8 44.5t-25 43t-43.5 32t-63.5 12.5q-36 0 -63 -14t-44.5 -34.5t-26 -43t-8.5 -40.5q0 -5 5 -5h272q5 0 5 5zM380 704q8 0 5 -7l-43 -104q-1 -4 -5 -4h-114q-4 0 -5 4l-44 104q-2 3 0 5t5 2h60q3 0 6 -4l30 -41q5 -7 11 0
l28 41q3 4 6 4h60z" />
    <glyph glyph-name="Gcircumflex" unicode="&#x11c;" horiz-adv-x="723" 
d="M660 5q0 -5 -5 -5h-73q-6 0 -7 6l-10 70q0 3 -3.5 4t-5.5 -2q-12 -16 -32.5 -31.5t-48 -28t-60 -20.5t-66.5 -8q-83 0 -142.5 26.5t-98 74.5t-57 114.5t-18.5 146.5q0 79 21 145.5t61.5 114.5t99.5 75t134 27q67 0 116 -17.5t83 -46t55 -65t32 -74.5q1 -5 -5 -5h-93
q-5 0 -6 5q-23 59 -71 88.5t-111 29.5q-105 0 -160.5 -73.5t-55.5 -203.5t55.5 -203.5t160.5 -73.5q106 0 161 54.5t55 175.5q0 5 -5 5h-206q-5 0 -5 5v75q0 5 5 5h301q5 0 5 -5v-385v0zM399 783q-3 0 -6 4l-29 41q-6 9 -11 0l-29 -41q-3 -4 -6 -4h-60q-3 0 -5 2t0 5l44 104
q1 4 5 4h114q4 0 5 -4l43 -104q3 -7 -5 -7h-60z" />
    <glyph glyph-name="gcircumflex" unicode="&#x11d;" horiz-adv-x="568" 
d="M154 -59q3 -9 11.5 -20t24 -20.5t38 -16.5t53.5 -7q39 0 66.5 12.5t44 32.5t24 45.5t7.5 51.5v27q0 3 -3.5 5t-6.5 -3q-4 -5 -17 -15t-32.5 -19.5t-43.5 -16.5t-50 -7q-51 0 -94.5 19t-75.5 54t-50 83t-18 107q0 58 16.5 106.5t47.5 83.5t75 54t99 19q19 0 39.5 -5
t40 -12.5t36 -18t27.5 -20.5q2 -2 5 -3t5 4l10 40q2 5 5 5h75q5 0 5 -5v-482q0 -51 -17 -92.5t-48.5 -71.5t-75 -46.5t-96.5 -16.5q-46 0 -85.5 12t-69.5 32.5t-48 47.5t-21 57q0 5 5 5h87q3 0 5 -5zM127 253q0 -39 10.5 -71.5t30 -56.5t48 -37t64.5 -13q34 0 60.5 13t45 37
t28 56.5t9.5 71.5t-9.5 71.5t-28 56.5t-45 37t-60.5 13q-36 0 -64.5 -13t-48 -37t-30 -56.5t-10.5 -71.5zM321 589q-3 0 -6 4l-29 41q-6 9 -11 0l-29 -41q-3 -4 -6 -4h-60q-3 0 -5 2t0 5l44 104q1 4 5 4h114q4 0 5 -4l43 -104q3 -7 -5 -7h-60z" />
    <glyph glyph-name="Gbreve" unicode="&#x11e;" horiz-adv-x="723" 
d="M660 5q0 -5 -5 -5h-73q-6 0 -7 6l-10 70q0 3 -3.5 4t-5.5 -2q-12 -16 -32.5 -31.5t-48 -28t-60 -20.5t-66.5 -8q-83 0 -142.5 26.5t-98 74.5t-57 114.5t-18.5 146.5q0 79 21 145.5t61.5 114.5t99.5 75t134 27q67 0 116 -17.5t83 -46t55 -65t32 -74.5q1 -5 -5 -5h-93
q-5 0 -6 5q-23 59 -71 88.5t-111 29.5q-105 0 -160.5 -73.5t-55.5 -203.5t55.5 -203.5t160.5 -73.5q106 0 161 54.5t55 175.5q0 5 -5 5h-206q-5 0 -5 5v75q0 5 5 5h301q5 0 5 -5v-385v0zM468 898q5 0 5 -5q0 -31 -10.5 -52t-27 -34t-36.5 -18.5t-40 -5.5t-40 5.5t-36.5 18.5
t-27 34t-10.5 52q0 5 5 5h62q5 0 5 -5q0 -21 14 -29.5t28 -8.5t27.5 8.5t13.5 29.5q0 5 5 5h63z" />
    <glyph glyph-name="gbreve" unicode="&#x11f;" horiz-adv-x="568" 
d="M154 -59q3 -9 11.5 -20t24 -20.5t38 -16.5t53.5 -7q39 0 66.5 12.5t44 32.5t24 45.5t7.5 51.5v27q0 3 -3.5 5t-6.5 -3q-4 -5 -17 -15t-32.5 -19.5t-43.5 -16.5t-50 -7q-51 0 -94.5 19t-75.5 54t-50 83t-18 107q0 58 16.5 106.5t47.5 83.5t75 54t99 19q19 0 39.5 -5
t40 -12.5t36 -18t27.5 -20.5q2 -2 5 -3t5 4l10 40q2 5 5 5h75q5 0 5 -5v-482q0 -51 -17 -92.5t-48.5 -71.5t-75 -46.5t-96.5 -16.5q-46 0 -85.5 12t-69.5 32.5t-48 47.5t-21 57q0 5 5 5h87q3 0 5 -5zM127 253q0 -39 10.5 -71.5t30 -56.5t48 -37t64.5 -13q34 0 60.5 13t45 37
t28 56.5t9.5 71.5t-9.5 71.5t-28 56.5t-45 37t-60.5 13q-36 0 -64.5 -13t-48 -37t-30 -56.5t-10.5 -71.5zM390 704q5 0 5 -5q0 -31 -10.5 -52t-27 -34t-36.5 -18.5t-40 -5.5t-40 5.5t-36.5 18.5t-27 34t-10.5 52q0 5 5 5h62q5 0 5 -5q0 -21 14 -29.5t28 -8.5t27.5 8.5
t13.5 29.5q0 5 5 5h63z" />
    <glyph glyph-name="Gdotaccent" unicode="&#x120;" horiz-adv-x="723" 
d="M660 5q0 -5 -5 -5h-73q-6 0 -7 6l-10 70q0 3 -3.5 4t-5.5 -2q-12 -16 -32.5 -31.5t-48 -28t-60 -20.5t-66.5 -8q-83 0 -142.5 26.5t-98 74.5t-57 114.5t-18.5 146.5q0 79 21 145.5t61.5 114.5t99.5 75t134 27q67 0 116 -17.5t83 -46t55 -65t32 -74.5q1 -5 -5 -5h-93
q-5 0 -6 5q-23 59 -71 88.5t-111 29.5q-105 0 -160.5 -73.5t-55.5 -203.5t55.5 -203.5t160.5 -73.5q106 0 161 54.5t55 175.5q0 5 -5 5h-206q-5 0 -5 5v75q0 5 5 5h301q5 0 5 -5v-385v0zM294 783q-5 0 -5 5v132q0 5 5 5h129q5 0 5 -5v-132q0 -5 -5 -5h-129z" />
    <glyph glyph-name="gdotaccent" unicode="&#x121;" horiz-adv-x="568" 
d="M154 -59q3 -9 11.5 -20t24 -20.5t38 -16.5t53.5 -7q39 0 66.5 12.5t44 32.5t24 45.5t7.5 51.5v27q0 3 -3.5 5t-6.5 -3q-4 -5 -17 -15t-32.5 -19.5t-43.5 -16.5t-50 -7q-51 0 -94.5 19t-75.5 54t-50 83t-18 107q0 58 16.5 106.5t47.5 83.5t75 54t99 19q19 0 39.5 -5
t40 -12.5t36 -18t27.5 -20.5q2 -2 5 -3t5 4l10 40q2 5 5 5h75q5 0 5 -5v-482q0 -51 -17 -92.5t-48.5 -71.5t-75 -46.5t-96.5 -16.5q-46 0 -85.5 12t-69.5 32.5t-48 47.5t-21 57q0 5 5 5h87q3 0 5 -5zM127 253q0 -39 10.5 -71.5t30 -56.5t48 -37t64.5 -13q34 0 60.5 13t45 37
t28 56.5t9.5 71.5t-9.5 71.5t-28 56.5t-45 37t-60.5 13q-36 0 -64.5 -13t-48 -37t-30 -56.5t-10.5 -71.5zM217 562q-5 0 -5 5v132q0 5 5 5h129q5 0 5 -5v-132q0 -5 -5 -5h-129z" />
    <glyph glyph-name="uni0122" unicode="&#x122;" horiz-adv-x="723" 
d="M313 -134q-5 0 -5 5v69q0 5 5 5h68q5 0 5 -5v-71q0 -34 -20 -55.5t-53 -21.5q-5 0 -5 5v29q0 5 5 5q9 0 18 7t9 23q0 5 -5 5h-22zM660 5q0 -5 -5 -5h-73q-6 0 -7 6l-10 70q0 3 -3.5 4t-5.5 -2q-12 -16 -32.5 -31.5t-48 -28t-60 -20.5t-66.5 -8q-83 0 -142.5 26.5
t-98 74.5t-57 114.5t-18.5 146.5q0 79 21 145.5t61.5 114.5t99.5 75t134 27q67 0 116 -17.5t83 -46t55 -65t32 -74.5q1 -5 -5 -5h-93q-5 0 -6 5q-23 59 -71 88.5t-111 29.5q-105 0 -160.5 -73.5t-55.5 -203.5t55.5 -203.5t160.5 -73.5q106 0 161 54.5t55 175.5q0 5 -5 5
h-206q-5 0 -5 5v75q0 5 5 5h301q5 0 5 -5v-385z" />
    <glyph glyph-name="uni0123" unicode="&#x123;" horiz-adv-x="568" 
d="M154 -59q3 -9 11.5 -20t24 -20.5t38 -16.5t53.5 -7q39 0 66.5 12.5t44 32.5t24 45.5t7.5 51.5v27q0 3 -3.5 5t-6.5 -3q-4 -5 -17 -15t-32.5 -19.5t-43.5 -16.5t-50 -7q-51 0 -94.5 19t-75.5 54t-50 83t-18 107q0 58 16.5 106.5t47.5 83.5t75 54t99 19q19 0 39.5 -5
t40 -12.5t36 -18t27.5 -20.5q2 -2 5 -3t5 4l10 40q2 5 5 5h75q5 0 5 -5v-482q0 -51 -17 -92.5t-48.5 -71.5t-75 -46.5t-96.5 -16.5q-46 0 -85.5 12t-69.5 32.5t-48 47.5t-21 57q0 5 5 5h87q3 0 5 -5zM127 253q0 -39 10.5 -71.5t30 -56.5t48 -37t64.5 -13q34 0 60.5 13t45 37
t28 56.5t9.5 71.5t-9.5 71.5t-28 56.5t-45 37t-60.5 13q-36 0 -64.5 -13t-48 -37t-30 -56.5t-10.5 -71.5zM305 630q5 0 5 -5v-69q0 -5 -5 -5h-68q-5 0 -5 5v71q0 34 20 55.5t53 21.5q5 0 5 -5v-29q0 -5 -5 -5q-9 0 -18 -7t-9 -23q0 -5 5 -5h22z" />
    <glyph glyph-name="Hcircumflex" unicode="&#x124;" horiz-adv-x="658" 
d="M575 704q5 0 5 -5v-694q0 -5 -5 -5h-85q-5 0 -5 5v310q0 5 -5 5h-317q-5 0 -5 -4v-311q0 -5 -5 -5h-85q-5 0 -5 5v694q0 5 5 5h85q5 0 5 -5v-289q0 -5 5 -5h317q5 0 5 5v289q0 5 5 5h85zM367 783q-3 0 -6 4l-29 41q-6 9 -11 0l-29 -41q-3 -4 -6 -4h-60q-3 0 -5 2t0 5
l44 104q1 4 5 4h114q4 0 5 -4l43 -104q3 -7 -5 -7h-60z" />
    <glyph glyph-name="hcircumflex" unicode="&#x125;" horiz-adv-x="568" 
d="M150 704q5 0 5 -5v-242q0 -4 4 -5t7 3q23 29 57.5 45t73.5 16q58 0 99.5 -18.5t67.5 -50.5t38.5 -75t12.5 -92v-275q0 -5 -5 -5h-85q-5 0 -5 5v275q0 28 -7 55.5t-22.5 48.5t-41 34t-62.5 13q-32 0 -56.5 -12.5t-41 -33.5t-25.5 -48.5t-9 -56.5v-275q0 -5 -5 -5h-85
q-5 0 -5 5v694q0 5 5 5h85zM147 783q-3 0 -6 4l-29 41q-6 9 -11 0l-29 -41q-3 -4 -6 -4h-60q-3 0 -5 2t0 5l44 104q1 4 5 4h114q4 0 5 -4l43 -104q3 -7 -5 -7h-60z" />
    <glyph glyph-name="Hbar" unicode="&#x126;" horiz-adv-x="668" 
d="M73 555q0 5 -5 5h-54q-4 0 -4 5v55q0 5 4 5h54q5 0 5 5v69q0 5 5 5h85q5 0 5 -5v-69q0 -5 5 -5h317q5 0 5 5v69q0 5 5 5h85q5 0 5 -5v-69q0 -5 5 -5h53q5 0 5 -5v-55q0 -5 -5 -5h-53q-5 0 -5 -5v-550q0 -5 -5 -5h-85q-5 0 -5 5v310q0 5 -5 5h-317q-5 0 -5 -4v-311
q0 -5 -5 -5h-85q-5 0 -5 5v550zM495 555q0 5 -5 5h-317q-5 0 -5 -5v-145q0 -5 5 -5h317q5 0 5 5v145z" />
    <glyph glyph-name="hbar" unicode="&#x127;" horiz-adv-x="572" 
d="M64 555q0 5 -5 5h-55q-4 0 -4 5v55q0 5 4 5h55q5 0 5 5v69q0 5 5 5h85q5 0 5 -5v-69q0 -5 5 -5h144q5 0 5 -5v-55q0 -5 -5 -5h-144q-5 0 -5 -5v-98q0 -4 4 -5t7 3q23 29 57.5 45t73.5 16q58 0 99.5 -18.5t67.5 -50.5t38.5 -75t12.5 -92v-275q0 -5 -5 -5h-85q-5 0 -5 5
v275q0 28 -7 55.5t-22.5 48.5t-41 34t-62.5 13q-32 0 -56.5 -12.5t-41 -33.5t-25.5 -48.5t-9 -56.5v-275q0 -5 -5 -5h-85q-5 0 -5 5v550z" />
    <glyph glyph-name="Itilde" unicode="&#x128;" horiz-adv-x="236" 
d="M153 704q5 0 5 -5v-694q0 -5 -5 -5h-85q-5 0 -5 5v694q0 5 5 5h85zM-40 811q0 13 5 28t16.5 28t31 21.5t49.5 8.5q22 0 38.5 -7t29 -16t22 -16t17.5 -7q3 0 8.5 0.5t11 4t9 12t3.5 24.5q0 5 5 5h60q5 0 5 -5v-24q0 -13 -5 -28t-17 -27.5t-31.5 -21t-48.5 -8.5
q-20 0 -36 7t-29 16t-23 16t-19 7q-3 0 -8.5 -0.5t-11 -4t-9 -12t-3.5 -24.5q0 -5 -5 -5h-60q-5 0 -5 5v23z" />
    <glyph glyph-name="itilde" unicode="&#x129;" horiz-adv-x="242" 
d="M158 5q0 -5 -5 -5h-85q-5 0 -5 5v496q0 5 5 5h85q5 0 5 -5v-496zM-37 618q0 13 5 28t16.5 28t31 21.5t49.5 8.5q22 0 38.5 -7t29 -16t22 -16t17.5 -7q3 0 8.5 0.5t11 4t9 12t3.5 24.5q0 5 5 5h60q5 0 5 -5v-24q0 -13 -5 -28t-17 -27.5t-31.5 -21t-48.5 -8.5q-20 0 -36 7
t-29 16t-23 16t-19 7q-3 0 -8.5 -0.5t-11 -4t-9 -12t-3.5 -24.5q0 -5 -5 -5h-60q-5 0 -5 5v23z" />
    <glyph glyph-name="Imacron" unicode="&#x12a;" horiz-adv-x="236" 
d="M153 704q5 0 5 -5v-694q0 -5 -5 -5h-85q-5 0 -5 5v694q0 5 5 5h85zM-8 788q-4 0 -4 5v58q0 5 4 5h246q5 0 5 -5v-58q0 -5 -5 -5h-246z" />
    <glyph glyph-name="imacron" unicode="&#x12b;" horiz-adv-x="242" 
d="M158 5q0 -5 -5 -5h-85q-5 0 -5 5v496q0 5 5 5h85q5 0 5 -5v-496zM-5 589q-4 0 -4 5v58q0 5 4 5h246q5 0 5 -5v-58q0 -5 -5 -5h-246z" />
    <glyph glyph-name="Iogonek" unicode="&#x12e;" horiz-adv-x="236" 
d="M153 704q5 0 5 -5v-694q0 -5 -5 -5h-13q-32 0 -52 -18.5t-20 -43.5q0 -31 20 -46t52 -15h14q5 0 5 -5v-65q0 -5 -5 -5h-24q-59 0 -96 25.5t-38 73.5q0 35 17 59.5t46 36.5q4 2 4 8v694q0 5 5 5h85z" />
    <glyph glyph-name="iogonek" unicode="&#x12f;" horiz-adv-x="246" 
d="M168 5q0 -5 -5 -5h-15q-32 0 -53.5 -18.5t-21.5 -43.5q0 -31 20 -46t52 -15h14q5 0 5 -5v-65q0 -5 -5 -5h-24q-59 0 -96 25.5t-38 73.5q-1 70 68 97q4 2 4 3.5v3.5v496q0 5 5 5h85q5 0 5 -5v-496zM178 594q0 -5 -5 -5h-105q-5 0 -5 5v105q0 5 5 5h105q5 0 5 -5v-105z" />
    <glyph glyph-name="Idotaccent" unicode="&#x130;" horiz-adv-x="236" 
d="M153 704q5 0 5 -5v-694q0 -5 -5 -5h-85q-5 0 -5 5v694q0 5 5 5h85zM51 783q-5 0 -5 5v132q0 5 5 5h129q5 0 5 -5v-132q0 -5 -5 -5h-129z" />
    <glyph glyph-name="dotlessi" unicode="&#x131;" horiz-adv-x="242" 
d="M158 5q0 -5 -5 -5h-85q-5 0 -5 5v496q0 5 5 5h85q5 0 5 -5v-496z" />
    <glyph glyph-name="IJ" unicode="&#x132;" 
d="M456 5q0 -5 -5 -5h-411q-5 0 -5 5v694q0 5 5 5h411q5 0 5 -5v-694zM419 681h-346l173 -306zM419 24l-173 305l-173 -305h346zM432 48v608q-43 -75 -87 -152t-86 -152zM233 352l-173 305v-610z" />
    <glyph glyph-name="ij" unicode="&#x133;" 
d="M456 5q0 -5 -5 -5h-411q-5 0 -5 5v694q0 5 5 5h411q5 0 5 -5v-694zM419 681h-346l173 -306zM419 24l-173 305l-173 -305h346zM432 48v608q-43 -75 -87 -152t-86 -152zM233 352l-173 305v-610z" />
    <glyph glyph-name="Jcircumflex" unicode="&#x134;" horiz-adv-x="462" 
d="M92 220q5 0 5 -5v-17q0 -21 3 -43t13.5 -39.5t31 -29t56.5 -11.5q35 0 56 11.5t31.5 29t13.5 39.5t3 43v501q0 5 5 5h85q5 0 5 -5v-501q0 -43 -9 -81t-31.5 -66t-61 -44.5t-98.5 -16.5q-55 0 -93 16.5t-61 44.5t-33.5 66t-10.5 81v17q0 5 5 5h85zM394 783q-3 0 -6 4
l-29 41q-6 9 -11 0l-29 -41q-3 -4 -6 -4h-60q-3 0 -5 2t0 5l44 104q1 4 5 4h114q4 0 5 -4l43 -104q3 -7 -5 -7h-60z" />
    <glyph glyph-name="jcircumflex" unicode="&#x135;" horiz-adv-x="300" 
d="M13 -118q0 5 5 5h59q30 0 42 13.5t12 36.5v564q0 5 5 5h85q5 0 5 -5v-581q0 -62 -34 -91t-97 -27h-77q-5 0 -5 5v75zM217 589q-3 0 -6 4l-29 41q-6 9 -11 0l-29 -41q-3 -4 -6 -4h-60q-3 0 -5 2t0 5l44 104q1 4 5 4h114q4 0 5 -4l43 -104q3 -7 -5 -7h-60z" />
    <glyph glyph-name="uni0136" unicode="&#x136;" horiz-adv-x="623" 
d="M263 358q-2 4 -6 0l-90 -89q-4 -4 -4 -8v-256q0 -5 -5 -5h-85q-5 0 -5 5v694q0 5 5 5h85q5 0 5 -5v-299q0 -6 4 -2l307 301q5 5 8 5h114q2 0 3.5 -1.5t-0.5 -3.5l-269 -267q-3 -3 0 -8l275 -419q2 -2 0.5 -3.5t-3.5 -1.5h-99q-3 0 -8 5zM289 -134q-5 0 -5 5v69q0 5 5 5
h68q5 0 5 -5v-71q0 -34 -20 -55.5t-53 -21.5q-5 0 -5 5v29q0 5 5 5q9 0 18 7t9 23q0 5 -5 5h-22z" />
    <glyph glyph-name="uni0137" unicode="&#x137;" horiz-adv-x="568" 
d="M451 0q-6 0 -9 5l-159 273q-3 4 -7 0l-114 -98q-2 -2 -2 -6v-169q0 -5 -5 -5h-85q-5 0 -5 5v694q0 5 5 5h85q5 0 5 -5v-392q0 -2 2.5 -3t4.5 1l230 196q5 4 9 4.5t6 0.5h123q2 0 3.5 -1.5t-0.5 -3.5l-186 -158q-3 -3 0 -8l193 -330q2 -5 -4 -5h-90zM259 -134q-5 0 -5 5
v69q0 5 5 5h68q5 0 5 -5v-71q0 -34 -20 -55.5t-53 -21.5q-5 0 -5 5v29q0 5 5 5q9 0 18 7t9 23q0 5 -5 5h-22z" />
    <glyph glyph-name="kgreenlandic" unicode="&#x138;" horiz-adv-x="568" 
d="M451 0q-6 0 -9 5l-159 273q-3 4 -7 0l-114 -98q-2 -2 -2 -6v-169q0 -5 -5 -5h-85q-5 0 -5 5v496q0 5 5 5h85q5 0 5 -5v-194q0 -2 2.5 -3t4.5 1l230 196q5 4 9 4.5t6 0.5h123q2 0 3.5 -1.5t-0.5 -3.5l-186 -158q-3 -3 0 -8l193 -330q2 -5 -4 -5h-90z" />
    <glyph glyph-name="Lacute" unicode="&#x139;" horiz-adv-x="541" 
d="M69 699q0 5 5 5h85q5 0 5 -5v-609q0 -5 5 -5h350q5 0 5 -5v-75q0 -5 -5 -5h-445q-5 0 -5 5v694zM80 783q-3 0 -5 2t0 5l43 101q2 7 10 7h87q8 0 5 -7l-72 -101l-4.5 -4.5t-6.5 -2.5h-57z" />
    <glyph glyph-name="lacute" unicode="&#x13a;" horiz-adv-x="240" 
d="M163 5q0 -5 -5 -5h-85q-5 0 -5 5v694q0 5 5 5h85q5 0 5 -5v-694zM80 783q-3 0 -5 2t0 5l43 101q2 7 10 7h87q8 0 5 -7l-72 -101l-4.5 -4.5t-6.5 -2.5h-57z" />
    <glyph glyph-name="uni013B" unicode="&#x13b;" horiz-adv-x="541" 
d="M259 -134q-5 0 -5 5v69q0 5 5 5h68q5 0 5 -5v-71q0 -34 -20 -55.5t-53 -21.5q-5 0 -5 5v29q0 5 5 5q9 0 18 7t9 23q0 5 -5 5h-22zM69 699q0 5 5 5h85q5 0 5 -5v-609q0 -5 5 -5h350q5 0 5 -5v-75q0 -5 -5 -5h-445q-5 0 -5 5v694z" />
    <glyph glyph-name="uni013C" unicode="&#x13c;" horiz-adv-x="240" 
d="M163 5q0 -5 -5 -5h-85q-5 0 -5 5v694q0 5 5 5h85q5 0 5 -5v-694zM82 -134q-5 0 -5 5v69q0 5 5 5h68q5 0 5 -5v-71q0 -34 -20 -55.5t-53 -21.5q-5 0 -5 5v29q0 5 5 5q9 0 18 7t9 23q0 5 -5 5h-22z" />
    <glyph glyph-name="Lcaron" unicode="&#x13d;" horiz-adv-x="541" 
d="M220 625q-5 0 -5 5v69q0 5 5 5h68q5 0 5 -5v-71q0 -34 -20 -55.5t-53 -21.5q-5 0 -5 5v29q0 5 5 5q9 0 18 7t9 23q0 5 -5 5h-22zM69 699q0 5 5 5h85q5 0 5 -5v-609q0 -5 5 -5h350q5 0 5 -5v-75q0 -5 -5 -5h-445q-5 0 -5 5v694z" />
    <glyph glyph-name="lcaron" unicode="&#x13e;" horiz-adv-x="313" 
d="M220 625q-5 0 -5 5v69q0 5 5 5h68q5 0 5 -5v-71q0 -34 -20 -55.5t-53 -21.5q-5 0 -5 5v29q0 5 5 5q9 0 18 7t9 23q0 5 -5 5h-22zM163 5q0 -5 -5 -5h-85q-5 0 -5 5v694q0 5 5 5h85q5 0 5 -5v-694z" />
    <glyph glyph-name="Ldot" unicode="&#x13f;" horiz-adv-x="544" 
d="M69 699q0 5 5 5h85q5 0 5 -5v-609q0 -5 5 -5h350q5 0 5 -5v-75q0 -5 -5 -5h-445q-5 0 -5 5v694zM263 276q-5 0 -5 5v151q0 5 5 5h149q5 0 5 -5v-151q0 -5 -5 -5h-149z" />
    <glyph glyph-name="ldot" unicode="&#x140;" horiz-adv-x="390" 
d="M163 5q0 -5 -5 -5h-85q-5 0 -5 5v694q0 5 5 5h85q5 0 5 -5v-694zM216 276q-5 0 -5 5v151q0 5 5 5h149q5 0 5 -5v-151q0 -5 -5 -5h-149z" />
    <glyph glyph-name="Lslash" unicode="&#x141;" horiz-adv-x="620" 
d="M145 225q0 2 -2.5 3t-5.5 -1l-58 -46q-7 -2 -7 5v73q0 4 3 7l67 53q3 3 3 7v373q0 5 5 5h85q5 0 5 -5v-294q0 -3 3 -4.5t5 0.5l58 46q7 2 7 -5v-74q0 -4 -3 -5l-68 -54q-2 -2 -2 -4v-215q0 -5 5 -5h350q5 0 5 -5v-75q0 -5 -5 -5h-445q-5 0 -5 5v220z" />
    <glyph glyph-name="lslash" unicode="&#x142;" horiz-adv-x="276" 
d="M88 225q0 2 -2.5 3t-5.5 -1l-58 -46q-7 -2 -7 5v73q0 4 3 7l67 53q3 3 3 7v373q0 5 5 5h85q5 0 5 -5v-294q0 -3 3 -4.5t5 0.5l58 46q7 2 7 -5v-74q0 -4 -3 -5l-68 -54q-2 -2 -2 -4v-300q0 -5 -5 -5h-85q-5 0 -5 5v220z" />
    <glyph glyph-name="Nacute" unicode="&#x143;" horiz-adv-x="709" 
d="M626 704q5 0 5 -5v-694q0 -5 -5 -5h-147q-5 0 -8 5l-303 601q-2 3 -6 3t-4 -5v-599q0 -5 -5 -5h-85q-5 0 -5 5v694q0 5 5 5h148q4 0 7 -5l303 -600q2 -5 6 -4.5t4 5.5v599q0 5 5 5h85zM284 783q-3 0 -5 2t0 5l43 101q2 7 10 7h87q8 0 5 -7l-72 -101l-4.5 -4.5t-6.5 -2.5
h-57z" />
    <glyph glyph-name="nacute" unicode="&#x144;" horiz-adv-x="563" 
d="M140 506q3 0 5 -5l10 -45q2 -5 5.5 -4t5.5 3q16 22 48 41.5t83 19.5q54 0 95 -18.5t68.5 -50.5t41 -75t13.5 -92v-275q0 -5 -5 -5h-85q-5 0 -5 5v275q0 28 -7 55.5t-22.5 48.5t-41 34t-62.5 13q-32 0 -56.5 -12.5t-41 -33.5t-25.5 -48.5t-9 -56.5v-275q0 -5 -5 -5h-85
q-5 0 -5 5v496q0 5 5 5h75zM201 589q-3 0 -5 2t0 5l43 101q2 7 10 7h87q8 0 5 -7l-72 -101l-4.5 -4.5t-6.5 -2.5h-57z" />
    <glyph glyph-name="uni0145" unicode="&#x145;" horiz-adv-x="669" 
d="M299 -134q-5 0 -5 5v69q0 5 5 5h68q5 0 5 -5v-71q0 -34 -20 -55.5t-53 -21.5q-5 0 -5 5v29q0 5 5 5q9 0 18 7t9 23q0 5 -5 5h-22zM626 704q5 0 5 -5v-694q0 -5 -5 -5h-147q-5 0 -8 5l-303 601q-2 3 -6 3t-4 -5v-599q0 -5 -5 -5h-85q-5 0 -5 5v694q0 5 5 5h148q4 0 7 -5
l303 -600q2 -5 6 -4.5t4 5.5v599q0 5 5 5h85z" />
    <glyph glyph-name="uni0146" unicode="&#x146;" horiz-adv-x="563" 
d="M140 506q3 0 5 -5l10 -45q2 -5 5.5 -4t5.5 3q16 22 48 41.5t83 19.5q54 0 95 -18.5t68.5 -50.5t41 -75t13.5 -92v-275q0 -5 -5 -5h-85q-5 0 -5 5v275q0 28 -7 55.5t-22.5 48.5t-41 34t-62.5 13q-32 0 -56.5 -12.5t-41 -33.5t-25.5 -48.5t-9 -56.5v-275q0 -5 -5 -5h-85
q-5 0 -5 5v496q0 5 5 5h75zM259 -134q-5 0 -5 5v69q0 5 5 5h68q5 0 5 -5v-71q0 -34 -20 -55.5t-53 -21.5q-5 0 -5 5v29q0 5 5 5q9 0 18 7t9 23q0 5 -5 5h-22z" />
    <glyph glyph-name="Ncaron" unicode="&#x147;" horiz-adv-x="709" 
d="M626 704q5 0 5 -5v-694q0 -5 -5 -5h-147q-5 0 -8 5l-303 601q-2 3 -6 3t-4 -5v-599q0 -5 -5 -5h-85q-5 0 -5 5v694q0 5 5 5h148q4 0 7 -5l303 -600q2 -5 6 -4.5t4 5.5v599q0 5 5 5h85zM452 902q8 0 5 -7l-43 -104q-1 -4 -5 -4h-114q-4 0 -5 4l-44 104q-2 3 0 5t5 2h60
q3 0 6 -4l30 -41q5 -7 11 0l28 41q3 4 6 4h60z" />
    <glyph glyph-name="ncaron" unicode="&#x148;" horiz-adv-x="563" 
d="M140 506q3 0 5 -5l10 -45q2 -5 5.5 -4t5.5 3q16 22 48 41.5t83 19.5q54 0 95 -18.5t68.5 -50.5t41 -75t13.5 -92v-275q0 -5 -5 -5h-85q-5 0 -5 5v275q0 28 -7 55.5t-22.5 48.5t-41 34t-62.5 13q-32 0 -56.5 -12.5t-41 -33.5t-25.5 -48.5t-9 -56.5v-275q0 -5 -5 -5h-85
q-5 0 -5 5v496q0 5 5 5h75zM387 704q8 0 5 -7l-43 -104q-1 -4 -5 -4h-114q-4 0 -5 4l-44 104q-2 3 0 5t5 2h60q3 0 6 -4l30 -41q5 -7 11 0l28 41q3 4 6 4h60z" />
    <glyph glyph-name="napostrophe" unicode="&#x149;" horiz-adv-x="563" 
d="M65 625q-5 0 -5 5v69q0 5 5 5h68q5 0 5 -5v-71q0 -34 -20 -55.5t-53 -21.5q-5 0 -5 5v29q0 5 5 5q9 0 18 7t9 23q0 5 -5 5h-22zM140 506q3 0 5 -5l10 -45q2 -5 5.5 -4t5.5 3q16 22 48 41.5t83 19.5q54 0 95 -18.5t68.5 -50.5t41 -75t13.5 -92v-275q0 -5 -5 -5h-85
q-5 0 -5 5v275q0 28 -7 55.5t-22.5 48.5t-41 34t-62.5 13q-32 0 -56.5 -12.5t-41 -33.5t-25.5 -48.5t-9 -56.5v-275q0 -5 -5 -5h-85q-5 0 -5 5v496q0 5 5 5h75z" />
    <glyph glyph-name="Omacron" unicode="&#x14c;" horiz-adv-x="712" 
d="M664 352q0 -80 -19.5 -146.5t-59 -114.5t-98.5 -74.5t-138 -26.5t-138 26.5t-98.5 74.5t-59.5 114.5t-20 146.5q0 79 20 145.5t59.5 114.5t98.5 75t138 27t138 -27t98.5 -75t59 -114.5t19.5 -145.5zM349 75q105 0 160.5 73.5t55.5 203.5t-55.5 203.5t-160.5 73.5
t-160.5 -73.5t-55.5 -203.5t55.5 -203.5t160.5 -73.5zM230 783q-4 0 -4 5v58q0 5 4 5h246q5 0 5 -5v-58q0 -5 -5 -5h-246z" />
    <glyph glyph-name="omacron" unicode="&#x14d;" horiz-adv-x="567" 
d="M529 253q0 -59 -17 -107t-48.5 -83t-78 -54t-104.5 -19q-59 0 -105 19t-78 54t-48.5 83t-16.5 107t16.5 107.5t48.5 83t78 53.5t105 19q58 0 104.5 -19t78 -54t48.5 -83.5t17 -106.5zM434 253q0 39 -10.5 71.5t-30 56.5t-48 37t-64.5 13t-64 -13t-48 -37t-30.5 -56.5
t-10.5 -71.5t10.5 -71.5t30.5 -56.5t48 -37t64 -13t64.5 13t48 37t30 56.5t10.5 71.5zM157 589q-4 0 -4 5v58q0 5 4 5h246q5 0 5 -5v-58q0 -5 -5 -5h-246z" />
    <glyph glyph-name="Obreve" unicode="&#x14e;" horiz-adv-x="712" 
d="M664 352q0 -80 -19.5 -146.5t-59 -114.5t-98.5 -74.5t-138 -26.5t-138 26.5t-98.5 74.5t-59.5 114.5t-20 146.5q0 79 20 145.5t59.5 114.5t98.5 75t138 27t138 -27t98.5 -75t59 -114.5t19.5 -145.5zM349 75q105 0 160.5 73.5t55.5 203.5t-55.5 203.5t-160.5 73.5
t-160.5 -73.5t-55.5 -203.5t55.5 -203.5t160.5 -73.5zM462 898q5 0 5 -5q0 -31 -10.5 -52t-27 -34t-36.5 -18.5t-40 -5.5t-40 5.5t-36.5 18.5t-27 34t-10.5 52q0 5 5 5h62q5 0 5 -5q0 -21 14 -29.5t28 -8.5t27.5 8.5t13.5 29.5q0 5 5 5h63z" />
    <glyph glyph-name="obreve" unicode="&#x14f;" horiz-adv-x="567" 
d="M529 253q0 -59 -17 -107t-48.5 -83t-78 -54t-104.5 -19q-59 0 -105 19t-78 54t-48.5 83t-16.5 107t16.5 107.5t48.5 83t78 53.5t105 19q58 0 104.5 -19t78 -54t48.5 -83.5t17 -106.5zM434 253q0 39 -10.5 71.5t-30 56.5t-48 37t-64.5 13t-64 -13t-48 -37t-30.5 -56.5
t-10.5 -71.5t10.5 -71.5t30.5 -56.5t48 -37t64 -13t64.5 13t48 37t30 56.5t10.5 71.5zM390 704q5 0 5 -5q0 -31 -10.5 -52t-27 -34t-36.5 -18.5t-40 -5.5t-40 5.5t-36.5 18.5t-27 34t-10.5 52q0 5 5 5h62q5 0 5 -5q0 -21 14 -29.5t28 -8.5t27.5 8.5t13.5 29.5q0 5 5 5h63z
" />
    <glyph glyph-name="Ohungarumlaut" unicode="&#x150;" horiz-adv-x="712" 
d="M664 352q0 -80 -19.5 -146.5t-59 -114.5t-98.5 -74.5t-138 -26.5t-138 26.5t-98.5 74.5t-59.5 114.5t-20 146.5q0 79 20 145.5t59.5 114.5t98.5 75t138 27t138 -27t98.5 -75t59 -114.5t19.5 -145.5zM349 75q105 0 160.5 73.5t55.5 203.5t-55.5 203.5t-160.5 73.5
t-160.5 -73.5t-55.5 -203.5t55.5 -203.5t160.5 -73.5zM173 759q-4 0 -4 5l29 132q0 5 6 5h109q4 0 4 -5l-29 -132q0 -5 -6 -5h-109zM393 759q-4 0 -4 5l29 132q0 5 6 5h109q4 0 4 -5l-29 -132q0 -5 -6 -5h-109z" />
    <glyph glyph-name="ohungarumlaut" unicode="&#x151;" horiz-adv-x="567" 
d="M529 253q0 -59 -17 -107t-48.5 -83t-78 -54t-104.5 -19q-59 0 -105 19t-78 54t-48.5 83t-16.5 107t16.5 107.5t48.5 83t78 53.5t105 19q58 0 104.5 -19t78 -54t48.5 -83.5t17 -106.5zM434 253q0 39 -10.5 71.5t-30 56.5t-48 37t-64.5 13t-64 -13t-48 -37t-30.5 -56.5
t-10.5 -71.5t10.5 -71.5t30.5 -56.5t48 -37t64 -13t64.5 13t48 37t30 56.5t10.5 71.5zM111 562q-4 0 -4 5l29 132q0 5 6 5h109q4 0 4 -5l-29 -132q0 -5 -6 -5h-109zM331 562q-4 0 -4 5l29 132q0 5 6 5h109q4 0 4 -5l-29 -132q0 -5 -6 -5h-109z" />
    <glyph glyph-name="OE" unicode="&#x152;" horiz-adv-x="1104" 
d="M565 699q0 5 5 5h471q5 0 5 -5v-75q0 -5 -5 -5h-376q-5 0 -5 -5v-209q0 -5 5 -5h335q5 0 5 -5v-75q0 -5 -5 -5h-335q-5 0 -5 -5v-220q0 -5 5 -5h376q5 0 5 -5v-75q0 -5 -5 -5h-471q-5 0 -5 5v66q-38 -39 -92 -60t-124 -21q-79 0 -138 26.5t-98.5 74.5t-59.5 114.5
t-20 146.5q0 79 20 145.5t59.5 114.5t98.5 75t138 27q70 0 124 -21.5t92 -59.5v66zM349 75q105 0 160.5 73.5t55.5 203.5t-55.5 203.5t-160.5 73.5t-160.5 -73.5t-55.5 -203.5t55.5 -203.5t160.5 -73.5z" />
    <glyph glyph-name="oe" unicode="&#x153;" horiz-adv-x="962" 
d="M533 219q-5 0 -5 -5q0 -27 9.5 -52.5t28 -44.5t45 -30.5t59.5 -11.5q53 0 79.5 20t42.5 50q2 5 7 5h94q6 0 5 -5q-20 -74 -81.5 -114.5t-146.5 -40.5q-61 0 -108.5 21.5t-79.5 61.5q-5 7 -10 0q-32 -40 -80 -61.5t-111 -21.5q-59 0 -105 19t-78 54t-48.5 83t-16.5 107
t16.5 107.5t48.5 83t78 53.5t105 19q62 0 110 -22t80 -60q5 -6 11 0q32 38 79 60t109 22q58 0 103.5 -19t77 -54t47.5 -83.5t16 -106.5q0 -17 -3 -29q-2 -5 -5 -5h-373zM434 253q0 39 -10.5 71.5t-30 56.5t-48 37t-64.5 13t-64 -13t-48 -37t-30.5 -56.5t-10.5 -71.5
t10.5 -71.5t30.5 -56.5t48 -37t64 -13t64.5 13t48 37t30 56.5t10.5 71.5zM810 299q0 21 -8 44.5t-25 43t-43.5 32t-63.5 12.5q-36 0 -63 -14t-44.5 -34.5t-26 -43t-8.5 -40.5q0 -5 5 -5h272q5 0 5 5z" />
    <glyph glyph-name="Racute" unicode="&#x154;" horiz-adv-x="609" 
d="M73 699q0 5 5 5h292q41 0 78 -16.5t65 -45.5t44.5 -68t16.5 -84q0 -66 -33.5 -116.5t-85.5 -74.5q-4 -2 -2 -7l128 -287q2 -5 -5 -5h-83q-2 0 -5 0.5t-5 4.5l-120 270q-2 5 -7 5h-183q-5 0 -5 -5v-270q0 -5 -5 -5h-85q-5 0 -5 5v694zM173 619q-5 0 -5 -5v-244q0 -5 5 -5
h189q23 1 44 11t37.5 27t26 39t9.5 48t-10 49.5t-27 41t-38.5 28t-45.5 10.5h-185zM234 783q-3 0 -5 2t0 5l43 101q2 7 10 7h87q8 0 5 -7l-72 -101l-4.5 -4.5t-6.5 -2.5h-57z" />
    <glyph glyph-name="racute" unicode="&#x155;" horiz-adv-x="374" 
d="M290 431q-32 0 -56.5 -12.5t-41 -33.5t-25.5 -48.5t-9 -56.5v-275q0 -5 -5 -5h-85q-5 0 -5 5v496q0 5 5 5h75q3 0 5 -5l10 -45q2 -5 5.5 -4t5.5 3q26 26 54.5 43.5t66.5 17.5h51q5 0 5 -5v-75q0 -5 -5 -5h-51zM155 589q-3 0 -5 2t0 5l43 101q2 7 10 7h87q8 0 5 -7
l-72 -101l-4.5 -4.5t-6.5 -2.5h-57z" />
    <glyph glyph-name="uni0156" unicode="&#x156;" horiz-adv-x="609" 
d="M73 699q0 5 5 5h292q41 0 78 -16.5t65 -45.5t44.5 -68t16.5 -84q0 -66 -33.5 -116.5t-85.5 -74.5q-4 -2 -2 -7l128 -287q2 -5 -5 -5h-83q-2 0 -5 0.5t-5 4.5l-120 270q-2 5 -7 5h-183q-5 0 -5 -5v-270q0 -5 -5 -5h-85q-5 0 -5 5v694zM173 619q-5 0 -5 -5v-244q0 -5 5 -5
h189q23 1 44 11t37.5 27t26 39t9.5 48t-10 49.5t-27 41t-38.5 28t-45.5 10.5h-185zM286 -134q-5 0 -5 5v69q0 5 5 5h68q5 0 5 -5v-71q0 -34 -20 -55.5t-53 -21.5q-5 0 -5 5v29q0 5 5 5q9 0 18 7t9 23q0 5 -5 5h-22z" />
    <glyph glyph-name="uni0157" unicode="&#x157;" horiz-adv-x="374" 
d="M290 431q-32 0 -56.5 -12.5t-41 -33.5t-25.5 -48.5t-9 -56.5v-275q0 -5 -5 -5h-85q-5 0 -5 5v496q0 5 5 5h75q3 0 5 -5l10 -45q2 -5 5.5 -4t5.5 3q26 26 54.5 43.5t66.5 17.5h51q5 0 5 -5v-75q0 -5 -5 -5h-51zM77 -134q-5 0 -5 5v69q0 5 5 5h68q5 0 5 -5v-71
q0 -34 -20 -55.5t-53 -21.5q-5 0 -5 5v29q0 5 5 5q9 0 18 7t9 23q0 5 -5 5h-22z" />
    <glyph glyph-name="Rcaron" unicode="&#x158;" horiz-adv-x="639" 
d="M73 699q0 5 5 5h292q41 0 78 -16.5t65 -45.5t44.5 -68t16.5 -84q0 -66 -33.5 -116.5t-85.5 -74.5q-4 -2 -2 -7l128 -287q2 -5 -5 -5h-83q-2 0 -5 0.5t-5 4.5l-120 270q-2 5 -7 5h-183q-5 0 -5 -5v-270q0 -5 -5 -5h-85q-5 0 -5 5v694zM173 619q-5 0 -5 -5v-244q0 -5 5 -5
h189q23 1 44 11t37.5 27t26 39t9.5 48t-10 49.5t-27 41t-38.5 28t-45.5 10.5h-185zM400 901q8 0 5 -7l-43 -104q-1 -4 -5 -4h-114q-4 0 -5 4l-44 104q-2 3 0 5t5 2h60q3 0 6 -4l30 -41q5 -7 11 0l28 41q3 4 6 4h60z" />
    <glyph glyph-name="rcaron" unicode="&#x159;" horiz-adv-x="374" 
d="M290 431q-32 0 -56.5 -12.5t-41 -33.5t-25.5 -48.5t-9 -56.5v-275q0 -5 -5 -5h-85q-5 0 -5 5v496q0 5 5 5h75q3 0 5 -5l10 -45q2 -5 5.5 -4t5.5 3q26 26 54.5 43.5t66.5 17.5h51q5 0 5 -5v-75q0 -5 -5 -5h-51zM292 704q8 0 5 -7l-43 -104q-1 -4 -5 -4h-114q-4 0 -5 4
l-44 104q-2 3 0 5t5 2h60q3 0 6 -4l30 -41q5 -7 11 0l28 41q3 4 6 4h60z" />
    <glyph glyph-name="Sacute" unicode="&#x15a;" horiz-adv-x="610" 
d="M441 511q0 25 -11 46.5t-31 37.5t-48 25t-61 9q-30 0 -56 -8.5t-45.5 -24t-31 -37t-11.5 -46.5q0 -31 14.5 -49.5t37 -29.5t50 -16t53.5 -8q49 -6 97 -16.5t85.5 -33t61 -61.5t23.5 -101q0 -38 -14.5 -75t-46.5 -66.5t-82.5 -48t-123.5 -18.5q-65 0 -115 16.5t-83.5 44.5
t-51 64.5t-17.5 77.5q0 5 5 5h89q6 0 6 -6q0 -19 10 -39.5t31 -38t52.5 -28.5t73.5 -11q40 0 71 10t52.5 27t32.5 39t11 47q0 34 -14 55t-37 34t-53 19t-63 9q-42 4 -87 14t-82.5 31.5t-61.5 58t-24 94.5q0 48 21 85.5t55.5 63t78 39t89.5 13.5q48 0 92 -12.5t78.5 -37.5
t56.5 -63.5t24 -89.5q0 -5 -5 -5h-90q-5 0 -5 5zM255 783q-3 0 -5 2t0 5l43 101q2 7 10 7h87q8 0 5 -7l-72 -101l-4.5 -4.5t-6.5 -2.5h-57z" />
    <glyph glyph-name="sacute" unicode="&#x15b;" horiz-adv-x="518" 
d="M382 335q-5 0 -5 5q0 42 -32 66.5t-93 24.5q-57 0 -82.5 -20.5t-25.5 -43.5q0 -21 12 -33t30 -18t39.5 -8.5t40.5 -5.5q37 -5 76.5 -11t71 -21t52 -43t20.5 -76q0 -43 -17 -73.5t-46.5 -50t-69.5 -28.5t-87 -9q-57 0 -99.5 14t-70.5 38t-42 56t-14 68q0 5 5 5h84
q6 0 6 -5q0 -38 35.5 -64.5t95.5 -26.5q19 0 41 2.5t40.5 11t31 23.5t12.5 39q0 21 -13.5 33.5t-33 19t-41 9t-37.5 4.5q-36 4 -74.5 10.5t-70 22t-52 43t-20.5 74.5q0 31 14.5 58t40.5 47t63.5 32t84.5 12q46 0 86 -11t70 -33t47 -55t17 -77q0 -5 -4 -5h-86zM218 589
q-3 0 -5 2t0 5l43 101q2 7 10 7h87q8 0 5 -7l-72 -101l-4.5 -4.5t-6.5 -2.5h-57z" />
    <glyph glyph-name="Scircumflex" unicode="&#x15c;" horiz-adv-x="610" 
d="M441 511q0 25 -11 46.5t-31 37.5t-48 25t-61 9q-30 0 -56 -8.5t-45.5 -24t-31 -37t-11.5 -46.5q0 -31 14.5 -49.5t37 -29.5t50 -16t53.5 -8q49 -6 97 -16.5t85.5 -33t61 -61.5t23.5 -101q0 -38 -14.5 -75t-46.5 -66.5t-82.5 -48t-123.5 -18.5q-65 0 -115 16.5t-83.5 44.5
t-51 64.5t-17.5 77.5q0 5 5 5h89q6 0 6 -6q0 -19 10 -39.5t31 -38t52.5 -28.5t73.5 -11q40 0 71 10t52.5 27t32.5 39t11 47q0 34 -14 55t-37 34t-53 19t-63 9q-42 4 -87 14t-82.5 31.5t-61.5 58t-24 94.5q0 48 21 85.5t55.5 63t78 39t89.5 13.5q48 0 92 -12.5t78.5 -37.5
t56.5 -63.5t24 -89.5q0 -5 -5 -5h-90q-5 0 -5 5zM343 783q-3 0 -6 4l-29 41q-6 9 -11 0l-29 -41q-3 -4 -6 -4h-60q-3 0 -5 2t0 5l44 104q1 4 5 4h114q4 0 5 -4l43 -104q3 -7 -5 -7h-60z" />
    <glyph glyph-name="scircumflex" unicode="&#x15d;" horiz-adv-x="518" 
d="M382 335q-5 0 -5 5q0 42 -32 66.5t-93 24.5q-57 0 -82.5 -20.5t-25.5 -43.5q0 -21 12 -33t30 -18t39.5 -8.5t40.5 -5.5q37 -5 76.5 -11t71 -21t52 -43t20.5 -76q0 -43 -17 -73.5t-46.5 -50t-69.5 -28.5t-87 -9q-57 0 -99.5 14t-70.5 38t-42 56t-14 68q0 5 5 5h84
q6 0 6 -5q0 -38 35.5 -64.5t95.5 -26.5q19 0 41 2.5t40.5 11t31 23.5t12.5 39q0 21 -13.5 33.5t-33 19t-41 9t-37.5 4.5q-36 4 -74.5 10.5t-70 22t-52 43t-20.5 74.5q0 31 14.5 58t40.5 47t63.5 32t84.5 12q46 0 86 -11t70 -33t47 -55t17 -77q0 -5 -4 -5h-86zM296 589
q-3 0 -6 4l-29 41q-6 9 -11 0l-29 -41q-3 -4 -6 -4h-60q-3 0 -5 2t0 5l44 104q1 4 5 4h114q4 0 5 -4l43 -104q3 -7 -5 -7h-60z" />
    <glyph glyph-name="Scedilla" unicode="&#x15e;" horiz-adv-x="610" 
d="M441 511q0 25 -11 46.5t-31 37.5t-48 25t-61 9q-30 0 -56 -8.5t-45.5 -24t-31 -37t-11.5 -46.5q0 -31 14.5 -49.5t37 -29.5t50 -16t53.5 -8q49 -6 97 -16.5t85.5 -33t61 -61.5t23.5 -101q0 -33 -11 -65t-34 -60t-60.5 -48t-89.5 -29l-58 -41q-2 -2 -1.5 -5t4.5 -3
q13 0 27 -4t25.5 -13t19 -23t7.5 -34q0 -31 -25.5 -56t-74.5 -25q-45 0 -67 25.5t-22 55.5q0 5 5 5h33q5 0 5 -5q0 -16 13 -29.5t33 -13.5q24 0 37 13.5t13 29.5q0 14 -5.5 23.5t-14 15t-18 8t-17.5 2.5q-13 0 -16 3l-8 8q-4 4 -3.5 7t2.5 5l44 36q2 2 2 5.5t-5 3.5h-7
q-65 0 -115 16.5t-83.5 44.5t-51 64.5t-17.5 77.5q0 5 5 5h89q6 0 6 -6q0 -19 10 -39.5t31 -38t52.5 -28.5t73.5 -11q40 0 71 10t52.5 27t32.5 39t11 47q0 34 -14 55t-37 34t-53 19t-63 9q-42 4 -87 14t-82.5 31.5t-61.5 58t-24 94.5q0 48 21 85.5t55.5 63t78 39t89.5 13.5
q48 0 92 -12.5t78.5 -37.5t56.5 -63.5t24 -89.5q0 -5 -5 -5h-90q-5 0 -5 5z" />
    <glyph glyph-name="scedilla" unicode="&#x15f;" horiz-adv-x="518" 
d="M382 335q-5 0 -5 5q0 42 -32 66.5t-93 24.5q-57 0 -82.5 -20.5t-25.5 -43.5q0 -21 12 -33t30 -18t39.5 -8.5t40.5 -5.5q37 -5 76.5 -11t71 -21t52 -43t20.5 -76q0 -72 -46 -110t-118 -47l-53 -39q-2 -2 -1.5 -5t4.5 -3q13 0 27 -4t25.5 -13t19 -23t7.5 -34
q0 -31 -25.5 -56t-74.5 -25q-45 0 -67 25.5t-22 55.5q0 5 5 5h33q5 0 5 -5q0 -16 13 -29.5t33 -13.5q24 0 37 13.5t13 29.5q0 14 -5.5 23.5t-14 15t-18 8t-17.5 2.5q-13 0 -16 3l-8 8q-4 4 -3.5 7t2.5 5l50 40q5 5 -2 5h-3q-57 0 -99.5 14t-70.5 38t-42 56t-14 68q0 5 5 5
h84q6 0 6 -5q0 -38 35.5 -64.5t95.5 -26.5q19 0 41 2.5t40.5 11t31 23.5t12.5 39q0 21 -13.5 33.5t-33 19t-41 9t-37.5 4.5q-36 4 -74.5 10.5t-70 22t-52 43t-20.5 74.5q0 31 14.5 58t40.5 47t63.5 32t84.5 12q46 0 86 -11t70 -33t47 -55t17 -77q0 -5 -4 -5h-86z" />
    <glyph glyph-name="Scaron" unicode="&#x160;" horiz-adv-x="610" 
d="M441 511q0 25 -11 46.5t-31 37.5t-48 25t-61 9q-30 0 -56 -8.5t-45.5 -24t-31 -37t-11.5 -46.5q0 -31 14.5 -49.5t37 -29.5t50 -16t53.5 -8q49 -6 97 -16.5t85.5 -33t61 -61.5t23.5 -101q0 -38 -14.5 -75t-46.5 -66.5t-82.5 -48t-123.5 -18.5q-65 0 -115 16.5t-83.5 44.5
t-51 64.5t-17.5 77.5q0 5 5 5h89q6 0 6 -6q0 -19 10 -39.5t31 -38t52.5 -28.5t73.5 -11q40 0 71 10t52.5 27t32.5 39t11 47q0 34 -14 55t-37 34t-53 19t-63 9q-42 4 -87 14t-82.5 31.5t-61.5 58t-24 94.5q0 48 21 85.5t55.5 63t78 39t89.5 13.5q48 0 92 -12.5t78.5 -37.5
t56.5 -63.5t24 -89.5q0 -5 -5 -5h-90q-5 0 -5 5zM393 902q8 0 5 -7l-43 -104q-1 -4 -5 -4h-114q-4 0 -5 4l-44 104q-2 3 0 5t5 2h60q3 0 6 -4l30 -41q5 -7 11 0l28 41q3 4 6 4h60z" />
    <glyph glyph-name="scaron" unicode="&#x161;" horiz-adv-x="524" 
d="M382 335q-5 0 -5 5q0 42 -32 66.5t-93 24.5q-57 0 -82.5 -20.5t-25.5 -43.5q0 -21 12 -33t30 -18t39.5 -8.5t40.5 -5.5q37 -5 76.5 -11t71 -21t52 -43t20.5 -76q0 -43 -17 -73.5t-46.5 -50t-69.5 -28.5t-87 -9q-57 0 -99.5 14t-70.5 38t-42 56t-14 68q0 5 5 5h84
q6 0 6 -5q0 -38 35.5 -64.5t95.5 -26.5q19 0 41 2.5t40.5 11t31 23.5t12.5 39q0 21 -13.5 33.5t-33 19t-41 9t-37.5 4.5q-36 4 -74.5 10.5t-70 22t-52 43t-20.5 74.5q0 31 14.5 58t40.5 47t63.5 32t84.5 12q46 0 86 -11t70 -33t47 -55t17 -77q0 -5 -4 -5h-86zM360 704
q8 0 5 -7l-43 -104q-1 -4 -5 -4h-114q-4 0 -5 4l-44 104q-2 3 0 5t5 2h60q3 0 6 -4l30 -41q5 -7 11 0l28 41q3 4 6 4h60z" />
    <glyph glyph-name="uni0162" unicode="&#x162;" horiz-adv-x="542" 
d="M229 -134q-5 0 -5 5v69q0 5 5 5h68q5 0 5 -5v-71q0 -34 -20 -55.5t-53 -21.5q-5 0 -5 5v29q0 5 5 5q9 0 18 7t9 23q0 5 -5 5h-22zM216 615q-2 4 -5 4h-193q-5 0 -5 5v75q0 5 5 5h491q5 0 5 -5v-75q0 -5 -5 -5h-193q-5 0 -5 -5v-609q0 -5 -5 -5h-85q-5 0 -5 5v610z" />
    <glyph glyph-name="uni0163" unicode="&#x163;" horiz-adv-x="355" 
d="M174 -134q-5 0 -5 5v69q0 5 5 5h68q5 0 5 -5v-71q0 -34 -20 -55.5t-53 -21.5q-5 0 -5 5v29q0 5 5 5q9 0 18 7t9 23q0 5 -5 5h-22zM326 5q0 -5 -5 -5h-77q-63 -2 -97 27t-34 91v308q0 5 -5 5h-89q-5 0 -5 5v65q0 5 5 5h89q5 0 5 5v135q0 5 5 5h85q5 0 5 -5v-135q0 -5 5 -5
h108q5 0 5 -5v-65q0 -5 -5 -5h-108q-5 0 -5 -5v-291q0 -23 12 -36.5t42 -13.5h59q5 0 5 -5v-75z" />
    <glyph glyph-name="Tcaron" unicode="&#x164;" horiz-adv-x="542" 
d="M216 615q-2 4 -5 4h-193q-5 0 -5 5v75q0 5 5 5h491q5 0 5 -5v-75q0 -5 -5 -5h-193q-5 0 -5 -5v-609q0 -5 -5 -5h-85q-5 0 -5 5v610zM364 901q8 0 5 -7l-43 -104q-1 -4 -5 -4h-114q-4 0 -5 4l-44 104q-2 3 0 5t5 2h60q3 0 6 -4l30 -41q5 -7 11 0l28 41q3 4 6 4h60z" />
    <glyph glyph-name="tcaron" unicode="&#x165;" horiz-adv-x="355" 
d="M263 625q-5 0 -5 5v69q0 5 5 5h68q5 0 5 -5v-71q0 -34 -20 -55.5t-53 -21.5q-5 0 -5 5v29q0 5 5 5q9 0 18 7t9 23q0 5 -5 5h-22zM326 5q0 -5 -5 -5h-77q-63 -2 -97 27t-34 91v308q0 5 -5 5h-89q-5 0 -5 5v65q0 5 5 5h89q5 0 5 5v135q0 5 5 5h85q5 0 5 -5v-135q0 -5 5 -5
h108q5 0 5 -5v-65q0 -5 -5 -5h-108q-5 0 -5 -5v-291q0 -23 12 -36.5t42 -13.5h59q5 0 5 -5v-75z" />
    <glyph glyph-name="Tbar" unicode="&#x166;" horiz-adv-x="542" 
d="M216 615q-2 4 -5 4h-193q-5 0 -5 5v75q0 5 5 5h491q5 0 5 -5v-75q0 -5 -5 -5h-193q-5 0 -5 -5v-103q0 -5 5 -5h156q5 0 5 -5v-55q0 -5 -5 -5h-156q-5 0 -5 -5v-431q0 -5 -5 -5h-85q-5 0 -5 5v431q0 5 -5 5h-156q-5 0 -5 5v55q0 5 5 5h156q5 0 5 5v104z" />
    <glyph glyph-name="tbar" unicode="&#x167;" horiz-adv-x="355" 
d="M208 135q0 -23 12 -36.5t42 -13.5h59q5 0 5 -5v-75q0 -5 -5 -5h-77q-63 -2 -97 27t-34 91v129q0 5 -5 5h-89q-5 0 -5 5v65q0 5 5 5h89q5 0 5 5v94q0 5 -5 5h-89q-5 0 -5 5v65q0 5 5 5h89q5 0 5 5v135q0 5 5 5h85q5 0 5 -5v-135q0 -5 5 -5h108q5 0 5 -5v-65q0 -5 -5 -5
h-108q-5 0 -5 -5v-94q0 -5 5 -5h108q5 0 5 -5v-65q0 -5 -5 -5h-108q-5 0 -5 -5v-112z" />
    <glyph glyph-name="Utilde" unicode="&#x168;" horiz-adv-x="621" 
d="M148 239q0 -32 12.5 -61.5t33.5 -52.5t49.5 -36.5t60.5 -13.5t60 13.5t49 36.5t33 52.5t12 61.5v460q0 5 5 5h85q5 0 5 -5v-460q0 -52 -19.5 -97.5t-53 -79t-79 -53t-97.5 -19.5t-98 19.5t-80 53t-53.5 79t-19.5 97.5v460q0 5 5 5h85q5 0 5 -5v-460zM152 811q0 13 5 28
t16.5 28t31 21.5t49.5 8.5q22 0 38.5 -7t29 -16t22 -16t17.5 -7q3 0 8.5 0.5t11 4t9 12t3.5 24.5q0 5 5 5h60q5 0 5 -5v-24q0 -13 -5 -28t-17 -27.5t-31.5 -21t-48.5 -8.5q-20 0 -36 7t-29 16t-23 16t-19 7q-3 0 -8.5 -0.5t-11 -4t-9 -12t-3.5 -24.5q0 -5 -5 -5h-60
q-5 0 -5 5v23z" />
    <glyph glyph-name="utilde" unicode="&#x169;" horiz-adv-x="559" 
d="M423 0q-3 0 -5 5l-10 45q-2 5 -5.5 4t-5.5 -3q-7 -10 -19 -20.5t-29 -19.5t-38 -15t-45 -6q-62 0 -103.5 18.5t-67 50.5t-36.5 75t-11 92v275q0 5 5 5h85q5 0 5 -5v-275q0 -29 7 -56t22.5 -48t41 -34t62.5 -13q31 0 56 12.5t41.5 33.5t25.5 48.5t9 56.5v275q0 5 5 5h85
q5 0 5 -5v-496q0 -5 -5 -5h-75zM121 618q0 13 5 28t16.5 28t31 21.5t49.5 8.5q22 0 38.5 -7t29 -16t22 -16t17.5 -7q3 0 8.5 0.5t11 4t9 12t3.5 24.5q0 5 5 5h60q5 0 5 -5v-24q0 -13 -5 -28t-17 -27.5t-31.5 -21t-48.5 -8.5q-20 0 -36 7t-29 16t-23 16t-19 7q-3 0 -8.5 -0.5
t-11 -4t-9 -12t-3.5 -24.5q0 -5 -5 -5h-60q-5 0 -5 5v23z" />
    <glyph glyph-name="Umacron" unicode="&#x16a;" horiz-adv-x="621" 
d="M148 239q0 -32 12.5 -61.5t33.5 -52.5t49.5 -36.5t60.5 -13.5t60 13.5t49 36.5t33 52.5t12 61.5v460q0 5 5 5h85q5 0 5 -5v-460q0 -52 -19.5 -97.5t-53 -79t-79 -53t-97.5 -19.5t-98 19.5t-80 53t-53.5 79t-19.5 97.5v460q0 5 5 5h85q5 0 5 -5v-460zM184 783q-4 0 -4 5
v58q0 5 4 5h246q5 0 5 -5v-58q0 -5 -5 -5h-246z" />
    <glyph glyph-name="umacron" unicode="&#x16b;" horiz-adv-x="559" 
d="M423 0q-3 0 -5 5l-10 45q-2 5 -5.5 4t-5.5 -3q-7 -10 -19 -20.5t-29 -19.5t-38 -15t-45 -6q-62 0 -103.5 18.5t-67 50.5t-36.5 75t-11 92v275q0 5 5 5h85q5 0 5 -5v-275q0 -29 7 -56t22.5 -48t41 -34t62.5 -13q31 0 56 12.5t41.5 33.5t25.5 48.5t9 56.5v275q0 5 5 5h85
q5 0 5 -5v-496q0 -5 -5 -5h-75zM153 589q-4 0 -4 5v58q0 5 4 5h246q5 0 5 -5v-58q0 -5 -5 -5h-246z" />
    <glyph glyph-name="Ubreve" unicode="&#x16c;" horiz-adv-x="621" 
d="M148 239q0 -32 12.5 -61.5t33.5 -52.5t49.5 -36.5t60.5 -13.5t60 13.5t49 36.5t33 52.5t12 61.5v460q0 5 5 5h85q5 0 5 -5v-460q0 -52 -19.5 -97.5t-53 -79t-79 -53t-97.5 -19.5t-98 19.5t-80 53t-53.5 79t-19.5 97.5v460q0 5 5 5h85q5 0 5 -5v-460zM417 898q5 0 5 -5
q0 -31 -10.5 -52t-27 -34t-36.5 -18.5t-40 -5.5t-40 5.5t-36.5 18.5t-27 34t-10.5 52q0 5 5 5h62q5 0 5 -5q0 -21 14 -29.5t28 -8.5t27.5 8.5t13.5 29.5q0 5 5 5h63z" />
    <glyph glyph-name="ubreve" unicode="&#x16d;" horiz-adv-x="559" 
d="M423 0q-3 0 -5 5l-10 45q-2 5 -5.5 4t-5.5 -3q-7 -10 -19 -20.5t-29 -19.5t-38 -15t-45 -6q-62 0 -103.5 18.5t-67 50.5t-36.5 75t-11 92v275q0 5 5 5h85q5 0 5 -5v-275q0 -29 7 -56t22.5 -48t41 -34t62.5 -13q31 0 56 12.5t41.5 33.5t25.5 48.5t9 56.5v275q0 5 5 5h85
q5 0 5 -5v-496q0 -5 -5 -5h-75zM386 704q5 0 5 -5q0 -31 -10.5 -52t-27 -34t-36.5 -18.5t-40 -5.5t-40 5.5t-36.5 18.5t-27 34t-10.5 52q0 5 5 5h62q5 0 5 -5q0 -21 14 -29.5t28 -8.5t27.5 8.5t13.5 29.5q0 5 5 5h63z" />
    <glyph glyph-name="Uring" unicode="&#x16e;" horiz-adv-x="621" 
d="M148 239q0 -32 12.5 -61.5t33.5 -52.5t49.5 -36.5t60.5 -13.5t60 13.5t49 36.5t33 52.5t12 61.5v460q0 5 5 5h85q5 0 5 -5v-460q0 -52 -19.5 -97.5t-53 -79t-79 -53t-97.5 -19.5t-98 19.5t-80 53t-53.5 79t-19.5 97.5v460q0 5 5 5h85q5 0 5 -5v-460zM395 824
q0 -36 -26 -61.5t-62 -25.5t-61.5 25.5t-25.5 61.5t25.5 62t61.5 26q18 0 34 -7t28 -19t19 -28t7 -34zM352 824q0 19 -13 32t-32 13t-32 -13t-13 -32t13 -32t32 -13t32 13t13 32z" />
    <glyph glyph-name="uring" unicode="&#x16f;" horiz-adv-x="559" 
d="M423 0q-3 0 -5 5l-10 45q-2 5 -5.5 4t-5.5 -3q-7 -10 -19 -20.5t-29 -19.5t-38 -15t-45 -6q-62 0 -103.5 18.5t-67 50.5t-36.5 75t-11 92v275q0 5 5 5h85q5 0 5 -5v-275q0 -29 7 -56t22.5 -48t41 -34t62.5 -13q31 0 56 12.5t41.5 33.5t25.5 48.5t9 56.5v275q0 5 5 5h85
q5 0 5 -5v-496q0 -5 -5 -5h-75zM364 625q0 -36 -26 -61.5t-62 -25.5t-61.5 25.5t-25.5 61.5t25.5 62t61.5 26q18 0 34 -7t28 -19t19 -28t7 -34zM321 625q0 19 -13 32t-32 13t-32 -13t-13 -32t13 -32t32 -13t32 13t13 32z" />
    <glyph glyph-name="Uhungarumlaut" unicode="&#x170;" horiz-adv-x="621" 
d="M148 239q0 -32 12.5 -61.5t33.5 -52.5t49.5 -36.5t60.5 -13.5t60 13.5t49 36.5t33 52.5t12 61.5v460q0 5 5 5h85q5 0 5 -5v-460q0 -52 -19.5 -97.5t-53 -79t-79 -53t-97.5 -19.5t-98 19.5t-80 53t-53.5 79t-19.5 97.5v460q0 5 5 5h85q5 0 5 -5v-460zM128 759q-4 0 -4 5
l29 132q0 5 6 5h109q4 0 4 -5l-29 -132q0 -5 -6 -5h-109zM348 759q-4 0 -4 5l29 132q0 5 6 5h109q4 0 4 -5l-29 -132q0 -5 -6 -5h-109z" />
    <glyph glyph-name="uhungarumlaut" unicode="&#x171;" horiz-adv-x="559" 
d="M423 0q-3 0 -5 5l-10 45q-2 5 -5.5 4t-5.5 -3q-7 -10 -19 -20.5t-29 -19.5t-38 -15t-45 -6q-62 0 -103.5 18.5t-67 50.5t-36.5 75t-11 92v275q0 5 5 5h85q5 0 5 -5v-275q0 -29 7 -56t22.5 -48t41 -34t62.5 -13q31 0 56 12.5t41.5 33.5t25.5 48.5t9 56.5v275q0 5 5 5h85
q5 0 5 -5v-496q0 -5 -5 -5h-75zM97 562q-4 0 -4 5l29 132q0 5 6 5h109q4 0 4 -5l-29 -132q0 -5 -6 -5h-109zM317 562q-4 0 -4 5l29 132q0 5 6 5h109q4 0 4 -5l-29 -132q0 -5 -6 -5h-109z" />
    <glyph glyph-name="Uogonek" unicode="&#x172;" horiz-adv-x="621" 
d="M148 239q0 -32 12.5 -61.5t33.5 -52.5t49.5 -36.5t60.5 -13.5t60 13.5t49 36.5t33 52.5t12 61.5v460q0 5 5 5h85q5 0 5 -5v-460q0 -63 -27.5 -115.5t-75.5 -87.5q-13 -10 -26.5 -19t-25 -20t-19 -25.5t-7.5 -33.5q0 -31 20 -46t52 -15h14q5 0 5 -5v-65q0 -5 -5 -5h-24
q-59 0 -96 25.5t-38 73.5q-1 44 28 80q3 4 1.5 7.5t-6.5 2.5q-6 -1 -10 -1h-9q-52 0 -98 19.5t-80 53t-53.5 79t-19.5 97.5v460q0 5 5 5h85q5 0 5 -5v-460z" />
    <glyph glyph-name="uogonek" unicode="&#x173;" horiz-adv-x="559" 
d="M481 0q-29 0 -49 -19t-20 -43q0 -31 20 -46t52 -15h14q5 0 5 -5v-65q0 -5 -5 -5h-24q-59 0 -96 25.5t-38 73.5q0 35 18 60.5t55 38.5q5 2 4 8l-9 42q-1 5 -5 4t-6 -3q-7 -10 -19 -20.5t-29 -19.5t-38 -15t-45 -6q-62 0 -103.5 18.5t-67 50.5t-36.5 75t-11 92v275q0 5 5 5
h85q5 0 5 -5v-275q0 -29 7 -56t22.5 -48t41 -34t62.5 -13q31 0 56 12.5t41.5 33.5t25.5 48.5t9 56.5v275q0 5 5 5h85q5 0 5 -5v-496q0 -5 -5 -5h-17z" />
    <glyph glyph-name="Wcircumflex" unicode="&#x174;" horiz-adv-x="948" 
d="M687 100q1 -5 5 -5t5 5l110 599q2 5 5 5h91q7 0 6 -5l-138 -694q-2 -5 -6 -5h-152q-3 0 -5 5l-129 598q-1 4 -5 4t-5 -4l-129 -598q-2 -5 -5 -5h-152q-4 0 -6 5l-138 694q-1 5 6 5h91q3 0 5 -5l110 -599q1 -5 5 -5t5 5l124 599q2 5 5 5h168q3 0 5 -5zM512 783q-3 0 -6 4
l-29 41q-6 9 -11 0l-29 -41q-3 -4 -6 -4h-60q-3 0 -5 2t0 5l44 104q1 4 5 4h114q4 0 5 -4l43 -104q3 -7 -5 -7h-60z" />
    <glyph glyph-name="wcircumflex" unicode="&#x175;" horiz-adv-x="810" 
d="M518 0q-3 0 -5 5l-97 399q-1 4 -5 4t-5 -4l-96 -399q-2 -5 -5 -5h-127q-4 0 -6 5l-119 496q-1 5 6 5h85q3 0 5 -5l87 -402q1 -4 5 -4t5 4l99 402q2 5 5 5h123q3 0 5 -5l99 -402q1 -4 5 -4t5 4l87 402q2 5 5 5h85q7 0 6 -5l-119 -496q-2 -5 -6 -5h-127zM452 589q-3 0 -6 4
l-29 41q-6 9 -11 0l-29 -41q-3 -4 -6 -4h-60q-3 0 -5 2t0 5l44 104q1 4 5 4h114q4 0 5 -4l43 -104q3 -7 -5 -7h-60z" />
    <glyph glyph-name="Ycircumflex" unicode="&#x176;" horiz-adv-x="659" 
d="M381 313q-2 -4 -2.5 -6t-0.5 -4v-298q0 -5 -5 -5h-85q-5 0 -5 5v298q0 2 -5 10l-236 386q-3 5 3 5h101q5 0 8 -5l171 -285q5 -7 10 0l172 285q4 5 10 5h99q6 0 3 -5zM367 783q-3 0 -6 4l-29 41q-6 9 -11 0l-29 -41q-3 -4 -6 -4h-60q-3 0 -5 2t0 5l44 104q1 4 5 4h114
q4 0 5 -4l43 -104q3 -7 -5 -7h-60z" />
    <glyph glyph-name="ycircumflex" unicode="&#x177;" horiz-adv-x="541" 
d="M37 -118q0 5 5 5h113q45 0 59 25.5t0 65.5l-9 27l-169 496q-1 5 6 5h91q3 0 5 -5l131 -402q2 -4 5 -4t5 4l132 402q2 5 5 5h91q7 0 5 -5l-171 -501l-29 -87q-11 -30 -23 -51.5t-27.5 -34.5t-37.5 -19t-52 -6h-130q-5 0 -5 5v75v0zM308 589q-3 0 -6 4l-29 41q-6 9 -11 0
l-29 -41q-3 -4 -6 -4h-60q-3 0 -5 2t0 5l44 104q1 4 5 4h114q4 0 5 -4l43 -104q3 -7 -5 -7h-60z" />
    <glyph glyph-name="Ydieresis" unicode="&#x178;" horiz-adv-x="659" 
d="M381 313q-2 -4 -2.5 -6t-0.5 -4v-298q0 -5 -5 -5h-85q-5 0 -5 5v298q0 2 -5 10l-236 386q-3 5 3 5h101q5 0 8 -5l171 -285q5 -7 10 0l172 285q4 5 10 5h99q6 0 3 -5zM267 791q0 -5 -5 -5h-105q-5 0 -5 5v104q0 5 5 5h105q5 0 5 -5v-104zM511 791q0 -5 -5 -5h-105
q-5 0 -5 5v104q0 5 5 5h105q5 0 5 -5v-104z" />
    <glyph glyph-name="Zacute" unicode="&#x179;" horiz-adv-x="565" 
d="M25 75q0 8 0.5 9.5t2.5 3.5l381 525q4 6 -2 6h-377q-5 0 -5 5v75q0 5 5 5h490q5 0 5 -5v-70v-9.5t-2 -3.5l-383 -526q-3 -5 2 -5h378q5 0 5 -5v-75q0 -5 -5 -5h-490q-5 0 -5 5v70zM212 783q-3 0 -5 2t0 5l43 101q2 7 10 7h87q8 0 5 -7l-72 -101l-4.5 -4.5t-6.5 -2.5h-57z
" />
    <glyph glyph-name="zacute" unicode="&#x17a;" horiz-adv-x="468" 
d="M25 80q0 4 4 10l268 323q2 2 1 5t-5 3h-252q-5 0 -5 5v75q0 5 5 5h369q5 0 5 -5v-75q0 -5 -4 -10l-266 -323q-2 -2 -0.5 -5t4.5 -3h274q5 0 5 -5v-75q0 -5 -5 -5h-393q-5 0 -5 5v75zM174 589q-3 0 -5 2t0 5l43 101q2 7 10 7h87q8 0 5 -7l-72 -101l-4.5 -4.5t-6.5 -2.5
h-57z" />
    <glyph glyph-name="Zdotaccent" unicode="&#x17b;" horiz-adv-x="565" 
d="M25 75q0 8 0.5 9.5t2.5 3.5l381 525q4 6 -2 6h-377q-5 0 -5 5v75q0 5 5 5h490q5 0 5 -5v-70v-9.5t-2 -3.5l-383 -526q-3 -5 2 -5h378q5 0 5 -5v-75q0 -5 -5 -5h-490q-5 0 -5 5v70zM201 802q-5 0 -5 5v132q0 5 5 5h129q5 0 5 -5v-132q0 -5 -5 -5h-129z" />
    <glyph glyph-name="zdotaccent" unicode="&#x17c;" horiz-adv-x="468" 
d="M25 80q0 4 4 10l268 323q2 2 1 5t-5 3h-252q-5 0 -5 5v75q0 5 5 5h369q5 0 5 -5v-75q0 -5 -4 -10l-266 -323q-2 -2 -0.5 -5t4.5 -3h274q5 0 5 -5v-75q0 -5 -5 -5h-393q-5 0 -5 5v75zM168 562q-5 0 -5 5v132q0 5 5 5h129q5 0 5 -5v-132q0 -5 -5 -5h-129z" />
    <glyph glyph-name="Zcaron" unicode="&#x17d;" horiz-adv-x="565" 
d="M25 75q0 8 0.5 9.5t2.5 3.5l381 525q4 6 -2 6h-377q-5 0 -5 5v75q0 5 5 5h490q5 0 5 -5v-70v-9.5t-2 -3.5l-383 -526q-3 -5 2 -5h378q5 0 5 -5v-75q0 -5 -5 -5h-490q-5 0 -5 5v70zM379 901q8 0 5 -7l-43 -104q-1 -4 -5 -4h-114q-4 0 -5 4l-44 104q-2 3 0 5t5 2h60
q3 0 6 -4l30 -41q5 -7 11 0l28 41q3 4 6 4h60z" />
    <glyph glyph-name="zcaron" unicode="&#x17e;" horiz-adv-x="468" 
d="M25 80q0 4 4 10l268 323q2 2 1 5t-5 3h-252q-5 0 -5 5v75q0 5 5 5h369q5 0 5 -5v-75q0 -5 -4 -10l-266 -323q-2 -2 -0.5 -5t4.5 -3h274q5 0 5 -5v-75q0 -5 -5 -5h-393q-5 0 -5 5v75zM334 704q8 0 5 -7l-43 -104q-1 -4 -5 -4h-114q-4 0 -5 4l-44 104q-2 3 0 5t5 2h60
q3 0 6 -4l30 -41q5 -7 11 0l28 41q3 4 6 4h60z" />
    <glyph glyph-name="longs" unicode="&#x17f;" horiz-adv-x="345" 
d="M326 624q0 -5 -5 -5h-66q-23 0 -35 -13.5t-12 -36.5v-564q0 -5 -5 -5h-85q-5 0 -5 5v421q0 5 -5 5h-89q-5 0 -5 5v65q0 5 5 5h89q5 0 5 5v75q0 121 141 118h67q5 0 5 -5v-75z" />
    <glyph glyph-name="florin" unicode="&#x192;" horiz-adv-x="500" 
d="M5 -118q2 5 6 5h59q29 0 43.5 13.5t19.5 36.5l95 490q0 4 -4 4h-89q-6 0 -4 5l13 65q0 5 6 5h89q4 0 6 5l14 75q24 121 164 118h67q6 0 4 -5l-14 -75q-2 -5 -6 -5h-66q-23 0 -37.5 -13.5t-19.5 -36.5l-11 -58q-2 -5 4 -5h108q4 0 4 -5l-13 -65q-2 -5 -6 -5h-108
q-4 0 -6 -5l-98 -506q-12 -62 -52 -91t-101 -27h-77q-6 0 -4 5z" />
    <glyph glyph-name="uni0218" unicode="&#x218;" horiz-adv-x="610" 
d="M441 511q0 25 -11 46.5t-31 37.5t-48 25t-61 9q-30 0 -56 -8.5t-45.5 -24t-31 -37t-11.5 -46.5q0 -31 14.5 -49.5t37 -29.5t50 -16t53.5 -8q49 -6 97 -16.5t85.5 -33t61 -61.5t23.5 -101q0 -38 -14.5 -75t-46.5 -66.5t-82.5 -48t-123.5 -18.5q-65 0 -115 16.5t-83.5 44.5
t-51 64.5t-17.5 77.5q0 5 5 5h89q6 0 6 -6q0 -19 10 -39.5t31 -38t52.5 -28.5t73.5 -11q40 0 71 10t52.5 27t32.5 39t11 47q0 34 -14 55t-37 34t-53 19t-63 9q-42 4 -87 14t-82.5 31.5t-61.5 58t-24 94.5q0 48 21 85.5t55.5 63t78 39t89.5 13.5q48 0 92 -12.5t78.5 -37.5
t56.5 -63.5t24 -89.5q0 -5 -5 -5h-90q-5 0 -5 5zM269 -134q-5 0 -5 5v69q0 5 5 5h68q5 0 5 -5v-71q0 -34 -20 -55.5t-53 -21.5q-5 0 -5 5v29q0 5 5 5q9 0 18 7t9 23q0 5 -5 5h-22z" />
    <glyph glyph-name="uni0219" unicode="&#x219;" horiz-adv-x="518" 
d="M382 335q-5 0 -5 5q0 42 -32 66.5t-93 24.5q-57 0 -82.5 -20.5t-25.5 -43.5q0 -21 12 -33t30 -18t39.5 -8.5t40.5 -5.5q37 -5 76.5 -11t71 -21t52 -43t20.5 -76q0 -43 -17 -73.5t-46.5 -50t-69.5 -28.5t-87 -9q-57 0 -99.5 14t-70.5 38t-42 56t-14 68q0 5 5 5h84
q6 0 6 -5q0 -38 35.5 -64.5t95.5 -26.5q19 0 41 2.5t40.5 11t31 23.5t12.5 39q0 21 -13.5 33.5t-33 19t-41 9t-37.5 4.5q-36 4 -74.5 10.5t-70 22t-52 43t-20.5 74.5q0 31 14.5 58t40.5 47t63.5 32t84.5 12q46 0 86 -11t70 -33t47 -55t17 -77q0 -5 -4 -5h-86zM229 -134
q-5 0 -5 5v69q0 5 5 5h68q5 0 5 -5v-71q0 -34 -20 -55.5t-53 -21.5q-5 0 -5 5v29q0 5 5 5q9 0 18 7t9 23q0 5 -5 5h-22z" />
    <glyph glyph-name="uni021A" unicode="&#x21a;" horiz-adv-x="542" 
d="M229 -134q-5 0 -5 5v69q0 5 5 5h68q5 0 5 -5v-71q0 -34 -20 -55.5t-53 -21.5q-5 0 -5 5v29q0 5 5 5q9 0 18 7t9 23q0 5 -5 5h-22zM216 615q-2 4 -5 4h-193q-5 0 -5 5v75q0 5 5 5h491q5 0 5 -5v-75q0 -5 -5 -5h-193q-5 0 -5 -5v-609q0 -5 -5 -5h-85q-5 0 -5 5v610z" />
    <glyph glyph-name="uni021B" unicode="&#x21b;" horiz-adv-x="355" 
d="M174 -134q-5 0 -5 5v69q0 5 5 5h68q5 0 5 -5v-71q0 -34 -20 -55.5t-53 -21.5q-5 0 -5 5v29q0 5 5 5q9 0 18 7t9 23q0 5 -5 5h-22zM326 5q0 -5 -5 -5h-77q-63 -2 -97 27t-34 91v308q0 5 -5 5h-89q-5 0 -5 5v65q0 5 5 5h89q5 0 5 5v135q0 5 5 5h85q5 0 5 -5v-135q0 -5 5 -5
h108q5 0 5 -5v-65q0 -5 -5 -5h-108q-5 0 -5 -5v-291q0 -23 12 -36.5t42 -13.5h59q5 0 5 -5v-75z" />
    <glyph glyph-name="circumflex" unicode="&#x2c6;" horiz-adv-x="308" 
d="M192 589q-3 0 -6 4l-29 41q-6 9 -11 0l-29 -41q-3 -4 -6 -4h-60q-3 0 -5 2t0 5l44 104q1 4 5 4h114q4 0 5 -4l43 -104q3 -7 -5 -7h-60z" />
    <glyph glyph-name="caron" unicode="&#x2c7;" horiz-adv-x="308" 
d="M252 704q8 0 5 -7l-43 -104q-1 -4 -5 -4h-114q-4 0 -5 4l-44 104q-2 3 0 5t5 2h60q3 0 6 -4l30 -41q5 -7 11 0l28 41q3 4 6 4h60z" />
    <glyph glyph-name="uni02C9" unicode="&#x2c9;" horiz-adv-x="366" 
d="M57 589q-4 0 -4 5v58q0 5 4 5h246q5 0 5 -5v-58q0 -5 -5 -5h-246z" />
    <glyph glyph-name="breve" unicode="&#x2d8;" horiz-adv-x="335" 
d="M267 704q5 0 5 -5q0 -31 -10.5 -52t-27 -34t-36.5 -18.5t-40 -5.5t-40 5.5t-36.5 18.5t-27 34t-10.5 52q0 5 5 5h62q5 0 5 -5q0 -21 14 -29.5t28 -8.5t27.5 8.5t13.5 29.5q0 5 5 5h63z" />
    <glyph glyph-name="dotaccent" unicode="&#x2d9;" horiz-adv-x="242" 
d="M48 562q-5 0 -5 5v132q0 5 5 5h129q5 0 5 -5v-132q0 -5 -5 -5h-129z" />
    <glyph glyph-name="ring" unicode="&#x2da;" horiz-adv-x="246" 
d="M203 625q0 -36 -26 -61.5t-62 -25.5t-61.5 25.5t-25.5 61.5t25.5 62t61.5 26q18 0 34 -7t28 -19t19 -28t7 -34zM160 625q0 19 -13 32t-32 13t-32 -13t-13 -32t13 -32t32 -13t32 13t13 32z" />
    <glyph glyph-name="ogonek" unicode="&#x2db;" horiz-adv-x="255" 
d="M206 10q5 0 5 -5t-5 -5h-6q-32 0 -53.5 -18.5t-21.5 -43.5q0 -31 20 -46t52 -15h14q5 0 5 -5v-65q0 -5 -5 -5h-24q-59 0 -96 25.5t-38 73.5q0 25 10.5 46t30 35t46.5 21.5t60 6.5h6z" />
    <glyph glyph-name="tilde" unicode="&#x2dc;" horiz-adv-x="437" 
d="M43 618q0 13 5 28t16.5 28t31 21.5t49.5 8.5q22 0 38.5 -7t29 -16t22 -16t17.5 -7q3 0 8.5 0.5t11 4t9 12t3.5 24.5q0 5 5 5h60q5 0 5 -5v-24q0 -13 -5 -28t-17 -27.5t-31.5 -21t-48.5 -8.5q-20 0 -36 7t-29 16t-23 16t-19 7q-3 0 -8.5 -0.5t-11 -4t-9 -12t-3.5 -24.5
q0 -5 -5 -5h-60q-5 0 -5 5v23z" />
    <glyph glyph-name="hungarumlaut" unicode="&#x2dd;" horiz-adv-x="429" 
d="M27 562q-4 0 -4 5l29 132q0 5 6 5h109q4 0 4 -5l-29 -132q0 -5 -6 -5h-109zM247 562q-4 0 -4 5l29 132q0 5 6 5h109q4 0 4 -5l-29 -132q0 -5 -6 -5h-109z" />
    <glyph glyph-name="uni0394" unicode="&#x394;" horiz-adv-x="690" 
d="M69 0q-5 0 -5 5v73q0 2 1 4.5t2 4.5l208 612q2 5 6 5h127q3 0 5 -5l205 -611q1 -2 2 -4.5t1 -5.5v-73q0 -5 -5 -5h-547zM171 91q-2 -6 5 -6h333q7 0 5 7l-165 513q-2 4 -5 4t-5 -4z" />
    <glyph glyph-name="uni03A9" unicode="&#x3a9;" 
d="M456 5q0 -5 -5 -5h-411q-5 0 -5 5v694q0 5 5 5h411q5 0 5 -5v-694zM419 681h-346l173 -306zM419 24l-173 305l-173 -305h346zM432 48v608q-43 -75 -87 -152t-86 -152zM233 352l-173 305v-610z" />
    <glyph glyph-name="uni03BC" unicode="&#x3bc;" 
d="M456 5q0 -5 -5 -5h-411q-5 0 -5 5v694q0 5 5 5h411q5 0 5 -5v-694zM419 681h-346l173 -306zM419 24l-173 305l-173 -305h346zM432 48v608q-43 -75 -87 -152t-86 -152zM233 352l-173 305v-610z" />
    <glyph glyph-name="pi" unicode="&#x3c0;" 
d="M456 5q0 -5 -5 -5h-411q-5 0 -5 5v694q0 5 5 5h411q5 0 5 -5v-694zM419 681h-346l173 -306zM419 24l-173 305l-173 -305h346zM432 48v608q-43 -75 -87 -152t-86 -152zM233 352l-173 305v-610z" />
    <glyph glyph-name="Wgrave" unicode="&#x1e80;" horiz-adv-x="948" 
d="M687 100q1 -5 5 -5t5 5l110 599q2 5 5 5h91q7 0 6 -5l-138 -694q-2 -5 -6 -5h-152q-3 0 -5 5l-129 598q-1 4 -5 4t-5 -4l-129 -598q-2 -5 -5 -5h-152q-4 0 -6 5l-138 694q-1 5 6 5h91q3 0 5 -5l110 -599q1 -5 5 -5t5 5l124 599q2 5 5 5h168q3 0 5 -5zM452 783
q-4 0 -6.5 2.5l-4.5 4.5l-72 101q-2 3 0 5t5 2h87q8 0 10 -7l43 -101q3 -7 -5 -7h-57z" />
    <glyph glyph-name="wgrave" unicode="&#x1e81;" horiz-adv-x="810" 
d="M518 0q-3 0 -5 5l-97 399q-1 4 -5 4t-5 -4l-96 -399q-2 -5 -5 -5h-127q-4 0 -6 5l-119 496q-1 5 6 5h85q3 0 5 -5l87 -402q1 -4 5 -4t5 4l99 402q2 5 5 5h123q3 0 5 -5l99 -402q1 -4 5 -4t5 4l87 402q2 5 5 5h85q7 0 6 -5l-119 -496q-2 -5 -6 -5h-127zM382 589
q-4 0 -6.5 2.5l-4.5 4.5l-72 101q-2 3 0 5t5 2h87q8 0 10 -7l43 -101q3 -7 -5 -7h-57z" />
    <glyph glyph-name="Wacute" unicode="&#x1e82;" horiz-adv-x="948" 
d="M687 100q1 -5 5 -5t5 5l110 599q2 5 5 5h91q7 0 6 -5l-138 -694q-2 -5 -6 -5h-152q-3 0 -5 5l-129 598q-1 4 -5 4t-5 -4l-129 -598q-2 -5 -5 -5h-152q-4 0 -6 5l-138 694q-1 5 6 5h91q3 0 5 -5l110 -599q1 -5 5 -5t5 5l124 599q2 5 5 5h168q3 0 5 -5zM434 783q-3 0 -5 2
t0 5l43 101q2 7 10 7h87q8 0 5 -7l-72 -101l-4.5 -4.5t-6.5 -2.5h-57z" />
    <glyph glyph-name="wacute" unicode="&#x1e83;" horiz-adv-x="810" 
d="M518 0q-3 0 -5 5l-97 399q-1 4 -5 4t-5 -4l-96 -399q-2 -5 -5 -5h-127q-4 0 -6 5l-119 496q-1 5 6 5h85q3 0 5 -5l87 -402q1 -4 5 -4t5 4l99 402q2 5 5 5h123q3 0 5 -5l99 -402q1 -4 5 -4t5 4l87 402q2 5 5 5h85q7 0 6 -5l-119 -496q-2 -5 -6 -5h-127zM384 589q-3 0 -5 2
t0 5l43 101q2 7 10 7h87q8 0 5 -7l-72 -101l-4.5 -4.5t-6.5 -2.5h-57z" />
    <glyph glyph-name="Wdieresis" unicode="&#x1e84;" horiz-adv-x="948" 
d="M687 100q1 -5 5 -5t5 5l110 599q2 5 5 5h91q7 0 6 -5l-138 -694q-2 -5 -6 -5h-152q-3 0 -5 5l-129 598q-1 4 -5 4t-5 -4l-129 -598q-2 -5 -5 -5h-152q-4 0 -6 5l-138 694q-1 5 6 5h91q3 0 5 -5l110 -599q1 -5 5 -5t5 5l124 599q2 5 5 5h168q3 0 5 -5zM407 834q0 -5 -5 -5
h-105q-5 0 -5 5v105q0 5 5 5h105q5 0 5 -5v-105zM651 834q0 -5 -5 -5h-105q-5 0 -5 5v105q0 5 5 5h105q5 0 5 -5v-105z" />
    <glyph glyph-name="wdieresis" unicode="&#x1e85;" horiz-adv-x="810" 
d="M518 0q-3 0 -5 5l-97 399q-1 4 -5 4t-5 -4l-96 -399q-2 -5 -5 -5h-127q-4 0 -6 5l-119 496q-1 5 6 5h85q3 0 5 -5l87 -402q1 -4 5 -4t5 4l99 402q2 5 5 5h123q3 0 5 -5l99 -402q1 -4 5 -4t5 4l87 402q2 5 5 5h85q7 0 6 -5l-119 -496q-2 -5 -6 -5h-127zM348 595
q0 -5 -5 -5h-105q-5 0 -5 5v104q0 5 5 5h105q5 0 5 -5v-104zM592 595q0 -5 -5 -5h-105q-5 0 -5 5v104q0 5 5 5h105q5 0 5 -5v-104z" />
    <glyph glyph-name="endash" unicode="&#x2013;" horiz-adv-x="700" 
d="M125 211q-5 0 -5 5v75q0 5 5 5h445q5 0 5 -5v-75q0 -5 -5 -5h-445z" />
    <glyph glyph-name="emdash" unicode="&#x2014;" horiz-adv-x="976" 
d="M125 211q-5 0 -5 5v75q0 5 5 5h721q5 0 5 -5v-75q0 -5 -5 -5h-721z" />
    <glyph glyph-name="quoteleft" unicode="&#x2018;" horiz-adv-x="191" 
d="M148 581q5 0 5 -5v-140q0 -5 -5 -5h-120q-5 0 -5 5v139q0 57 34.5 93t90.5 36q5 0 5 -5v-55q0 -5 -5 -5q-15 0 -32 -13.5t-17 -39.5q0 -5 5 -5h44z" />
    <glyph glyph-name="quoteright" unicode="&#x2019;" horiz-adv-x="191" 
d="M28 554q-5 0 -5 5v140q0 5 5 5h120q5 0 5 -5v-139q0 -57 -34.5 -93t-90.5 -36q-5 0 -5 5v55q0 5 5 5q15 0 32 13.5t17 39.5q0 5 -5 5h-44z" />
    <glyph glyph-name="quotesinglbase" unicode="&#x201a;" horiz-adv-x="251" 
d="M58 0q-5 0 -5 5v122q0 5 5 5h120q5 0 5 -5v-121q0 -57 -34.5 -93t-90.5 -36q-5 0 -5 5v55q0 5 5 5q15 0 32 13.5t17 39.5q0 5 -5 5h-44z" />
    <glyph glyph-name="quotedblleft" unicode="&#x201c;" horiz-adv-x="371" 
d="M328 581q5 0 5 -5v-140q0 -5 -5 -5h-120q-5 0 -5 5v139q0 57 34.5 93t90.5 36q5 0 5 -5v-55q0 -5 -5 -5q-15 0 -32 -13.5t-17 -39.5q0 -5 5 -5h44zM148 581q5 0 5 -5v-140q0 -5 -5 -5h-120q-5 0 -5 5v139q0 57 34.5 93t90.5 36q5 0 5 -5v-55q0 -5 -5 -5q-15 0 -32 -13.5
t-17 -39.5q0 -5 5 -5h44z" />
    <glyph glyph-name="quotedblright" unicode="&#x201d;" horiz-adv-x="371" 
d="M28 554q-5 0 -5 5v140q0 5 5 5h120q5 0 5 -5v-139q0 -57 -34.5 -93t-90.5 -36q-5 0 -5 5v55q0 5 5 5q15 0 32 13.5t17 39.5q0 5 -5 5h-44zM208 554q-5 0 -5 5v140q0 5 5 5h120q5 0 5 -5v-139q0 -57 -34.5 -93t-90.5 -36q-5 0 -5 5v55q0 5 5 5q15 0 32 13.5t17 39.5
q0 5 -5 5h-44z" />
    <glyph glyph-name="quotedblbase" unicode="&#x201e;" horiz-adv-x="424" 
d="M232 0q-5 0 -5 5v152q0 5 5 5h149q5 0 5 -5v-151q0 -25 -8 -48t-26 -41t-47.5 -29t-72.5 -11q-5 0 -5 5v55q0 5 5 5q45 0 61.5 17t16.5 36q0 5 -5 5h-73zM28 0q-5 0 -5 5v152q0 5 5 5h149q5 0 5 -5v-151q0 -25 -8 -48t-26 -41t-47.5 -29t-72.5 -11q-5 0 -5 5v55q0 5 5 5
q45 0 61.5 17t16.5 36q0 5 -5 5h-73z" />
    <glyph glyph-name="dagger" unicode="&#x2020;" horiz-adv-x="558" 
d="M224 506q5 0 5 5v189q0 5 5 5h85q5 0 5 -5v-189q0 -5 5 -5h196q5 0 5 -5v-85q0 -5 -5 -5h-196q-5 0 -5 -5v-599q0 -5 -5 -5h-85q-5 0 -5 5v599q0 5 -5 5h-196q-5 0 -5 5v85q0 5 5 5h196z" />
    <glyph glyph-name="daggerdbl" unicode="&#x2021;" horiz-adv-x="558" 
d="M28 1q-5 0 -5 5v85q0 5 5 5h196q5 0 5 5v305q0 5 -5 5h-196q-5 0 -5 5v85q0 5 5 5h196q5 0 5 5v189q0 5 5 5h85q5 0 5 -5v-189q0 -5 5 -5h196q5 0 5 -5v-85q0 -5 -5 -5h-196q-5 0 -5 -5v-305q0 -5 5 -5h196q5 0 5 -5v-85q0 -5 -5 -5h-196q-5 0 -5 -5v-189q0 -5 -5 -5h-85
q-5 0 -5 5v189q0 5 -5 5h-196z" />
    <glyph glyph-name="bullet" unicode="&#x2022;" horiz-adv-x="771" 
d="M120 253q0 55 20.5 103t56 83.5t83.5 56t103 20.5t103 -20.5t83.5 -56t56 -83.5t20.5 -103t-20.5 -103t-56 -83.5t-83.5 -56t-103 -20.5t-103 20.5t-83.5 56t-56 83.5t-20.5 103z" />
    <glyph glyph-name="ellipsis" unicode="&#x2026;" horiz-adv-x="660" 
d="M58 0q-5 0 -5 5v122q0 5 5 5h120q5 0 5 -5v-122q0 -5 -5 -5h-120zM263 0q-5 0 -5 5v122q0 5 5 5h120q5 0 5 -5v-122q0 -5 -5 -5h-120zM467 0q-5 0 -5 5v122q0 5 5 5h120q5 0 5 -5v-122q0 -5 -5 -5h-120z" />
    <glyph glyph-name="perthousand" unicode="&#x2030;" horiz-adv-x="1172" 
d="M764 190q0 -43 -7.5 -79.5t-24.5 -63.5t-45 -42t-70 -15t-70 15t-45.5 42t-25 63.5t-7.5 79.5q0 42 7.5 78.5t25 63.5t45.5 42t70 15t70 -15t45 -42t24.5 -63.5t7.5 -78.5zM700 190q0 66 -19 101.5t-64 35.5q-46 0 -64.5 -35.5t-18.5 -101.5t18.5 -102t64.5 -36
q45 0 64 36t19 102zM348 515q0 -43 -7.5 -79.5t-24.5 -63.5t-45 -42t-70 -15t-70 15t-45.5 42t-25 63.5t-7.5 79.5q0 42 7.5 78.5t25 63.5t45.5 42t70 15t70 -15t45 -42t24.5 -63.5t7.5 -78.5zM284 515q0 66 -19 101.5t-64 35.5q-46 0 -64.5 -35.5t-18.5 -101.5t18.5 -102
t64.5 -36q45 0 64 36t19 102zM1114 190q0 -43 -7.5 -79.5t-24.5 -63.5t-45 -42t-70 -15t-70 15t-45.5 42t-25 63.5t-7.5 79.5q0 42 7.5 78.5t25 63.5t45.5 42t70 15t70 -15t45 -42t24.5 -63.5t7.5 -78.5zM1050 190q0 66 -19 101.5t-64 35.5q-46 0 -64.5 -35.5t-18.5 -101.5
t18.5 -102t64.5 -36q45 0 64 36t19 102zM581 702q2 2 4 2h70q8 0 4 -8l-426 -694q-2 -2 -4 -2h-68q-8 0 -4 8z" />
    <glyph glyph-name="guilsinglleft" unicode="&#x2039;" horiz-adv-x="391" 
d="M145 258q-3 -4 0 -9l212 -242q2 -7 -5 -7h-74q-4 0 -5 3l-212 246q-3 4 0 9l212 246q1 3 5 3h74q7 0 5 -7z" />
    <glyph glyph-name="guilsinglright" unicode="&#x203a;" horiz-adv-x="391" 
d="M59 500q-2 7 5 7h74q3 0 5 -3l212 -246q3 -5 0 -9l-212 -246q-2 -3 -5 -3h-74q-7 0 -5 7l212 242q3 5 0 9z" />
    <glyph glyph-name="fraction" unicode="&#x2044;" horiz-adv-x="622" 
d="M457 702q2 2 4 2h54q8 0 4 -8l-426 -694q-2 -2 -4 -2h-52q-8 0 -4 8z" />
    <glyph glyph-name="franc" unicode="&#x20a3;" 
d="M456 5q0 -5 -5 -5h-411q-5 0 -5 5v694q0 5 5 5h411q5 0 5 -5v-694zM419 681h-346l173 -306zM419 24l-173 305l-173 -305h346zM432 48v608q-43 -75 -87 -152t-86 -152zM233 352l-173 305v-610z" />
    <glyph glyph-name="lira" unicode="&#x20a4;" 
d="M456 5q0 -5 -5 -5h-411q-5 0 -5 5v694q0 5 5 5h411q5 0 5 -5v-694zM419 681h-346l173 -306zM419 24l-173 305l-173 -305h346zM432 48v608q-43 -75 -87 -152t-86 -152zM233 352l-173 305v-610z" />
    <glyph glyph-name="peseta" unicode="&#x20a7;" 
d="M456 5q0 -5 -5 -5h-411q-5 0 -5 5v694q0 5 5 5h411q5 0 5 -5v-694zM419 681h-346l173 -306zM419 24l-173 305l-173 -305h346zM432 48v608q-43 -75 -87 -152t-86 -152zM233 352l-173 305v-610z" />
    <glyph glyph-name="Euro" unicode="&#x20ac;" horiz-adv-x="680" 
d="M116 223q-1 7 -6 7h-76q-5 0 -3 5l20 75q2 5 6 5h41q5 0 5 5q-1 4 -1.5 14.5t-0.5 22.5t0.5 22.5t1.5 15.5q0 5 -5 5h-64q-6 0 -4 5l20 75q2 5 7 5h55q5 0 5 4q12 51 34.5 92.5t56 71t78.5 45.5t103 16q63 0 105.5 -17t79.5 -52q5 -5 2 -14l-26 -80q-1 -3 -3.5 -3t-4.5 3
q-20 34 -58.5 56t-94.5 22q-69 0 -110.5 -32.5t-60.5 -106.5q-1 -5 5 -5h300q6 0 4 -5l-21 -75q-2 -5 -6 -5h-292q-5 0 -5 -5q-6 -38 0 -75q0 -5 5 -5h264q6 0 4 -5l-21 -75q-1 -5 -6 -5h-228q-6 0 -5 -7q17 -72 59 -110t114 -38q31 0 58.5 12.5t50 32t40.5 43.5t30 48
q2 4 6.5 3t4.5 -6v-114q0 -7 -5 -14q-12 -19 -32 -35.5t-45 -28.5t-52.5 -19t-55.5 -7q-59 0 -104.5 16.5t-79.5 47t-56 73.5t-33 96z" />
    <glyph glyph-name="uni2113" unicode="&#x2113;" horiz-adv-x="495" 
d="M462 212q5 0 5 -5v-43q0 -34 -13 -64t-35.5 -52t-52 -35t-63.5 -13q-30 0 -57 10t-48.5 27.5t-36 42t-19.5 53.5l-110 -110q-3 -3 -6 -2t-3 4v122q0 4 2 6l114 114v260q0 34 13 64t35.5 52t52 35t63.5 13q32 0 62 -12.5t54 -35.5q24 -24 36 -54t12 -62t-12 -62t-36 -54
l-184 -185v-62q0 -29 20 -49t48 -20t47.5 20t19.5 49v43q0 5 5 5h87zM351 575q-21 21 -48 21q-28 0 -48 -20t-20 -49v-153q0 -2 3 -3.5t5 0.5l108 108q11 11 15.5 23.5t4.5 24.5q0 28 -20 48z" />
    <glyph glyph-name="trademark" unicode="&#x2122;" horiz-adv-x="446" 
d="M340 699q2 5 6 5h56q5 0 5 -5v-188q0 -5 -5 -5h-26q-5 0 -5 5v154q0 2 -2 2.5t-3 -2.5l-40 -154q-2 -5 -6 -5h-43q-4 0 -6 5l-40 154q-1 3 -3 2.5t-2 -2.5v-154q0 -5 -5 -5h-26q-5 0 -5 5v188q0 5 5 5h56q4 0 6 -5l39 -157q1 -2 2.5 -2t2.5 2zM123 668q-5 0 -5 -5v-152
q0 -5 -5 -5h-26q-5 0 -5 5v152q0 5 -5 5h-47q-5 0 -5 5v26q0 5 4 5h142q5 0 5 -5v-26q0 -5 -5 -5h-48z" />
    <glyph glyph-name="Omega" unicode="&#x2126;" 
d="M456 5q0 -5 -5 -5h-411q-5 0 -5 5v694q0 5 5 5h411q5 0 5 -5v-694zM419 681h-346l173 -306zM419 24l-173 305l-173 -305h346zM432 48v608q-43 -75 -87 -152t-86 -152zM233 352l-173 305v-610z" />
    <glyph glyph-name="estimated" unicode="&#x212e;" horiz-adv-x="503" 
d="M448 128q4 -2 2 -6q-29 -57 -81.5 -89.5t-115.5 -32.5q-45 0 -85 17.5t-70 47.5t-47.5 70t-17.5 85v51q0 45 17.5 85.5t47.5 70.5t70 47.5t85 17.5t85 -17.5t70 -47.5t47.5 -70.5t17.5 -85.5v-28q0 -5 -5 -5h-364q-5 0 -5 -5v-146q28 -33 67.5 -52t86.5 -19q57 0 106 30
t77 81q2 4 6 3zM253 476q-47 0 -86.5 -19.5t-67.5 -51.5v-145q0 -5 5 -5h297q5 0 5 5v146q-29 32 -68 51t-85 19z" />
    <glyph glyph-name="arrowleft" unicode="&#x2190;" horiz-adv-x="740" 
d="M58 320q-4 4 -4 10v52q0 6 4 10l125 108q6 5 10 5.5t12 0.5h75q4 0 5 -3.5t-2 -5.5l-123 -104q-3 -2 -2.5 -3.5t2.5 -1.5h506q5 0 5 -5v-54q0 -5 -5 -5h-506q-2 0 -2.5 -1.5t2.5 -3.5l123 -104q3 -2 2 -5.5t-5 -3.5h-75q-8 0 -12 0.5t-10 5.5z" />
    <glyph glyph-name="arrowup" unicode="&#x2191;" horiz-adv-x="425" 
d="M349 575q5 -6 5.5 -10t0.5 -12v-75q0 -4 -3.5 -5t-5.5 2l-104 123q-2 3 -3.5 2.5t-1.5 -2.5v-593q0 -5 -5 -5h-54q-5 0 -5 5v593q0 2 -1.5 2.5t-3.5 -2.5l-104 -123q-2 -3 -5.5 -2t-3.5 5v75q0 8 0.5 12t5.5 10l108 125q4 4 10 4h52q6 0 10 -4z" />
    <glyph glyph-name="arrowright" unicode="&#x2192;" horiz-adv-x="740" 
d="M542 212q-6 -5 -10 -5.5t-12 -0.5h-75q-4 0 -5 3.5t2 5.5l123 104q3 2 2.5 3.5t-2.5 1.5h-506q-5 0 -5 5v54q0 5 5 5h506q2 0 2.5 1.5t-2.5 3.5l-123 104q-3 2 -2 5.5t5 3.5h75q8 0 12 -0.5t10 -5.5l125 -108q4 -4 4 -10v-52q0 -6 -4 -10z" />
    <glyph glyph-name="arrowdown" unicode="&#x2193;" horiz-adv-x="425" 
d="M241 4q-4 -4 -10 -4h-52q-6 0 -10 4l-108 125q-5 6 -5.5 10t-0.5 12v75q0 4 3.5 5t5.5 -2l104 -123q2 -3 3.5 -2.5t1.5 2.5v593q0 5 5 5h54q5 0 5 -5v-593q0 -2 1.5 -2.5t3.5 2.5l104 123q2 3 5.5 2t3.5 -5v-75q0 -8 -0.5 -12t-5.5 -10z" />
    <glyph glyph-name="carriagereturn" unicode="&#x21b5;" horiz-adv-x="740" 
d="M672 329q0 -5 -5 -5h-507q-2 0 -2.5 -1.5t2.5 -3.5l123 -104q3 -2 2 -5.5t-5 -3.5h-75q-8 0 -12 0.5t-10 5.5l-125 108q-4 4 -4 10v52q0 6 4 10l125 108q6 5 10 5.5t12 0.5h75q4 0 5 -3.5t-2 -5.5l-123 -104q-3 -2 -2.5 -3.5t2.5 -1.5h443q5 0 5 5v306q0 5 5 5h54
q5 0 5 -5v-370z" />
    <glyph glyph-name="partialdiff" unicode="&#x2202;" 
d="M456 5q0 -5 -5 -5h-411q-5 0 -5 5v694q0 5 5 5h411q5 0 5 -5v-694zM419 681h-346l173 -306zM419 24l-173 305l-173 -305h346zM432 48v608q-43 -75 -87 -152t-86 -152zM233 352l-173 305v-610z" />
    <glyph glyph-name="Delta" unicode="&#x2206;" horiz-adv-x="690" 
d="M69 0q-5 0 -5 5v73q0 2 1 4.5t2 4.5l208 612q2 5 6 5h127q3 0 5 -5l205 -611q1 -2 2 -4.5t1 -5.5v-73q0 -5 -5 -5h-547zM171 91q-2 -6 5 -6h333q7 0 5 7l-165 513q-2 4 -5 4t-5 -4z" />
    <glyph glyph-name="product" unicode="&#x220f;" 
d="M456 5q0 -5 -5 -5h-411q-5 0 -5 5v694q0 5 5 5h411q5 0 5 -5v-694zM419 681h-346l173 -306zM419 24l-173 305l-173 -305h346zM432 48v608q-43 -75 -87 -152t-86 -152zM233 352l-173 305v-610z" />
    <glyph glyph-name="summation" unicode="&#x2211;" 
d="M456 5q0 -5 -5 -5h-411q-5 0 -5 5v694q0 5 5 5h411q5 0 5 -5v-694zM419 681h-346l173 -306zM419 24l-173 305l-173 -305h346zM432 48v608q-43 -75 -87 -152t-86 -152zM233 352l-173 305v-610z" />
    <glyph glyph-name="minus" unicode="&#x2212;" horiz-adv-x="607" 
d="M48 208q-5 0 -5 5v80q0 5 5 5h496q5 0 5 -5v-80q0 -5 -5 -5h-496z" />
    <glyph glyph-name="uni2215" unicode="&#x2215;" horiz-adv-x="622" 
d="M457 702q2 2 4 2h54q8 0 4 -8l-426 -694q-2 -2 -4 -2h-52q-8 0 -4 8z" />
    <glyph glyph-name="uni2219" unicode="&#x2219;" horiz-adv-x="230" 
d="M38 276q-5 0 -5 5v151q0 5 5 5h149q5 0 5 -5v-151q0 -5 -5 -5h-149z" />
    <glyph glyph-name="radical" unicode="&#x221a;" horiz-adv-x="682" 
d="M162 416q-1 5 -6 5h-92q-5 0 -5 5v75q0 5 5 5h154q3 0 5 -5l112 -402q2 -4 5 -4t5 4l221 788q2 5 5 5h74q7 0 5 -5l-246 -882q-2 -5 -5 -5h-117q-4 0 -6 5z" />
    <glyph glyph-name="infinity" unicode="&#x221e;" horiz-adv-x="896" 
d="M452 285q-5 5 -10 0l-122 -94q-21 -16 -48.5 -28t-59.5 -12q-38 0 -71 14.5t-57 39.5t-38 58.5t-14 71.5q0 37 14 70t38 57.5t57 39t71 14.5q31 0 62.5 -10.5t53.5 -29.5l114 -98q5 -5 10 0l109 98q22 20 55 30t62 10q38 0 71 -14.5t57.5 -39t38.5 -57.5t14 -70
q0 -38 -14 -71.5t-38.5 -58.5t-57.5 -39.5t-71 -14.5q-30 0 -58 11.5t-50 28.5zM678 446q-20 0 -38.5 -5t-30.5 -16l-112 -86q-4 -4 0 -8l112 -85q34 -25 69 -25q24 0 44.5 9t35.5 24t24 36t9 45q0 23 -9 43t-24 35t-35.5 24t-44.5 9zM212 446q-24 0 -44.5 -9t-35.5 -24
t-23.5 -35t-8.5 -43q0 -24 8.5 -45t23.5 -36t35.5 -24t44.5 -9q20 0 36 6.5t29 17.5l115 86q5 3 0 8l-110 85q-12 10 -30.5 16t-39.5 6z" />
    <glyph glyph-name="integral" unicode="&#x222b;" 
d="M456 5q0 -5 -5 -5h-411q-5 0 -5 5v694q0 5 5 5h411q5 0 5 -5v-694zM419 681h-346l173 -306zM419 24l-173 305l-173 -305h346zM432 48v608q-43 -75 -87 -152t-86 -152zM233 352l-173 305v-610z" />
    <glyph glyph-name="approxequal" unicode="&#x2248;" horiz-adv-x="511" 
d="M477 202q0 -45 -33 -75.5t-89 -30.5q-29 0 -58.5 11t-57.5 24t-52 24t-42 11q-14 0 -25.5 -10.5t-11.5 -24.5v-30q0 -5 -5 -5l-75 20q-5 2 -5 5v25q0 46 32.5 77t89.5 31q29 0 58.5 -11t57 -24.5t51.5 -24.5t43 -11q14 0 25.5 10t11.5 24v32q0 5 5 5l75 -20q5 -2 5 -5
v-27zM477 418q0 -45 -33 -75.5t-89 -30.5q-29 0 -58.5 11t-57.5 24t-52 24t-42 11q-14 0 -25.5 -10.5t-11.5 -24.5v-30q0 -5 -5 -5l-75 20q-5 2 -5 5v25q0 46 32.5 77t89.5 31q29 0 58.5 -11t57 -24.5t51.5 -24.5t43 -11q14 0 25.5 10t11.5 24v32q0 5 5 5l75 -20q5 -2 5 -5
v-27z" />
    <glyph glyph-name="notequal" unicode="&#x2260;" horiz-adv-x="511" 
d="M73 87q2 3 0.5 6t-4.5 3h-45q-5 0 -5 5v90q0 5 5 5h131q3 0 6 4l81 103q2 3 0.5 6t-4.5 3h-214q-5 0 -5 5v91q0 5 5 5h301q4 0 6 4l68 86q1 3 5 3h75q7 0 5 -7l-62 -78q-2 -2 -0.5 -5t4.5 -3h45q5 0 5 -5v-91q0 -5 -5 -5h-130q-5 0 -8 -5l-82 -103q-2 -2 -0.5 -5t4.5 -3
h216q5 0 5 -5v-90q0 -5 -5 -5h-301q-2 0 -3.5 -1.5l-2.5 -2.5l-70 -89q-2 -3 -5 -3h-74q-7 0 -5 7z" />
    <glyph glyph-name="lessequal" unicode="&#x2264;" horiz-adv-x="503" 
d="M16 504q0 3 3 5l448 193q7 3 7 -5v-78q0 -3 -3 -4l-372 -164q-2 -1 -2 -3t2 -3l372 -160q3 -2 3 -4v-78q0 -3 -2 -5t-5 0l-448 189q-3 1 -3 5v56v56zM21 0q-5 0 -5 5v75q0 5 5 5h448q5 0 5 -5v-75q0 -5 -5 -5h-448z" />
    <glyph glyph-name="greaterequal" unicode="&#x2265;" horiz-adv-x="503" 
d="M472 448v-56q0 -4 -3 -5l-448 -189q-3 -2 -5 0t-2 5v78q0 2 3 4l372 160q2 1 2 3t-2 3l-372 164q-3 1 -3 4v78q0 8 7 5l448 -193q3 -2 3 -5v-56zM19 0q-5 0 -5 5v75q0 5 5 5h448q5 0 5 -5v-75q0 -5 -5 -5h-448z" />
    <glyph glyph-name="lozenge" unicode="&#x25ca;" 
d="M456 5q0 -5 -5 -5h-411q-5 0 -5 5v694q0 5 5 5h411q5 0 5 -5v-694zM419 681h-346l173 -306zM419 24l-173 305l-173 -305h346zM432 48v608q-43 -75 -87 -152t-86 -152zM233 352l-173 305v-610z" />
    <glyph glyph-name="commaaccent" unicode="&#xf6c3;" horiz-adv-x="236" 
d="M56 198q-5 0 -5 5v122q0 5 5 5h120q5 0 5 -5v-121q0 -57 -34.5 -93t-90.5 -36q-5 0 -5 5v55q0 5 5 5q15 0 32 13.5t17 39.5q0 5 -5 5h-44z" />
    <glyph glyph-name="apple" unicode="&#xf8ff;" horiz-adv-x="668" 
d="M480 702q0 -35 -7 -66t-36 -60q-18 -19 -40.5 -31.5t-54.5 -12.5q-1 0 -1 0.5t-2 0.5q0 32 9.5 59.5t32.5 53.5q20 20 45 35.5t54 20.5zM625 187q-24 -53 -46 -89t-41 -56q-39 -42 -88 -42q-20 0 -56 16q-19 8 -31 10.5t-22 2.5q-8 0 -22 -2.5t-32 -10.5
q-17 -8 -31.5 -12t-22.5 -4q-14 0 -28 4.5t-27 14.5q-33 24 -60 59.5t-45.5 76.5t-29 86t-10.5 88q0 39 13 77t37.5 68t59.5 48.5t79 18.5q16 0 32.5 -4.5t35.5 -11.5q36 -14 51 -14q8 0 20.5 3.5t31.5 10.5q20 7 36 11.5t29 4.5q24 0 45.5 -5t39.5 -13q35 -16 68 -52
q-35 -25 -60.5 -58.5t-25.5 -81.5t26.5 -86t73.5 -58z" />
    <glyph glyph-name="f_f" unicode="&#xfb00;" horiz-adv-x="685" 
d="M326 624q0 -5 -5 -5h-66q-23 0 -35 -13.5t-12 -36.5v-58q0 -5 5 -5h108q5 0 5 -5v-65q0 -5 -5 -5h-108q-5 0 -5 -5v-421q0 -5 -5 -5h-85q-5 0 -5 5v421q0 5 -5 5h-89q-5 0 -5 5v65q0 5 5 5h89q5 0 5 5v75q0 121 141 118h67q5 0 5 -5v-75zM666 624q0 -5 -5 -5h-66
q-23 0 -35 -13.5t-12 -36.5v-58q0 -5 5 -5h108q5 0 5 -5v-65q0 -5 -5 -5h-108q-5 0 -5 -5v-421q0 -5 -5 -5h-85q-5 0 -5 5v421q0 5 -5 5h-89q-5 0 -5 5v65q0 5 5 5h89q5 0 5 5v75q0 121 141 118h67q5 0 5 -5v-75z" />
    <glyph glyph-name="f_f_i" unicode="&#xfb03;" horiz-adv-x="926" 
d="M326 624q0 -5 -5 -5h-66q-23 0 -35 -13.5t-12 -36.5v-58q0 -5 5 -5h108q5 0 5 -5v-65q0 -5 -5 -5h-108q-5 0 -5 -5v-421q0 -5 -5 -5h-85q-5 0 -5 5v421q0 5 -5 5h-89q-5 0 -5 5v65q0 5 5 5h89q5 0 5 5v75q0 121 141 118h67q5 0 5 -5v-75zM666 624q0 -5 -5 -5h-66
q-23 0 -35 -13.5t-12 -36.5v-58q0 -5 5 -5h108q5 0 5 -5v-65q0 -5 -5 -5h-108q-5 0 -5 -5v-421q0 -5 -5 -5h-85q-5 0 -5 5v421q0 5 -5 5h-89q-5 0 -5 5v65q0 5 5 5h89q5 0 5 5v75q0 121 141 118h67q5 0 5 -5v-75zM848 5q0 -5 -5 -5h-85q-5 0 -5 5v496q0 5 5 5h85q5 0 5 -5
v-496zM858 594q0 -5 -5 -5h-105q-5 0 -5 5v105q0 5 5 5h105q5 0 5 -5v-105z" />
    <glyph glyph-name="f_f_l" unicode="&#xfb04;" horiz-adv-x="920" 
d="M326 624q0 -5 -5 -5h-66q-23 0 -35 -13.5t-12 -36.5v-58q0 -5 5 -5h108q5 0 5 -5v-65q0 -5 -5 -5h-108q-5 0 -5 -5v-421q0 -5 -5 -5h-85q-5 0 -5 5v421q0 5 -5 5h-89q-5 0 -5 5v65q0 5 5 5h89q5 0 5 5v75q0 121 141 118h67q5 0 5 -5v-75zM666 624q0 -5 -5 -5h-66
q-23 0 -35 -13.5t-12 -36.5v-58q0 -5 5 -5h108q5 0 5 -5v-65q0 -5 -5 -5h-108q-5 0 -5 -5v-421q0 -5 -5 -5h-85q-5 0 -5 5v421q0 5 -5 5h-89q-5 0 -5 5v65q0 5 5 5h89q5 0 5 5v75q0 121 141 118h67q5 0 5 -5v-75zM843 5q0 -5 -5 -5h-85q-5 0 -5 5v694q0 5 5 5h85q5 0 5 -5
v-694z" />
    <glyph glyph-name="longs_t" unicode="&#xfb05;" 
d="M456 5q0 -5 -5 -5h-411q-5 0 -5 5v694q0 5 5 5h411q5 0 5 -5v-694zM419 681h-346l173 -306zM419 24l-173 305l-173 -305h346zM432 48v608q-43 -75 -87 -152t-86 -152zM233 352l-173 305v-610z" />
    <glyph glyph-name="parenleft.001" 
d="M456 5q0 -5 -5 -5h-411q-5 0 -5 5v694q0 5 5 5h411q5 0 5 -5v-694zM419 681h-346l173 -306zM419 24l-173 305l-173 -305h346zM432 48v608q-43 -75 -87 -152t-86 -152zM233 352l-173 305v-610z" />
    <glyph glyph-name="parenright.001" 
d="M456 5q0 -5 -5 -5h-411q-5 0 -5 5v694q0 5 5 5h411q5 0 5 -5v-694zM419 681h-346l173 -306zM419 24l-173 305l-173 -305h346zM432 48v608q-43 -75 -87 -152t-86 -152zM233 352l-173 305v-610z" />
    <glyph glyph-name="registered.001" 
d="M456 5q0 -5 -5 -5h-411q-5 0 -5 5v694q0 5 5 5h411q5 0 5 -5v-694zM419 681h-346l173 -306zM419 24l-173 305l-173 -305h346zM432 48v608q-43 -75 -87 -152t-86 -152zM233 352l-173 305v-610z" />
    <glyph glyph-name="copyright.001" 
d="M456 5q0 -5 -5 -5h-411q-5 0 -5 5v694q0 5 5 5h411q5 0 5 -5v-694zM419 681h-346l173 -306zM419 24l-173 305l-173 -305h346zM432 48v608q-43 -75 -87 -152t-86 -152zM233 352l-173 305v-610z" />
    <glyph glyph-name="zero.tnum" horiz-adv-x="625" 
d="M580 352q0 -77 -13.5 -143.5t-44.5 -115.5t-82 -76.5t-127 -27.5t-127 27.5t-82.5 76.5t-45 115.5t-13.5 143.5t13.5 143.5t45 115t82.5 76t127 27.5t127 -27.5t82 -76t44.5 -115t13.5 -143.5zM480 352q0 133 -38 205t-129 72q-92 0 -129.5 -72t-37.5 -205
q0 -66 9 -117.5t28.5 -87.5t51.5 -54.5t78 -18.5t77.5 18.5t51.5 54.5t29 87.5t9 117.5z" />
    <glyph glyph-name="two.tnum" horiz-adv-x="625" 
d="M81 75q0 2 1 6.5t3 6.5l278 271l22.5 22.5t28.5 33.5t24 41.5t10 45.5q0 19 -8 41.5t-24 41.5t-41 31.5t-60 12.5q-29 0 -52 -10t-40 -26.5t-26 -37.5t-9 -44q0 -5 -5 -5h-85q-5 0 -5 5q0 45 16.5 82.5t46.5 64t70.5 41.5t88.5 15q54 0 96.5 -17t71.5 -45.5t44.5 -67.5
t15.5 -82q0 -38 -12.5 -70t-30 -58t-36.5 -45.5t-32 -32.5l-220 -203q-2 -2 -1.5 -5t5.5 -3h322q5 0 5 -5v-75q0 -5 -5 -5h-452q-5 0 -5 5v70z" />
    <glyph glyph-name="three.tnum" horiz-adv-x="625" 
d="M256 400q0 5 5 5h35q57 0 92.5 31.5t35.5 79.5q0 22 -9 42.5t-25.5 36t-40.5 25t-53 9.5q-27 0 -50.5 -10.5t-40 -27t-25.5 -37.5t-9 -43q0 -5 -5 -5h-85q-5 0 -5 5q0 44 16 81t45.5 64t70 42.5t88.5 15.5q50 0 91 -15t70.5 -41.5t45.5 -63t16 -78.5q0 -35 -12 -61.5
t-28.5 -44.5t-33 -27.5t-25.5 -12.5q-5 -1 -5 -5t5 -5q13 -4 32.5 -16.5t38 -33.5t31.5 -51t13 -69q0 -44 -16.5 -80.5t-47 -63t-75 -41.5t-100.5 -15t-98 16t-70 43.5t-42.5 64t-14.5 76.5q0 5 5 5h85q5 0 5 -5q0 -20 8 -40.5t24 -37t40.5 -27t57.5 -10.5q31 0 57 9
t45.5 24.5t30.5 36.5t11 45q0 30 -11 54t-30.5 41t-46 26t-56.5 9h-35q-5 0 -5 5v75v0z" />
    <glyph glyph-name="four.tnum" horiz-adv-x="625" 
d="M469 704q5 0 5 -5v-448q0 -5 5 -5h111q5 0 5 -5v-75q0 -5 -5 -5h-111q-5 0 -5 -5v-151q0 -5 -5 -5h-85q-5 0 -5 5v151q0 5 -5 5h-329q-5 0 -5 5v70q0 8 1 10.5t2 4.5l332 448q2 4 5 4.5t5 0.5h84zM154 253q-2 -2 0 -4.5t5 -2.5h215q5 0 5 5v294q0 4 -4 4t-6 -3z" />
    <glyph glyph-name="five.tnum" horiz-adv-x="625" 
d="M120 697q1 7 7 7h375q5 0 5 -5v-75q0 -5 -5 -5h-294q-5 0 -5 -5q-2 -16 -5.5 -43.5t-7.5 -54.5q-4 -32 -9 -67q-1 -5 1.5 -5.5t6.5 2.5q5 4 16 11.5t26.5 14.5t35.5 12t44 5q55 0 100 -18t77 -50.5t49.5 -78t17.5 -100.5q0 -118 -63.5 -185t-180.5 -67q-69 0 -115.5 22
t-74.5 53.5t-40 66t-12 58.5q0 5 5 5h92q5 0 5 -5q0 -13 7 -32.5t23 -38t43 -31.5t67 -13q33 0 60 11.5t47 33t31 52.5t11 70q0 35 -11 65t-31 51.5t-47 33.5t-60 12q-53 0 -85.5 -16.5t-55.5 -52.5q-2 -2 -5.5 -3.5t-5.5 -1.5h-78q-5 0 -5 5z" />
    <glyph glyph-name="six.tnum" horiz-adv-x="625" 
d="M253 477q-2 -3 -0.5 -5t4.5 0q2 2 21.5 7.5t42.5 5.5q51 0 94.5 -17.5t75 -50t49.5 -78t18 -100.5q0 -54 -17 -100t-49 -79t-78.5 -51.5t-104.5 -18.5q-59 0 -104 18.5t-76 51.5t-47 79t-16 100q0 41 8.5 78t24.5 67l167 315q2 5 7 5h88q7 0 5 -5zM458 239
q0 75 -36.5 120t-112.5 45q-75 0 -111.5 -45t-36.5 -120t36.5 -119.5t111.5 -44.5q76 0 112.5 44.5t36.5 119.5z" />
    <glyph glyph-name="seven.tnum" horiz-adv-x="625" 
d="M540 632q0 -8 -0.5 -11t-2.5 -7l-228 -609q-2 -5 -6 -5h-92q-6 0 -4 5l236 609q2 5 -4 5h-349q-5 0 -5 5v75q0 5 5 5h445q5 0 5 -5v-67z" />
    <glyph glyph-name="eight.tnum" horiz-adv-x="625" 
d="M312 -10q-56 0 -100.5 15t-75 41.5t-47 63t-16.5 80.5q0 41 13 71t31.5 50.5t38 32.5t32.5 16q5 1 5 5t-5 5q-9 3 -25.5 12.5t-33 27.5t-28.5 44.5t-12 61.5q0 42 16 78.5t45.5 63t70.5 41.5t91 15t91 -15t70.5 -41.5t45.5 -63t16 -78.5q0 -35 -12 -61.5t-28.5 -44.5
t-33 -27.5t-25.5 -12.5q-5 -1 -5 -5t5 -5q13 -4 32.5 -16t38 -32.5t31.5 -50.5t13 -71q0 -44 -16.5 -80.5t-47 -63t-75 -41.5t-100.5 -15zM312 75q31 0 57 9t45.5 24.5t30.5 36.5t11 45q0 30 -11 54t-30.5 41t-46 26t-56.5 9t-56.5 -9t-46 -26t-30.5 -41t-11 -54
q0 -24 11 -45t30.5 -36.5t45.5 -24.5t57 -9zM440 516q0 22 -9 42.5t-25.5 36t-40.5 25t-53 9.5t-53 -9.5t-40.5 -25t-25.5 -36t-9 -42.5q0 -48 35.5 -79.5t92.5 -31.5t92.5 31.5t35.5 79.5z" />
    <glyph glyph-name="nine.tnum" horiz-adv-x="625" 
d="M369 226q2 3 0.5 5t-4.5 0q-2 -2 -21.5 -7.5t-42.5 -5.5q-51 0 -94.5 17.5t-75 50t-49.5 77.5t-18 101q0 54 17 100t49 79.5t78 52t105 18.5q58 0 104.5 -18.5t78 -52t48.5 -79.5t17 -100q0 -41 -11 -78t-27 -67l-167 -315q-3 -5 -7 -5h-88q-2 0 -4.5 1t-0.5 4zM164 464
q0 -75 36.5 -120t112.5 -45q75 0 111.5 45t36.5 120t-36.5 120t-111.5 45q-76 0 -112.5 -45t-36.5 -120z" />
    <glyph glyph-name="registered.002" horiz-adv-x="786" 
d="M550 458q0 -42 -25 -75.5t-61 -49.5l88 -195q3 -7 -5 -7h-46q-4 0 -5 3l-85 192h-148v-190q0 -5 -5 -5h-40q-5 0 -5 5q0 82 -0.5 145.5t-0.5 110.5v80v54v59q0 5 5 5h203q27 0 51 -10.5t41.5 -28.5t27.5 -42t10 -51zM500 458q0 17 -6.5 32t-17.5 26t-25.5 17.5t-30.5 6.5
h-157v-163h157q16 0 30.5 6.5t25.5 17.5t17.5 25.5t6.5 31.5zM734 353q0 -73 -27.5 -137t-75 -112t-111.5 -76t-137 -28q-72 0 -136 28t-111.5 76t-75 112t-27.5 137q0 72 27.5 136t75 112t111.5 76t136 28q73 0 137 -28t111.5 -76t75 -112t27.5 -136zM704 353
q0 66 -25.5 124.5t-69 102.5t-102 69.5t-124.5 25.5t-124.5 -25.5t-102 -69.5t-68.5 -102.5t-25 -124.5t25 -125t68.5 -102.5t102 -69t124.5 -25.5t124.5 25.5t102 69t69 102.5t25.5 125z" />
    <glyph glyph-name="copyright.002" horiz-adv-x="786" 
d="M381 554q-42 0 -72 -16.5t-49 -44.5t-27.5 -64t-8.5 -75t8.5 -75t27.5 -64t49 -44.5t72 -16.5q38 0 64 9.5t51 41.5q2 2 3 4.5t4 2.5h44q7 0 5 -7q-18 -44 -64.5 -70.5t-106.5 -26.5q-53 0 -92.5 21.5t-65 56t-38 78.5t-12.5 90t12.5 90t38 78.5t65 56t92.5 21.5
q60 0 106.5 -26.5t64.5 -70.5q2 -7 -5 -7h-44q-3 0 -4 2.5t-3 4.5q-25 32 -51 41.5t-64 9.5zM734 353q0 -73 -27.5 -137t-75 -112t-111.5 -76t-137 -28q-72 0 -136 28t-111.5 76t-75 112t-27.5 137q0 72 27.5 136t75 112t111.5 76t136 28q73 0 137 -28t111.5 -76t75 -112
t27.5 -136zM704 353q0 66 -25.5 124.5t-69 102.5t-102 69.5t-124.5 25.5t-124.5 -25.5t-102 -69.5t-68.5 -102.5t-25 -124.5t25 -125t68.5 -102.5t102 -69t124.5 -25.5t124.5 25.5t102 69t69 102.5t25.5 125z" />
    <glyph glyph-name="one.tnum" horiz-adv-x="625" 
d="M64 0q-5 0 -5 5v75q0 5 5 5h192q5 0 5 5v386q0 15 -10 22.5t-21 7.5h-153q-5 0 -5 5v70q0 5 5 5h124q25 0 42.5 16.5t17.5 41.5v55q0 5 5 5h85q5 0 5 -5v-609q0 -5 5 -5h200q5 0 5 -5v-75q0 -5 -5 -5h-497z" />
    <glyph glyph-name="dollar.plf" 
d="M456 5q0 -5 -5 -5h-411q-5 0 -5 5v694q0 5 5 5h411q5 0 5 -5v-694zM419 681h-346l173 -306zM419 24l-173 305l-173 -305h346zM432 48v608q-43 -75 -87 -152t-86 -152zM233 352l-173 305v-610z" />
    <glyph glyph-name="cent.plf" 
d="M456 5q0 -5 -5 -5h-411q-5 0 -5 5v694q0 5 5 5h411q5 0 5 -5v-694zM419 681h-346l173 -306zM419 24l-173 305l-173 -305h346zM432 48v608q-43 -75 -87 -152t-86 -152zM233 352l-173 305v-610z" />
    <glyph glyph-name="sterling.plf" 
d="M456 5q0 -5 -5 -5h-411q-5 0 -5 5v694q0 5 5 5h411q5 0 5 -5v-694zM419 681h-346l173 -306zM419 24l-173 305l-173 -305h346zM432 48v608q-43 -75 -87 -152t-86 -152zM233 352l-173 305v-610z" />
    <glyph glyph-name="yen.plf" 
d="M456 5q0 -5 -5 -5h-411q-5 0 -5 5v694q0 5 5 5h411q5 0 5 -5v-694zM419 681h-346l173 -306zM419 24l-173 305l-173 -305h346zM432 48v608q-43 -75 -87 -152t-86 -152zM233 352l-173 305v-610z" />
    <glyph glyph-name="florin.plf" 
d="M456 5q0 -5 -5 -5h-411q-5 0 -5 5v694q0 5 5 5h411q5 0 5 -5v-694zM419 681h-346l173 -306zM419 24l-173 305l-173 -305h346zM432 48v608q-43 -75 -87 -152t-86 -152zM233 352l-173 305v-610z" />
    <glyph glyph-name="Euro.plf" 
d="M456 5q0 -5 -5 -5h-411q-5 0 -5 5v694q0 5 5 5h411q5 0 5 -5v-694zM419 681h-346l173 -306zM419 24l-173 305l-173 -305h346zM432 48v608q-43 -75 -87 -152t-86 -152zM233 352l-173 305v-610z" />
    <glyph glyph-name="currency.plf" 
d="M456 5q0 -5 -5 -5h-411q-5 0 -5 5v694q0 5 5 5h411q5 0 5 -5v-694zM419 681h-346l173 -306zM419 24l-173 305l-173 -305h346zM432 48v608q-43 -75 -87 -152t-86 -152zM233 352l-173 305v-610z" />
    <glyph glyph-name="numbersign.plf" 
d="M456 5q0 -5 -5 -5h-411q-5 0 -5 5v694q0 5 5 5h411q5 0 5 -5v-694zM419 681h-346l173 -306zM419 24l-173 305l-173 -305h346zM432 48v608q-43 -75 -87 -152t-86 -152zM233 352l-173 305v-610z" />
    <glyph glyph-name="breve.case" horiz-adv-x="236" 
d="M224 898q5 0 5 -5q0 -31 -10.5 -52t-27 -34t-36.5 -18.5t-40 -5.5t-40 5.5t-36.5 18.5t-27 34t-10.5 52q0 5 5 5h62q5 0 5 -5q0 -21 14 -29.5t28 -8.5t27.5 8.5t13.5 29.5q0 5 5 5h63z" />
    <glyph glyph-name="caron.case" horiz-adv-x="236" 
d="M215 898q8 0 5 -7l-43 -104q-1 -4 -5 -4h-114q-4 0 -5 4l-44 104q-2 3 0 5t5 2h60q3 0 6 -4l30 -41q5 -7 11 0l28 41q3 4 6 4h60z" />
    <glyph glyph-name="circumflex.case" horiz-adv-x="236" 
d="M156 783q-3 0 -6 4l-29 41q-6 9 -11 0l-29 -41q-3 -4 -6 -4h-60q-3 0 -5 2t0 5l44 104q1 4 5 4h114q4 0 5 -4l43 -104q3 -7 -5 -7h-60z" />
    <glyph glyph-name="acute.case" horiz-adv-x="236" 
d="M68 783q-3 0 -5 2t0 5l43 101q2 7 10 7h87q8 0 5 -7l-72 -101l-4.5 -4.5t-6.5 -2.5h-57z" />
    <glyph glyph-name="macron.case" horiz-adv-x="236" 
d="M-8 783q-4 0 -4 5v58q0 5 4 5h246q5 0 5 -5v-58q0 -5 -5 -5h-246z" />
    <glyph glyph-name="dieresis.case" horiz-adv-x="236" 
d="M51 788q0 -5 -5 -5h-105q-5 0 -5 5v105q0 5 5 5h105q5 0 5 -5v-105zM295 788q0 -5 -5 -5h-105q-5 0 -5 5v105q0 5 5 5h105q5 0 5 -5v-105z" />
    <glyph glyph-name="grave.case" horiz-adv-x="236" 
d="M126 783q-4 0 -6.5 2.5l-4.5 4.5l-72 101q-2 3 0 5t5 2h87q8 0 10 -7l43 -101q3 -7 -5 -7h-57z" />
    <glyph glyph-name="dotaccent.case" horiz-adv-x="236" 
d="M51 783q-5 0 -5 5v132q0 5 5 5h129q5 0 5 -5v-132q0 -5 -5 -5h-129z" />
    <glyph glyph-name="ring.case" horiz-adv-x="236" 
d="M203 823q0 -36 -26 -61.5t-62 -25.5t-61.5 25.5t-25.5 61.5t25.5 62t61.5 26q18 0 34 -7t28 -19t19 -28t7 -34zM160 823q0 19 -13 32t-32 13t-32 -13t-13 -32t13 -32t32 -13t32 13t13 32z" />
    <glyph glyph-name="tilde.case" horiz-adv-x="236" 
d="M-39 811q0 13 5 28t16.5 28t31 21.5t49.5 8.5q22 0 38.5 -7t29 -16t22 -16t17.5 -7q3 0 8.5 0.5t11 4t9 12t3.5 24.5q0 5 5 5h60q5 0 5 -5v-24q0 -13 -5 -28t-17 -27.5t-31.5 -21t-48.5 -8.5q-20 0 -36 7t-29 16t-23 16t-19 7q-3 0 -8.5 -0.5t-11 -4t-9 -12t-3.5 -24.5
q0 -5 -5 -5h-60q-5 0 -5 5v23z" />
    <glyph glyph-name="hungarumlaut.case" horiz-adv-x="236" 
d="M-64 760q-4 0 -4 5l29 132q0 5 6 5h109q4 0 4 -5l-29 -132q0 -5 -6 -5h-109zM156 760q-4 0 -4 5l29 132q0 5 6 5h109q4 0 4 -5l-29 -132q0 -5 -6 -5h-109z" />
    <glyph glyph-name="caron.salt" horiz-adv-x="236" 
d="M216 898q8 0 5 -7l-43 -104q-1 -4 -5 -4h-114q-4 0 -5 4l-44 104q-2 3 0 5t5 2h60q3 0 6 -4l30 -41q5 -7 11 0l28 41q3 4 6 4h60z" />
    <glyph glyph-name="commaaccent.salt" horiz-adv-x="5" 
 />
    <glyph glyph-name="_0127" 
d="M456 5q0 -5 -5 -5h-411q-5 0 -5 5v694q0 5 5 5h411q5 0 5 -5v-694zM419 681h-346l173 -306zM419 24l-173 305l-173 -305h346zM432 48v608q-43 -75 -87 -152t-86 -152zM233 352l-173 305v-610z" />
    </font>
</defs>
</svg>
