<?xml version="1.0" standalone="no"?>
<!DOCTYPE svg PUBLIC "-//W3C//DTD SVG 1.1//EN" "http://www.w3.org/Graphics/SVG/1.1/DTD/svg11.dtd" >
<svg xmlns="http://www.w3.org/2000/svg" xmlns:xlink="http://www.w3.org/1999/xlink" version="1.1">
<metadata>
Created by FontForge 20160405 at Mon Jan 21 16:25:05 2019
 By www-data
Copyright (c) 2008 by Stefan Gandl. All rights reserved.
</metadata>
<defs>
<font id="NBInternationalPro-Monospaced" horiz-adv-x="677" >
  <font-face 
    font-family="NB International Pro Mono"
    font-weight="400"
    font-stretch="normal"
    units-per-em="1000"
    panose-1="2 11 5 9 4 0 0 2 0 4"
    ascent="800"
    descent="-200"
    x-height="506"
    cap-height="704"
    bbox="12.875 -208 668 952"
    underline-thickness="85"
    underline-position="-217"
    unicode-range="U+0009-FB05"
  />
<missing-glyph 
d="M549 5q0 -5 -5 -5h-411q-5 0 -5 5v694q0 5 5 5h411q5 0 5 -5v-694zM512 681h-346l173 -306zM512 24l-173 305l-173 -305h346zM525 48v608q-43 -75 -87 -152t-86 -152zM326 352l-173 305v-610z" />
    <glyph glyph-name=".notdef" 
d="M549 5q0 -5 -5 -5h-411q-5 0 -5 5v694q0 5 5 5h411q5 0 5 -5v-694zM512 681h-346l173 -306zM512 24l-173 305l-173 -305h346zM525 48v608q-43 -75 -87 -152t-86 -152zM326 352l-173 305v-610z" />
    <glyph glyph-name=".null" 
 />
    <glyph glyph-name=".null" 
 />
    <glyph glyph-name="nonmarkingreturn" unicode="&#xd;" 
 />
    <glyph glyph-name="HT" unicode="&#x9;" 
 />
    <glyph glyph-name="LF" unicode="&#xa;" 
 />
    <glyph glyph-name="DLE" 
 />
    <glyph glyph-name="DC1" 
 />
    <glyph glyph-name="DC2" 
 />
    <glyph glyph-name="DC3" 
 />
    <glyph glyph-name="DC4" 
 />
    <glyph glyph-name="RS" 
 />
    <glyph glyph-name="US" 
 />
    <glyph glyph-name="space" unicode=" " 
 />
    <glyph glyph-name="exclam" unicode="!" 
d="M306 208q-5 0 -5 5l-10 293v193q0 5 5 5h84q5 0 5 -5v-193l-10 -293q0 -5 -5 -5h-64zM278 0q-5 0 -5 5v122q0 5 5 5h120q5 0 5 -5v-122q0 -5 -5 -5h-120z" />
    <glyph glyph-name="quotedbl" unicode="&#x22;" 
d="M393 431q-5 0 -5 5l-10 105v158q0 5 5 5h80q5 0 5 -5v-158l-10 -105q0 -5 -5 -5h-60zM223 431q-5 0 -5 5l-10 105v158q0 5 5 5h80q5 0 5 -5v-158l-10 -105q0 -5 -5 -5h-60z" />
    <glyph glyph-name="numbersign" unicode="#" 
d="M225 402q1 6 -5 6h-136q-5 0 -5 5v59q0 5 5 5h154q5 0 6 4l48 220q1 3 5 3h55q7 0 5 -7l-47 -214q-2 -6 5 -6h102q5 0 6 5l48 219q1 3 5 3h55q7 0 5 -7l-47 -214q-2 -6 5 -6h99q5 0 5 -5v-59q0 -5 -5 -5h-117q-4 0 -6 -5l-26 -110q-2 -6 5 -6h144q5 0 5 -5v-59
q0 -5 -5 -5h-162q-4 0 -5 -4l-47 -211q-2 -3 -5 -3h-54q-7 0 -5 7l46 206q2 5 -4 5h-105q-3 0 -5 -5l-47 -210q-2 -3 -5 -3h-54q-7 0 -5 7l45 205q2 6 -5 6h-92q-5 0 -5 5v59q0 5 5 5h110q5 0 6 5zM297 408q-4 0 -6 -5l-26 -109q-2 -7 5 -7h104q3 0 5 5l25 110q2 6 -4 6
h-103z" />
    <glyph glyph-name="dollar" unicode="$" 
d="M301 317q0 3 -3 3q-39 6 -77 17.5t-69 33t-50 56t-19 86.5q0 44 17.5 79t47 60.5t68 40.5t80.5 19q5 0 5 5v80q0 5 4 5h69q5 0 5 -5v-84q0 -3 3 -4q39 -6 73.5 -21.5t61 -40t43 -58.5t18.5 -78q0 -5 -5 -5h-90q-5 0 -5 5q0 38 -25.5 68t-68.5 42q-5 2 -5 -4v-208
q0 -5 5 -5q43 -7 83 -19t71 -35t49 -60t18 -92q0 -35 -12 -69t-38.5 -62.5t-68.5 -48.5t-102 -26q-5 0 -5 -4v-83q0 -5 -5 -5h-69q-4 0 -4 5v82q0 5 -5 5q-55 5 -97 23t-70.5 45t-43 61.5t-14.5 71.5q0 5 5 5h89q6 0 6 -6q0 -16 7.5 -34t23 -34t39 -28.5t55.5 -17.5
q5 -1 5 5v234zM384 79q58 10 89.5 43.5t31.5 75.5q0 27 -9.5 46t-26 32t-38.5 20t-47 12q-5 2 -5 -3v-221q0 -6 5 -5zM296 626q-49 -8 -81 -39t-32 -74q0 -25 9.5 -42t25 -28t36 -17.5t42.5 -9.5q5 -1 5 4v202q0 6 -5 4z" />
    <glyph glyph-name="percent" unicode="%" 
d="M654 190q0 -43 -7.5 -79.5t-24.5 -63.5t-45 -42t-70 -15t-70 15t-45.5 42t-25 63.5t-7.5 79.5q0 42 7.5 78.5t25 63.5t45.5 42t70 15t70 -15t45 -42t24.5 -63.5t7.5 -78.5zM590 190q0 66 -19 101.5t-64 35.5q-46 0 -64.5 -35.5t-18.5 -101.5t18.5 -102t64.5 -36
q45 0 64 36t19 102zM318 515q0 -43 -7.5 -79.5t-24.5 -63.5t-45 -42t-70 -15t-70 15t-45.5 42t-25 63.5t-7.5 79.5q0 42 7.5 78.5t25 63.5t45.5 42t70 15t70 -15t45 -42t24.5 -63.5t7.5 -78.5zM254 515q0 66 -19 101.5t-64 35.5q-46 0 -64.5 -35.5t-18.5 -101.5t18.5 -102
t64.5 -36q45 0 64 36t19 102zM519 702q2 2 4 2h54q8 0 4 -8l-426 -694q-2 -2 -4 -2h-52q-8 0 -4 8z" />
    <glyph glyph-name="ampersand" unicode="&#x26;" 
d="M619 0q-33 0 -60 13.5t-55 41.5q-3 3 -7 0q-34 -26 -84.5 -45.5t-110.5 -19.5q-63 0 -110 19t-78 50t-46.5 71t-15.5 82q0 37 11.5 67t29.5 53t40 40.5t43 29.5q9 5 2 12l-25 28q-21 23 -35.5 48.5t-14.5 63.5q0 33 13 62t38 50.5t59.5 34.5t78.5 13q42 0 76 -13.5
t59 -36t38.5 -51t13.5 -59.5q0 -39 -13 -66.5t-35 -46.5t-49.5 -31.5t-56.5 -22.5q-7 -2 -2 -9l158 -171q2 -3 4 -2t2 2q5 10 6.5 22.5t1.5 24.5v87q0 5 5 5h85q5 0 5 -5v-87q0 -11 -2 -26t-5.5 -31.5t-9.5 -33t-14 -29.5q-4 -6 0 -8l16 -13q14 -9 20.5 -14t23.5 -4
q5 0 5 -5v-85q0 -5 -5 -5zM302 80q37 0 69 8.5t62 32.5q4 4 0 9l-194 211q-2 3 -8 1q-15 -8 -30 -18.5t-27 -25.5t-19.5 -34t-7.5 -42q0 -31 11.5 -57t31.5 -45t48.5 -29.5t63.5 -10.5zM292 634q-42 0 -70.5 -21t-28.5 -59q-1 -26 15.5 -51t51.5 -57q3 -3 8 -1q7 2 13 5
q5 2 9.5 3.5t6.5 2.5q18 8 34.5 15.5t29.5 18t20.5 26t7.5 38.5q0 38 -28 59t-69 21z" />
    <glyph glyph-name="quotesingle" unicode="'" 
d="M308 431q-5 0 -5 5l-10 105v158q0 5 5 5h80q5 0 5 -5v-158l-10 -105q0 -5 -5 -5h-60z" />
    <glyph glyph-name="parenleft" unicode="(" 
d="M312 253q0 -121 32 -234t95 -212q3 -5 -3 -5h-67q-5 0 -7 5q-26 41 -49 93t-40 110.5t-27 120.5t-10 122t10 122t27 120.5t40 110.5t49 93q2 5 7 5h67q6 0 3 -5q-63 -99 -95 -212t-32 -234z" />
    <glyph glyph-name="parenright" unicode=")" 
d="M364 253q0 121 -32 234t-95 212q-3 5 3 5h67q4 0 7 -5q26 -41 49 -93t40 -110.5t27 -120.5t10 -122t-10 -122t-27 -120.5t-40 -110.5t-49 -93q-3 -5 -7 -5h-67q-6 0 -3 5q63 99 95 212t32 234z" />
    <glyph glyph-name="asterisk" unicode="*" 
d="M228 542l-49 16q-5 1 -3 6l18 57q2 5 7 3l48 -15l53 -24q3 -2 5.5 -1t1.5 5l-6 59v51q0 5 5 5h60q5 0 5 -5v-51l-7 -59q-1 -7 2.5 -6t5.5 2l53 24l48 15q5 2 7 -3l18 -57q1 -5 -3 -6l-49 -16l-64 -14q-5 -2 -1 -6l41 -44l30 -43q4 -4 -1 -7l-48 -35q-4 -2 -8 2l-29 40
l-26 46q-4 8 -8 0l-27 -47l-29 -40q-4 -4 -8 -2l-48 35q-5 3 -1 7l30 43l41 45q3 4 -2 6zM310 582h-2l2 -1v1zM365 581l2 1h-2v-1z" />
    <glyph glyph-name="plus" unicode="+" 
d="M380 5q0 -5 -5 -5h-84q-5 0 -5 5v198q0 5 -5 5h-191q-5 0 -5 5v80q0 5 5 5h191q5 0 5 5v198q0 5 5 5h84q5 0 5 -5v-198q0 -5 5 -5h202q5 0 5 -5v-80q0 -5 -5 -5h-202q-5 0 -5 -5v-198z" />
    <glyph glyph-name="comma" unicode="," 
d="M278 0q-5 0 -5 5v122q0 5 5 5h120q5 0 5 -5v-121q0 -57 -34.5 -93t-90.5 -36q-5 0 -5 5v55q0 5 5 5q15 0 32 13.5t17 39.5q0 5 -5 5h-44z" />
    <glyph glyph-name="hyphen" unicode="-" 
d="M90 208q-5 0 -5 5v80q0 5 5 5h497q5 0 5 -5v-80q0 -5 -5 -5h-497z" />
    <glyph glyph-name="period" unicode="." 
d="M278 0q-5 0 -5 5v122q0 5 5 5h120q5 0 5 -5v-122q0 -5 -5 -5h-120z" />
    <glyph glyph-name="slash" unicode="/" 
d="M125 3q-2 -3 -5 -3h-94q-7 0 -5 7l530 694q1 3 5 3h95q7 0 5 -7z" />
    <glyph glyph-name="zero" unicode="0" 
d="M582 352q0 -77 -13.5 -143.5t-44.5 -115.5t-82 -76.5t-127 -27.5t-127 27.5t-82.5 76.5t-45 115.5t-13.5 143.5t13.5 143.5t45 115t82.5 76t127 27.5t127 -27.5t82 -76t44.5 -115t13.5 -143.5zM482 352q0 45 -4 82t-13 68q-4 9 -10 1l-246 -381q-3 -5 1 -9
q37 -39 105 -39q46 0 77.5 18.5t51.5 54.5t29 87.5t9 117.5zM148 352q0 -87 15 -148q1 -4 4.5 -4.5t5.5 3.5l246 379q3 5 -1 9q-41 38 -103 38q-92 0 -129.5 -72t-37.5 -205z" />
    <glyph glyph-name="one" unicode="1" 
d="M113 0q-5 0 -5 5v75q0 5 5 5h189q5 0 5 5v386q0 15 -10 22.5t-21 7.5h-153q-5 0 -5 5v70q0 5 5 5h124q25 0 42.5 16.5t17.5 41.5v55q0 5 5 5h85q5 0 5 -5v-609q0 -5 5 -5h190q5 0 5 -5v-75q0 -5 -5 -5h-484z" />
    <glyph glyph-name="two" unicode="2" 
d="M107 75q0 2 1 6.5t3 6.5l278 271l22.5 22.5t28.5 33.5t24 41.5t10 45.5q0 19 -8 41.5t-24 41.5t-41 31.5t-60 12.5q-29 0 -52 -10t-40 -26.5t-26 -37.5t-9 -44q0 -5 -5 -5h-85q-5 0 -5 5q0 45 16.5 82.5t46.5 64t70.5 41.5t88.5 15q54 0 96.5 -17t71.5 -45.5t44.5 -67.5
t15.5 -82q0 -38 -12.5 -70t-30 -58t-36.5 -45.5t-32 -32.5l-220 -203q-2 -2 -1.5 -5t5.5 -3h322q5 0 5 -5v-75q0 -5 -5 -5h-452q-5 0 -5 5v70z" />
    <glyph glyph-name="three" unicode="3" 
d="M291 400q0 5 5 5h35q57 0 92.5 31.5t35.5 79.5q0 22 -9 42.5t-25.5 36t-40.5 25t-53 9.5q-27 0 -50.5 -10.5t-40 -27t-25.5 -37.5t-9 -43q0 -5 -5 -5h-85q-5 0 -5 5q0 44 16 81t45.5 64t70 42.5t88.5 15.5q50 0 91 -15t70.5 -41.5t45.5 -63t16 -78.5q0 -35 -12 -61.5
t-28.5 -44.5t-33 -27.5t-25.5 -12.5q-5 -1 -5 -5t5 -5q13 -4 32.5 -16.5t38 -33.5t31.5 -51t13 -69q0 -44 -16.5 -80.5t-47 -63t-75 -41.5t-100.5 -15t-98 16t-70 43.5t-42.5 64t-14.5 76.5q0 5 5 5h85q5 0 5 -5q0 -20 8 -40.5t24 -37t40.5 -27t57.5 -10.5q31 0 57 9
t45.5 24.5t30.5 36.5t11 45q0 30 -11 54t-30.5 41t-46 26t-56.5 9h-35q-5 0 -5 5v75v0z" />
    <glyph glyph-name="four" unicode="4" 
d="M490 704q5 0 5 -5v-448q0 -5 5 -5h111q5 0 5 -5v-75q0 -5 -5 -5h-111q-5 0 -5 -5v-151q0 -5 -5 -5h-85q-5 0 -5 5v151q0 5 -5 5h-329q-5 0 -5 5v70q0 8 1 10.5t2 4.5l332 448q2 4 5 4.5t5 0.5h84zM175 253q-2 -2 0 -4.5t5 -2.5h215q5 0 5 5v295q0 4 -4 4t-6 -3z" />
    <glyph glyph-name="five" unicode="5" 
d="M146 697q1 7 7 7h375q5 0 5 -5v-75q0 -5 -5 -5h-294q-5 0 -5 -5q-2 -16 -5.5 -43.5t-7.5 -54.5q-4 -32 -9 -67q-1 -5 1.5 -5.5t6.5 2.5q5 4 16 11.5t26.5 14.5t35.5 12t44 5q55 0 100 -18t77 -50.5t49.5 -78t17.5 -100.5q0 -118 -63.5 -185t-180.5 -67q-69 0 -115.5 22
t-74.5 53.5t-40 66t-12 58.5q0 5 5 5h92q5 0 5 -5q0 -13 7 -32.5t23 -38t43 -31.5t67 -13q33 0 60 11.5t47 33t31 52.5t11 70q0 35 -11 65t-31 51.5t-47 33.5t-60 12q-53 0 -85.5 -16.5t-55.5 -52.5q-2 -2 -5.5 -3.5t-5.5 -1.5h-78q-5 0 -5 5z" />
    <glyph glyph-name="six" unicode="6" 
d="M284 481q-2 -3 1 -6t6 -1q2 2 19 6.5t40 4.5q51 0 94.5 -17.5t75 -50t49.5 -78t18 -100.5q0 -54 -17 -100t-49 -79.5t-78.5 -52t-104.5 -18.5q-59 0 -105 18.5t-77.5 52t-48.5 79.5t-17 100q0 41 11 78t27 67l167 315q2 5 7 5h88q7 0 5 -5zM487 239q0 75 -36.5 120
t-112.5 45q-75 0 -111.5 -45t-36.5 -120t36.5 -120t111.5 -45q76 0 112.5 45t36.5 120z" />
    <glyph glyph-name="seven" unicode="7" 
d="M566 632q0 -8 -0.5 -11t-2.5 -7l-228 -609q-2 -5 -6 -5h-92q-6 0 -4 5l236 609q2 5 -4 5h-349q-5 0 -5 5v75q0 5 5 5h445q5 0 5 -5v-67z" />
    <glyph glyph-name="eight" unicode="8" 
d="M338 -10q-56 0 -100.5 15t-75 41.5t-47 63t-16.5 80.5q0 41 13 71t31.5 50.5t38 32.5t32.5 16q5 1 5 5t-5 5q-9 3 -25.5 12.5t-33 27.5t-28.5 44.5t-12 61.5q0 42 16 78.5t45.5 63t70.5 41.5t91 15t91 -15t70.5 -41.5t45.5 -63t16 -78.5q0 -35 -12 -61.5t-28.5 -44.5
t-33 -27.5t-25.5 -12.5q-5 -1 -5 -5t5 -5q13 -4 32.5 -16t38 -32.5t31.5 -50.5t13 -71q0 -44 -16.5 -80.5t-47 -63t-75 -41.5t-100.5 -15zM338 75q31 0 57 9t45.5 24.5t30.5 36.5t11 45q0 30 -11 54t-30.5 41t-46 26t-56.5 9t-56.5 -9t-46 -26t-30.5 -41t-11 -54
q0 -24 11 -45t30.5 -36.5t45.5 -24.5t57 -9zM466 516q0 22 -9 42.5t-25.5 36t-40.5 25t-53 9.5t-53 -9.5t-40.5 -25t-25.5 -36t-9 -42.5q0 -48 35.5 -79.5t92.5 -31.5t92.5 31.5t35.5 79.5z" />
    <glyph glyph-name="nine" unicode="9" 
d="M393 222q2 3 -1 6t-6 1q-2 -2 -19 -6.5t-40 -4.5q-51 0 -94.5 17.5t-75 50t-49.5 77.5t-18 101q0 54 17 100t49 79.5t78 52t105 18.5q58 0 104.5 -18.5t78 -52t48.5 -79.5t17 -100q0 -41 -11 -78t-27 -67l-167 -315q-3 -5 -7 -5h-88q-2 0 -4.5 1t-0.5 4zM190 464
q0 -75 36.5 -120t112.5 -45q75 0 111.5 45t36.5 120t-36.5 120t-111.5 45q-76 0 -112.5 -45t-36.5 -120z" />
    <glyph glyph-name="colon" unicode=":" 
d="M278 0q-5 0 -5 5v122q0 5 5 5h120q5 0 5 -5v-122q0 -5 -5 -5h-120zM278 374q-5 0 -5 5v122q0 5 5 5h120q5 0 5 -5v-122q0 -5 -5 -5h-120z" />
    <glyph glyph-name="semicolon" unicode=";" 
d="M278 0q-5 0 -5 5v122q0 5 5 5h120q5 0 5 -5v-121q0 -57 -34.5 -93t-90.5 -36q-5 0 -5 5v55q0 5 5 5q15 0 32 13.5t17 39.5q0 5 -5 5h-44zM278 374q-5 0 -5 5v122q0 5 5 5h120q5 0 5 -5v-122q0 -5 -5 -5h-120z" />
    <glyph glyph-name="less" unicode="&#x3c;" 
d="M109 307q0 3 3 5l448 193q7 3 7 -5v-78q0 -3 -3 -4l-372 -164q-2 -1 -2 -3t2 -3l372 -160q3 -2 3 -4v-78q0 -3 -2 -5t-5 0l-448 189q-3 1 -3 5v56v56z" />
    <glyph glyph-name="equal" unicode="=" 
d="M114 101q-5 0 -5 5v80q0 5 5 5h448q5 0 5 -5v-80q0 -5 -5 -5h-448zM114 318q-5 0 -5 5v79q0 5 5 5h448q5 0 5 -5v-79q0 -5 -5 -5h-448z" />
    <glyph glyph-name="greater" unicode="&#x3e;" 
d="M567 251v-56q0 -4 -3 -5l-448 -189q-3 -2 -5 0t-2 5v78q0 2 3 4l372 160q2 1 2 3t-2 3l-372 164q-3 1 -3 4v78q0 8 7 5l448 -193q3 -2 3 -5v-56z" />
    <glyph glyph-name="question" unicode="?" 
d="M111 521q0 42 16 77.5t45.5 61t70 40t89.5 14.5q54 0 97.5 -16t73.5 -44t46.5 -65.5t16.5 -79.5q0 -43 -13 -73t-35 -52t-51.5 -39t-62.5 -34q-10 -5 -13 -10t-5 -16v-71q0 -5 -5 -5h-85q-5 0 -5 5v79q0 66 72 96q36 15 57.5 29.5t33 29t15 29.5t3.5 32q0 21 -9 42.5
t-26.5 39t-43.5 28t-61 10.5q-30 0 -53.5 -9t-39.5 -24t-24.5 -34.5t-8.5 -40.5v-10q0 -5 -5 -5h-85q-5 0 -5 5v10zM278 0q-5 0 -5 5v122q0 5 5 5h120q5 0 5 -5v-122q0 -5 -5 -5h-120z" />
    <glyph glyph-name="at" unicode="@" 
d="M344 -10q-58 0 -114 21.5t-100 66t-71.5 113t-27.5 163.5q0 99 30.5 167.5t77 111t102 62t105.5 19.5q31 0 65 -5.5t67 -20t62.5 -39.5t52 -65.5t35.5 -97t13 -133.5q0 -67 -15.5 -107.5t-37 -62.5t-44 -29.5t-37.5 -7.5q-20 0 -34.5 7.5t-24 17t-14.5 20t-8 16.5
q-1 2 -3 2.5t-4 -2.5q-16 -31 -40.5 -46t-51.5 -15t-53 13t-45.5 38.5t-31.5 64.5t-12 90q0 52 13 90.5t34 64t47 38.5t52 13q19 0 32.5 -5t23 -11.5t15 -14t8.5 -11.5q2 -3 4.5 -2.5t3.5 2.5l13 30q1 4 5 4h42q5 0 5 -4l-7 -298q0 -11 11 -24.5t27 -13.5q29 0 44.5 33.5
t16.5 109.5q1 97 -18.5 156.5t-52.5 92t-74.5 43.5t-83.5 11q-51 0 -96 -19.5t-79 -58t-54 -95t-20 -129.5q0 -63 16.5 -118.5t48.5 -96.5t78 -64.5t104 -23.5q27 0 49.5 6t42 15.5t36 21t31.5 22.5q2 2 4 1.5t2 -2.5l-2 -69q0 -5 -4 -7q-9 -8 -25.5 -17t-38.5 -16
t-46.5 -11.5t-48.5 -4.5zM261 352q-1 -63 19.5 -102.5t56.5 -39.5q22 0 35.5 10.5t22 29t11.5 44.5t4 58q1 70 -12.5 106t-56.5 36q-44 0 -61.5 -39.5t-18.5 -102.5z" />
    <glyph glyph-name="A" unicode="A" 
d="M401 704q4 0 6 -5l233 -693q2 -6 -5 -6h-94q-3 0 -5 5l-46 143q-1 5 -7 5h-290q-4 0 -6 -5l-47 -143q-2 -5 -5 -5h-94q-7 0 -5 6l236 693q2 5 6 5h123zM456 233q7 0 5 6l-117 365q-2 5 -5 5t-5 -5l-118 -365q-2 -6 5 -6h235z" />
    <glyph glyph-name="B" unicode="B" 
d="M109 699q0 5 5 5h303q41 0 75 -16t58 -43t37.5 -63.5t13.5 -77.5q0 -25 -7 -46t-18 -38t-25 -29t-29 -18q-4 -2 -4 -5t4 -5q18 -7 35 -23.5t30.5 -39t21.5 -48.5t8 -52q0 -45 -15.5 -81.5t-42.5 -63t-64.5 -41t-82.5 -14.5h-298q-5 0 -5 5v694zM209 320q-5 0 -5 -5v-225
q0 -5 5 -5h189q27 0 50 9.5t39.5 25.5t25.5 36.5t9 43.5q0 22 -9.5 43.5t-25 38.5t-37 27.5t-45.5 10.5h-196zM506 504q0 22 -7 43t-20.5 37.5t-33.5 26t-47 9.5h-189q-5 0 -5 -5v-205q0 -5 5 -5h189q19 1 38.5 8.5t35 20t25 30.5t9.5 40z" />
    <glyph glyph-name="C" unicode="C" 
d="M510 215q1 5 7 5h88q5 0 5 -5q0 -25 -14 -63t-45.5 -74t-82.5 -62t-126 -26t-129 26.5t-89 74.5t-51.5 114.5t-16.5 146.5q0 79 16.5 145.5t51.5 114.5t89 75t129 27q78 0 129.5 -27.5t82.5 -64.5t43.5 -74.5t12.5 -58.5q0 -5 -5 -5h-88q-5 0 -7 5q-6 16 -15.5 40
t-28.5 46t-48.5 38t-75.5 16q-90 0 -138 -73.5t-48 -203.5t48 -203.5t138 -73.5q45 0 74.5 14.5t48.5 35.5t29 45.5t16 44.5z" />
    <glyph glyph-name="D" unicode="D" 
d="M70 699q0 5 5 5h218q79 0 137.5 -27t97.5 -74.5t58.5 -113t19.5 -144.5q0 -80 -19.5 -143.5t-58.5 -108.5t-97.5 -69t-137.5 -24h-218q-5 0 -5 5v694zM170 619q-5 0 -5 -5v-524q0 -5 5 -5h123q101 0 157 66t56 194q0 63 -14.5 113.5t-42 86t-67 55t-89.5 19.5h-123z" />
    <glyph glyph-name="E" unicode="E" 
d="M113 699q0 5 5 5h481q5 0 5 -5v-75q0 -5 -5 -5h-386q-5 0 -5 -5v-204q0 -5 5 -5h345q5 0 5 -5v-75q0 -5 -5 -5h-345q-5 0 -5 -5v-225q0 -5 5 -5h386q5 0 5 -5v-75q0 -5 -5 -5h-481q-5 0 -5 5v694v0z" />
    <glyph glyph-name="F" unicode="F" 
d="M131 699q0 5 5 5h445q5 0 5 -5v-75q0 -5 -5 -5h-350q-5 0 -5 -5v-204q0 -5 5 -5h309q5 0 5 -5v-75q0 -5 -5 -5h-309q-5 0 -5 -5v-310q0 -5 -5 -5h-85q-5 0 -5 5v694v0z" />
    <glyph glyph-name="G" unicode="G" 
d="M602 5q0 -5 -5 -5h-73q-6 0 -7 6l-10 70q0 3 -3.5 4t-5.5 -2q-12 -16 -29.5 -31.5t-41 -28t-53 -20.5t-63.5 -8q-71 0 -123 26.5t-86 74.5t-50.5 114.5t-16.5 146.5q0 79 16.5 145.5t52.5 114.5t92 75t135 27q60 0 104.5 -17.5t77 -46t53 -65t31.5 -74.5q1 -5 -5 -5h-93
q-5 0 -6 5q-23 59 -64.5 88.5t-97.5 29.5q-53 0 -90 -20.5t-60.5 -57t-34.5 -87.5t-11 -112t11 -112t34.5 -87.5t60.5 -57t90 -20.5q37 0 69.5 14.5t56 43.5t37 72t13.5 100q0 5 -5 5h-166q-5 0 -5 5v75q0 5 5 5h261q5 0 5 -5v-385v0z" />
    <glyph glyph-name="H" unicode="H" 
d="M587 704q5 0 5 -5v-694q0 -5 -5 -5h-85q-5 0 -5 5v310q0 5 -5 5h-307q-5 0 -5 -4v-311q0 -5 -5 -5h-85q-5 0 -5 5v694q0 5 5 5h85q5 0 5 -5v-289q0 -5 5 -5h307q5 0 5 5v289q0 5 5 5h85z" />
    <glyph glyph-name="I" unicode="I" 
d="M124 619q-5 0 -5 5v75q0 5 5 5h437q5 0 5 -5v-75q0 -5 -5 -5h-170q-5 0 -5 -5v-524q0 -5 5 -5h170q5 0 5 -5v-75q0 -5 -5 -5h-437q-5 0 -5 5v75q0 5 5 5h162q5 0 5 5v524q0 5 -5 5h-162z" />
    <glyph glyph-name="J" unicode="J" 
d="M229 250q5 0 5 -5v-47q0 -21 3 -43t13.5 -39.5t31 -29t56.5 -11.5q35 0 56 11.5t31.5 29t13.5 39.5t3 43v501q0 5 5 5h85q5 0 5 -5v-501q0 -43 -9 -81t-31.5 -66t-61 -44.5t-98.5 -16.5q-55 0 -93 16.5t-61 44.5t-33.5 66t-10.5 81v47q0 5 5 5h85z" />
    <glyph glyph-name="K" unicode="K" 
d="M264 358q-2 4 -6 0l-90 -89q-4 -4 -4 -8v-256q0 -5 -5 -5h-85q-5 0 -5 5v694q0 5 5 5h85q5 0 5 -5v-299q0 -6 4 -2l307 301q5 5 8 5h114q2 0 3.5 -1.5t-0.5 -3.5l-269 -267q-3 -3 0 -8l275 -419q2 -2 0.5 -3.5t-3.5 -1.5h-99q-3 0 -8 5z" />
    <glyph glyph-name="L" unicode="L" 
d="M142 699q0 5 5 5h85q5 0 5 -5v-609q0 -5 5 -5h350q5 0 5 -5v-75q0 -5 -5 -5h-445q-5 0 -5 5v694z" />
    <glyph glyph-name="M" unicode="M" 
d="M447 699q1 5 7 5h157q5 0 5 -5v-694q0 -5 -5 -5h-85q-5 0 -5 5v598q0 5 -4.5 5.5t-5.5 -5.5l-101 -596q-1 -7 -8 -7h-126q-7 0 -8 7l-101 596q-1 6 -5.5 5.5t-4.5 -5.5v-598q0 -5 -5 -5h-85q-5 0 -5 5v694q0 5 5 5h157q6 0 7 -5l103 -600q2 -4 5 -4t5 4z" />
    <glyph glyph-name="N" unicode="N" 
d="M592 704q5 0 5 -5v-694q0 -5 -5 -5h-127q-5 0 -8 5l-273 560q-2 5 -6 4.5t-4 -5.5v-559q0 -5 -5 -5h-85q-5 0 -5 5v694q0 5 5 5h128q4 0 7 -5l273 -560q2 -5 6 -4.5t4 5.5v559q0 5 5 5h85z" />
    <glyph glyph-name="O" unicode="O" 
d="M624 352q0 -80 -16.5 -146.5t-51 -114.5t-88.5 -74.5t-129 -26.5t-129 26.5t-89 74.5t-51.5 114.5t-16.5 146.5q0 79 16.5 145.5t51.5 114.5t89 75t129 27t129 -27t88.5 -75t51 -114.5t16.5 -145.5zM339 75q97 0 141.5 73.5t44.5 203.5q0 65 -9.5 116.5t-31.5 87
t-57.5 54.5t-87.5 19q-49 0 -84 -19t-57.5 -54.5t-33.5 -87t-11 -116.5t11 -116.5t33.5 -87t57.5 -54.5t84 -19z" />
    <glyph glyph-name="P" unicode="P" 
d="M108 699q0 5 5 5h282q41 0 78 -16.5t65 -45.5t44.5 -68t16.5 -84t-16.5 -83t-44.5 -66.5t-65 -44.5t-78 -16h-187q-5 0 -5 -5v-270q0 -5 -5 -5h-85q-5 0 -5 5v694zM208 619q-5 0 -5 -5v-244q0 -5 5 -5h175q24 0 45.5 10t38.5 27t27 39.5t10 48.5t-10 49.5t-27 41
t-38.5 28t-45.5 10.5h-175z" />
    <glyph glyph-name="Q" unicode="Q" 
d="M624 352q0 -86 -18.5 -156.5t-60.5 -118.5q-3 -3 0 -6l107 -106q5 -5 -2 -5h-94q-3 0 -8 5l-59 58q-4 4 -9 0q-30 -17 -64.5 -25t-76.5 -8q-75 0 -129 26.5t-89 74.5t-51.5 114.5t-16.5 146.5q0 79 16.5 145.5t51.5 114.5t89 75t129 27t129 -27t88.5 -75t51 -114.5
t16.5 -145.5zM339 75q20 0 39 3.5t36 11.5q5 2 0 7l-109 107q-2 2 -1 3.5t3 1.5h96q2 0 4 -1.5t4 -3.5l61 -60q1 -1 3 -1q1 0 2 1q25 35 36.5 88.5t11.5 119.5q0 65 -9.5 116.5t-31.5 87t-57.5 54.5t-87.5 19q-49 0 -84 -19t-57.5 -54.5t-33.5 -87t-11 -116.5t11 -116.5
t33.5 -87t57.5 -54.5t84 -19z" />
    <glyph glyph-name="R" unicode="R" 
d="M104 699q0 5 5 5h282q41 0 78 -16.5t65 -45.5t44.5 -68t16.5 -84q0 -66 -33.5 -116.5t-85.5 -74.5q-4 -2 -2 -7l128 -287q2 -5 -5 -5h-83q-2 0 -5 0.5t-5 4.5l-120 270q-2 5 -7 5h-173q-5 0 -5 -5v-270q0 -5 -5 -5h-85q-5 0 -5 5v694zM204 619q-5 0 -5 -5v-244q0 -5 5 -5
h179q23 1 44 11t37.5 27t26 39t9.5 48t-10 49.5t-27 41t-38.5 28t-45.5 10.5h-175z" />
    <glyph glyph-name="S" unicode="S" 
d="M478 511q0 25 -11 46.5t-31 37.5t-48 25t-61 9q-30 0 -56 -8.5t-45.5 -24t-31 -37t-11.5 -46.5q0 -31 14.5 -49.5t37 -29.5t50 -16t53.5 -8q49 -6 97 -16.5t85.5 -33t61 -61.5t23.5 -101q0 -38 -14.5 -75t-46.5 -66.5t-82.5 -48t-123.5 -18.5q-65 0 -115 16.5t-83.5 44.5
t-51 64.5t-17.5 77.5q0 5 5 5h89q6 0 6 -6q0 -19 10 -39.5t31 -38t52.5 -28.5t73.5 -11q40 0 71 10t52.5 27t32.5 39t11 47q0 34 -14 55t-37 34t-53 19t-63 9q-42 4 -87 14t-82.5 31.5t-61.5 58t-24 94.5q0 48 21 85.5t55.5 63t78 39t89.5 13.5q48 0 92 -12.5t78.5 -37.5
t56.5 -63.5t24 -89.5q0 -5 -5 -5h-90q-5 0 -5 5z" />
    <glyph glyph-name="T" unicode="T" 
d="M291 615q-2 4 -5 4h-193q-5 0 -5 5v75q0 5 5 5h491q5 0 5 -5v-75q0 -5 -5 -5h-193q-5 0 -5 -5v-609q0 -5 -5 -5h-85q-5 0 -5 5v610z" />
    <glyph glyph-name="U" unicode="U" 
d="M183 239q0 -32 12.5 -61.5t33.5 -52.5t49.5 -36.5t60.5 -13.5t60 13.5t49 36.5t33 52.5t12 61.5v460q0 5 5 5h85q5 0 5 -5v-460q0 -52 -19.5 -97.5t-53 -79t-79 -53t-97.5 -19.5t-98 19.5t-80 53t-53.5 79t-19.5 97.5v460q0 5 5 5h85q5 0 5 -5v-460z" />
    <glyph glyph-name="V" unicode="V" 
d="M277 0q-4 0 -6 5l-236 694q-1 5 6 5h93q3 0 5 -5l196 -600q2 -4 5 -4t5 4l193 600q2 5 5 5h94q7 0 5 -5l-233 -694q-2 -5 -5 -5h-127z" />
    <glyph glyph-name="W" unicode="W" 
d="M482 100q1 -5 5 -5t5 5l60 599q2 5 5 5h86q7 0 6 -5l-83 -694q-2 -5 -6 -5h-142q-3 0 -5 5l-69 598q-1 4 -5 4t-5 -4l-69 -598q-2 -5 -5 -5h-142q-4 0 -6 5l-83 694q-1 5 6 5h86q3 0 5 -5l60 -599q1 -5 5 -5t5 5l69 599q2 5 5 5h138q3 0 5 -5z" />
    <glyph glyph-name="X" unicode="X" 
d="M522 0q-4 0 -7 5l-172 264q-5 7 -10 0q-20 -31 -49 -75.5t-56 -86.5q-32 -49 -66 -102q-3 -5 -8 -5h-101q-6 0 -3 5l230 343q3 4 0 8l-230 343q-3 5 3 5h101q5 0 8 -5l171 -264q5 -7 10 0l172 264q4 5 10 5h99q6 0 3 -5l-230 -343q-3 -4 0 -8l230 -343q3 -5 -3 -5h-102z
" />
    <glyph glyph-name="Y" unicode="Y" 
d="M389 313q-2 -4 -2.5 -6t-0.5 -4v-298q0 -5 -5 -5h-85q-5 0 -5 5v298q0 2 -5 10l-236 386q-3 5 3 5h101q5 0 8 -5l171 -285q5 -7 10 0l172 285q4 5 10 5h99q6 0 3 -5z" />
    <glyph glyph-name="Z" unicode="Z" 
d="M88 75q0 8 0.5 9.5t2.5 3.5l381 525q4 6 -2 6h-377q-5 0 -5 5v75q0 5 5 5h490q5 0 5 -5v-70v-9.5t-2 -3.5l-383 -526q-3 -5 2 -5h378q5 0 5 -5v-75q0 -5 -5 -5h-490q-5 0 -5 5v70z" />
    <glyph glyph-name="bracketleft" unicode="[" 
d="M482 -138q5 0 5 -4v-51q0 -5 -5 -5h-228q-5 0 -5 5v892q0 5 5 5h228q5 0 5 -5v-51q0 -4 -5 -4h-158q-5 0 -5 -5v-772q0 -5 5 -5h158z" />
    <glyph glyph-name="backslash" unicode="\" 
d="M21 697q-2 7 5 7h95q3 0 5 -3l530 -694q2 -7 -5 -7h-94q-4 0 -5 3z" />
    <glyph glyph-name="bracketright" unicode="]" 
d="M352 -138q5 0 5 5v772q0 5 -5 5h-158q-5 0 -5 4v51q0 5 5 5h228q5 0 5 -5v-892q0 -5 -5 -5h-228q-5 0 -5 5v51q0 4 5 4h158z" />
    <glyph glyph-name="asciicircum" unicode="^" 
d="M454 360q-4 0 -5 3l-106 230q-2 4 -5 4t-5 -4l-106 -230q-2 -3 -5 -3h-90q-3 0 -5 2t0 5l149 332q2 5 7 5h110q5 0 7 -5l149 -332q3 -7 -5 -7h-90z" />
    <glyph glyph-name="underscore" unicode="_" 
d="M90 0q-5 0 -5 5v75q0 5 5 5h497q5 0 5 -5v-75q0 -5 -5 -5h-497z" />
    <glyph glyph-name="grave" unicode="`" 
d="M349 589q-4 0 -6.5 2.5l-4.5 4.5l-72 101q-2 3 0 5t5 2h87q8 0 10 -7l43 -101q3 -7 -5 -7h-57z" />
    <glyph glyph-name="a" unicode="a" 
d="M621 5q0 -5 -5 -5h-36q-77 -1 -99 46q-2 4 -4.5 4t-4.5 -2q-18 -19 -63 -38.5t-114 -19.5q-101 0 -151 44t-50 116q0 33 13.5 60.5t41 48t69 32t96.5 11.5h112q25 0 29 8.5t4 22.5q0 15 -3.5 32.5t-16.5 32t-38.5 24t-70.5 9.5q-65 0 -93.5 -26.5t-28.5 -64.5q0 -5 -5 -5
h-86q-5 0 -5 5q0 44 18 77t48.5 55t70 33t81.5 11q104 0 164 -46.5t60 -138.5v-196q0 -23 7 -36.5t36 -13.5h19q5 0 5 -5v-75zM459 222q0 5 -5 5h-140q-40 -2 -64.5 -9.5t-38 -18t-18 -23.5t-4.5 -26q0 -14 5 -27t17.5 -24t32.5 -17.5t50 -6.5q45 0 76.5 12t51 31.5t28 43
t9.5 46.5v14z" />
    <glyph glyph-name="b" unicode="b" 
d="M100 0q-5 0 -5 5v694q0 5 5 5h85q5 0 5 -5v-238q0 -3 3 -5t7 3t17.5 14.5t32.5 19t43 16.5t50 7q55 0 99 -19t75 -54t47.5 -83.5t16.5 -106.5q0 -59 -16.5 -107t-47.5 -83t-75 -54t-99 -19q-19 0 -40 5t-40.5 13.5t-36 18.5t-26.5 20q-2 2 -5 2.5t-5 -4.5l-10 -40
q-2 -5 -5 -5h-75zM486 253q0 39 -10.5 71.5t-30 56.5t-48 37t-64.5 13q-34 0 -60.5 -13t-45 -37t-28 -56.5t-9.5 -71.5t9.5 -71.5t28 -56.5t45 -37t60.5 -13q36 0 64.5 13t48 37t30 56.5t10.5 71.5z" />
    <glyph glyph-name="c" unicode="c" 
d="M486 335q-4 0 -6 5q-34 91 -138 91q-36 0 -64 -13t-47.5 -37t-30 -56.5t-10.5 -71.5t10.5 -71.5t30 -56.5t47.5 -37t64 -13q104 0 138 91q2 5 6 5h89q6 0 5 -5q-21 -84 -81.5 -130t-156.5 -46q-59 0 -105 19t-77.5 54t-48 83t-16.5 107t16.5 107.5t48 83t77.5 53.5
t105 19q96 0 157 -46.5t81 -129.5q1 -5 -5 -5h-89z" />
    <glyph glyph-name="d" unicode="d" 
d="M461 0q-3 0 -5 5l-10 40q-2 5 -5 4.5t-5 -2.5q-10 -10 -26.5 -20t-36 -18.5t-40.5 -13.5t-40 -5q-55 0 -99 19t-75 54t-47.5 83t-16.5 107q0 58 16.5 106.5t47.5 83.5t75 54t99 19q26 0 50 -7t43 -16.5t32 -19t18 -14.5q4 -5 7 -3t3 5v238q0 5 5 5h85q5 0 5 -5v-694
q0 -5 -5 -5h-75zM150 253q0 -39 10.5 -71.5t30 -56.5t48 -37t64.5 -13q34 0 60.5 13t45 37t28 56.5t9.5 71.5t-9.5 71.5t-28 56.5t-45 37t-60.5 13q-36 0 -64.5 -13t-48 -37t-30 -56.5t-10.5 -71.5z" />
    <glyph glyph-name="e" unicode="e" 
d="M201 219q-5 0 -5 -5q0 -27 9.5 -52.5t28 -44.5t45 -30.5t59.5 -11.5q54 0 82.5 20t44.5 50q2 5 7 5h89q6 0 5 -5q-20 -74 -81.5 -114.5t-146.5 -40.5q-56 0 -101 19t-76.5 54t-48.5 83t-17 107t16 107.5t47 83t76.5 53.5t103.5 19t103.5 -19t77 -54t47.5 -83.5t16 -106.5
q0 -17 -3 -29q-2 -5 -5 -5h-373zM478 299q0 21 -8 44.5t-25 43t-43.5 32t-63.5 12.5q-36 0 -63 -14t-44.5 -34.5t-26 -43t-8.5 -40.5q0 -5 5 -5h272q5 0 5 5z" />
    <glyph glyph-name="f" unicode="f" 
d="M574 624q0 -5 -5 -5h-146q-23 0 -35 -13.5t-12 -36.5v-58q0 -5 5 -5h188q5 0 5 -5v-65q0 -5 -5 -5h-188q-5 0 -5 -5v-421q0 -5 -5 -5h-85q-5 0 -5 5v421q0 5 -5 5h-139q-5 0 -5 5v65q0 5 5 5h139q5 0 5 5v75q0 121 141 118h147q5 0 5 -5v-75z" />
    <glyph glyph-name="g" unicode="g" 
d="M217 -59q3 -9 11.5 -20t24 -20.5t38 -16.5t53.5 -7q39 0 66.5 12.5t44 32.5t24 45.5t7.5 51.5v27q0 3 -3.5 5t-6.5 -3q-4 -5 -17 -15t-32.5 -19.5t-43.5 -16.5t-50 -7q-51 0 -94.5 19t-75.5 54t-50 83t-18 107q0 58 16.5 106.5t47.5 83.5t75 54t99 19q19 0 39.5 -5
t40 -12.5t36 -18t27.5 -20.5q2 -2 5 -3t5 4l10 40q2 5 5 5h75q5 0 5 -5v-482q0 -51 -17 -92.5t-48.5 -71.5t-75 -46.5t-96.5 -16.5q-46 0 -85.5 12t-69.5 32.5t-48 47.5t-21 57q0 5 5 5h87q3 0 5 -5zM190 253q0 -39 10.5 -71.5t30 -56.5t48 -37t64.5 -13q34 0 60.5 13t45 37
t28 56.5t9.5 71.5t-9.5 71.5t-28 56.5t-45 37t-60.5 13q-36 0 -64.5 -13t-48 -37t-30 -56.5t-10.5 -71.5z" />
    <glyph glyph-name="h" unicode="h" 
d="M211 704q5 0 5 -5v-242q0 -4 4 -5t7 3q23 29 57.5 45t73.5 16q58 0 99.5 -18.5t67.5 -50.5t38.5 -75t12.5 -92v-275q0 -5 -5 -5h-85q-5 0 -5 5v275q0 28 -7 55.5t-22.5 48.5t-41 34t-62.5 13q-32 0 -56.5 -12.5t-41 -33.5t-25.5 -48.5t-9 -56.5v-275q0 -5 -5 -5h-85
q-5 0 -5 5v694q0 5 5 5h85z" />
    <glyph glyph-name="i" unicode="i" 
d="M401 506q5 0 5 -5v-411q0 -5 5 -5h200q5 0 5 -5v-75q0 -5 -5 -5h-497q-5 0 -5 5v75q0 5 5 5h192q5 0 5 5v326q0 5 -5 5h-172q-5 0 -5 5v75q0 5 5 5h267zM416 594q0 -5 -5 -5h-105q-5 0 -5 5v105q0 5 5 5h105q5 0 5 -5v-105z" />
    <glyph glyph-name="j" unicode="j" 
d="M152 -118q0 5 5 5h194q30 0 42 13.5t12 36.5v479q0 5 -5 5h-222q-5 0 -5 5v75q0 5 5 5h317q5 0 5 -5v-581q0 -62 -34 -91t-97 -27h-212q-5 0 -5 5v75zM510 594q0 -5 -5 -5h-105q-5 0 -5 5v105q0 5 5 5h105q5 0 5 -5v-105z" />
    <glyph glyph-name="k" unicode="k" 
d="M524 0q-6 0 -9 5l-159 273q-3 4 -7 0l-114 -98q-2 -2 -2 -6v-169q0 -5 -5 -5h-85q-5 0 -5 5v694q0 5 5 5h85q5 0 5 -5v-392q0 -2 2.5 -3t4.5 1l230 196q5 4 9 4.5t6 0.5h123q2 0 3.5 -1.5t-0.5 -3.5l-186 -158q-3 -3 0 -8l193 -330q2 -5 -4 -5h-90z" />
    <glyph glyph-name="l" unicode="l" 
d="M381 704q5 0 5 -5v-609q0 -5 5 -5h200q5 0 5 -5v-75q0 -5 -5 -5h-497q-5 0 -5 5v75q0 5 5 5h192q5 0 5 5v524q0 5 -5 5h-172q-5 0 -5 5v75q0 5 5 5h267z" />
    <glyph glyph-name="m" unicode="m" 
d="M123 506q3 0 5 -5l10 -45q2 -5 6 -4t6 4q14 27 38 43.5t61 16.5q45 0 66 -14t39 -46q6 -9 12 0q21 33 45.5 46.5t65.5 13.5q49 0 79.5 -16t47.5 -46t23.5 -74t6.5 -100v-275q0 -5 -5 -5h-85q-5 0 -5 5v275q0 28 -1.5 55.5t-9.5 48.5t-24.5 34t-46.5 13q-26 0 -40.5 -16.5
t-21 -40t-8 -49.5t-1.5 -45v-275q0 -2 -2 -4q-1 -1 -3 -1h-85h-1q-3 0 -3 2q-1 1 -1 3v275q0 19 -1 45t-8 49.5t-21.5 40t-41.5 16.5q-32 0 -48.5 -12.5t-23.5 -33.5t-8 -48.5t-1 -56.5v-275q0 -5 -5 -5h-85q-5 0 -5 5v496q0 5 5 5h75z" />
    <glyph glyph-name="n" unicode="n" 
d="M201 506q3 0 5 -5l10 -45q2 -5 5.5 -4t5.5 3q16 22 48 41.5t83 19.5q54 0 95 -18.5t68.5 -50.5t41 -75t13.5 -92v-275q0 -5 -5 -5h-85q-5 0 -5 5v275q0 28 -7 55.5t-22.5 48.5t-41 34t-62.5 13q-32 0 -56.5 -12.5t-41 -33.5t-25.5 -48.5t-9 -56.5v-275q0 -5 -5 -5h-85
q-5 0 -5 5v496q0 5 5 5h75z" />
    <glyph glyph-name="o" unicode="o" 
d="M586 253q0 -59 -17 -107t-48.5 -83t-78 -54t-104.5 -19q-59 0 -105 19t-78 54t-48.5 83t-16.5 107t16.5 107.5t48.5 83t78 53.5t105 19q58 0 104.5 -19t78 -54t48.5 -83.5t17 -106.5zM491 253q0 39 -10.5 71.5t-30 56.5t-48 37t-64.5 13t-64 -13t-48 -37t-30.5 -56.5
t-10.5 -71.5t10.5 -71.5t30.5 -56.5t48 -37t64 -13t64.5 13t48 37t30 56.5t10.5 71.5z" />
    <glyph glyph-name="p" unicode="p" 
d="M195 506q3 0 5 -5l10 -41q2 -5 5 -4t5 3q10 11 26.5 21t36 18t40.5 13t40 5q55 0 99 -19t75 -54t47.5 -83.5t16.5 -106.5q0 -59 -16.5 -107t-47.5 -83t-75 -54t-99 -19q-26 0 -50 7t-43 16.5t-32.5 19t-17.5 14.5t-7 3t-3 -5v-238q0 -5 -5 -5h-85q-5 0 -5 5v694q0 5 5 5
h75zM506 253q0 39 -10.5 71.5t-30 56.5t-48 37t-64.5 13q-34 0 -60.5 -13t-45 -37t-28 -56.5t-9.5 -71.5t9.5 -71.5t28 -56.5t45 -37t60.5 -13q36 0 64.5 13t48 37t30 56.5t10.5 71.5z" />
    <glyph glyph-name="q" unicode="q" 
d="M556 506q5 0 5 -5v-694q0 -5 -5 -5h-85q-5 0 -5 5v238q0 3 -3 5t-7 -3q-5 -5 -18 -14.5t-32 -19t-43 -16.5t-50 -7q-55 0 -99 19t-75 54t-47.5 83t-16.5 107q0 58 16.5 106.5t47.5 83.5t75 54t99 19q19 0 40 -5t40.5 -13t36 -18t26.5 -21q2 -2 5 -3t5 4l10 41q2 5 5 5h75
zM170 253q0 -39 10.5 -71.5t30 -56.5t48 -37t64.5 -13q34 0 60.5 13t45 37t28 56.5t9.5 71.5t-9.5 71.5t-28 56.5t-45 37t-60.5 13q-36 0 -64.5 -13t-48 -37t-30 -56.5t-10.5 -71.5z" />
    <glyph glyph-name="r" unicode="r" 
d="M234 506q3 0 5 -5l10 -45q2 -5 5.5 -4t5.5 3q16 22 48 41.5t83 19.5q54 0 95 -18.5t68.5 -50.5t41 -75t13.5 -92v-5q0 -5 -5 -5h-85q-5 0 -5 5v5q0 28 -7 55.5t-22.5 48.5t-41 34t-62.5 13q-32 0 -56.5 -12.5t-41 -33.5t-25.5 -48.5t-9 -56.5v-275q0 -5 -5 -5h-85
q-5 0 -5 5v496q0 5 5 5h75z" />
    <glyph glyph-name="s" unicode="s" 
d="M457 335q-5 0 -5 5q0 42 -32 66.5t-93 24.5q-57 0 -82.5 -20.5t-25.5 -43.5q0 -21 12 -33t30 -18t39.5 -8.5t40.5 -5.5q37 -5 76.5 -11t71 -21t52 -43t20.5 -76q0 -43 -17 -73.5t-46.5 -50t-69.5 -28.5t-87 -9q-57 0 -99.5 14t-70.5 38t-42 56t-14 68q0 5 5 5h84
q6 0 6 -5q0 -38 35.5 -64.5t95.5 -26.5q19 0 41 2.5t40.5 11t31 23.5t12.5 39q0 21 -13.5 33.5t-33 19t-41 9t-37.5 4.5q-36 4 -74.5 10.5t-70 22t-52 43t-20.5 74.5q0 31 14.5 58t40.5 47t63.5 32t84.5 12q46 0 86 -11t70 -33t47 -55t17 -77q0 -5 -4 -5h-86z" />
    <glyph glyph-name="t" unicode="t" 
d="M514 5q0 -5 -5 -5h-157q-63 -2 -97 27t-34 91v308q0 5 -5 5h-139q-5 0 -5 5v65q0 5 5 5h139q5 0 5 5v135q0 5 5 5h85q5 0 5 -5v-135q0 -5 5 -5h188q5 0 5 -5v-65q0 -5 -5 -5h-188q-5 0 -5 -5v-291q0 -23 12 -36.5t42 -13.5h139q5 0 5 -5v-75z" />
    <glyph glyph-name="u" unicode="u" 
d="M466 0q-3 0 -5 5l-10 45q-2 5 -5.5 4t-5.5 -3q-7 -10 -19 -20.5t-29 -19.5t-38 -15t-45 -6q-62 0 -103.5 18.5t-67 50.5t-36.5 75t-11 92v275q0 5 5 5h85q5 0 5 -5v-275q0 -29 7 -56t22.5 -48t41 -34t62.5 -13q31 0 56 12.5t41.5 33.5t25.5 48.5t9 56.5v275q0 5 5 5h85
q5 0 5 -5v-496q0 -5 -5 -5h-75z" />
    <glyph glyph-name="v" unicode="v" 
d="M275 0q-4 0 -6 5l-169 496q-1 5 6 5h91q3 0 5 -5l131 -402q2 -4 5 -4t5 4l132 402q2 5 5 5h91q7 0 5 -5l-169 -496q-2 -5 -5 -5h-127z" />
    <glyph glyph-name="w" unicode="w" 
d="M420 0q-3 0 -5 5l-72 399q-1 4 -5 4t-5 -4l-71 -399q-2 -5 -5 -5h-137q-4 0 -6 5l-94 496q-1 5 6 5h85q3 0 5 -5l67 -402q1 -4 5 -4t5 4l74 402q2 5 5 5h133q3 0 5 -5l74 -402q1 -4 5 -4t5 4l67 402q2 5 5 5h85q7 0 6 -5l-94 -496q-2 -5 -6 -5h-137z" />
    <glyph glyph-name="x" unicode="x" 
d="M476 0q-5 0 -8 5l-126 168q-4 4 -8 0l-127 -168q-4 -5 -8 -5h-99q-2 0 -3 1.5t1 3.5l181 240q3 5 0 10l-181 246q-3 5 2 5h96q4 0 8 -5l129 -173q5 -7 10 0l129 173q3 5 8 5h96q6 0 3 -5l-183 -246q-3 -5 0 -10l183 -240q5 -5 -2 -5h-101z" />
    <glyph glyph-name="y" unicode="y" 
d="M101 -118q0 5 5 5h113q45 0 59 25.5t0 65.5l-9 27l-169 496q-1 5 6 5h91q3 0 5 -5l131 -402q2 -4 5 -4t5 4l132 402q2 5 5 5h91q7 0 5 -5l-171 -501l-29 -87q-11 -30 -23 -51.5t-27.5 -34.5t-37.5 -19t-52 -6h-130q-5 0 -5 5v75v0z" />
    <glyph glyph-name="z" unicode="z" 
d="M137 80q0 4 4 10l268 323q2 2 1 5t-5 3h-252q-5 0 -5 5v75q0 5 5 5h369q5 0 5 -5v-75q0 -5 -4 -10l-266 -323q-2 -2 -0.5 -5t4.5 -3h274q5 0 5 -5v-75q0 -5 -5 -5h-393q-5 0 -5 5v75z" />
    <glyph glyph-name="braceleft" unicode="{" 
d="M487 -193q0 -5 -5 -5h-55q-71 0 -97.5 35t-26.5 106v227q0 22 -15.5 37.5t-37.5 15.5h-55q-5 0 -5 5v50q0 5 5 5h55q21 0 37 15.5t16 38.5v225q0 71 26.5 106.5t97.5 35.5h55q5 0 5 -5v-51q0 -4 -5 -4h-55q-22 0 -38 -16t-16 -38v-223q0 -32 -5.5 -51.5t-14.5 -31.5
t-19.5 -18.5t-19.5 -10.5q-4 -2 0 -4q9 -4 19 -10.5t19 -18.5t15 -32t6 -50v-224q0 -22 16 -38t38 -16h55q5 0 5 -4v-51z" />
    <glyph glyph-name="bar" unicode="|" 
d="M303 -198q-4 0 -4 5v892q0 5 4 5h69q5 0 5 -5v-892q0 -5 -5 -5h-69z" />
    <glyph glyph-name="braceright" unicode="}" 
d="M190 -142q0 4 5 4h55q22 0 38 16t16 38v224q0 30 6 50t15 32t19 18.5t19 10.5q4 2 0 4q-9 4 -19.5 10.5t-19.5 18.5t-14.5 31.5t-5.5 51.5v223q0 22 -16 38t-38 16h-55q-5 0 -5 4v51q0 5 5 5h55q71 0 97.5 -35.5t26.5 -106.5v-225q0 -23 16 -38.5t37 -15.5h55q5 0 5 -5
v-50q0 -5 -5 -5h-55q-22 0 -37.5 -15.5t-15.5 -37.5v-227q0 -71 -26.5 -106t-97.5 -35h-55q-5 0 -5 5v51z" />
    <glyph glyph-name="asciitilde" unicode="~" 
d="M565 296q0 -45 -33 -75.5t-89 -30.5q-29 0 -58.5 11t-57.5 24t-52 24t-42 11q-14 0 -25.5 -10.5t-11.5 -24.5v-30q0 -5 -5 -5l-75 20q-5 2 -5 5v25q0 46 32.5 77t89.5 31q29 0 58.5 -11t57 -24.5t51.5 -24.5t43 -11q14 0 25.5 10t11.5 24v32q0 5 5 5l75 -20q5 -2 5 -5
v-27z" />
    <glyph glyph-name="DEL" 
 />
    <glyph glyph-name="nonbreakingspace" unicode="&#xa0;" 
 />
    <glyph glyph-name="exclamdown" unicode="&#xa1;" 
d="M306 496.025q-5 0 -5 -4.99902l-10 -292.965v-192.977q0 -4.99902 5 -4.99902h84q5 0 5 4.99902v192.977l-10 292.965q0 4.99902 -5 4.99902h-64zM278 704q-5 0 -5 -4.99902v-121.985q0 -5 5 -5h120q5 0 5 5v121.985q0 4.99902 -5 4.99902h-120z" />
    <glyph glyph-name="cent" unicode="&#xa2;" 
d="M485 335q-3 0 -5 5q-26 67 -87 84q-2 1 -5 0t-3 -5v-332q0 -7 7 -5q64 18 88 84q2 5 5 5h90q6 0 5 -5q-19 -74 -67.5 -118t-123.5 -55q-5 0 -5 -4v-84q0 -5 -5 -5h-69q-4 0 -4 5v83q0 4 -3 5q-50 6 -88.5 27t-65 55t-40.5 79t-14 99t14 99t40.5 78.5t65 55t88.5 27.5
q3 1 3 5v84q0 5 4 5h69q5 0 5 -5v-86q0 -2 2 -4q77 -10 126.5 -55t67.5 -117q1 -5 -5 -5h-90zM190 253q0 -66 27.5 -112t81.5 -60q7 -2 7 5v334q0 7 -7 5q-54 -14 -81.5 -60t-27.5 -112z" />
    <glyph glyph-name="sterling" unicode="&#xa3;" 
d="M71 0q-5 0 -5 5v75q0 5 5 5h34q30 0 42 13.5t12 36.5v181q0 5 -5 5h-83q-5 0 -5 5v75q0 5 5 5h83q5 0 5 5v102q0 97 54.5 149t146.5 52q96 0 151 -50t60 -153q0 -5 -5 -5h-90q-5 0 -5 5q0 25 -5 46.5t-17.5 37.5t-34 25t-54.5 9q-30 0 -50 -8.5t-32.5 -24t-18 -37
t-5.5 -46.5v-102q0 -5 5 -5h96q5 0 5 -5v-75q0 -5 -5 -5h-96q-5 0 -5 -5v-181q0 -17 -4 -27t-9 -18q-3 -5 2 -5h228q5 0 5 5v106q0 5 5 5h85q5 0 5 -5v-191q0 -5 -5 -5h-495z" />
    <glyph glyph-name="currency" unicode="&#xa4;" 
d="M54 119q-5 3 0 7l69 69q4 4 1 8q-34 63 -34 147q0 41 8.5 78.5t25.5 67.5q3 5 -1 9l-69 70q-5 3 0 7l53 53q3 5 7 0l63 -64q6 -6 11 -2q29 20 67 32t83 12q88 0 148 -43q7 -5 13 1l64 64q3 5 7 0l53 -53q5 -4 0 -7l-70 -70q-4 -4 -1 -10q16 -31 25 -67t9 -78
q0 -86 -35 -148q-2 -3 2 -7l70 -69q5 -4 0 -7l-53 -53q-4 -5 -7 0l-65 64q-5 5 -12 0q-60 -43 -148 -43q-90 0 -151 43q-5 4 -9 0l-64 -64q-4 -5 -7 0zM491 350q0 39 -10.5 71.5t-30 56.5t-48 37t-64.5 13t-64 -13t-48 -37t-30.5 -56.5t-10.5 -71.5t10.5 -71.5t30.5 -56.5
t48 -37t64 -13t64.5 13t48 37t30 56.5t10.5 71.5z" />
    <glyph glyph-name="yen" unicode="&#xa5;" 
d="M386 203q0 -5 5 -5h202q5 0 5 -5v-80q0 -5 -5 -5h-202q-5 0 -5 -5v-98q0 -5 -5 -5h-85q-5 0 -5 5v98q0 5 -5 5h-190q-5 0 -5 5v80q0 5 5 5h190q5 0 5 5v95v-1q0 6 -5 6h-190q-5 0 -5 5v80q0 5 5 5h136q5 0 2 5l-184 301q-3 5 3 5h101q5 0 8 -5l172 -286q4 -6 8 0l173 286
q4 5 10 5h99q6 0 3 -5l-186 -301q-3 -5 1 -5h151q5 0 5 -5v-80q0 -5 -5 -5h-202q-5 0 -5 -5v-95z" />
    <glyph glyph-name="brokenbar" unicode="&#xa6;" 
d="M303 293q-4 0 -4 5v401q0 5 4 5h69q5 0 5 -5v-401q0 -5 -5 -5h-69zM303 -197q-4 0 -4 5v401q0 5 4 5h69q5 0 5 -5v-401q0 -5 -5 -5h-69z" />
    <glyph glyph-name="section" unicode="&#xa7;" 
d="M206 -5q0 -51 37 -84.5t104 -33.5q60 0 92 25.5t32 60.5q0 31 -17.5 50.5t-44 31.5t-56.5 19.5t-55 14.5q-48 12 -92.5 27.5t-77 41t-49 65t-7.5 101.5q5 34 20.5 65.5t43.5 54.5q4 4 0 8q-14 20 -22 44.5t-8 56.5q0 40 18 72t48.5 54t71 33.5t86.5 11.5q48 0 90.5 -12.5
t75.5 -37.5t53 -63.5t22 -89.5q0 -5 -5 -5h-90q-5 0 -5 5q0 51 -37 84.5t-104 33.5q-60 0 -92 -25.5t-32 -60.5q0 -31 17.5 -50.5t44 -31.5t56.5 -19.5t55 -14.5q48 -12 92.5 -27.5t77 -41t49 -65.5t7.5 -101q-6 -35 -21 -66.5t-43 -54.5q-3 -3 0 -8q14 -20 22 -44.5
t8 -55.5q0 -41 -18 -72.5t-48.5 -53.5t-71 -33.5t-86.5 -11.5q-48 0 -90.5 12.5t-75.5 37.5t-53 63.5t-22 89.5q0 5 5 5h90q5 0 5 -5zM366 338q-32 8 -67 16.5t-67 21.5q-52 -19 -61 -75q-5 -34 4.5 -56t29 -36.5t47 -23.5t59.5 -17t66.5 -16.5t67.5 -21.5q52 18 61 75
q5 34 -4.5 56t-29 36.5t-47 23.5t-59.5 17z" />
    <glyph glyph-name="dieresis" unicode="&#xa8;" 
d="M274 595q0 -5 -5 -5h-105q-5 0 -5 5v104q0 5 5 5h105q5 0 5 -5v-104zM518 595q0 -5 -5 -5h-105q-5 0 -5 5v104q0 5 5 5h105q5 0 5 -5v-104z" />
    <glyph glyph-name="copyright" unicode="&#xa9;" 
d="M439 270q1 3 4 3h51q5 0 5 -5q0 -15 -8.5 -37.5t-27 -44t-49.5 -36.5t-76 -15t-77.5 16t-53 45t-30.5 68.5t-10 87.5t10 87.5t30.5 68.5t53 45t77.5 16q47 0 78 -16.5t49.5 -38.5t26 -45t7.5 -35q0 -3 -3 -3h-53q-3 0 -4 3q-3 10 -9 24t-17 27.5t-29 23t-46 9.5
q-54 0 -82.5 -44t-28.5 -122t28.5 -122t82.5 -44q27 0 45 8.5t29 21.5t17.5 27.5t9.5 26.5zM599 352q0 97 -23.5 181.5t-75.5 162.5q-2 2 -1 5t5 3h49q3 0 6 -4q21 -33 39 -73t31.5 -85t21.5 -93.5t8 -96.5t-8 -96.5t-21.5 -93.5t-31.5 -85t-39 -73q-3 -4 -6 -4h-50
q-4 0 -5 3t1 5q52 78 76 162.5t24 181.5zM78 352q0 -97 24 -181.5t76 -162.5q2 -2 1 -5t-5 -3h-50q-3 0 -6 4q-21 33 -39.5 73t-32 85t-21 93.5t-7.5 96.5t7.5 96.5t21 93.5t32 85t39.5 73q3 4 6 4h49q4 0 5 -3t-1 -5q-52 -78 -75.5 -162.5t-23.5 -181.5z" />
    <glyph glyph-name="ordfeminine" unicode="&#xaa;" 
d="M481.326 432.7q0 -2.7002 -2.69922 -2.7002h-19.4395q-41.5781 -0.540039 -53.458 24.8389q-1.08008 2.16016 -2.42969 2.16016q-1.35059 0 -2.43066 -1.08008q-9.71875 -10.2598 -34.0186 -20.7891q-24.2988 -10.5293 -61.5566 -10.5293q-54.5381 0 -81.5371 23.7588
t-26.999 62.6377q0 17.8193 7.29004 32.668q7.28906 14.8496 22.1387 25.9189q14.8496 11.0703 37.2588 17.2793q22.4092 6.20996 52.1074 6.20996h60.4775q13.5 0 15.6602 4.58984q2.15918 4.58984 2.15918 12.1494q0 8.09961 -1.88965 17.5498
q-1.88965 9.44922 -8.90918 17.2793q-7.02051 7.8291 -20.79 12.959q-13.7686 5.12988 -38.0684 5.12988q-35.0986 0 -50.4873 -14.3096q-15.3896 -14.3096 -15.3896 -34.8281q0 -2.7002 -2.7002 -2.7002h-46.4375q-2.7002 0 -2.7002 2.7002q0 23.7588 9.71973 41.5781
t26.1885 29.6982q16.4697 11.8799 37.7988 17.8193q21.3291 5.94043 44.0078 5.94043q56.1582 0 88.5566 -25.1094q32.3984 -25.1084 32.3984 -74.7871v-105.835q0 -12.4199 3.78027 -19.71q3.7793 -7.28906 19.4395 -7.28906h10.2598q2.69922 0 2.69922 -2.7002v-40.498z
M393.85 549.875q0 2.7002 -2.69922 2.7002h-75.5977q-21.5986 -1.08008 -34.8281 -5.12988t-20.5195 -9.71973q-7.28906 -5.66992 -9.71973 -12.6895q-2.42969 -7.01953 -2.42969 -14.0391q0 -7.55957 2.7002 -14.5801q2.7002 -7.01953 9.44922 -12.959
q6.75 -5.94043 17.5498 -9.4502t26.999 -3.50977q24.2988 0 41.3076 6.48047q17.0098 6.47949 27.5391 17.0088t15.1191 23.2188t5.12988 25.1094v7.55957z" />
    <glyph glyph-name="guillemotleft" unicode="&#xab;" 
d="M183 258q-3 -4 0 -9l212 -242q2 -7 -5 -7h-74q-4 0 -5 3l-212 246q-3 4 0 9l212 246q1 3 5 3h74q7 0 5 -7zM368 258q-3 -4 0 -9l212 -242q2 -7 -5 -7h-74q-4 0 -5 3l-212 246q-3 4 0 9l212 246q1 3 5 3h74q7 0 5 -7z" />
    <glyph glyph-name="logicalnot" unicode="&#xac;" 
d="M586 297q5 0 5 -5v-286q0 -5 -5 -5h-85q-5 0 -5 5v191q0 5 -5 5h-401q-5 0 -5 5v85q0 5 5 5h496z" />
    <glyph glyph-name="uni00AD" unicode="&#xad;" horiz-adv-x="833" 
 />
    <glyph glyph-name="registered" unicode="&#xae;" 
d="M204 558q0 5 5 5h167q25 0 47 -10t39 -27.5t27 -40.5t10 -50q0 -39 -19 -69t-51 -44q-5 -2 -2 -7l76 -168q3 -6 -4 -6h-47q-2 0 -5 1t-5 4l-69 159q-1 4 -7 4h-102q-3 0 -3 -3v-160q0 -5 -5 -5h-47q-5 0 -5 5v412zM266 512q-5 0 -5 -5v-142q0 -5 5 -5h105q28 1 49.5 22.5
t21.5 52.5t-22 54t-51 23h-103zM599 352q0 97 -23.5 181.5t-75.5 162.5q-2 2 -1 5t5 3h49q3 0 6 -4q21 -33 39 -73t31.5 -85t21.5 -93.5t8 -96.5t-8 -96.5t-21.5 -93.5t-31.5 -85t-39 -73q-3 -4 -6 -4h-50q-4 0 -5 3t1 5q52 78 76 162.5t24 181.5zM78 352q0 -97 24 -181.5
t76 -162.5q2 -2 1 -5t-5 -3h-50q-3 0 -6 4q-21 33 -39.5 73t-32 85t-21 93.5t-7.5 96.5t7.5 96.5t21 93.5t32 85t39.5 73q3 4 6 4h49q4 0 5 -3t-1 -5q-52 -78 -75.5 -162.5t-23.5 -181.5z" />
    <glyph glyph-name="macron" unicode="&#xaf;" 
d="M215 589q-4 0 -4 5v58q0 5 4 5h246q5 0 5 -5v-58q0 -5 -5 -5h-246z" />
    <glyph glyph-name="degree" unicode="&#xb0;" 
d="M184 560q0 32 12 60.5t33 49.5t49 33t60 12t60.5 -12t49.5 -33t33 -49.5t12 -60.5t-12 -60t-33 -49t-49.5 -33t-60.5 -12t-60 12t-49 33t-33 49t-12 60zM246 560q0 -19 7 -36t19.5 -29.5t29.5 -19.5t36 -7t36 7t30 19.5t20 29.5t7 36q0 39 -27 66t-66 27q-19 0 -36 -7
t-29.5 -20t-19.5 -30t-7 -36z" />
    <glyph glyph-name="plusminus" unicode="&#xb1;" 
d="M90 0q-5 0 -5 5v75q0 5 5 5h497q5 0 5 -5v-75q0 -5 -5 -5h-497zM380 202q0 -5 -5 -5h-84q-5 0 -5 5v198q0 5 -5 5h-191q-5 0 -5 5v80q0 5 5 5h191q5 0 5 5v198q0 5 5 5h84q5 0 5 -5v-198q0 -5 5 -5h202q5 0 5 -5v-80q0 -5 -5 -5h-202q-5 0 -5 -5v-198z" />
    <glyph glyph-name="twosuperior" unicode="&#xb2;" 
d="M213.777 358.498q0 1.08008 0.540039 3.50977q0.540039 2.43066 1.62012 3.50977l150.114 146.335l12.1494 12.1494q7.8291 7.8291 15.3887 18.0889q7.56055 10.2598 12.96 22.4092t5.39941 24.5693q0 10.2588 -4.31934 22.4092q-4.32031 12.1494 -12.96 22.4082
q-8.63965 10.2598 -22.1387 17.0098q-13.5 6.75 -32.3984 6.75q-15.6602 0 -28.0791 -5.40039q-12.4199 -5.39941 -21.5996 -14.3096q-9.17871 -8.90918 -14.0391 -20.249q-4.85938 -11.3389 -4.85938 -23.7588q0 -2.7002 -2.7002 -2.7002h-45.8984
q-2.69922 0 -2.69922 2.7002q0 24.2988 8.90918 44.5479q8.90918 20.25 25.1094 34.5586q16.1992 14.3096 38.0684 22.4092t47.7881 8.09961q29.1582 0 52.1074 -9.17969q22.9492 -9.17871 38.6084 -24.5684t24.0293 -36.4482q8.36914 -21.0596 8.36914 -44.2783
q0 -20.5195 -6.74902 -37.7988q-6.75 -17.2793 -16.1992 -31.3184q-9.4502 -14.04 -19.71 -24.5693q-10.2588 -10.5293 -17.2793 -17.5488l-118.795 -109.616q-1.08008 -1.08008 -0.80957 -2.7002q0.269531 -1.61914 2.96973 -1.61914h173.873q2.69922 0 2.69922 -2.7002
v-40.498q0 -2.7002 -2.69922 -2.7002h-244.07q-2.7002 0 -2.7002 2.7002v37.7979z" />
    <glyph glyph-name="threesuperior" unicode="&#xb3;" 
d="M313.134 533.991q0 2.7002 2.7002 2.7002h18.8984q30.7793 0 49.9482 17.0088q19.1689 17.0098 19.1689 42.9287q0 11.8789 -4.85938 22.9492q-4.86035 11.0693 -13.7695 19.4385q-8.91016 8.37012 -21.8691 13.5t-28.6191 5.12988q-14.5791 0 -27.2686 -5.66992
t-21.5996 -14.5791q-8.90918 -8.91016 -13.7686 -20.25q-4.86035 -11.3389 -4.86035 -23.2188q0 -2.7002 -2.7002 -2.7002h-45.8975q-2.7002 0 -2.7002 2.7002q0 23.7588 8.63965 43.7383t24.5693 34.5586q15.9287 14.5791 37.7979 22.9492q21.8691 8.36914 47.7881 8.36914
q26.999 0 49.1387 -8.09961q22.1387 -8.09961 38.0684 -22.4092q15.9287 -14.3086 24.5684 -34.0186q8.63965 -19.709 8.63965 -42.3877q0 -18.8994 -6.47949 -33.209t-15.3896 -24.0293q-8.90918 -9.71875 -17.8193 -14.8486q-8.90918 -5.12988 -13.7686 -6.75
q-2.7002 -0.540039 -2.7002 -2.7002t2.7002 -2.69922q7.01953 -2.16016 17.5488 -8.91016t20.5195 -18.0889q9.98926 -11.3398 17.0088 -27.5391t7.01953 -37.2588q0 -23.7588 -8.90918 -43.4678q-8.91016 -19.71 -25.3789 -34.0186q-16.4697 -14.3096 -40.498 -22.4092
q-24.0293 -8.09961 -54.2686 -8.09961q-30.2383 0 -52.918 8.63965q-22.6787 8.63965 -37.7979 23.4883q-15.1191 14.8496 -22.9492 34.5586q-7.83008 19.71 -7.83008 41.3086q0 2.7002 2.7002 2.7002h45.8984q2.69922 0 2.69922 -2.7002q0 -10.7998 4.32031 -21.8691
q4.31934 -11.0693 12.959 -19.9795q8.63965 -8.90918 21.8691 -14.5791t31.0488 -5.66992q16.7393 0 30.7793 4.86035q14.0391 4.85938 24.5684 13.2295q10.5303 8.36914 16.4697 19.709t5.93945 24.2988q0 16.1992 -5.93945 29.1592q-5.93945 12.959 -16.4697 22.1387
q-10.5293 9.17969 -24.8389 14.04q-14.3096 4.85938 -30.5088 4.85938h-18.8984q-2.7002 0 -2.7002 2.7002v40.498v0z" />
    <glyph glyph-name="acute" unicode="&#xb4;" 
d="M271 589q-3 0 -5 2t0 5l43 101q2 7 10 7h87q8 0 5 -7l-72 -101l-4.5 -4.5t-6.5 -2.5h-57z" />
    <glyph glyph-name="mu" unicode="&#xb5;" 
d="M549 5q0 -5 -5 -5h-411q-5 0 -5 5v694q0 5 5 5h411q5 0 5 -5v-694zM512 681h-346l173 -306zM512 24l-173 305l-173 -305h346zM525 48v608q-43 -75 -87 -152t-86 -152zM326 352l-173 305v-610z" />
    <glyph glyph-name="paragraph" unicode="&#xb6;" 
d="M289 311q0 5 -5 5q-38 0 -71 15.5t-58 42t-39 61.5t-14 75q0 38 13.5 72.5t37.5 61t57 42.5t71 18h288q5 0 5 -5v-892q0 -5 -5 -5h-85q-5 0 -5 5v817q0 5 -5 5h-85q-5 0 -5 -5v-817q0 -5 -5 -5h-85q-5 0 -5 5v504z" />
    <glyph glyph-name="periodcentered" unicode="&#xb7;" 
d="M264 276q-5 0 -5 5v151q0 5 5 5h149q5 0 5 -5v-151q0 -5 -5 -5h-149z" />
    <glyph glyph-name="cedilla" unicode="&#xb8;" 
d="M390 5q7 0 5 -5l-61 -45q-2 -2 -1.5 -5t4.5 -3q13 0 27 -4t25.5 -13t19 -23t7.5 -34q0 -31 -25.5 -56t-74.5 -25q-45 0 -67 25.5t-22 55.5q0 5 5 5h33q5 0 5 -5q0 -16 13 -29.5t33 -13.5q24 0 37 13.5t13 29.5q0 14 -5.5 23.5t-14 15t-18 8t-17.5 2.5q-13 0 -16 3l-8 8
q-4 4 -3 7t2 5l50 41q2 6 -5 6q-8 0 -8 6.5t8 6.5h59v0z" />
    <glyph glyph-name="onesuperior" unicode="&#xb9;" 
d="M197.018 324q-2.7002 0 -2.7002 2.7002v40.498q0 2.7002 2.7002 2.7002h102.056q2.7002 0 2.7002 2.69922v208.432q0 8.09961 -5.40039 12.1494q-5.39941 4.0498 -11.3389 4.0498h-82.6172q-2.69922 0 -2.69922 2.7002v37.7988q0 2.69922 2.69922 2.69922h66.958
q13.499 0 22.9482 8.91016q9.4502 8.90918 9.4502 22.4092v29.6982q0 2.7002 2.69922 2.7002h45.8984q2.7002 0 2.7002 -2.7002v-328.847q0 -2.69922 2.7002 -2.69922h102.596q2.69922 0 2.69922 -2.7002v-40.498q0 -2.7002 -2.69922 -2.7002h-261.35z" />
    <glyph glyph-name="ordmasculine" unicode="&#xba;" 
d="M472.427 563.614q0 -31.8584 -9.17969 -57.7773q-9.17871 -25.9189 -26.1885 -44.8184t-42.1182 -29.1592q-25.1094 -10.2588 -56.4277 -10.2588q-31.8584 0 -56.6982 10.2588q-24.8389 10.2598 -42.1182 29.1592t-26.1885 44.8184q-8.91016 25.9189 -8.91016 57.7773
t8.91016 58.0479q8.90918 26.1885 26.1885 44.8184q17.2793 18.6289 42.1182 28.8887q24.8398 10.2598 56.6982 10.2598q31.3184 0 56.4277 -10.2598q25.1084 -10.2598 42.1182 -29.1592t26.1885 -45.0879q9.17969 -26.1885 9.17969 -57.5078zM421.129 563.614
q0 21.0596 -5.66992 38.6084q-5.66895 17.5498 -16.1992 30.5088q-10.5293 12.96 -25.9189 19.9795q-15.3887 7.01953 -34.8281 7.01953t-34.5586 -7.01953t-25.9189 -19.9795q-10.7998 -12.959 -16.4697 -30.5088q-5.66992 -17.5488 -5.66992 -38.6084
q0 -21.0586 5.66992 -38.6084q5.66992 -17.5488 16.4697 -30.5088q10.7998 -12.959 25.9189 -19.9795q15.1191 -7.01953 34.5586 -7.01953t34.8281 7.01953q15.3896 7.02051 25.9189 19.9795q10.5303 12.96 16.1992 30.5088q5.66992 17.5498 5.66992 38.6084z" />
    <glyph glyph-name="guillemotright" unicode="&#xbb;" 
d="M97 500q-2 7 5 7h74q3 0 5 -3l212 -246q3 -5 0 -9l-212 -246q-2 -3 -5 -3h-74q-7 0 -5 7l212 242q3 5 0 9zM282 500q-2 7 5 7h74q3 0 5 -3l212 -246q3 -5 0 -9l-212 -246q-2 -3 -5 -3h-74q-7 0 -5 7l212 242q3 5 0 9z" />
    <glyph glyph-name="onequarter" unicode="&#xbc;" 
d="M555 702q2 2 4 2h54q8 0 4 -8l-426 -694q-2 -2 -4 -2h-52q-8 0 -4 8zM23 325q-3 0 -3 3v40q0 3 3 3h102q3 0 3 3v208q0 8 -5.5 12t-11.5 4h-83q-2 0 -2 3v38q0 2 2 2h67q14 0 23.5 9t9.5 23v29q0 3 2 3h46q3 0 3 -3v-328q0 -3 3 -3h102q3 0 3 -3v-40q0 -3 -3 -3h-261z
M586 380q2 0 2 -3v-241q0 -3 3 -3h60q3 0 3 -3v-40q0 -3 -3 -3h-60q-3 0 -3 -3v-81q0 -3 -2 -3h-46q-3 0 -3 3v81q0 3 -3 3h-177q-3 0 -3 3v37q0 5 0.5 6l1.5 3l179 241q1 3 5 3h46zM415 137q-2 -4 3 -4h116q3 0 3 3v159q0 2 -2 2t-3 -2z" />
    <glyph glyph-name="onehalf" unicode="&#xbd;" 
d="M548 702q2 2 4 2h54q8 0 4 -8l-426 -694q-2 -2 -4 -2h-52q-8 0 -4 8zM26 324q-3 0 -3 3v40q0 3 3 3h102q3 0 3 3v208q0 8 -5.5 12t-11.5 4h-83q-2 0 -2 3v38q0 2 2 2h67q14 0 23.5 9t9.5 23v29q0 3 2 3h46q3 0 3 -3v-328q0 -3 3 -3h102q3 0 3 -3v-40q0 -3 -3 -3h-261z
M404 40v4t2 4l150 146l12 12t15.5 18.5t13 22.5t5.5 24q0 10 -4.5 22.5t-13 22.5t-22 17t-32.5 7q-31 0 -49.5 -19.5t-18.5 -44.5q0 -3 -3 -3h-46q-3 0 -3 3q0 49 34 79.5t86 30.5q29 0 52 -9t38.5 -25t24 -36.5t8.5 -44.5q0 -21 -6.5 -38t-16 -31t-20 -24.5l-17.5 -17.5
l-118 -110q-2 -1 -1.5 -2.5t3.5 -1.5h174q2 0 2 -3v-40q0 -3 -2 -3h-245q-2 0 -2 3v37z" />
    <glyph glyph-name="threequarters" unicode="&#xbe;" 
d="M554 702q2 2 4 2h54q8 0 4 -8l-426 -694q-2 -2 -4 -2h-52q-8 0 -4 8zM124 534q0 3 3 3h19q31 0 50 17t19 43q0 23 -18.5 42t-50.5 19q-30 -1 -49 -21t-19 -43q0 -3 -2 -3h-46q-3 0 -3 3q-1 48 33 78.5t86 31.5q54 0 87 -30.5t33 -76.5q0 -19 -6.5 -33t-15.5 -24
t-18 -15.5t-13 -6.5q-3 -1 -3 -3t3 -3q7 -2 17.5 -9t20.5 -18t17 -27t7 -37q0 -48 -34.5 -78t-94.5 -30q-30 0 -53 8.5t-38 23.5t-23 34.5t-8 41.5q0 2 3 2h46q3 0 3 -2q0 -23 17 -43t53 -20q33 0 55 18t22 45q0 32 -22.5 51t-54.5 19h-19q-3 0 -3 2v41zM583 380q2 0 2 -3
v-241q0 -3 3 -3h60q3 0 3 -3v-40q0 -3 -3 -3h-60q-3 0 -3 -3v-81q0 -3 -2 -3h-46q-3 0 -3 3v81q0 3 -3 3h-177q-3 0 -3 3v37q0 5 0.5 6l1.5 3l179 241q1 3 5 3h46zM412 137q-2 -4 3 -4h116q3 0 3 3v159q0 2 -2 2t-3 -2z" />
    <glyph glyph-name="questiondown" unicode="&#xbf;" 
d="M566 183q0 -42 -16.5 -77.5t-45.5 -61t-69.5 -40t-89.5 -14.5q-54 0 -97.5 16t-73.5 44t-46.5 65.5t-16.5 79.5q0 43 13 73t35 52t51.5 39t62.5 34q10 5 13 10t5 16v71q0 5 5 5h85q5 0 5 -5v-79q0 -66 -72 -96q-36 -15 -57.5 -29.5t-33 -29t-15 -29.5t-3.5 -32
q0 -21 9 -42.5t26.5 -39t43.5 -28t61 -10.5q30 0 53.5 9t39.5 24t24.5 34.5t8.5 40.5v10q0 5 5 5h85q5 0 5 -5v-10zM399 704q5 0 5 -5v-122q0 -5 -5 -5h-120q-5 0 -5 5v122q0 5 5 5h120z" />
    <glyph glyph-name="Agrave" unicode="&#xc0;" 
d="M401 704q4 0 6 -5l233 -693q2 -6 -5 -6h-94q-3 0 -5 5l-46 143q-1 5 -7 5h-290q-4 0 -6 -5l-47 -143q-2 -5 -5 -5h-94q-7 0 -5 6l236 693q2 5 6 5h123zM456 233q7 0 5 6l-117 365q-2 5 -5 5t-5 -5l-118 -365q-2 -6 5 -6h235zM307 777q-4 0 -6.5 2.5l-4.5 4.5l-72 101
q-2 3 0 5t5 2h87q8 0 10 -7l43 -101q3 -7 -5 -7h-57z" />
    <glyph glyph-name="Aacute" unicode="&#xc1;" 
d="M401 704q4 0 6 -5l233 -693q2 -6 -5 -6h-94q-3 0 -5 5l-46 143q-1 5 -7 5h-290q-4 0 -6 -5l-47 -143q-2 -5 -5 -5h-94q-7 0 -5 6l236 693q2 5 6 5h123zM456 233q7 0 5 6l-117 365q-2 5 -5 5t-5 -5l-118 -365q-2 -6 5 -6h235zM310 777q-3 0 -5 2t0 5l43 101q2 7 10 7h87
q8 0 5 -7l-72 -101l-4.5 -4.5t-6.5 -2.5h-57z" />
    <glyph glyph-name="Acircumflex" unicode="&#xc2;" 
d="M401 704q4 0 6 -5l233 -693q2 -6 -5 -6h-94q-3 0 -5 5l-46 143q-1 5 -7 5h-290q-4 0 -6 -5l-47 -143q-2 -5 -5 -5h-94q-7 0 -5 6l236 693q2 5 6 5h123zM456 233q7 0 5 6l-117 365q-2 5 -5 5t-5 -5l-118 -365q-2 -6 5 -6h235zM380 777q-4 0 -5 3l-30 42q-5 8 -10 0
l-31 -42q-2 -3 -5 -3h-60q-3 0 -5 2t0 5l44 104q1 4 5 4h114q4 0 5 -4l43 -104q3 -7 -5 -7h-60z" />
    <glyph glyph-name="Atilde" unicode="&#xc3;" 
d="M401 704q4 0 6 -5l233 -693q2 -6 -5 -6h-94q-3 0 -5 5l-46 143q-1 5 -7 5h-290q-4 0 -6 -5l-47 -143q-2 -5 -5 -5h-94q-7 0 -5 6l236 693q2 5 6 5h123zM456 233q7 0 5 6l-117 365q-2 5 -5 5t-5 -5l-118 -365q-2 -6 5 -6h235zM182 805q0 13 5 28t16.5 28t31 21.5t49.5 8.5
q22 0 38.5 -7t29 -16t22 -16t17.5 -7q3 0 8.5 0.5t11 4t9 12t3.5 24.5q0 5 5 5h60q5 0 5 -5v-24q0 -13 -5 -28t-17 -27.5t-31.5 -21t-48.5 -8.5q-20 0 -36 7t-29 16t-23 16t-19 7q-3 0 -8.5 -0.5t-11 -4t-9 -12t-3.5 -24.5q0 -5 -5 -5h-60q-5 0 -5 5v23z" />
    <glyph glyph-name="Adieresis" unicode="&#xc4;" 
d="M401 704q4 0 6 -5l233 -693q2 -6 -5 -6h-94q-3 0 -5 5l-46 143q-1 5 -7 5h-290q-4 0 -6 -5l-47 -143q-2 -5 -5 -5h-94q-7 0 -5 6l236 693q2 5 6 5h123zM456 233q7 0 5 6l-117 365q-2 5 -5 5t-5 -5l-118 -365q-2 -6 5 -6h235zM273 782q0 -5 -5 -5h-105q-5 0 -5 5v104
q0 5 5 5h105q5 0 5 -5v-104zM517 782q0 -5 -5 -5h-105q-5 0 -5 5v104q0 5 5 5h105q5 0 5 -5v-104z" />
    <glyph glyph-name="Aring" unicode="&#xc5;" 
d="M401 704q4 0 6 -5l233 -693q2 -6 -5 -6h-94q-3 0 -5 5l-46 143q-1 5 -7 5h-290q-4 0 -6 -5l-47 -143q-2 -5 -5 -5h-94q-7 0 -5 6l236 693q2 5 6 5h123zM456 233q7 0 5 6l-117 365q-2 5 -5 5t-5 -5l-118 -365q-2 -6 5 -6h235zM425 834q0 -36 -26 -61.5t-62 -25.5
t-61.5 25.5t-25.5 61.5t25.5 62t61.5 26q18 0 34 -7t28 -19t19 -28t7 -34zM382 834q0 19 -13 32t-32 13t-32 -13t-13 -32t13 -32t32 -13t32 13t13 32z" />
    <glyph glyph-name="AE" unicode="&#xc6;" 
d="M324 149q0 5 -5 5h-160q-5 0 -6 -4l-52 -145q-2 -5 -5 -5h-77q-7 0 -6 5l254 694q2 5 6 5h347q5 0 5 -5v-75q0 -5 -5 -5h-196q-5 0 -5 -5v-209q0 -5 5 -5h155q5 0 5 -5v-75q0 -5 -5 -5h-155q-5 0 -5 -5v-220q0 -5 5 -5h196q5 0 5 -5v-75q0 -5 -5 -5h-292q-4 0 -4 5v144z
M186 240q-2 -6 5 -6h128q5 0 5 5v362q-2 5 -5 5t-5 -5z" />
    <glyph glyph-name="Ccedilla" unicode="&#xc7;" 
d="M510 215q1 5 7 5h88q5 0 5 -5q0 -22 -11 -55.5t-35.5 -66.5t-64.5 -60.5t-97 -37.5l-59 -40q-2 -2 -1.5 -5t4.5 -3q13 0 27 -4t25.5 -13t19 -23t7.5 -34q0 -31 -25.5 -56t-74.5 -25q-45 0 -67 25.5t-22 55.5q0 5 5 5h33q5 0 5 -5q0 -16 13 -29.5t33 -13.5q24 0 37 13.5
t13 29.5q0 14 -5.5 23.5t-14 15t-18 8t-17.5 2.5q-13 0 -16 3l-8 8q-4 4 -3 7t2 5l50 38q2 2 1.5 4.5t-4.5 2.5h-3q-74 0 -127.5 27t-88 75t-51 114.5t-16.5 145.5t16.5 145.5t51.5 114.5t89 75t129 27q78 0 129.5 -27.5t82.5 -64.5t43.5 -74.5t12.5 -58.5q0 -5 -5 -5h-88
q-5 0 -7 5q-6 16 -15.5 40t-28.5 46t-48.5 38t-75.5 16q-90 0 -138 -73.5t-48 -203.5t48 -203.5t138 -73.5q45 0 74.5 14.5t48.5 35.5t29 45.5t16 44.5z" />
    <glyph glyph-name="Egrave" unicode="&#xc8;" 
d="M113 699q0 5 5 5h481q5 0 5 -5v-75q0 -5 -5 -5h-386q-5 0 -5 -5v-204q0 -5 5 -5h345q5 0 5 -5v-75q0 -5 -5 -5h-345q-5 0 -5 -5v-225q0 -5 5 -5h386q5 0 5 -5v-75q0 -5 -5 -5h-481q-5 0 -5 5v694v0zM347 777q-4 0 -6.5 2.5l-4.5 4.5l-72 101q-2 3 0 5t5 2h87q8 0 10 -7
l43 -101q3 -7 -5 -7h-57z" />
    <glyph glyph-name="Eacute" unicode="&#xc9;" 
d="M113 699q0 5 5 5h481q5 0 5 -5v-75q0 -5 -5 -5h-386q-5 0 -5 -5v-204q0 -5 5 -5h345q5 0 5 -5v-75q0 -5 -5 -5h-345q-5 0 -5 -5v-225q0 -5 5 -5h386q5 0 5 -5v-75q0 -5 -5 -5h-481q-5 0 -5 5v694v0zM311 777q-3 0 -5 2t0 5l43 101q2 7 10 7h87q8 0 5 -7l-72 -101
l-4.5 -4.5t-6.5 -2.5h-57z" />
    <glyph glyph-name="Ecircumflex" unicode="&#xca;" 
d="M113 699q0 5 5 5h481q5 0 5 -5v-75q0 -5 -5 -5h-386q-5 0 -5 -5v-204q0 -5 5 -5h345q5 0 5 -5v-75q0 -5 -5 -5h-345q-5 0 -5 -5v-225q0 -5 5 -5h386q5 0 5 -5v-75q0 -5 -5 -5h-481q-5 0 -5 5v694v0zM400 777q-4 0 -5 3l-30 42q-5 8 -10 0l-31 -42q-2 -3 -5 -3h-60
q-3 0 -5 2t0 5l44 104q1 4 5 4h114q4 0 5 -4l43 -104q3 -7 -5 -7h-60z" />
    <glyph glyph-name="Edieresis" unicode="&#xcb;" 
d="M113 699q0 5 5 5h481q5 0 5 -5v-75q0 -5 -5 -5h-386q-5 0 -5 -5v-204q0 -5 5 -5h345q5 0 5 -5v-75q0 -5 -5 -5h-345q-5 0 -5 -5v-225q0 -5 5 -5h386q5 0 5 -5v-75q0 -5 -5 -5h-481q-5 0 -5 5v694v0zM293 782q0 -5 -5 -5h-105q-5 0 -5 5v104q0 5 5 5h105q5 0 5 -5v-104z
M537 782q0 -5 -5 -5h-105q-5 0 -5 5v104q0 5 5 5h105q5 0 5 -5v-104z" />
    <glyph glyph-name="Igrave" unicode="&#xcc;" 
d="M161 619q-5 0 -5 5v75q0 5 5 5h437q5 0 5 -5v-75q0 -5 -5 -5h-170q-5 0 -5 -5v-524q0 -5 5 -5h170q5 0 5 -5v-75q0 -5 -5 -5h-437q-5 0 -5 5v75q0 5 5 5h162q5 0 5 5v524q0 5 -5 5h-162zM358 777q-4 0 -6.5 2.5l-4.5 4.5l-72 101q-2 3 0 5t5 2h87q8 0 10 -7l43 -101
q3 -7 -5 -7h-57z" />
    <glyph glyph-name="Iacute" unicode="&#xcd;" 
d="M97 619q-5 0 -5 5v75q0 5 5 5h437q5 0 5 -5v-75q0 -5 -5 -5h-170q-5 0 -5 -5v-524q0 -5 5 -5h170q5 0 5 -5v-75q0 -5 -5 -5h-437q-5 0 -5 5v75q0 5 5 5h162q5 0 5 5v524q0 5 -5 5h-162zM270 777q-3 0 -5 2t0 5l43 101q2 7 10 7h87q8 0 5 -7l-72 -101l-4.5 -4.5t-6.5 -2.5
h-57z" />
    <glyph glyph-name="Icircumflex" unicode="&#xce;" 
d="M124 619q-5 0 -5 5v75q0 5 5 5h437q5 0 5 -5v-75q0 -5 -5 -5h-170q-5 0 -5 -5v-524q0 -5 5 -5h170q5 0 5 -5v-75q0 -5 -5 -5h-437q-5 0 -5 5v75q0 5 5 5h162q5 0 5 5v524q0 5 -5 5h-162zM380 777q-4 0 -5 3l-30 42q-5 8 -10 0l-31 -42q-2 -3 -5 -3h-60q-3 0 -5 2t0 5
l44 104q1 4 5 4h114q4 0 5 -4l43 -104q3 -7 -5 -7h-60z" />
    <glyph glyph-name="Idieresis" unicode="&#xcf;" 
d="M124 619q-5 0 -5 5v75q0 5 5 5h437q5 0 5 -5v-75q0 -5 -5 -5h-170q-5 0 -5 -5v-524q0 -5 5 -5h170q5 0 5 -5v-75q0 -5 -5 -5h-437q-5 0 -5 5v75q0 5 5 5h162q5 0 5 5v524q0 5 -5 5h-162zM273 782q0 -5 -5 -5h-105q-5 0 -5 5v104q0 5 5 5h105q5 0 5 -5v-104zM517 782
q0 -5 -5 -5h-105q-5 0 -5 5v104q0 5 5 5h105q5 0 5 -5v-104z" />
    <glyph glyph-name="Eth" unicode="&#xd0;" 
d="M82 296q0 5 -5 5h-54q-5 0 -5 5v75q0 5 5 5h54q5 0 5 5v308q0 5 5 5h258q79 0 137.5 -27t97.5 -74.5t58.5 -113t19.5 -144.5q0 -80 -19.5 -143.5t-58.5 -108.5t-97.5 -69t-137.5 -24h-258q-5 0 -5 5v291zM182 301q-5 0 -5 -5v-206q0 -5 5 -5h163q101 0 157 66t56 194
q0 63 -14.5 113.5t-42 86t-67 55t-89.5 19.5h-163q-5 0 -5 -5v-223q0 -5 5 -5h154q5 0 5 -5v-75q0 -5 -5 -5h-154z" />
    <glyph glyph-name="Ntilde" unicode="&#xd1;" 
d="M576 704q5 0 5 -5v-694q0 -5 -5 -5h-127q-5 0 -8 5l-273 560q-2 5 -6 4.5t-4 -5.5v-559q0 -5 -5 -5h-85q-5 0 -5 5v694q0 5 5 5h128q4 0 7 -5l273 -560q2 -5 6 -4.5t4 5.5v559q0 5 5 5h85zM175 805q0 13 5 28t16.5 28t31 21.5t49.5 8.5q22 0 38.5 -7t29 -16t22 -16
t17.5 -7q3 0 8.5 0.5t11 4t9 12t3.5 24.5q0 5 5 5h60q5 0 5 -5v-24q0 -13 -5 -28t-17 -27.5t-31.5 -21t-48.5 -8.5q-20 0 -36 7t-29 16t-23 16t-19 7q-3 0 -8.5 -0.5t-11 -4t-9 -12t-3.5 -24.5q0 -5 -5 -5h-60q-5 0 -5 5v23z" />
    <glyph glyph-name="Ograve" unicode="&#xd2;" 
d="M624 352q0 -80 -16.5 -146.5t-51 -114.5t-88.5 -74.5t-129 -26.5t-129 26.5t-89 74.5t-51.5 114.5t-16.5 146.5q0 79 16.5 145.5t51.5 114.5t89 75t129 27t129 -27t88.5 -75t51 -114.5t16.5 -145.5zM339 75q97 0 141.5 73.5t44.5 203.5q0 65 -9.5 116.5t-31.5 87
t-57.5 54.5t-87.5 19q-49 0 -84 -19t-57.5 -54.5t-33.5 -87t-11 -116.5t11 -116.5t33.5 -87t57.5 -54.5t84 -19zM331 777q-4 0 -6.5 2.5l-4.5 4.5l-72 101q-2 3 0 5t5 2h87q8 0 10 -7l43 -101q3 -7 -5 -7h-57z" />
    <glyph glyph-name="Oacute" unicode="&#xd3;" 
d="M624 352q0 -80 -16.5 -146.5t-51 -114.5t-88.5 -74.5t-129 -26.5t-129 26.5t-89 74.5t-51.5 114.5t-16.5 146.5q0 79 16.5 145.5t51.5 114.5t89 75t129 27t129 -27t88.5 -75t51 -114.5t16.5 -145.5zM339 75q97 0 141.5 73.5t44.5 203.5q0 65 -9.5 116.5t-31.5 87
t-57.5 54.5t-87.5 19q-49 0 -84 -19t-57.5 -54.5t-33.5 -87t-11 -116.5t11 -116.5t33.5 -87t57.5 -54.5t84 -19zM310 778q-3 0 -5 2t0 5l43 101q2 7 10 7h87q8 0 5 -7l-72 -101l-4.5 -4.5t-6.5 -2.5h-57z" />
    <glyph glyph-name="Ocircumflex" unicode="&#xd4;" 
d="M624 352q0 -80 -16.5 -146.5t-51 -114.5t-88.5 -74.5t-129 -26.5t-129 26.5t-89 74.5t-51.5 114.5t-16.5 146.5q0 79 16.5 145.5t51.5 114.5t89 75t129 27t129 -27t88.5 -75t51 -114.5t16.5 -145.5zM339 75q97 0 141.5 73.5t44.5 203.5q0 65 -9.5 116.5t-31.5 87
t-57.5 54.5t-87.5 19q-49 0 -84 -19t-57.5 -54.5t-33.5 -87t-11 -116.5t11 -116.5t33.5 -87t57.5 -54.5t84 -19zM370 777q-4 0 -5 3l-30 42q-5 8 -10 0l-31 -42q-2 -3 -5 -3h-60q-3 0 -5 2t0 5l44 104q1 4 5 4h114q4 0 5 -4l43 -104q3 -7 -5 -7h-60z" />
    <glyph glyph-name="Otilde" unicode="&#xd5;" 
d="M624 352q0 -80 -16.5 -146.5t-51 -114.5t-88.5 -74.5t-129 -26.5t-129 26.5t-89 74.5t-51.5 114.5t-16.5 146.5q0 79 16.5 145.5t51.5 114.5t89 75t129 27t129 -27t88.5 -75t51 -114.5t16.5 -145.5zM339 75q97 0 141.5 73.5t44.5 203.5q0 65 -9.5 116.5t-31.5 87
t-57.5 54.5t-87.5 19q-49 0 -84 -19t-57.5 -54.5t-33.5 -87t-11 -116.5t11 -116.5t33.5 -87t57.5 -54.5t84 -19zM184 805q0 13 5 28t16.5 28t31 21.5t49.5 8.5q22 0 38.5 -7t29 -16t22 -16t17.5 -7q3 0 8.5 0.5t11 4t9 12t3.5 24.5q0 5 5 5h60q5 0 5 -5v-24q0 -13 -5 -28
t-17 -27.5t-31.5 -21t-48.5 -8.5q-20 0 -36 7t-29 16t-23 16t-19 7q-3 0 -8.5 -0.5t-11 -4t-9 -12t-3.5 -24.5q0 -5 -5 -5h-60q-5 0 -5 5v23z" />
    <glyph glyph-name="Odieresis" unicode="&#xd6;" 
d="M624 352q0 -80 -16.5 -146.5t-51 -114.5t-88.5 -74.5t-129 -26.5t-129 26.5t-89 74.5t-51.5 114.5t-16.5 146.5q0 79 16.5 145.5t51.5 114.5t89 75t129 27t129 -27t88.5 -75t51 -114.5t16.5 -145.5zM339 75q97 0 141.5 73.5t44.5 203.5q0 65 -9.5 116.5t-31.5 87
t-57.5 54.5t-87.5 19q-49 0 -84 -19t-57.5 -54.5t-33.5 -87t-11 -116.5t11 -116.5t33.5 -87t57.5 -54.5t84 -19zM273 782q0 -5 -5 -5h-105q-5 0 -5 5v104q0 5 5 5h105q5 0 5 -5v-104zM517 782q0 -5 -5 -5h-105q-5 0 -5 5v104q0 5 5 5h105q5 0 5 -5v-104z" />
    <glyph glyph-name="multiply" unicode="&#xd7;" 
d="M589 58q3 -4 0 -7l-49 -49q-4 -5 -7 0l-194 194q-4 3 -7 0l-194 -195q-4 -3 -7 0l-47 47q-4 3 0 7l194 194q3 3 0 7l-192 191q-4 3 0 7l49 50q4 3 7 0l192 -191q4 -3 8 0l190 191q4 3 7 0l47 -47q3 -4 0 -7l-191 -191q-4 -4 0 -7z" />
    <glyph glyph-name="Oslash" unicode="&#xd8;" 
d="M70 30q-4 -4 -7 0l-39 39q-4 3 0 7l64 65q3 3 1 8q-19 42 -27.5 93t-8.5 110q0 79 16.5 145.5t51.5 114.5t89 75t129 27q74 0 127 -26t88 -73q2 -2 4 -2t4 2l44 44q3 3 7 0l39 -39q3 -4 0 -7l-59 -59q-3 -3 -1 -8q32 -84 32 -194q0 -80 -16.5 -146.5t-51 -114.5
t-88.5 -74.5t-129 -26.5q-72 0 -123 23t-86 67q-5 6 -10 1zM153 352q0 -35 2.5 -65.5t9.5 -57.5q1 -4 3.5 -4.5t4.5 1.5l315 315q3 3 0 8q-23 39 -59 59.5t-90 20.5q-49 0 -84 -19t-57.5 -54.5t-33.5 -87t-11 -116.5zM339 75q97 0 141.5 73.5t44.5 203.5q0 62 -9 113
q-1 5 -4 5t-5 -2l-310 -310q-4 -4 0 -10q23 -35 58 -54t84 -19z" />
    <glyph glyph-name="Ugrave" unicode="&#xd9;" 
d="M183 239q0 -32 12.5 -61.5t33.5 -52.5t49.5 -36.5t60.5 -13.5t60 13.5t49 36.5t33 52.5t12 61.5v460q0 5 5 5h85q5 0 5 -5v-460q0 -52 -19.5 -97.5t-53 -79t-79 -53t-97.5 -19.5t-98 19.5t-80 53t-53.5 79t-19.5 97.5v460q0 5 5 5h85q5 0 5 -5v-460zM324 777
q-4 0 -6.5 2.5l-4.5 4.5l-72 101q-2 3 0 5t5 2h87q8 0 10 -7l43 -101q3 -7 -5 -7h-57z" />
    <glyph glyph-name="Uacute" unicode="&#xda;" 
d="M183 239q0 -32 12.5 -61.5t33.5 -52.5t49.5 -36.5t60.5 -13.5t60 13.5t49 36.5t33 52.5t12 61.5v460q0 5 5 5h85q5 0 5 -5v-460q0 -52 -19.5 -97.5t-53 -79t-79 -53t-97.5 -19.5t-98 19.5t-80 53t-53.5 79t-19.5 97.5v460q0 5 5 5h85q5 0 5 -5v-460zM300 777q-3 0 -5 2
t0 5l43 101q2 7 10 7h87q8 0 5 -7l-72 -101l-4.5 -4.5t-6.5 -2.5h-57z" />
    <glyph glyph-name="Ucircumflex" unicode="&#xdb;" 
d="M183 239q0 -32 12.5 -61.5t33.5 -52.5t49.5 -36.5t60.5 -13.5t60 13.5t49 36.5t33 52.5t12 61.5v460q0 5 5 5h85q5 0 5 -5v-460q0 -52 -19.5 -97.5t-53 -79t-79 -53t-97.5 -19.5t-98 19.5t-80 53t-53.5 79t-19.5 97.5v460q0 5 5 5h85q5 0 5 -5v-460zM380 777q-4 0 -5 3
l-30 42q-5 8 -10 0l-31 -42q-2 -3 -5 -3h-60q-3 0 -5 2t0 5l44 104q1 4 5 4h114q4 0 5 -4l43 -104q3 -7 -5 -7h-60z" />
    <glyph glyph-name="Udieresis" unicode="&#xdc;" 
d="M183 239q0 -32 12.5 -61.5t33.5 -52.5t49.5 -36.5t60.5 -13.5t60 13.5t49 36.5t33 52.5t12 61.5v460q0 5 5 5h85q5 0 5 -5v-460q0 -52 -19.5 -97.5t-53 -79t-79 -53t-97.5 -19.5t-98 19.5t-80 53t-53.5 79t-19.5 97.5v460q0 5 5 5h85q5 0 5 -5v-460zM273 782q0 -5 -5 -5
h-105q-5 0 -5 5v104q0 5 5 5h105q5 0 5 -5v-104zM517 782q0 -5 -5 -5h-105q-5 0 -5 5v104q0 5 5 5h105q5 0 5 -5v-104z" />
    <glyph glyph-name="Yacute" unicode="&#xdd;" 
d="M389 313q-2 -4 -2.5 -6t-0.5 -4v-298q0 -5 -5 -5h-85q-5 0 -5 5v298q0 2 -5 10l-236 386q-3 5 3 5h101q5 0 8 -5l171 -285q5 -7 10 0l172 285q4 5 10 5h99q6 0 3 -5zM300 777q-3 0 -5 2t0 5l43 101q2 7 10 7h87q8 0 5 -7l-72 -101l-4.5 -4.5t-6.5 -2.5h-57z" />
    <glyph glyph-name="Thorn" unicode="&#xde;" 
d="M168 704q5 0 5 -5v-143q0 -5 5 -5h227q41 0 76 -16t61.5 -43t41.5 -63t15 -77t-15 -77t-41.5 -63t-61.5 -43t-76 -16h-227q-5 0 -5 -5v-143q0 -5 -5 -5h-85q-5 0 -5 5v694q0 5 5 5h85zM506 352q0 22 -8.5 42.5t-22.5 36.5t-32.5 25.5t-37.5 9.5h-227q-5 0 -5 -5v-218
q0 -5 5 -5h227q19 0 37.5 9.5t32.5 25.5t22.5 36.5t8.5 42.5z" />
    <glyph glyph-name="germandbls" unicode="&#xdf;" 
d="M341 402q21 0 42.5 6.5t38 20t27 35t10.5 52.5q0 30 -11 51.5t-30.5 35t-45.5 20t-56 6.5q-31 0 -52.5 -11.5t-35 -29t-19.5 -38.5t-6 -40v-505q0 -5 -5 -5h-85q-5 0 -5 5v505q0 39 14 75.5t40.5 65t65 46t88.5 17.5q57 0 100.5 -15t72.5 -42t44 -63t15 -78
q0 -48 -27 -89.5t-70 -62.5q-3 -2 -3 -4t3 -3q16 -5 36.5 -18.5t38.5 -34.5t30.5 -48t12.5 -58q0 -98 -58.5 -153t-181.5 -55h-29q-5 0 -5 5v74q0 5 5 5h29q72 0 109 31t37 93q0 30 -13 52.5t-32.5 37.5t-43.5 22.5t-45 7.5h-18q-5 0 -5 5v74q0 5 5 5h18z" />
    <glyph glyph-name="agrave" unicode="&#xe0;" 
d="M611 5q0 -5 -5 -5h-36q-77 -1 -99 46q-2 4 -4.5 4t-4.5 -2q-18 -19 -63 -38.5t-114 -19.5q-101 0 -151 44t-50 116q0 33 13.5 60.5t41 48t69 32t96.5 11.5h112q25 0 29 8.5t4 22.5q0 15 -3.5 32.5t-16.5 32t-38.5 24t-70.5 9.5q-65 0 -93.5 -26.5t-28.5 -64.5q0 -5 -5 -5
h-86q-5 0 -5 5q0 44 18 77t48.5 55t70 33t81.5 11q104 0 164 -46.5t60 -138.5v-196q0 -23 7 -36.5t36 -13.5h19q5 0 5 -5v-75zM449 222q0 5 -5 5h-140q-40 -2 -64.5 -9.5t-38 -18t-18 -23.5t-4.5 -26q0 -14 5 -27t17.5 -24t32.5 -17.5t50 -6.5q45 0 76.5 12t51 31.5t28 43
t9.5 46.5v14zM319 589q-4 0 -6.5 2.5l-4.5 4.5l-72 101q-2 3 0 5t5 2h87q8 0 10 -7l43 -101q3 -7 -5 -7h-57z" />
    <glyph glyph-name="aacute" unicode="&#xe1;" 
d="M611 5q0 -5 -5 -5h-36q-77 -1 -99 46q-2 4 -4.5 4t-4.5 -2q-18 -19 -63 -38.5t-114 -19.5q-101 0 -151 44t-50 116q0 33 13.5 60.5t41 48t69 32t96.5 11.5h112q25 0 29 8.5t4 22.5q0 15 -3.5 32.5t-16.5 32t-38.5 24t-70.5 9.5q-65 0 -93.5 -26.5t-28.5 -64.5q0 -5 -5 -5
h-86q-5 0 -5 5q0 44 18 77t48.5 55t70 33t81.5 11q104 0 164 -46.5t60 -138.5v-196q0 -23 7 -36.5t36 -13.5h19q5 0 5 -5v-75zM449 222q0 5 -5 5h-140q-40 -2 -64.5 -9.5t-38 -18t-18 -23.5t-4.5 -26q0 -14 5 -27t17.5 -24t32.5 -17.5t50 -6.5q45 0 76.5 12t51 31.5t28 43
t9.5 46.5v14zM281 589q-3 0 -5 2t0 5l43 101q2 7 10 7h87q8 0 5 -7l-72 -101l-4.5 -4.5t-6.5 -2.5h-57z" />
    <glyph glyph-name="acircumflex" unicode="&#xe2;" 
d="M611 5q0 -5 -5 -5h-36q-77 -1 -99 46q-2 4 -4.5 4t-4.5 -2q-18 -19 -63 -38.5t-114 -19.5q-101 0 -151 44t-50 116q0 33 13.5 60.5t41 48t69 32t96.5 11.5h112q25 0 29 8.5t4 22.5q0 15 -3.5 32.5t-16.5 32t-38.5 24t-70.5 9.5q-65 0 -93.5 -26.5t-28.5 -64.5q0 -5 -5 -5
h-86q-5 0 -5 5q0 44 18 77t48.5 55t70 33t81.5 11q104 0 164 -46.5t60 -138.5v-196q0 -23 7 -36.5t36 -13.5h19q5 0 5 -5v-75zM449 222q0 5 -5 5h-140q-40 -2 -64.5 -9.5t-38 -18t-18 -23.5t-4.5 -26q0 -14 5 -27t17.5 -24t32.5 -17.5t50 -6.5q45 0 76.5 12t51 31.5t28 43
t9.5 46.5v14zM369 589q-4 0 -5 3l-30 42q-5 8 -10 0l-31 -42q-2 -3 -5 -3h-60q-3 0 -5 2t0 5l44 104q1 4 5 4h114q4 0 5 -4l43 -104q3 -7 -5 -7h-60z" />
    <glyph glyph-name="atilde" unicode="&#xe3;" 
d="M611 5q0 -5 -5 -5h-36q-77 -1 -99 46q-2 4 -4.5 4t-4.5 -2q-18 -19 -63 -38.5t-114 -19.5q-101 0 -151 44t-50 116q0 33 13.5 60.5t41 48t69 32t96.5 11.5h112q25 0 29 8.5t4 22.5q0 15 -3.5 32.5t-16.5 32t-38.5 24t-70.5 9.5q-65 0 -93.5 -26.5t-28.5 -64.5q0 -5 -5 -5
h-86q-5 0 -5 5q0 44 18 77t48.5 55t70 33t81.5 11q104 0 164 -46.5t60 -138.5v-196q0 -23 7 -36.5t36 -13.5h19q5 0 5 -5v-75zM449 222q0 5 -5 5h-140q-40 -2 -64.5 -9.5t-38 -18t-18 -23.5t-4.5 -26q0 -14 5 -27t17.5 -24t32.5 -17.5t50 -6.5q45 0 76.5 12t51 31.5t28 43
t9.5 46.5v14zM162 618q0 13 5 28t16.5 28t31 21.5t49.5 8.5q22 0 38.5 -7t29 -16t22 -16t17.5 -7q3 0 8.5 0.5t11 4t9 12t3.5 24.5q0 5 5 5h60q5 0 5 -5v-24q0 -13 -5 -28t-17 -27.5t-31.5 -21t-48.5 -8.5q-20 0 -36 7t-29 16t-23 16t-19 7q-3 0 -8.5 -0.5t-11 -4t-9 -12
t-3.5 -24.5q0 -5 -5 -5h-60q-5 0 -5 5v23z" />
    <glyph glyph-name="adieresis" unicode="&#xe4;" 
d="M611 5q0 -5 -5 -5h-36q-77 -1 -99 46q-2 4 -4.5 4t-4.5 -2q-18 -19 -63 -38.5t-114 -19.5q-101 0 -151 44t-50 116q0 33 13.5 60.5t41 48t69 32t96.5 11.5h112q25 0 29 8.5t4 22.5q0 15 -3.5 32.5t-16.5 32t-38.5 24t-70.5 9.5q-65 0 -93.5 -26.5t-28.5 -64.5q0 -5 -5 -5
h-86q-5 0 -5 5q0 44 18 77t48.5 55t70 33t81.5 11q104 0 164 -46.5t60 -138.5v-196q0 -23 7 -36.5t36 -13.5h19q5 0 5 -5v-75zM449 222q0 5 -5 5h-140q-40 -2 -64.5 -9.5t-38 -18t-18 -23.5t-4.5 -26q0 -14 5 -27t17.5 -24t32.5 -17.5t50 -6.5q45 0 76.5 12t51 31.5t28 43
t9.5 46.5v14zM255 595q0 -5 -5 -5h-105q-5 0 -5 5v104q0 5 5 5h105q5 0 5 -5v-104zM499 595q0 -5 -5 -5h-105q-5 0 -5 5v104q0 5 5 5h105q5 0 5 -5v-104z" />
    <glyph glyph-name="aring" unicode="&#xe5;" 
d="M611 5q0 -5 -5 -5h-36q-77 -1 -99 46q-2 4 -4.5 4t-4.5 -2q-18 -19 -63 -38.5t-114 -19.5q-101 0 -151 44t-50 116q0 33 13.5 60.5t41 48t69 32t96.5 11.5h112q25 0 29 8.5t4 22.5q0 15 -3.5 32.5t-16.5 32t-38.5 24t-70.5 9.5q-65 0 -93.5 -26.5t-28.5 -64.5q0 -5 -5 -5
h-86q-5 0 -5 5q0 44 18 77t48.5 55t70 33t81.5 11q104 0 164 -46.5t60 -138.5v-196q0 -23 7 -36.5t36 -13.5h19q5 0 5 -5v-75zM449 222q0 5 -5 5h-140q-40 -2 -64.5 -9.5t-38 -18t-18 -23.5t-4.5 -26q0 -14 5 -27t17.5 -24t32.5 -17.5t50 -6.5q45 0 76.5 12t51 31.5t28 43
t9.5 46.5v14zM407 635q0 -36 -26 -61.5t-62 -25.5t-61.5 25.5t-25.5 61.5t25.5 62t61.5 26q18 0 34 -7t28 -19t19 -28t7 -34zM364 635q0 19 -13 32t-32 13t-32 -13t-13 -32t13 -32t32 -13t32 13t13 32z" />
    <glyph glyph-name="ae" unicode="&#xe6;" 
d="M394 219q-5 0 -5 -5q0 -27 3 -52.5t11 -44.5t22.5 -30.5t37.5 -11.5q29 0 50 20t29 50q1 5 6 5h84q6 0 5 -5q-14 -74 -59 -114.5t-105 -40.5q-44 0 -75 14.5t-53 52.5q-5 7 -10 0q-21 -29 -56 -48t-83 -19q-78 0 -121 44.5t-43 115.5q0 33 12.5 60.5t35 48t54 32
t69.5 11.5h37h18t18.5 2.5t14 9t5.5 19.5q0 15 -2 32.5t-10 32t-24 24t-43 9.5q-45 0 -61 -26.5t-16 -64.5q0 -5 -5 -5h-86q-5 0 -5 5q0 44 14.5 77t38.5 55t55.5 33t64.5 11q42 0 72 -15.5t46 -36.5q5 -7 10 0q16 20 50.5 36t77.5 16q82 0 126.5 -62t44.5 -201
q0 -8 -0.5 -15.5t-1.5 -13.5q-2 -5 -4 -5h-244zM296 222q0 5 -5 5h-85q-21 0 -36 -7t-24.5 -18.5t-14.5 -25t-5 -26.5q0 -14 4 -27t12 -24t20.5 -17.5t29.5 -6.5q32 0 52 12t31.5 31.5t16 43t4.5 46.5v14zM543 299q0 21 -2.5 44.5t-10 43t-21.5 32t-36 12.5q-29 0 -46 -12.5
t-25.5 -32t-10.5 -43t-2 -44.5q0 -5 5 -5h144q5 0 5 5z" />
    <glyph glyph-name="ccedilla" unicode="&#xe7;" 
d="M486 335q-4 0 -6 5q-34 91 -138 91q-36 0 -64 -13t-47.5 -37t-30 -56.5t-10.5 -71.5t10.5 -71.5t30 -56.5t47.5 -37t64 -13q104 0 138 91q2 5 6 5h89q6 0 5 -5q-18 -69 -63.5 -113.5t-115.5 -57.5l-56 -40q-2 -2 -1.5 -5t4.5 -3q13 0 27 -4t25.5 -13t19 -23t7.5 -34
q0 -31 -25.5 -56t-74.5 -25q-45 0 -67 25.5t-22 55.5q0 5 5 5h33q5 0 5 -5q0 -16 13 -29.5t33 -13.5q24 0 37 13.5t13 29.5q0 14 -5.5 23.5t-14 15t-18 8t-17.5 2.5q-13 0 -16 3l-8 8q-4 4 -3 7.5t3 5.5l48 37q2 2 1.5 4.5t-4.5 2.5h-4q-58 0 -103.5 19.5t-76.5 54t-47.5 83
t-16.5 106.5q0 59 16.5 107.5t48 83t77.5 53.5t105 19q96 0 157 -46.5t81 -129.5q1 -5 -5 -5h-89z" />
    <glyph glyph-name="egrave" unicode="&#xe8;" 
d="M201 219q-5 0 -5 -5q0 -27 9.5 -52.5t28 -44.5t45 -30.5t59.5 -11.5q54 0 82.5 20t44.5 50q2 5 7 5h89q6 0 5 -5q-20 -74 -81.5 -114.5t-146.5 -40.5q-56 0 -101 19t-76.5 54t-48.5 83t-17 107t16 107.5t47 83t76.5 53.5t103.5 19t103.5 -19t77 -54t47.5 -83.5t16 -106.5
q0 -17 -3 -29q-2 -5 -5 -5h-373zM478 299q0 21 -8 44.5t-25 43t-43.5 32t-63.5 12.5q-36 0 -63 -14t-44.5 -34.5t-26 -43t-8.5 -40.5q0 -5 5 -5h272q5 0 5 5zM335 589q-4 0 -6.5 2.5l-4.5 4.5l-72 101q-2 3 0 5t5 2h87q8 0 10 -7l43 -101q3 -7 -5 -7h-57z" />
    <glyph glyph-name="eacute" unicode="&#xe9;" 
d="M201 219q-5 0 -5 -5q0 -27 9.5 -52.5t28 -44.5t45 -30.5t59.5 -11.5q54 0 82.5 20t44.5 50q2 5 7 5h89q6 0 5 -5q-20 -74 -81.5 -114.5t-146.5 -40.5q-56 0 -101 19t-76.5 54t-48.5 83t-17 107t16 107.5t47 83t76.5 53.5t103.5 19t103.5 -19t77 -54t47.5 -83.5t16 -106.5
q0 -17 -3 -29q-2 -5 -5 -5h-373zM478 299q0 21 -8 44.5t-25 43t-43.5 32t-63.5 12.5q-36 0 -63 -14t-44.5 -34.5t-26 -43t-8.5 -40.5q0 -5 5 -5h272q5 0 5 5zM257 589q-3 0 -5 2t0 5l43 101q2 7 10 7h87q8 0 5 -7l-72 -101l-4.5 -4.5t-6.5 -2.5h-57z" />
    <glyph glyph-name="ecircumflex" unicode="&#xea;" 
d="M201 219q-5 0 -5 -5q0 -27 9.5 -52.5t28 -44.5t45 -30.5t59.5 -11.5q54 0 82.5 20t44.5 50q2 5 7 5h89q6 0 5 -5q-20 -74 -81.5 -114.5t-146.5 -40.5q-56 0 -101 19t-76.5 54t-48.5 83t-17 107t16 107.5t47 83t76.5 53.5t103.5 19t103.5 -19t77 -54t47.5 -83.5t16 -106.5
q0 -17 -3 -29q-2 -5 -5 -5h-373zM478 299q0 21 -8 44.5t-25 43t-43.5 32t-63.5 12.5q-36 0 -63 -14t-44.5 -34.5t-26 -43t-8.5 -40.5q0 -5 5 -5h272q5 0 5 5zM375 589q-4 0 -5 3l-30 42q-5 8 -10 0l-31 -42q-2 -3 -5 -3h-60q-3 0 -5 2t0 5l44 104q1 4 5 4h114q4 0 5 -4
l43 -104q3 -7 -5 -7h-60z" />
    <glyph glyph-name="edieresis" unicode="&#xeb;" 
d="M201 219q-5 0 -5 -5q0 -27 9.5 -52.5t28 -44.5t45 -30.5t59.5 -11.5q54 0 82.5 20t44.5 50q2 5 7 5h89q6 0 5 -5q-20 -74 -81.5 -114.5t-146.5 -40.5q-56 0 -101 19t-76.5 54t-48.5 83t-17 107t16 107.5t47 83t76.5 53.5t103.5 19t103.5 -19t77 -54t47.5 -83.5t16 -106.5
q0 -17 -3 -29q-2 -5 -5 -5h-373zM478 299q0 21 -8 44.5t-25 43t-43.5 32t-63.5 12.5q-36 0 -63 -14t-44.5 -34.5t-26 -43t-8.5 -40.5q0 -5 5 -5h272q5 0 5 5zM270 595q0 -5 -5 -5h-105q-5 0 -5 5v104q0 5 5 5h105q5 0 5 -5v-104zM514 595q0 -5 -5 -5h-105q-5 0 -5 5v104
q0 5 5 5h105q5 0 5 -5v-104z" />
    <glyph glyph-name="igrave" unicode="&#xec;" 
d="M437 506q5 0 5 -5v-411q0 -5 5 -5h200q5 0 5 -5v-75q0 -5 -5 -5h-497q-5 0 -5 5v75q0 5 5 5h192q5 0 5 5v326q0 5 -5 5h-172q-5 0 -5 5v75q0 5 5 5h267zM338 589q-4 0 -6.5 2.5l-4.5 4.5l-72 101q-2 3 0 5t5 2h87q8 0 10 -7l43 -101q3 -7 -5 -7h-57z" />
    <glyph glyph-name="iacute" unicode="&#xed;" 
d="M376 506q5 0 5 -5v-411q0 -5 5 -5h200q5 0 5 -5v-75q0 -5 -5 -5h-497q-5 0 -5 5v75q0 5 5 5h192q5 0 5 5v326q0 5 -5 5h-172q-5 0 -5 5v75q0 5 5 5h267zM271 589q-3 0 -5 2t0 5l43 101q2 7 10 7h87q8 0 5 -7l-72 -101l-4.5 -4.5t-6.5 -2.5h-57z" />
    <glyph glyph-name="icircumflex" unicode="&#xee;" 
d="M399 506q5 0 5 -5v-411q0 -5 5 -5h200q5 0 5 -5v-75q0 -5 -5 -5h-497q-5 0 -5 5v75q0 5 5 5h192q5 0 5 5v326q0 5 -5 5h-172q-5 0 -5 5v75q0 5 5 5h267zM379 589q-4 0 -5 3l-30 42q-5 8 -10 0l-31 -42q-2 -3 -5 -3h-60q-3 0 -5 2t0 5l44 104q1 4 5 4h114q4 0 5 -4
l43 -104q3 -7 -5 -7h-60z" />
    <glyph glyph-name="idieresis" unicode="&#xef;" 
d="M398 506q5 0 5 -5v-411q0 -5 5 -5h200q5 0 5 -5v-75q0 -5 -5 -5h-497q-5 0 -5 5v75q0 5 5 5h192q5 0 5 5v326q0 5 -5 5h-172q-5 0 -5 5v75q0 5 5 5h267zM274 595q0 -5 -5 -5h-105q-5 0 -5 5v104q0 5 5 5h105q5 0 5 -5v-104zM518 595q0 -5 -5 -5h-105q-5 0 -5 5v104
q0 5 5 5h105q5 0 5 -5v-104z" />
    <glyph glyph-name="eth" unicode="&#xf0;" 
d="M352 567q-2 5 -8 2l-63 -33q-5 -3 -7 2l-26 48q-3 5 2 7l62 33q5 2 2 8l-35 65q-2 3 0.5 4t4.5 1h88q4 0 7 -5l13 -25q3 -6 8 -2l57 31q4 3 8 -1l25 -49q2 -3 -2 -7l-57 -30q-4 -2 -2 -6l115 -199q19 -33 30.5 -72.5t11.5 -85.5q0 -59 -17 -107t-48.5 -83t-78 -54
t-104.5 -19q-59 0 -105 19t-78 54t-48.5 83t-16.5 107t16.5 107.5t48.5 83t78 53.5t105 19q19 0 36 -3q5 -1 6 2.5t-1 5.5zM491 253q0 39 -10.5 71.5t-30 56.5t-48 37t-64.5 13t-64 -13t-48 -37t-30.5 -56.5t-10.5 -71.5t10.5 -71.5t30.5 -56.5t48 -37t64 -13t64.5 13t48 37
t30 56.5t10.5 71.5z" />
    <glyph glyph-name="ntilde" unicode="&#xf1;" 
d="M201 506q3 0 5 -5l10 -45q2 -5 5.5 -4t5.5 3q16 22 48 41.5t83 19.5q54 0 95 -18.5t68.5 -50.5t41 -75t13.5 -92v-275q0 -5 -5 -5h-85q-5 0 -5 5v275q0 28 -7 55.5t-22.5 48.5t-41 34t-62.5 13q-32 0 -56.5 -12.5t-41 -33.5t-25.5 -48.5t-9 -56.5v-275q0 -5 -5 -5h-85
q-5 0 -5 5v496q0 5 5 5h75zM158 618q0 13 5 28t16.5 28t31 21.5t49.5 8.5q22 0 38.5 -7t29 -16t22 -16t17.5 -7q3 0 8.5 0.5t11 4t9 12t3.5 24.5q0 5 5 5h60q5 0 5 -5v-24q0 -13 -5 -28t-17 -27.5t-31.5 -21t-48.5 -8.5q-20 0 -36 7t-29 16t-23 16t-19 7q-3 0 -8.5 -0.5
t-11 -4t-9 -12t-3.5 -24.5q0 -5 -5 -5h-60q-5 0 -5 5v23z" />
    <glyph glyph-name="ograve" unicode="&#xf2;" 
d="M586 253q0 -59 -17 -107t-48.5 -83t-78 -54t-104.5 -19q-59 0 -105 19t-78 54t-48.5 83t-16.5 107t16.5 107.5t48.5 83t78 53.5t105 19q58 0 104.5 -19t78 -54t48.5 -83.5t17 -106.5zM491 253q0 39 -10.5 71.5t-30 56.5t-48 37t-64.5 13t-64 -13t-48 -37t-30.5 -56.5
t-10.5 -71.5t10.5 -71.5t30.5 -56.5t48 -37t64 -13t64.5 13t48 37t30 56.5t10.5 71.5zM338 589q-4 0 -6.5 2.5l-4.5 4.5l-72 101q-2 3 0 5t5 2h87q8 0 10 -7l43 -101q3 -7 -5 -7h-57z" />
    <glyph glyph-name="oacute" unicode="&#xf3;" 
d="M586 253q0 -59 -17 -107t-48.5 -83t-78 -54t-104.5 -19q-59 0 -105 19t-78 54t-48.5 83t-16.5 107t16.5 107.5t48.5 83t78 53.5t105 19q58 0 104.5 -19t78 -54t48.5 -83.5t17 -106.5zM491 253q0 39 -10.5 71.5t-30 56.5t-48 37t-64.5 13t-64 -13t-48 -37t-30.5 -56.5
t-10.5 -71.5t10.5 -71.5t30.5 -56.5t48 -37t64 -13t64.5 13t48 37t30 56.5t10.5 71.5zM260 589q-3 0 -5 2t0 5l43 101q2 7 10 7h87q8 0 5 -7l-72 -101l-4.5 -4.5t-6.5 -2.5h-57z" />
    <glyph glyph-name="ocircumflex" unicode="&#xf4;" 
d="M586 253q0 -59 -17 -107t-48.5 -83t-78 -54t-104.5 -19q-59 0 -105 19t-78 54t-48.5 83t-16.5 107t16.5 107.5t48.5 83t78 53.5t105 19q58 0 104.5 -19t78 -54t48.5 -83.5t17 -106.5zM491 253q0 39 -10.5 71.5t-30 56.5t-48 37t-64.5 13t-64 -13t-48 -37t-30.5 -56.5
t-10.5 -71.5t10.5 -71.5t30.5 -56.5t48 -37t64 -13t64.5 13t48 37t30 56.5t10.5 71.5zM381 589q-4 0 -5 3l-30 42q-5 8 -10 0l-31 -42q-2 -3 -5 -3h-60q-3 0 -5 2t0 5l44 104q1 4 5 4h114q4 0 5 -4l43 -104q3 -7 -5 -7h-60z" />
    <glyph glyph-name="otilde" unicode="&#xf5;" 
d="M586 253q0 -59 -17 -107t-48.5 -83t-78 -54t-104.5 -19q-59 0 -105 19t-78 54t-48.5 83t-16.5 107t16.5 107.5t48.5 83t78 53.5t105 19q58 0 104.5 -19t78 -54t48.5 -83.5t17 -106.5zM491 253q0 39 -10.5 71.5t-30 56.5t-48 37t-64.5 13t-64 -13t-48 -37t-30.5 -56.5
t-10.5 -71.5t10.5 -71.5t30.5 -56.5t48 -37t64 -13t64.5 13t48 37t30 56.5t10.5 71.5zM182 618q0 13 5 28t16.5 28t31 21.5t49.5 8.5q22 0 38.5 -7t29 -16t22 -16t17.5 -7q3 0 8.5 0.5t11 4t9 12t3.5 24.5q0 5 5 5h60q5 0 5 -5v-24q0 -13 -5 -28t-17 -27.5t-31.5 -21
t-48.5 -8.5q-20 0 -36 7t-29 16t-23 16t-19 7q-3 0 -8.5 -0.5t-11 -4t-9 -12t-3.5 -24.5q0 -5 -5 -5h-60q-5 0 -5 5v23z" />
    <glyph glyph-name="odieresis" unicode="&#xf6;" 
d="M586 253q0 -59 -17 -107t-48.5 -83t-78 -54t-104.5 -19q-59 0 -105 19t-78 54t-48.5 83t-16.5 107t16.5 107.5t48.5 83t78 53.5t105 19q58 0 104.5 -19t78 -54t48.5 -83.5t17 -106.5zM491 253q0 39 -10.5 71.5t-30 56.5t-48 37t-64.5 13t-64 -13t-48 -37t-30.5 -56.5
t-10.5 -71.5t10.5 -71.5t30.5 -56.5t48 -37t64 -13t64.5 13t48 37t30 56.5t10.5 71.5zM273 595q0 -5 -5 -5h-105q-5 0 -5 5v104q0 5 5 5h105q5 0 5 -5v-104zM517 595q0 -5 -5 -5h-105q-5 0 -5 5v104q0 5 5 5h105q5 0 5 -5v-104z" />
    <glyph glyph-name="divide" unicode="&#xf7;" 
d="M281 0q-5 0 -5 5v122q0 5 5 5h120q5 0 5 -5v-122q0 -5 -5 -5h-120zM281 374q-5 0 -5 5v122q0 5 5 5h120q5 0 5 -5v-122q0 -5 -5 -5h-120zM90 208q-5 0 -5 5v80q0 5 5 5h497q5 0 5 -5v-80q0 -5 -5 -5h-497z" />
    <glyph glyph-name="oslash" unicode="&#xf8;" 
d="M586 253q0 -59 -17 -107t-48.5 -83t-78 -54t-104.5 -19q-97 0 -158 50q-5 4 -8 1l-39 -39q-4 -4 -7 0l-39 39q-4 3 0 7l41 41q4 4 1 8q-20 32 -29.5 71.5t-9.5 84.5q0 59 16.5 107.5t48.5 83t78 53.5t105 19q96 0 158 -51q5 -3 8 1l38 38q3 3 7 0l39 -39q3 -4 0 -7
l-41 -41q-3 -3 -1 -8q18 -32 29 -72t11 -84zM491 253q0 23 -3 43.5t-11 39.5q-4 7 -10 1l-222 -223q-4 -4 0 -8q37 -31 93 -31q36 0 64.5 13t48 37t30 56.5t10.5 71.5zM185 253q0 -46 14 -83q1 -2 3.5 -3t4.5 1l223 224q5 5 -1 10q-18 14 -41 21.5t-50 7.5q-36 0 -64 -13
t-48 -37t-30.5 -56.5t-10.5 -71.5z" />
    <glyph glyph-name="ugrave" unicode="&#xf9;" 
d="M486 0q-3 0 -5 5l-10 45q-2 5 -5.5 4t-5.5 -3q-7 -10 -19 -20.5t-29 -19.5t-38 -15t-45 -6q-62 0 -103.5 18.5t-67 50.5t-36.5 75t-11 92v275q0 5 5 5h85q5 0 5 -5v-275q0 -29 7 -56t22.5 -48t41 -34t62.5 -13q31 0 56 12.5t41.5 33.5t25.5 48.5t9 56.5v275q0 5 5 5h85
q5 0 5 -5v-496q0 -5 -5 -5h-75zM340 589q-4 0 -6.5 2.5l-4.5 4.5l-72 101q-2 3 0 5t5 2h87q8 0 10 -7l43 -101q3 -7 -5 -7h-57z" />
    <glyph glyph-name="uacute" unicode="&#xfa;" 
d="M486 0q-3 0 -5 5l-10 45q-2 5 -5.5 4t-5.5 -3q-7 -10 -19 -20.5t-29 -19.5t-38 -15t-45 -6q-62 0 -103.5 18.5t-67 50.5t-36.5 75t-11 92v275q0 5 5 5h85q5 0 5 -5v-275q0 -29 7 -56t22.5 -48t41 -34t62.5 -13q31 0 56 12.5t41.5 33.5t25.5 48.5t9 56.5v275q0 5 5 5h85
q5 0 5 -5v-496q0 -5 -5 -5h-75zM262 589q-3 0 -5 2t0 5l43 101q2 7 10 7h87q8 0 5 -7l-72 -101l-4.5 -4.5t-6.5 -2.5h-57z" />
    <glyph glyph-name="ucircumflex" unicode="&#xfb;" 
d="M486 0q-3 0 -5 5l-10 45q-2 5 -5.5 4t-5.5 -3q-7 -10 -19 -20.5t-29 -19.5t-38 -15t-45 -6q-62 0 -103.5 18.5t-67 50.5t-36.5 75t-11 92v275q0 5 5 5h85q5 0 5 -5v-275q0 -29 7 -56t22.5 -48t41 -34t62.5 -13q31 0 56 12.5t41.5 33.5t25.5 48.5t9 56.5v275q0 5 5 5h85
q5 0 5 -5v-496q0 -5 -5 -5h-75zM380 589q-4 0 -5 3l-30 42q-5 8 -10 0l-31 -42q-2 -3 -5 -3h-60q-3 0 -5 2t0 5l44 104q1 4 5 4h114q4 0 5 -4l43 -104q3 -7 -5 -7h-60z" />
    <glyph glyph-name="udieresis" unicode="&#xfc;" 
d="M486 0q-3 0 -5 5l-10 45q-2 5 -5.5 4t-5.5 -3q-7 -10 -19 -20.5t-29 -19.5t-38 -15t-45 -6q-62 0 -103.5 18.5t-67 50.5t-36.5 75t-11 92v275q0 5 5 5h85q5 0 5 -5v-275q0 -29 7 -56t22.5 -48t41 -34t62.5 -13q31 0 56 12.5t41.5 33.5t25.5 48.5t9 56.5v275q0 5 5 5h85
q5 0 5 -5v-496q0 -5 -5 -5h-75zM275 595q0 -5 -5 -5h-105q-5 0 -5 5v104q0 5 5 5h105q5 0 5 -5v-104zM519 595q0 -5 -5 -5h-105q-5 0 -5 5v104q0 5 5 5h105q5 0 5 -5v-104z" />
    <glyph glyph-name="yacute" unicode="&#xfd;" 
d="M101 -118q0 5 5 5h113q45 0 59 25.5t0 65.5l-9 27l-169 496q-1 5 6 5h91q3 0 5 -5l131 -402q2 -4 5 -4t5 4l132 402q2 5 5 5h91q7 0 5 -5l-171 -501l-29 -87q-11 -30 -23 -51.5t-27.5 -34.5t-37.5 -19t-52 -6h-130q-5 0 -5 5v75v0zM297 589q-3 0 -5 2t0 5l43 101
q2 7 10 7h87q8 0 5 -7l-72 -101l-4.5 -4.5t-6.5 -2.5h-57z" />
    <glyph glyph-name="thorn" unicode="&#xfe;" 
d="M100 -198q-5 0 -5 5v892q0 5 5 5h85q5 0 5 -5v-228q0 -7 3 -6.5t7 3.5q8 6 20 14t28.5 15.5t37.5 13t47 5.5q55 0 100.5 -19t78.5 -54t51 -83.5t18 -106.5q0 -59 -17 -107t-48.5 -83t-78 -54t-104.5 -19q-15 0 -33 3t-36 9t-34.5 15.5t-29.5 22.5q-2 2 -5 3.5t-5 -3.5
v-233q-2 -5 -5 -5h-85zM486 253q0 39 -10.5 71.5t-30 56.5t-48 37t-64.5 13q-34 0 -60.5 -13t-45 -37t-28 -56.5t-9.5 -71.5t9.5 -71.5t28 -56.5t45 -37t60.5 -13q36 0 64.5 13t48 37t30 56.5t10.5 71.5z" />
    <glyph glyph-name="ydieresis" unicode="&#xff;" 
d="M101 -118q0 5 5 5h113q45 0 59 25.5t0 65.5l-9 27l-169 496q-1 5 6 5h91q3 0 5 -5l131 -402q2 -4 5 -4t5 4l132 402q2 5 5 5h91q7 0 5 -5l-171 -501l-29 -87q-11 -30 -23 -51.5t-27.5 -34.5t-37.5 -19t-52 -6h-130q-5 0 -5 5v75v0zM260 595q0 -5 -5 -5h-105q-5 0 -5 5
v104q0 5 5 5h105q5 0 5 -5v-104zM504 595q0 -5 -5 -5h-105q-5 0 -5 5v104q0 5 5 5h105q5 0 5 -5v-104z" />
    <glyph glyph-name="Amacron" unicode="&#x100;" 
d="M401 704q4 0 6 -5l233 -693q2 -6 -5 -6h-94q-3 0 -5 5l-46 143q-1 5 -7 5h-290q-4 0 -6 -5l-47 -143q-2 -5 -5 -5h-94q-7 0 -5 6l236 693q2 5 6 5h123zM456 233q7 0 5 6l-117 365q-2 5 -5 5t-5 -5l-118 -365q-2 -6 5 -6h235zM215 787q-4 0 -4 5v58q0 5 4 5h246q5 0 5 -5
v-58q0 -5 -5 -5h-246z" />
    <glyph glyph-name="amacron" unicode="&#x101;" 
d="M611 5q0 -5 -5 -5h-36q-77 -1 -99 46q-2 4 -4.5 4t-4.5 -2q-18 -19 -63 -38.5t-114 -19.5q-101 0 -151 44t-50 116q0 33 13.5 60.5t41 48t69 32t96.5 11.5h112q25 0 29 8.5t4 22.5q0 15 -3.5 32.5t-16.5 32t-38.5 24t-70.5 9.5q-65 0 -93.5 -26.5t-28.5 -64.5q0 -5 -5 -5
h-86q-5 0 -5 5q0 44 18 77t48.5 55t70 33t81.5 11q104 0 164 -46.5t60 -138.5v-196q0 -23 7 -36.5t36 -13.5h19q5 0 5 -5v-75zM449 222q0 5 -5 5h-140q-40 -2 -64.5 -9.5t-38 -18t-18 -23.5t-4.5 -26q0 -14 5 -27t17.5 -24t32.5 -17.5t50 -6.5q45 0 76.5 12t51 31.5t28 43
t9.5 46.5v14zM196 589q-4 0 -4 5v58q0 5 4 5h246q5 0 5 -5v-58q0 -5 -5 -5h-246z" />
    <glyph glyph-name="Abreve" unicode="&#x102;" 
d="M401 704q4 0 6 -5l233 -693q2 -6 -5 -6h-94q-3 0 -5 5l-46 143q-1 5 -7 5h-290q-4 0 -6 -5l-47 -143q-2 -5 -5 -5h-94q-7 0 -5 6l236 693q2 5 6 5h123zM456 233q7 0 5 6l-117 365q-2 5 -5 5t-5 -5l-118 -365q-2 -6 5 -6h235zM447 902q5 0 5 -5q0 -31 -10.5 -52t-27 -34
t-36.5 -18.5t-40 -5.5t-40 5.5t-36.5 18.5t-27 34t-10.5 52q0 5 5 5h62q5 0 5 -5q0 -21 14 -29.5t28 -8.5t27.5 8.5t13.5 29.5q0 5 5 5h63z" />
    <glyph glyph-name="abreve" unicode="&#x103;" 
d="M611 5q0 -5 -5 -5h-36q-77 -1 -99 46q-2 4 -4.5 4t-4.5 -2q-18 -19 -63 -38.5t-114 -19.5q-101 0 -151 44t-50 116q0 33 13.5 60.5t41 48t69 32t96.5 11.5h112q25 0 29 8.5t4 22.5q0 15 -3.5 32.5t-16.5 32t-38.5 24t-70.5 9.5q-65 0 -93.5 -26.5t-28.5 -64.5q0 -5 -5 -5
h-86q-5 0 -5 5q0 44 18 77t48.5 55t70 33t81.5 11q104 0 164 -46.5t60 -138.5v-196q0 -23 7 -36.5t36 -13.5h19q5 0 5 -5v-75zM449 222q0 5 -5 5h-140q-40 -2 -64.5 -9.5t-38 -18t-18 -23.5t-4.5 -26q0 -14 5 -27t17.5 -24t32.5 -17.5t50 -6.5q45 0 76.5 12t51 31.5t28 43
t9.5 46.5v14zM428 704q5 0 5 -5q0 -31 -10.5 -52t-27 -34t-36.5 -18.5t-40 -5.5t-40 5.5t-36.5 18.5t-27 34t-10.5 52q0 5 5 5h62q5 0 5 -5q0 -21 14 -29.5t28 -8.5t27.5 8.5t13.5 29.5q0 5 5 5h63z" />
    <glyph glyph-name="Aogonek" unicode="&#x104;" 
d="M386 704q4 0 6 -5l233 -694q2 -5 -5 -5h-29q-32 0 -53.5 -18.5t-21.5 -43.5q0 -31 20 -46t52 -15h19q5 0 5 -5v-65q0 -5 -5 -5h-29q-59 0 -96 25.5t-38 73.5q0 18 6 33.5t16.5 28t23.5 22t27 15.5q5 2 4 7l-46 141q-1 5 -7 5h-290q-4 0 -6 -5l-47 -143q-2 -5 -5 -5h-93
q-7 0 -6 5l236 694q2 5 6 5h123zM442 233q6 0 4 5l-117 366q-2 5 -5 5t-5 -5l-118 -366q-2 -5 4 -5h237z" />
    <glyph glyph-name="aogonek" unicode="&#x105;" 
d="M612 5q0 -5 -5 -5h-17q-29 0 -49 -19t-20 -43q0 -31 20 -46t52 -15h14q5 0 5 -5v-65q0 -5 -5 -5h-24q-59 0 -96 25.5t-38 73.5q-1 34 17 58t50 38q4 2 4 5t-4 5q-31 12 -44 39q-2 4 -4.5 4t-4.5 -2q-18 -19 -63 -38.5t-114 -19.5q-101 0 -151 44t-50 116q0 33 13.5 60.5
t41 48t69 32t96.5 11.5h112q25 0 29 8.5t4 22.5q0 15 -3.5 32.5t-16.5 32t-38.5 24t-70.5 9.5q-65 0 -93.5 -26.5t-28.5 -64.5q0 -5 -5 -5h-86q-5 0 -5 5q0 44 18 77t48.5 55t70 33t81.5 11q104 0 164 -46.5t60 -138.5v-196q0 -23 7 -36.5t36 -13.5h19q5 0 5 -5v-75z
M450 222q0 5 -5 5h-140q-40 -2 -64.5 -9.5t-38 -18t-18 -23.5t-4.5 -26q0 -14 5 -27t17.5 -24t32.5 -17.5t50 -6.5q45 0 76.5 12t51 31.5t28 43t9.5 46.5v14z" />
    <glyph glyph-name="Cacute" unicode="&#x106;" 
d="M510 215q1 5 7 5h88q5 0 5 -5q0 -25 -14 -63t-45.5 -74t-82.5 -62t-126 -26t-129 26.5t-89 74.5t-51.5 114.5t-16.5 146.5q0 79 16.5 145.5t51.5 114.5t89 75t129 27q78 0 129.5 -27.5t82.5 -64.5t43.5 -74.5t12.5 -58.5q0 -5 -5 -5h-88q-5 0 -7 5q-6 16 -15.5 40
t-28.5 46t-48.5 38t-75.5 16q-90 0 -138 -73.5t-48 -203.5t48 -203.5t138 -73.5q45 0 74.5 14.5t48.5 35.5t29 45.5t16 44.5zM310 777q-3 0 -5 2t0 5l43 101q2 7 10 7h87q8 0 5 -7l-72 -101l-4.5 -4.5t-6.5 -2.5h-57z" />
    <glyph glyph-name="cacute" unicode="&#x107;" 
d="M486 335q-4 0 -6 5q-34 91 -138 91q-36 0 -64 -13t-47.5 -37t-30 -56.5t-10.5 -71.5t10.5 -71.5t30 -56.5t47.5 -37t64 -13q104 0 138 91q2 5 6 5h89q6 0 5 -5q-21 -84 -81.5 -130t-156.5 -46q-59 0 -105 19t-77.5 54t-48 83t-16.5 107t16.5 107.5t48 83t77.5 53.5
t105 19q96 0 157 -46.5t81 -129.5q1 -5 -5 -5h-89zM311 589q-3 0 -5 2t0 5l43 101q2 7 10 7h87q8 0 5 -7l-72 -101l-4.5 -4.5t-6.5 -2.5h-57z" />
    <glyph glyph-name="Ccircumflex" unicode="&#x108;" 
d="M510 215q1 5 7 5h88q5 0 5 -5q0 -25 -14 -63t-45.5 -74t-82.5 -62t-126 -26t-129 26.5t-89 74.5t-51.5 114.5t-16.5 146.5q0 79 16.5 145.5t51.5 114.5t89 75t129 27q78 0 129.5 -27.5t82.5 -64.5t43.5 -74.5t12.5 -58.5q0 -5 -5 -5h-88q-5 0 -7 5q-6 16 -15.5 40
t-28.5 46t-48.5 38t-75.5 16q-90 0 -138 -73.5t-48 -203.5t48 -203.5t138 -73.5q45 0 74.5 14.5t48.5 35.5t29 45.5t16 44.5zM379 787q-4 0 -5 3l-30 42q-5 8 -10 0l-31 -42q-2 -3 -5 -3h-60q-3 0 -5 2t0 5l44 104q1 4 5 4h114q4 0 5 -4l43 -104q3 -7 -5 -7h-60z" />
    <glyph glyph-name="ccircumflex" unicode="&#x109;" 
d="M486 335q-4 0 -6 5q-34 91 -138 91q-36 0 -64 -13t-47.5 -37t-30 -56.5t-10.5 -71.5t10.5 -71.5t30 -56.5t47.5 -37t64 -13q104 0 138 91q2 5 6 5h89q6 0 5 -5q-21 -84 -81.5 -130t-156.5 -46q-59 0 -105 19t-77.5 54t-48 83t-16.5 107t16.5 107.5t48 83t77.5 53.5
t105 19q96 0 157 -46.5t81 -129.5q1 -5 -5 -5h-89zM383 589q-4 0 -5 3l-30 42q-5 8 -10 0l-31 -42q-2 -3 -5 -3h-60q-3 0 -5 2t0 5l44 104q1 4 5 4h114q4 0 5 -4l43 -104q3 -7 -5 -7h-60z" />
    <glyph glyph-name="Cdotaccent" unicode="&#x10a;" 
d="M510 215q1 5 7 5h88q5 0 5 -5q0 -25 -14 -63t-45.5 -74t-82.5 -62t-126 -26t-129 26.5t-89 74.5t-51.5 114.5t-16.5 146.5q0 79 16.5 145.5t51.5 114.5t89 75t129 27q78 0 129.5 -27.5t82.5 -64.5t43.5 -74.5t12.5 -58.5q0 -5 -5 -5h-88q-5 0 -7 5q-6 16 -15.5 40
t-28.5 46t-48.5 38t-75.5 16q-90 0 -138 -73.5t-48 -203.5t48 -203.5t138 -73.5q45 0 74.5 14.5t48.5 35.5t29 45.5t16 44.5zM274 786q-5 0 -5 5v132q0 5 5 5h129q5 0 5 -5v-132q0 -5 -5 -5h-129z" />
    <glyph glyph-name="cdotaccent" unicode="&#x10b;" 
d="M486 335q-4 0 -6 5q-34 91 -138 91q-36 0 -64 -13t-47.5 -37t-30 -56.5t-10.5 -71.5t10.5 -71.5t30 -56.5t47.5 -37t64 -13q104 0 138 91q2 5 6 5h89q6 0 5 -5q-21 -84 -81.5 -130t-156.5 -46q-59 0 -105 19t-77.5 54t-48 83t-16.5 107t16.5 107.5t48 83t77.5 53.5
t105 19q96 0 157 -46.5t81 -129.5q1 -5 -5 -5h-89zM268 562q-5 0 -5 5v132q0 5 5 5h129q5 0 5 -5v-132q0 -5 -5 -5h-129z" />
    <glyph glyph-name="Ccaron" unicode="&#x10c;" 
d="M510 215q1 5 7 5h88q5 0 5 -5q0 -25 -14 -63t-45.5 -74t-82.5 -62t-126 -26t-129 26.5t-89 74.5t-51.5 114.5t-16.5 146.5q0 79 16.5 145.5t51.5 114.5t89 75t129 27q78 0 129.5 -27.5t82.5 -64.5t43.5 -74.5t12.5 -58.5q0 -5 -5 -5h-88q-5 0 -7 5q-6 16 -15.5 40
t-28.5 46t-48.5 38t-75.5 16q-90 0 -138 -73.5t-48 -203.5t48 -203.5t138 -73.5q45 0 74.5 14.5t48.5 35.5t29 45.5t16 44.5zM439 892q8 0 5 -7l-43 -104q-1 -4 -5 -4h-114q-4 0 -5 4l-44 104q-2 3 0 5t5 2h60q3 0 5 -3l31 -42q5 -8 10 0l30 42q1 3 5 3h60z" />
    <glyph glyph-name="ccaron" unicode="&#x10d;" 
d="M486 335q-4 0 -6 5q-34 91 -138 91q-36 0 -64 -13t-47.5 -37t-30 -56.5t-10.5 -71.5t10.5 -71.5t30 -56.5t47.5 -37t64 -13q104 0 138 91q2 5 6 5h89q6 0 5 -5q-21 -84 -81.5 -130t-156.5 -46q-59 0 -105 19t-77.5 54t-48 83t-16.5 107t16.5 107.5t48 83t77.5 53.5
t105 19q96 0 157 -46.5t81 -129.5q1 -5 -5 -5h-89zM441 704q8 0 5 -7l-43 -104q-1 -4 -5 -4h-114q-4 0 -5 4l-44 104q-2 3 0 5t5 2h60q3 0 5 -3l31 -42q5 -8 10 0l30 42q1 3 5 3h60z" />
    <glyph glyph-name="Dcaron" unicode="&#x10e;" 
d="M70 699q0 5 5 5h218q79 0 137.5 -27t97.5 -74.5t58.5 -113t19.5 -144.5q0 -80 -19.5 -143.5t-58.5 -108.5t-97.5 -69t-137.5 -24h-218q-5 0 -5 5v694zM170 619q-5 0 -5 -5v-524q0 -5 5 -5h123q101 0 157 66t56 194q0 63 -14.5 113.5t-42 86t-67 55t-89.5 19.5h-123z
M439 892q8 0 5 -7l-43 -104q-1 -4 -5 -4h-114q-4 0 -5 4l-44 104q-2 3 0 5t5 2h60q3 0 5 -3l31 -42q5 -8 10 0l30 42q1 3 5 3h60z" />
    <glyph glyph-name="dcaron" unicode="&#x10f;" 
d="M431 0q-3 0 -5 5l-10 40q-2 5 -5 4.5t-5 -2.5q-10 -10 -26.5 -20t-36 -18.5t-40.5 -13.5t-40 -5q-55 0 -99 19t-75 54t-47.5 83t-16.5 107q0 58 16.5 106.5t47.5 83.5t75 54t99 19q26 0 50 -7t43 -16.5t32 -19t18 -14.5q4 -5 7 -3t3 5v238q0 5 5 5h85q5 0 5 -5v-694
q0 -5 -5 -5h-75zM120 253q0 -39 10.5 -71.5t30 -56.5t48 -37t64.5 -13q34 0 60.5 13t45 37t28 56.5t9.5 71.5t-9.5 71.5t-28 56.5t-45 37t-60.5 13q-36 0 -64.5 -13t-48 -37t-30 -56.5t-10.5 -71.5zM536 572q-5 0 -5 5v122q0 5 5 5h120q5 0 5 -5v-121q0 -57 -34.5 -93
t-90.5 -36q-5 0 -5 5v55q0 5 5 5q15 0 32 13.5t17 39.5q0 5 -5 5h-44z" />
    <glyph glyph-name="Dcroat" unicode="&#x110;" 
d="M82 296q0 5 -5 5h-54q-5 0 -5 5v75q0 5 5 5h54q5 0 5 5v308q0 5 5 5h258q79 0 137.5 -27t97.5 -74.5t58.5 -113t19.5 -144.5q0 -80 -19.5 -143.5t-58.5 -108.5t-97.5 -69t-137.5 -24h-258q-5 0 -5 5v291zM182 301q-5 0 -5 -5v-206q0 -5 5 -5h163q101 0 157 66t56 194
q0 63 -14.5 113.5t-42 86t-67 55t-89.5 19.5h-163q-5 0 -5 -5v-223q0 -5 5 -5h154q5 0 5 -5v-75q0 -5 -5 -5h-154z" />
    <glyph glyph-name="dcroat" unicode="&#x111;" 
d="M469 0q-3 0 -5 5l-10 41q-2 5 -5 4t-5 -3q-10 -11 -26.5 -21t-36 -18t-40.5 -13t-40 -5q-55 0 -99 19t-75 54t-47.5 83t-16.5 107q0 58 16.5 106.5t47.5 83.5t75 54t99 19q26 0 50 -7t43 -16.5t32 -19t18 -14.5q4 -5 7 -3t3 5v94q0 5 -5 5h-144q-5 0 -5 5v75q0 5 5 5h144
q5 0 5 5v49q0 5 5 5h85q5 0 5 -5v-49q0 -5 5 -5h54q5 0 5 -5v-75q0 -5 -5 -5h-54q-5 0 -5 -5v-550q0 -5 -5 -5h-75zM158 253q0 -39 10.5 -71.5t30 -56.5t48 -37t64.5 -13q34 0 60.5 13t45 37t28 56.5t9.5 71.5t-9.5 71.5t-28 56.5t-45 37t-60.5 13q-36 0 -64.5 -13t-48 -37
t-30 -56.5t-10.5 -71.5z" />
    <glyph glyph-name="Emacron" unicode="&#x112;" 
d="M113 699q0 5 5 5h481q5 0 5 -5v-75q0 -5 -5 -5h-386q-5 0 -5 -5v-204q0 -5 5 -5h345q5 0 5 -5v-75q0 -5 -5 -5h-345q-5 0 -5 -5v-225q0 -5 5 -5h386q5 0 5 -5v-75q0 -5 -5 -5h-481q-5 0 -5 5v694v0zM215 787q-4 0 -4 5v58q0 5 4 5h246q5 0 5 -5v-58q0 -5 -5 -5h-246z" />
    <glyph glyph-name="emacron" unicode="&#x113;" 
d="M201 219q-5 0 -5 -5q0 -27 9.5 -52.5t28 -44.5t45 -30.5t59.5 -11.5q54 0 82.5 20t44.5 50q2 5 7 5h89q6 0 5 -5q-20 -74 -81.5 -114.5t-146.5 -40.5q-56 0 -101 19t-76.5 54t-48.5 83t-17 107t16 107.5t47 83t76.5 53.5t103.5 19t103.5 -19t77 -54t47.5 -83.5t16 -106.5
q0 -17 -3 -29q-2 -5 -5 -5h-373zM478 299q0 21 -8 44.5t-25 43t-43.5 32t-63.5 12.5q-36 0 -63 -14t-44.5 -34.5t-26 -43t-8.5 -40.5q0 -5 5 -5h272q5 0 5 5zM216 590q-4 0 -4 5v58q0 5 4 5h246q5 0 5 -5v-58q0 -5 -5 -5h-246z" />
    <glyph glyph-name="Ebreve" unicode="&#x114;" 
d="M113 699q0 5 5 5h481q5 0 5 -5v-75q0 -5 -5 -5h-386q-5 0 -5 -5v-204q0 -5 5 -5h345q5 0 5 -5v-75q0 -5 -5 -5h-345q-5 0 -5 -5v-225q0 -5 5 -5h386q5 0 5 -5v-75q0 -5 -5 -5h-481q-5 0 -5 5v694v0zM447 902q5 0 5 -5q0 -31 -10.5 -52t-27 -34t-36.5 -18.5t-40 -5.5
t-40 5.5t-36.5 18.5t-27 34t-10.5 52q0 5 5 5h62q5 0 5 -5q0 -21 14 -29.5t28 -8.5t27.5 8.5t13.5 29.5q0 5 5 5h63z" />
    <glyph glyph-name="ebreve" unicode="&#x115;" 
d="M201 219q-5 0 -5 -5q0 -27 9.5 -52.5t28 -44.5t45 -30.5t59.5 -11.5q54 0 82.5 20t44.5 50q2 5 7 5h89q6 0 5 -5q-20 -74 -81.5 -114.5t-146.5 -40.5q-56 0 -101 19t-76.5 54t-48.5 83t-17 107t16 107.5t47 83t76.5 53.5t103.5 19t103.5 -19t77 -54t47.5 -83.5t16 -106.5
q0 -17 -3 -29q-2 -5 -5 -5h-373zM478 299q0 21 -8 44.5t-25 43t-43.5 32t-63.5 12.5q-36 0 -63 -14t-44.5 -34.5t-26 -43t-8.5 -40.5q0 -5 5 -5h272q5 0 5 5zM448 704q5 0 5 -5q0 -31 -10.5 -52t-27 -34t-36.5 -18.5t-40 -5.5t-40 5.5t-36.5 18.5t-27 34t-10.5 52q0 5 5 5
h62q5 0 5 -5q0 -21 14 -29.5t28 -8.5t27.5 8.5t13.5 29.5q0 5 5 5h63z" />
    <glyph glyph-name="Edotaccent" unicode="&#x116;" 
d="M113 699q0 5 5 5h481q5 0 5 -5v-75q0 -5 -5 -5h-386q-5 0 -5 -5v-204q0 -5 5 -5h345q5 0 5 -5v-75q0 -5 -5 -5h-345q-5 0 -5 -5v-225q0 -5 5 -5h386q5 0 5 -5v-75q0 -5 -5 -5h-481q-5 0 -5 5v694v0zM274 786q-5 0 -5 5v132q0 5 5 5h129q5 0 5 -5v-132q0 -5 -5 -5h-129z
" />
    <glyph glyph-name="edotaccent" unicode="&#x117;" 
d="M201 219q-5 0 -5 -5q0 -27 9.5 -52.5t28 -44.5t45 -30.5t59.5 -11.5q54 0 82.5 20t44.5 50q2 5 7 5h89q6 0 5 -5q-20 -74 -81.5 -114.5t-146.5 -40.5q-56 0 -101 19t-76.5 54t-48.5 83t-17 107t16 107.5t47 83t76.5 53.5t103.5 19t103.5 -19t77 -54t47.5 -83.5t16 -106.5
q0 -17 -3 -29q-2 -5 -5 -5h-373zM478 299q0 21 -8 44.5t-25 43t-43.5 32t-63.5 12.5q-36 0 -63 -14t-44.5 -34.5t-26 -43t-8.5 -40.5q0 -5 5 -5h272q5 0 5 5zM270 562q-5 0 -5 5v132q0 5 5 5h129q5 0 5 -5v-132q0 -5 -5 -5h-129z" />
    <glyph glyph-name="Eogonek" unicode="&#x118;" 
d="M98 699q0 5 5 5h481q5 0 5 -5v-75q0 -5 -5 -5h-386q-5 0 -5 -5v-204q0 -5 5 -5h345q5 0 5 -5v-75q0 -5 -5 -5h-345q-5 0 -5 -5v-225q0 -5 5 -5h386q5 0 5 -5v-75q0 -5 -5 -5h-11q-32 0 -53.5 -18.5t-21.5 -43.5q0 -31 20 -46t52 -15h14q5 0 5 -5v-65q0 -5 -5 -5h-24
q-59 0 -96 25.5t-38 73.5q0 30 13.5 51t39.5 38q4 2 3 6t-6 4h-373q-5 0 -5 5v694v0z" />
    <glyph glyph-name="eogonek" unicode="&#x119;" 
d="M201 219q-5 0 -5 -5q0 -27 9.5 -52.5t28 -44.5t45 -30.5t59.5 -11.5q54 0 82.5 20t44.5 50q2 5 7 5h89q6 0 5 -5q-9 -32 -26.5 -58t-41.5 -46q-14 -11 -28.5 -21t-26.5 -21.5t-20 -26t-8 -34.5q0 -31 20 -46t52 -15h14q5 0 5 -5v-65q0 -5 -5 -5h-24q-59 0 -95.5 25.5
t-38.5 73.5q-1 19 6.5 42t22.5 39q2 2 1 5.5t-5 3.5q-12 -1 -17 -1h-13q-56 0 -101 19t-76.5 54t-48.5 83t-17 107t16 107.5t47 83t76.5 53.5t103.5 19t103.5 -19t77 -54t47.5 -83.5t16 -106.5q0 -17 -3 -29q-2 -5 -5 -5h-373zM478 299q0 21 -8 44.5t-25 43t-43.5 32
t-63.5 12.5q-36 0 -63 -14t-44.5 -34.5t-26 -43t-8.5 -40.5q0 -5 5 -5h272q5 0 5 5z" />
    <glyph glyph-name="Ecaron" unicode="&#x11a;" 
d="M113 699q0 5 5 5h481q5 0 5 -5v-75q0 -5 -5 -5h-386q-5 0 -5 -5v-204q0 -5 5 -5h345q5 0 5 -5v-75q0 -5 -5 -5h-345q-5 0 -5 -5v-225q0 -5 5 -5h386q5 0 5 -5v-75q0 -5 -5 -5h-481q-5 0 -5 5v694v0zM469 892q8 0 5 -7l-43 -104q-1 -4 -5 -4h-114q-4 0 -5 4l-44 104
q-2 3 0 5t5 2h60q3 0 5 -3l31 -42q5 -8 10 0l30 42q1 3 5 3h60z" />
    <glyph glyph-name="ecaron" unicode="&#x11b;" 
d="M201 219q-5 0 -5 -5q0 -27 9.5 -52.5t28 -44.5t45 -30.5t59.5 -11.5q54 0 82.5 20t44.5 50q2 5 7 5h89q6 0 5 -5q-20 -74 -81.5 -114.5t-146.5 -40.5q-56 0 -101 19t-76.5 54t-48.5 83t-17 107t16 107.5t47 83t76.5 53.5t103.5 19t103.5 -19t77 -54t47.5 -83.5t16 -106.5
q0 -17 -3 -29q-2 -5 -5 -5h-373zM478 299q0 21 -8 44.5t-25 43t-43.5 32t-63.5 12.5q-36 0 -63 -14t-44.5 -34.5t-26 -43t-8.5 -40.5q0 -5 5 -5h272q5 0 5 5zM441 704q8 0 5 -7l-43 -104q-1 -4 -5 -4h-114q-4 0 -5 4l-44 104q-2 3 0 5t5 2h60q3 0 5 -3l31 -42q5 -8 10 0
l30 42q1 3 5 3h60z" />
    <glyph glyph-name="Gcircumflex" unicode="&#x11c;" 
d="M602 5q0 -5 -5 -5h-73q-6 0 -7 6l-10 70q0 3 -3.5 4t-5.5 -2q-12 -16 -29.5 -31.5t-41 -28t-53 -20.5t-63.5 -8q-71 0 -123 26.5t-86 74.5t-50.5 114.5t-16.5 146.5q0 79 16.5 145.5t52.5 114.5t92 75t135 27q60 0 104.5 -17.5t77 -46t53 -65t31.5 -74.5q1 -5 -5 -5h-93
q-5 0 -6 5q-23 59 -64.5 88.5t-97.5 29.5q-53 0 -90 -20.5t-60.5 -57t-34.5 -87.5t-11 -112t11 -112t34.5 -87.5t60.5 -57t90 -20.5q37 0 69.5 14.5t56 43.5t37 72t13.5 100q0 5 -5 5h-166q-5 0 -5 5v75q0 5 5 5h261q5 0 5 -5v-385v0zM379 787q-4 0 -5 3l-30 42q-5 8 -10 0
l-31 -42q-2 -3 -5 -3h-60q-3 0 -5 2t0 5l44 104q1 4 5 4h114q4 0 5 -4l43 -104q3 -7 -5 -7h-60z" />
    <glyph glyph-name="gcircumflex" unicode="&#x11d;" 
d="M217 -59q3 -9 11.5 -20t24 -20.5t38 -16.5t53.5 -7q39 0 66.5 12.5t44 32.5t24 45.5t7.5 51.5v27q0 3 -3.5 5t-6.5 -3q-4 -5 -17 -15t-32.5 -19.5t-43.5 -16.5t-50 -7q-51 0 -94.5 19t-75.5 54t-50 83t-18 107q0 58 16.5 106.5t47.5 83.5t75 54t99 19q19 0 39.5 -5
t40 -12.5t36 -18t27.5 -20.5q2 -2 5 -3t5 4l10 40q2 5 5 5h75q5 0 5 -5v-482q0 -51 -17 -92.5t-48.5 -71.5t-75 -46.5t-96.5 -16.5q-46 0 -85.5 12t-69.5 32.5t-48 47.5t-21 57q0 5 5 5h87q3 0 5 -5zM190 253q0 -39 10.5 -71.5t30 -56.5t48 -37t64.5 -13q34 0 60.5 13t45 37
t28 56.5t9.5 71.5t-9.5 71.5t-28 56.5t-45 37t-60.5 13q-36 0 -64.5 -13t-48 -37t-30 -56.5t-10.5 -71.5zM384 589q-4 0 -5 3l-30 42q-5 8 -10 0l-31 -42q-2 -3 -5 -3h-60q-3 0 -5 2t0 5l44 104q1 4 5 4h114q4 0 5 -4l43 -104q3 -7 -5 -7h-60z" />
    <glyph glyph-name="Gbreve" unicode="&#x11e;" 
d="M602 5q0 -5 -5 -5h-73q-6 0 -7 6l-10 70q0 3 -3.5 4t-5.5 -2q-12 -16 -29.5 -31.5t-41 -28t-53 -20.5t-63.5 -8q-71 0 -123 26.5t-86 74.5t-50.5 114.5t-16.5 146.5q0 79 16.5 145.5t52.5 114.5t92 75t135 27q60 0 104.5 -17.5t77 -46t53 -65t31.5 -74.5q1 -5 -5 -5h-93
q-5 0 -6 5q-23 59 -64.5 88.5t-97.5 29.5q-53 0 -90 -20.5t-60.5 -57t-34.5 -87.5t-11 -112t11 -112t34.5 -87.5t60.5 -57t90 -20.5q37 0 69.5 14.5t56 43.5t37 72t13.5 100q0 5 -5 5h-166q-5 0 -5 5v75q0 5 5 5h261q5 0 5 -5v-385v0zM447 902q5 0 5 -5q0 -31 -10.5 -52
t-27 -34t-36.5 -18.5t-40 -5.5t-40 5.5t-36.5 18.5t-27 34t-10.5 52q0 5 5 5h62q5 0 5 -5q0 -21 14 -29.5t28 -8.5t27.5 8.5t13.5 29.5q0 5 5 5h63z" />
    <glyph glyph-name="gbreve" unicode="&#x11f;" 
d="M217 -59q3 -9 11.5 -20t24 -20.5t38 -16.5t53.5 -7q39 0 66.5 12.5t44 32.5t24 45.5t7.5 51.5v27q0 3 -3.5 5t-6.5 -3q-4 -5 -17 -15t-32.5 -19.5t-43.5 -16.5t-50 -7q-51 0 -94.5 19t-75.5 54t-50 83t-18 107q0 58 16.5 106.5t47.5 83.5t75 54t99 19q19 0 39.5 -5
t40 -12.5t36 -18t27.5 -20.5q2 -2 5 -3t5 4l10 40q2 5 5 5h75q5 0 5 -5v-482q0 -51 -17 -92.5t-48.5 -71.5t-75 -46.5t-96.5 -16.5q-46 0 -85.5 12t-69.5 32.5t-48 47.5t-21 57q0 5 5 5h87q3 0 5 -5zM190 253q0 -39 10.5 -71.5t30 -56.5t48 -37t64.5 -13q34 0 60.5 13t45 37
t28 56.5t9.5 71.5t-9.5 71.5t-28 56.5t-45 37t-60.5 13q-36 0 -64.5 -13t-48 -37t-30 -56.5t-10.5 -71.5zM448 704q5 0 5 -5q0 -31 -10.5 -52t-27 -34t-36.5 -18.5t-40 -5.5t-40 5.5t-36.5 18.5t-27 34t-10.5 52q0 5 5 5h62q5 0 5 -5q0 -21 14 -29.5t28 -8.5t27.5 8.5
t13.5 29.5q0 5 5 5h63z" />
    <glyph glyph-name="Gdotaccent" unicode="&#x120;" 
d="M602 5q0 -5 -5 -5h-73q-6 0 -7 6l-10 70q0 3 -3.5 4t-5.5 -2q-12 -16 -29.5 -31.5t-41 -28t-53 -20.5t-63.5 -8q-71 0 -123 26.5t-86 74.5t-50.5 114.5t-16.5 146.5q0 79 16.5 145.5t52.5 114.5t92 75t135 27q60 0 104.5 -17.5t77 -46t53 -65t31.5 -74.5q1 -5 -5 -5h-93
q-5 0 -6 5q-23 59 -64.5 88.5t-97.5 29.5q-53 0 -90 -20.5t-60.5 -57t-34.5 -87.5t-11 -112t11 -112t34.5 -87.5t60.5 -57t90 -20.5q37 0 69.5 14.5t56 43.5t37 72t13.5 100q0 5 -5 5h-166q-5 0 -5 5v75q0 5 5 5h261q5 0 5 -5v-385v0zM274 786q-5 0 -5 5v132q0 5 5 5h129
q5 0 5 -5v-132q0 -5 -5 -5h-129z" />
    <glyph glyph-name="gdotaccent" unicode="&#x121;" 
d="M217 -59q3 -9 11.5 -20t24 -20.5t38 -16.5t53.5 -7q39 0 66.5 12.5t44 32.5t24 45.5t7.5 51.5v27q0 3 -3.5 5t-6.5 -3q-4 -5 -17 -15t-32.5 -19.5t-43.5 -16.5t-50 -7q-51 0 -94.5 19t-75.5 54t-50 83t-18 107q0 58 16.5 106.5t47.5 83.5t75 54t99 19q19 0 39.5 -5
t40 -12.5t36 -18t27.5 -20.5q2 -2 5 -3t5 4l10 40q2 5 5 5h75q5 0 5 -5v-482q0 -51 -17 -92.5t-48.5 -71.5t-75 -46.5t-96.5 -16.5q-46 0 -85.5 12t-69.5 32.5t-48 47.5t-21 57q0 5 5 5h87q3 0 5 -5zM190 253q0 -39 10.5 -71.5t30 -56.5t48 -37t64.5 -13q34 0 60.5 13t45 37
t28 56.5t9.5 71.5t-9.5 71.5t-28 56.5t-45 37t-60.5 13q-36 0 -64.5 -13t-48 -37t-30 -56.5t-10.5 -71.5zM280 562q-5 0 -5 5v132q0 5 5 5h129q5 0 5 -5v-132q0 -5 -5 -5h-129z" />
    <glyph glyph-name="uni0122" unicode="&#x122;" 
d="M602 5q0 -5 -5 -5h-73q-6 0 -7 6l-10 70q0 3 -3.5 4t-5.5 -2q-12 -16 -29.5 -31.5t-41 -28t-53 -20.5t-63.5 -8q-71 0 -123 26.5t-86 74.5t-50.5 114.5t-16.5 146.5q0 79 16.5 145.5t52.5 114.5t92 75t135 27q60 0 104.5 -17.5t77 -46t53 -65t31.5 -74.5q1 -5 -5 -5h-93
q-5 0 -6 5q-23 59 -64.5 88.5t-97.5 29.5q-53 0 -90 -20.5t-60.5 -57t-34.5 -87.5t-11 -112t11 -112t34.5 -87.5t60.5 -57t90 -20.5q37 0 69.5 14.5t56 43.5t37 72t13.5 100q0 5 -5 5h-166q-5 0 -5 5v75q0 5 5 5h261q5 0 5 -5v-385zM295 -134q-5 0 -5 5v69q0 5 5 5h68
q5 0 5 -5v-71q0 -34 -20 -55.5t-53 -21.5q-5 0 -5 5v29q0 5 5 5q9 0 18 7t9 23q0 5 -5 5h-22z" />
    <glyph glyph-name="uni0123" unicode="&#x123;" 
d="M217 -59q3 -9 11.5 -20t24 -20.5t38 -16.5t53.5 -7q39 0 66.5 12.5t44 32.5t24 45.5t7.5 51.5v27q0 3 -3.5 5t-6.5 -3q-4 -5 -17 -15t-32.5 -19.5t-43.5 -16.5t-50 -7q-51 0 -94.5 19t-75.5 54t-50 83t-18 107q0 58 16.5 106.5t47.5 83.5t75 54t99 19q19 0 39.5 -5
t40 -12.5t36 -18t27.5 -20.5q2 -2 5 -3t5 4l10 40q2 5 5 5h75q5 0 5 -5v-482q0 -51 -17 -92.5t-48.5 -71.5t-75 -46.5t-96.5 -16.5q-46 0 -85.5 12t-69.5 32.5t-48 47.5t-21 57q0 5 5 5h87q3 0 5 -5zM190 253q0 -39 10.5 -71.5t30 -56.5t48 -37t64.5 -13q34 0 60.5 13t45 37
t28 56.5t9.5 71.5t-9.5 71.5t-28 56.5t-45 37t-60.5 13q-36 0 -64.5 -13t-48 -37t-30 -56.5t-10.5 -71.5zM368 630q5 0 5 -5v-69q0 -5 -5 -5h-68q-5 0 -5 5v71q0 34 20 55.5t53 21.5q5 0 5 -5v-29q0 -5 -5 -5q-9 0 -18 -7t-9 -23q0 -5 5 -5h22z" />
    <glyph glyph-name="Hcircumflex" unicode="&#x124;" 
d="M587 704q5 0 5 -5v-694q0 -5 -5 -5h-85q-5 0 -5 5v310q0 5 -5 5h-307q-5 0 -5 -4v-311q0 -5 -5 -5h-85q-5 0 -5 5v694q0 5 5 5h85q5 0 5 -5v-289q0 -5 5 -5h307q5 0 5 5v289q0 5 5 5h85zM379 787q-4 0 -5 3l-30 42q-5 8 -10 0l-31 -42q-2 -3 -5 -3h-60q-3 0 -5 2t0 5
l44 104q1 4 5 4h114q4 0 5 -4l43 -104q3 -7 -5 -7h-60z" />
    <glyph glyph-name="hcircumflex" unicode="&#x125;" 
d="M211 704q5 0 5 -5v-242q0 -4 4 -5t7 3q23 29 57.5 45t73.5 16q58 0 99.5 -18.5t67.5 -50.5t38.5 -75t12.5 -92v-275q0 -5 -5 -5h-85q-5 0 -5 5v275q0 28 -7 55.5t-22.5 48.5t-41 34t-62.5 13q-32 0 -56.5 -12.5t-41 -33.5t-25.5 -48.5t-9 -56.5v-275q0 -5 -5 -5h-85
q-5 0 -5 5v694q0 5 5 5h85zM209 787q-4 0 -5 3l-30 42q-5 8 -10 0l-31 -42q-2 -3 -5 -3h-60q-3 0 -5 2t0 5l44 104q1 4 5 4h114q4 0 5 -4l43 -104q3 -7 -5 -7h-60z" />
    <glyph glyph-name="Hbar" unicode="&#x126;" 
d="M82 555q0 5 -5 5h-54q-4 0 -4 5v55q0 5 4 5h54q5 0 5 5v69q0 5 5 5h85q5 0 5 -5v-69q0 -5 5 -5h313q5 0 5 5v69q0 5 5 5h85q5 0 5 -5v-69q0 -5 5 -5h53q5 0 5 -5v-55q0 -5 -5 -5h-53q-5 0 -5 -5v-550q0 -5 -5 -5h-85q-5 0 -5 5v310q0 5 -5 5h-313q-5 0 -5 -4v-311
q0 -5 -5 -5h-85q-5 0 -5 5v550zM500 555q0 5 -5 5h-313q-5 0 -5 -5v-145q0 -5 5 -5h313q5 0 5 5v145z" />
    <glyph glyph-name="hbar" unicode="&#x127;" 
d="M122 555q0 5 -5 5h-55q-4 0 -4 5v55q0 5 4 5h55q5 0 5 5v69q0 5 5 5h85q5 0 5 -5v-69q0 -5 5 -5h144q5 0 5 -5v-55q0 -5 -5 -5h-144q-5 0 -5 -5v-98q0 -4 4 -5t7 3q23 29 57.5 45t73.5 16q58 0 99.5 -18.5t67.5 -50.5t38.5 -75t12.5 -92v-275q0 -5 -5 -5h-85q-5 0 -5 5
v275q0 28 -7 55.5t-22.5 48.5t-41 34t-62.5 13q-32 0 -56.5 -12.5t-41 -33.5t-25.5 -48.5t-9 -56.5v-275q0 -5 -5 -5h-85q-5 0 -5 5v550z" />
    <glyph glyph-name="Itilde" unicode="&#x128;" 
d="M124 619q-5 0 -5 5v75q0 5 5 5h437q5 0 5 -5v-75q0 -5 -5 -5h-170q-5 0 -5 -5v-524q0 -5 5 -5h170q5 0 5 -5v-75q0 -5 -5 -5h-437q-5 0 -5 5v75q0 5 5 5h162q5 0 5 5v524q0 5 -5 5h-162zM183 815q0 13 5 28t16.5 28t31 21.5t49.5 8.5q22 0 38.5 -7t29 -16t22 -16t17.5 -7
q3 0 8.5 0.5t11 4t9 12t3.5 24.5q0 5 5 5h60q5 0 5 -5v-24q0 -13 -5 -28t-17 -27.5t-31.5 -21t-48.5 -8.5q-20 0 -36 7t-29 16t-23 16t-19 7q-3 0 -8.5 -0.5t-11 -4t-9 -12t-3.5 -24.5q0 -5 -5 -5h-60q-5 0 -5 5v23z" />
    <glyph glyph-name="itilde" unicode="&#x129;" 
d="M393 506q5 0 5 -5v-411q0 -5 5 -5h200q5 0 5 -5v-75q0 -5 -5 -5h-497q-5 0 -5 5v75q0 5 5 5h192q5 0 5 5v326q0 5 -5 5h-172q-5 0 -5 5v75q0 5 5 5h267zM183 618q0 13 5 28t16.5 28t31 21.5t49.5 8.5q22 0 38.5 -7t29 -16t22 -16t17.5 -7q3 0 8.5 0.5t11 4t9 12t3.5 24.5
q0 5 5 5h60q5 0 5 -5v-24q0 -13 -5 -28t-17 -27.5t-31.5 -21t-48.5 -8.5q-20 0 -36 7t-29 16t-23 16t-19 7q-3 0 -8.5 -0.5t-11 -4t-9 -12t-3.5 -24.5q0 -5 -5 -5h-60q-5 0 -5 5v23z" />
    <glyph glyph-name="Imacron" unicode="&#x12a;" 
d="M120 619q-5 0 -5 5v75q0 5 5 5h437q5 0 5 -5v-75q0 -5 -5 -5h-170q-5 0 -5 -5v-524q0 -5 5 -5h170q5 0 5 -5v-75q0 -5 -5 -5h-437q-5 0 -5 5v75q0 5 5 5h162q5 0 5 5v524q0 5 -5 5h-162zM216 741q-4 0 -4 5v58q0 5 4 5h246q5 0 5 -5v-58q0 -5 -5 -5h-246z" />
    <glyph glyph-name="imacron" unicode="&#x12b;" 
d="M393 506q5 0 5 -5v-411q0 -5 5 -5h200q5 0 5 -5v-75q0 -5 -5 -5h-497q-5 0 -5 5v75q0 5 5 5h192q5 0 5 5v326q0 5 -5 5h-172q-5 0 -5 5v75q0 5 5 5h267zM215 589q-4 0 -4 5v58q0 5 4 5h246q5 0 5 -5v-58q0 -5 -5 -5h-246z" />
    <glyph glyph-name="Iogonek" unicode="&#x12e;" 
d="M304 -10q4 2 3 6t-5 4h-168q-5 0 -5 5v75q0 5 5 5h162q5 0 5 5v524q0 5 -5 5h-162q-5 0 -5 5v75q0 5 5 5h437q5 0 5 -5v-75q0 -5 -5 -5h-170q-5 0 -5 -5v-524q0 -5 5 -5h170q5 0 5 -5v-75q0 -5 -5 -5h-178q-29 0 -49 -19t-20 -43q0 -31 20 -46t52 -15h14q5 0 5 -5v-65
q0 -5 -5 -5h-24q-59 0 -96 25.5t-38 73.5q-1 30 13 52t39 37z" />
    <glyph glyph-name="iogonek" unicode="&#x12f;" 
d="M402 506q5 0 5 -5v-411q0 -5 5 -5h200q5 0 5 -5v-75q0 -5 -5 -5h-213q-32 0 -53.5 -18.5t-21.5 -43.5q0 -31 20 -46t52 -15h14q5 0 5 -5v-65q0 -5 -5 -5h-24q-59 0 -96 25.5t-38 73.5q-1 29 12.5 52t39.5 37q3 2 3 6t-5 4h-187q-5 0 -5 5v75q0 5 5 5h192q5 0 5 5v326
q0 5 -5 5h-172q-5 0 -5 5v75q0 5 5 5h267zM417 594q0 -5 -5 -5h-105q-5 0 -5 5v105q0 5 5 5h105q5 0 5 -5v-105z" />
    <glyph glyph-name="Idotaccent" unicode="&#x130;" 
d="M124 619q-5 0 -5 5v75q0 5 5 5h437q5 0 5 -5v-75q0 -5 -5 -5h-170q-5 0 -5 -5v-524q0 -5 5 -5h170q5 0 5 -5v-75q0 -5 -5 -5h-437q-5 0 -5 5v75q0 5 5 5h162q5 0 5 5v524q0 5 -5 5h-162zM274 786q-5 0 -5 5v132q0 5 5 5h129q5 0 5 -5v-132q0 -5 -5 -5h-129z" />
    <glyph glyph-name="dotlessi" unicode="&#x131;" 
d="M401 506q5 0 5 -5v-411q0 -5 5 -5h200q5 0 5 -5v-75q0 -5 -5 -5h-497q-5 0 -5 5v75q0 5 5 5h192q5 0 5 5v326q0 5 -5 5h-172q-5 0 -5 5v75q0 5 5 5h267z" />
    <glyph glyph-name="IJ" unicode="&#x132;" 
d="M549 5q0 -5 -5 -5h-411q-5 0 -5 5v694q0 5 5 5h411q5 0 5 -5v-694zM512 681h-346l173 -306zM512 24l-173 305l-173 -305h346zM525 48v608q-43 -75 -87 -152t-86 -152zM326 352l-173 305v-610z" />
    <glyph glyph-name="ij" unicode="&#x133;" 
d="M549 5q0 -5 -5 -5h-411q-5 0 -5 5v694q0 5 5 5h411q5 0 5 -5v-694zM512 681h-346l173 -306zM512 24l-173 305l-173 -305h346zM525 48v608q-43 -75 -87 -152t-86 -152zM326 352l-173 305v-610z" />
    <glyph glyph-name="Jcircumflex" unicode="&#x134;" 
d="M229 250q5 0 5 -5v-47q0 -21 3 -43t13.5 -39.5t31 -29t56.5 -11.5q35 0 56 11.5t31.5 29t13.5 39.5t3 43v501q0 5 5 5h85q5 0 5 -5v-501q0 -43 -9 -81t-31.5 -66t-61 -44.5t-98.5 -16.5q-55 0 -93 16.5t-61 44.5t-33.5 66t-10.5 81v47q0 5 5 5h85zM527 787q-4 0 -5 3
l-30 42q-5 8 -10 0l-31 -42q-2 -3 -5 -3h-60q-3 0 -5 2t0 5l44 104q1 4 5 4h114q4 0 5 -4l43 -104q3 -7 -5 -7h-60z" />
    <glyph glyph-name="jcircumflex" unicode="&#x135;" 
d="M83 -118q0 5 5 5h194q30 0 42 13.5t12 36.5v479q0 5 -5 5h-222q-5 0 -5 5v75q0 5 5 5h317q5 0 5 -5v-581q0 -62 -34 -91t-97 -27h-212q-5 0 -5 5v75zM392 589q-4 0 -5 3l-30 42q-5 8 -10 0l-31 -42q-2 -3 -5 -3h-60q-3 0 -5 2t0 5l44 104q1 4 5 4h114q4 0 5 -4l43 -104
q3 -7 -5 -7h-60z" />
    <glyph glyph-name="uni0136" unicode="&#x136;" 
d="M264 358q-2 4 -6 0l-90 -89q-4 -4 -4 -8v-256q0 -5 -5 -5h-85q-5 0 -5 5v694q0 5 5 5h85q5 0 5 -5v-299q0 -6 4 -2l307 301q5 5 8 5h114q2 0 3.5 -1.5t-0.5 -3.5l-269 -267q-3 -3 0 -8l275 -419q2 -2 0.5 -3.5t-3.5 -1.5h-99q-3 0 -8 5zM295 -134q-5 0 -5 5v69q0 5 5 5
h68q5 0 5 -5v-71q0 -34 -20 -55.5t-53 -21.5q-5 0 -5 5v29q0 5 5 5q9 0 18 7t9 23q0 5 -5 5h-22z" />
    <glyph glyph-name="uni0137" unicode="&#x137;" 
d="M524 0q-6 0 -9 5l-159 273q-3 4 -7 0l-114 -98q-2 -2 -2 -6v-169q0 -5 -5 -5h-85q-5 0 -5 5v694q0 5 5 5h85q5 0 5 -5v-392q0 -2 2.5 -3t4.5 1l230 196q5 4 9 4.5t6 0.5h123q2 0 3.5 -1.5t-0.5 -3.5l-186 -158q-3 -3 0 -8l193 -330q2 -5 -4 -5h-90zM325 -134q-5 0 -5 5
v69q0 5 5 5h68q5 0 5 -5v-71q0 -34 -20 -55.5t-53 -21.5q-5 0 -5 5v29q0 5 5 5q9 0 18 7t9 23q0 5 -5 5h-22z" />
    <glyph glyph-name="kgreenlandic" unicode="&#x138;" 
d="M484 0q-6 0 -9 5l-159 273q-3 4 -7 0l-114 -98q-2 -2 -2 -6v-169q0 -5 -5 -5h-85q-5 0 -5 5v496q0 5 5 5h85q5 0 5 -5v-194q0 -2 2.5 -3t4.5 1l230 196q5 4 9 4.5t6 0.5h123q2 0 3.5 -1.5t-0.5 -3.5l-186 -158q-3 -3 0 -8l193 -330q2 -5 -4 -5h-90z" />
    <glyph glyph-name="Lacute" unicode="&#x139;" 
d="M142 699q0 5 5 5h85q5 0 5 -5v-609q0 -5 5 -5h350q5 0 5 -5v-75q0 -5 -5 -5h-445q-5 0 -5 5v694zM161 787q-3 0 -5 2t0 5l43 101q2 7 10 7h87q8 0 5 -7l-72 -101l-4.5 -4.5t-6.5 -2.5h-57z" />
    <glyph glyph-name="lacute" unicode="&#x13a;" 
d="M271 777q-3 0 -5 2t0 5l43 101q2 7 10 7h87q8 0 5 -7l-72 -101l-4.5 -4.5t-6.5 -2.5h-57zM381 704q5 0 5 -5v-609q0 -5 5 -5h200q5 0 5 -5v-75q0 -5 -5 -5h-497q-5 0 -5 5v75q0 5 5 5h192q5 0 5 5v524q0 5 -5 5h-172q-5 0 -5 5v75q0 5 5 5h267z" />
    <glyph glyph-name="uni013B" unicode="&#x13b;" 
d="M142 699q0 5 5 5h85q5 0 5 -5v-609q0 -5 5 -5h350q5 0 5 -5v-75q0 -5 -5 -5h-445q-5 0 -5 5v694zM305 -134q-5 0 -5 5v69q0 5 5 5h68q5 0 5 -5v-71q0 -34 -20 -55.5t-53 -21.5q-5 0 -5 5v29q0 5 5 5q9 0 18 7t9 23q0 5 -5 5h-22z" />
    <glyph glyph-name="uni013C" unicode="&#x13c;" 
d="M381 704q5 0 5 -5v-609q0 -5 5 -5h200q5 0 5 -5v-75q0 -5 -5 -5h-497q-5 0 -5 5v75q0 5 5 5h192q5 0 5 5v524q0 5 -5 5h-172q-5 0 -5 5v75q0 5 5 5h267zM305 -134q-5 0 -5 5v69q0 5 5 5h68q5 0 5 -5v-71q0 -34 -20 -55.5t-53 -21.5q-5 0 -5 5v29q0 5 5 5q9 0 18 7t9 23
q0 5 -5 5h-22z" />
    <glyph glyph-name="Lcaron" unicode="&#x13d;" 
d="M142 699q0 5 5 5h85q5 0 5 -5v-609q0 -5 5 -5h350q5 0 5 -5v-75q0 -5 -5 -5h-445q-5 0 -5 5v694zM321 572q-5 0 -5 5v122q0 5 5 5h120q5 0 5 -5v-121q0 -57 -34.5 -93t-90.5 -36q-5 0 -5 5v55q0 5 5 5q15 0 32 13.5t17 39.5q0 5 -5 5h-44z" />
    <glyph glyph-name="lcaron" unicode="&#x13e;" 
d="M381 704q5 0 5 -5v-609q0 -5 5 -5h200q5 0 5 -5v-75q0 -5 -5 -5h-497q-5 0 -5 5v75q0 5 5 5h192q5 0 5 5v524q0 5 -5 5h-172q-5 0 -5 5v75q0 5 5 5h267zM471 572q-5 0 -5 5v122q0 5 5 5h120q5 0 5 -5v-121q0 -57 -34.5 -93t-90.5 -36q-5 0 -5 5v55q0 5 5 5q15 0 32 13.5
t17 39.5q0 5 -5 5h-44z" />
    <glyph glyph-name="Ldot" unicode="&#x13f;" 
d="M142 699q0 5 5 5h85q5 0 5 -5v-609q0 -5 5 -5h350q5 0 5 -5v-75q0 -5 -5 -5h-445q-5 0 -5 5v694zM305 276q-5 0 -5 5v151q0 5 5 5h149q5 0 5 -5v-151q0 -5 -5 -5h-149z" />
    <glyph glyph-name="ldot" unicode="&#x140;" 
d="M377 704q5 0 5 -5v-609q0 -5 5 -5h200q5 0 5 -5v-75q0 -5 -5 -5h-497q-5 0 -5 5v75q0 5 5 5h192q5 0 5 5v524q0 5 -5 5h-172q-5 0 -5 5v75q0 5 5 5h267zM438 276q-5 0 -5 5v151q0 5 5 5h149q5 0 5 -5v-151q0 -5 -5 -5h-149z" />
    <glyph glyph-name="Lslash" unicode="&#x141;" 
d="M145 225q0 2 -2.5 3t-5.5 -1l-58 -46q-7 -2 -7 5v73q0 4 3 7l67 53q3 3 3 7v373q0 5 5 5h85q5 0 5 -5v-294q0 -3 3 -4.5t5 0.5l58 46q7 2 7 -5v-74q0 -4 -3 -5l-68 -54q-2 -2 -2 -4v-215q0 -5 5 -5h350q5 0 5 -5v-75q0 -5 -5 -5h-445q-5 0 -5 5v220z" />
    <glyph glyph-name="lslash" unicode="&#x142;" 
d="M295 704h1h85q1 0 1.5 -0.5t1.5 -0.5q2 -2 2 -4v-294q0 -3 3 -4.5t5 0.5l58 46q7 2 7 -5v-74q0 -4 -3 -5l-68 -54q-2 -2 -2 -3v-216q0 -5 5 -5h200q5 0 5 -5v-75q0 -5 -5 -5h-497q-5 0 -5 5v75q0 5 5 5h192q5 0 5 5v135q-3 5 -8 2l-58 -46q-7 -2 -7 5v73q0 4 3 7l67 53
q3 3 3 7v288q0 5 -5 5h-172q-5 0 -5 5v75q0 5 5 5h181z" />
    <glyph glyph-name="Nacute" unicode="&#x143;" 
d="M592 704q5 0 5 -5v-694q0 -5 -5 -5h-127q-5 0 -8 5l-273 560q-2 5 -6 4.5t-4 -5.5v-559q0 -5 -5 -5h-85q-5 0 -5 5v694q0 5 5 5h128q4 0 7 -5l273 -560q2 -5 6 -4.5t4 5.5v559q0 5 5 5h85zM271 787q-3 0 -5 2t0 5l43 101q2 7 10 7h87q8 0 5 -7l-72 -101l-4.5 -4.5
t-6.5 -2.5h-57z" />
    <glyph glyph-name="nacute" unicode="&#x144;" 
d="M201 506q3 0 5 -5l10 -45q2 -5 5.5 -4t5.5 3q16 22 48 41.5t83 19.5q54 0 95 -18.5t68.5 -50.5t41 -75t13.5 -92v-275q0 -5 -5 -5h-85q-5 0 -5 5v275q0 28 -7 55.5t-22.5 48.5t-41 34t-62.5 13q-32 0 -56.5 -12.5t-41 -33.5t-25.5 -48.5t-9 -56.5v-275q0 -5 -5 -5h-85
q-5 0 -5 5v496q0 5 5 5h75zM307 589q-3 0 -5 2t0 5l43 101q2 7 10 7h87q8 0 5 -7l-72 -101l-4.5 -4.5t-6.5 -2.5h-57z" />
    <glyph glyph-name="uni0145" unicode="&#x145;" 
d="M592 704q5 0 5 -5v-694q0 -5 -5 -5h-127q-5 0 -8 5l-273 560q-2 5 -6 4.5t-4 -5.5v-559q0 -5 -5 -5h-85q-5 0 -5 5v694q0 5 5 5h128q4 0 7 -5l273 -560q2 -5 6 -4.5t4 5.5v559q0 5 5 5h85zM305 -134q-5 0 -5 5v69q0 5 5 5h68q5 0 5 -5v-71q0 -34 -20 -55.5t-53 -21.5
q-5 0 -5 5v29q0 5 5 5q9 0 18 7t9 23q0 5 -5 5h-22z" />
    <glyph glyph-name="uni0146" unicode="&#x146;" 
d="M201 506q3 0 5 -5l10 -45q2 -5 5.5 -4t5.5 3q16 22 48 41.5t83 19.5q54 0 95 -18.5t68.5 -50.5t41 -75t13.5 -92v-275q0 -5 -5 -5h-85q-5 0 -5 5v275q0 28 -7 55.5t-22.5 48.5t-41 34t-62.5 13q-32 0 -56.5 -12.5t-41 -33.5t-25.5 -48.5t-9 -56.5v-275q0 -5 -5 -5h-85
q-5 0 -5 5v496q0 5 5 5h75zM305 -134q-5 0 -5 5v69q0 5 5 5h68q5 0 5 -5v-71q0 -34 -20 -55.5t-53 -21.5q-5 0 -5 5v29q0 5 5 5q9 0 18 7t9 23q0 5 -5 5h-22z" />
    <glyph glyph-name="Ncaron" unicode="&#x147;" 
d="M576 704q5 0 5 -5v-694q0 -5 -5 -5h-127q-5 0 -8 5l-273 560q-2 5 -6 4.5t-4 -5.5v-559q0 -5 -5 -5h-85q-5 0 -5 5v694q0 5 5 5h128q4 0 7 -5l273 -560q2 -5 6 -4.5t4 5.5v559q0 5 5 5h85zM469 892q8 0 5 -7l-43 -104q-1 -4 -5 -4h-114q-4 0 -5 4l-44 104q-2 3 0 5t5 2
h60q3 0 5 -3l31 -42q5 -8 10 0l30 42q1 3 5 3h60z" />
    <glyph glyph-name="ncaron" unicode="&#x148;" 
d="M201 506q3 0 5 -5l10 -45q2 -5 5.5 -4t5.5 3q16 22 48 41.5t83 19.5q54 0 95 -18.5t68.5 -50.5t41 -75t13.5 -92v-275q0 -5 -5 -5h-85q-5 0 -5 5v275q0 28 -7 55.5t-22.5 48.5t-41 34t-62.5 13q-32 0 -56.5 -12.5t-41 -33.5t-25.5 -48.5t-9 -56.5v-275q0 -5 -5 -5h-85
q-5 0 -5 5v496q0 5 5 5h75zM458 704q8 0 5 -7l-43 -104q-1 -4 -5 -4h-114q-4 0 -5 4l-44 104q-2 3 0 5t5 2h60q3 0 5 -3l31 -42q5 -8 10 0l30 42q1 3 5 3h60z" />
    <glyph glyph-name="napostrophe" unicode="&#x149;" 
d="M201 506q3 0 5 -5l10 -45q2 -5 5.5 -4t5.5 3q16 22 48 41.5t83 19.5q54 0 95 -18.5t68.5 -50.5t41 -75t13.5 -92v-275q0 -5 -5 -5h-85q-5 0 -5 5v275q0 28 -7 55.5t-22.5 48.5t-41 34t-62.5 13q-32 0 -56.5 -12.5t-41 -33.5t-25.5 -48.5t-9 -56.5v-275q0 -5 -5 -5h-85
q-5 0 -5 5v496q0 5 5 5h75zM126 704q-5 0 -5 5v122q0 5 5 5h120q5 0 5 -5v-121q0 -57 -34.5 -93t-90.5 -36q-5 0 -5 5v55q0 5 5 5q15 0 32 13.5t17 39.5q0 5 -5 5h-44z" />
    <glyph glyph-name="Omacron" unicode="&#x14c;" 
d="M624 352q0 -80 -16.5 -146.5t-51 -114.5t-88.5 -74.5t-129 -26.5t-129 26.5t-89 74.5t-51.5 114.5t-16.5 146.5q0 79 16.5 145.5t51.5 114.5t89 75t129 27t129 -27t88.5 -75t51 -114.5t16.5 -145.5zM339 75q97 0 141.5 73.5t44.5 203.5q0 65 -9.5 116.5t-31.5 87
t-57.5 54.5t-87.5 19q-49 0 -84 -19t-57.5 -54.5t-33.5 -87t-11 -116.5t11 -116.5t33.5 -87t57.5 -54.5t84 -19zM215 787q-4 0 -4 5v58q0 5 4 5h246q5 0 5 -5v-58q0 -5 -5 -5h-246z" />
    <glyph glyph-name="omacron" unicode="&#x14d;" 
d="M586 253q0 -59 -17 -107t-48.5 -83t-78 -54t-104.5 -19q-59 0 -105 19t-78 54t-48.5 83t-16.5 107t16.5 107.5t48.5 83t78 53.5t105 19q58 0 104.5 -19t78 -54t48.5 -83.5t17 -106.5zM491 253q0 39 -10.5 71.5t-30 56.5t-48 37t-64.5 13t-64 -13t-48 -37t-30.5 -56.5
t-10.5 -71.5t10.5 -71.5t30.5 -56.5t48 -37t64 -13t64.5 13t48 37t30 56.5t10.5 71.5zM214 589q-4 0 -4 5v58q0 5 4 5h246q5 0 5 -5v-58q0 -5 -5 -5h-246z" />
    <glyph glyph-name="Obreve" unicode="&#x14e;" 
d="M624 352q0 -80 -16.5 -146.5t-51 -114.5t-88.5 -74.5t-129 -26.5t-129 26.5t-89 74.5t-51.5 114.5t-16.5 146.5q0 79 16.5 145.5t51.5 114.5t89 75t129 27t129 -27t88.5 -75t51 -114.5t16.5 -145.5zM339 75q97 0 141.5 73.5t44.5 203.5q0 65 -9.5 116.5t-31.5 87
t-57.5 54.5t-87.5 19q-49 0 -84 -19t-57.5 -54.5t-33.5 -87t-11 -116.5t11 -116.5t33.5 -87t57.5 -54.5t84 -19zM447 902q5 0 5 -5q0 -31 -10.5 -52t-27 -34t-36.5 -18.5t-40 -5.5t-40 5.5t-36.5 18.5t-27 34t-10.5 52q0 5 5 5h62q5 0 5 -5q0 -21 14 -29.5t28 -8.5t27.5 8.5
t13.5 29.5q0 5 5 5h63z" />
    <glyph glyph-name="obreve" unicode="&#x14f;" 
d="M586 253q0 -59 -17 -107t-48.5 -83t-78 -54t-104.5 -19q-59 0 -105 19t-78 54t-48.5 83t-16.5 107t16.5 107.5t48.5 83t78 53.5t105 19q58 0 104.5 -19t78 -54t48.5 -83.5t17 -106.5zM491 253q0 39 -10.5 71.5t-30 56.5t-48 37t-64.5 13t-64 -13t-48 -37t-30.5 -56.5
t-10.5 -71.5t10.5 -71.5t30.5 -56.5t48 -37t64 -13t64.5 13t48 37t30 56.5t10.5 71.5zM447 704q5 0 5 -5q0 -31 -10.5 -52t-27 -34t-36.5 -18.5t-40 -5.5t-40 5.5t-36.5 18.5t-27 34t-10.5 52q0 5 5 5h62q5 0 5 -5q0 -21 14 -29.5t28 -8.5t27.5 8.5t13.5 29.5q0 5 5 5h63z
" />
    <glyph glyph-name="Ohungarumlaut" unicode="&#x150;" 
d="M624 352q0 -80 -16.5 -146.5t-51 -114.5t-88.5 -74.5t-129 -26.5t-129 26.5t-89 74.5t-51.5 114.5t-16.5 146.5q0 79 16.5 145.5t51.5 114.5t89 75t129 27t129 -27t88.5 -75t51 -114.5t16.5 -145.5zM339 75q97 0 141.5 73.5t44.5 203.5q0 65 -9.5 116.5t-31.5 87
t-57.5 54.5t-87.5 19q-49 0 -84 -19t-57.5 -54.5t-33.5 -87t-11 -116.5t11 -116.5t33.5 -87t57.5 -54.5t84 -19zM163 777q-4 0 -4 5l29 132q0 5 6 5h109q4 0 4 -5l-29 -132q0 -5 -6 -5h-109zM383 777q-4 0 -4 5l29 132q0 5 6 5h109q4 0 4 -5l-29 -132q0 -5 -6 -5h-109z" />
    <glyph glyph-name="ohungarumlaut" unicode="&#x151;" 
d="M586 253q0 -59 -17 -107t-48.5 -83t-78 -54t-104.5 -19q-59 0 -105 19t-78 54t-48.5 83t-16.5 107t16.5 107.5t48.5 83t78 53.5t105 19q58 0 104.5 -19t78 -54t48.5 -83.5t17 -106.5zM491 253q0 39 -10.5 71.5t-30 56.5t-48 37t-64.5 13t-64 -13t-48 -37t-30.5 -56.5
t-10.5 -71.5t10.5 -71.5t30.5 -56.5t48 -37t64 -13t64.5 13t48 37t30 56.5t10.5 71.5zM158 562q-4 0 -4 5l29 132q0 5 6 5h109q4 0 4 -5l-29 -132q0 -5 -6 -5h-109zM378 562q-4 0 -4 5l29 132q0 5 6 5h109q4 0 4 -5l-29 -132q0 -5 -6 -5h-109z" />
    <glyph glyph-name="OE" unicode="&#x152;" 
d="M42 345q0 79 13.5 144.5t45.5 113t86.5 74.5t137.5 27h304q5 0 5 -5v-75q0 -5 -5 -5h-196q-5 0 -5 -5v-204q0 -5 5 -5h155q5 0 5 -5v-75q0 -5 -5 -5h-155q-5 0 -5 -5v-225q0 -5 5 -5h196q5 0 5 -5v-75q0 -5 -5 -5h-215h-1h-78q-83 0 -139 24t-90 69t-49 108.5t-15 143.5z
M325 619q-54 0 -89.5 -19.5t-56 -55t-29 -86t-8.5 -113.5q0 -64 8.5 -112.5t29 -81.5t56 -49.5t89.5 -16.5h3q5 0 5 5v524q0 5 -5 5h-3z" />
    <glyph glyph-name="oe" unicode="&#x153;" 
d="M403 219q-5 0 -5 -5q0 -27 3 -52.5t11 -44.5t23 -30.5t38 -11.5q38 0 54.5 20t24.5 50q1 5 5 5h87q4 0 4 -5q-14 -74 -61 -114.5t-114 -40.5q-15 0 -32.5 3.5t-34.5 11t-32.5 20.5t-26.5 31q-5 8 -10 0q-22 -37 -60 -51.5t-76 -14.5q-47 0 -81 19t-55.5 54t-32 83
t-10.5 107t10 107.5t32 83t56 53.5t81 19q45 0 81.5 -15t54.5 -42q4 -6 9 0q18 27 52 42t75 15t74.5 -13.5t57 -44.5t36.5 -81.5t13 -123.5q0 -7 -1 -13q-1 -5 -1.5 -9.5t-0.5 -5.5q-2 -6 -6 -6h-242zM304 253q0 39 -5.5 71.5t-17.5 56.5t-31.5 37t-48.5 13q-25 0 -43 -13
t-29 -37t-16.5 -56.5t-5.5 -71.5t5.5 -71.5t16.5 -56.5t29 -37t43 -13q29 0 48.5 13t31.5 37t17.5 56.5t5.5 71.5zM558 299q0 11 -1 33t-8.5 44t-25 38.5t-50.5 16.5q-26 0 -40.5 -14t-22.5 -34.5t-10 -43t-2 -40.5q0 -5 5 -5h150q5 0 5 5z" />
    <glyph glyph-name="Racute" unicode="&#x154;" 
d="M104 699q0 5 5 5h282q41 0 78 -16.5t65 -45.5t44.5 -68t16.5 -84q0 -66 -33.5 -116.5t-85.5 -74.5q-4 -2 -2 -7l128 -287q2 -5 -5 -5h-83q-2 0 -5 0.5t-5 4.5l-120 270q-2 5 -7 5h-173q-5 0 -5 -5v-270q0 -5 -5 -5h-85q-5 0 -5 5v694zM204 619q-5 0 -5 -5v-244q0 -5 5 -5
h179q23 1 44 11t37.5 27t26 39t9.5 48t-10 49.5t-27 41t-38.5 28t-45.5 10.5h-175zM271 787q-3 0 -5 2t0 5l43 101q2 7 10 7h87q8 0 5 -7l-72 -101l-4.5 -4.5t-6.5 -2.5h-57z" />
    <glyph glyph-name="racute" unicode="&#x155;" 
d="M234 506q3 0 5 -5l10 -45q2 -5 5.5 -4t5.5 3q16 22 48 41.5t83 19.5q54 0 95 -18.5t68.5 -50.5t41 -75t13.5 -92v-5q0 -5 -5 -5h-85q-5 0 -5 5v5q0 28 -7 55.5t-22.5 48.5t-41 34t-62.5 13q-32 0 -56.5 -12.5t-41 -33.5t-25.5 -48.5t-9 -56.5v-275q0 -5 -5 -5h-85
q-5 0 -5 5v496q0 5 5 5h75zM331 589q-3 0 -5 2t0 5l43 101q2 7 10 7h87q8 0 5 -7l-72 -101l-4.5 -4.5t-6.5 -2.5h-57z" />
    <glyph glyph-name="uni0156" unicode="&#x156;" 
d="M104 699q0 5 5 5h282q41 0 78 -16.5t65 -45.5t44.5 -68t16.5 -84q0 -66 -33.5 -116.5t-85.5 -74.5q-4 -2 -2 -7l128 -287q2 -5 -5 -5h-83q-2 0 -5 0.5t-5 4.5l-120 270q-2 5 -7 5h-173q-5 0 -5 -5v-270q0 -5 -5 -5h-85q-5 0 -5 5v694zM204 619q-5 0 -5 -5v-244q0 -5 5 -5
h179q23 1 44 11t37.5 27t26 39t9.5 48t-10 49.5t-27 41t-38.5 28t-45.5 10.5h-175zM305 -134q-5 0 -5 5v69q0 5 5 5h68q5 0 5 -5v-71q0 -34 -20 -55.5t-53 -21.5q-5 0 -5 5v29q0 5 5 5q9 0 18 7t9 23q0 5 -5 5h-22z" />
    <glyph glyph-name="uni0157" unicode="&#x157;" 
d="M234 506q3 0 5 -5l10 -45q2 -5 5.5 -4t5.5 3q16 22 48 41.5t83 19.5q54 0 95 -18.5t68.5 -50.5t41 -75t13.5 -92v-5q0 -5 -5 -5h-85q-5 0 -5 5v5q0 28 -7 55.5t-22.5 48.5t-41 34t-62.5 13q-32 0 -56.5 -12.5t-41 -33.5t-25.5 -48.5t-9 -56.5v-275q0 -5 -5 -5h-85
q-5 0 -5 5v496q0 5 5 5h75zM168 -134q-5 0 -5 5v69q0 5 5 5h68q5 0 5 -5v-71q0 -34 -20 -55.5t-53 -21.5q-5 0 -5 5v29q0 5 5 5q9 0 18 7t9 23q0 5 -5 5h-22z" />
    <glyph glyph-name="Rcaron" unicode="&#x158;" 
d="M104 699q0 5 5 5h282q41 0 78 -16.5t65 -45.5t44.5 -68t16.5 -84q0 -66 -33.5 -116.5t-85.5 -74.5q-4 -2 -2 -7l128 -287q2 -5 -5 -5h-83q-2 0 -5 0.5t-5 4.5l-120 270q-2 5 -7 5h-173q-5 0 -5 -5v-270q0 -5 -5 -5h-85q-5 0 -5 5v694zM204 619q-5 0 -5 -5v-244q0 -5 5 -5
h179q23 1 44 11t37.5 27t26 39t9.5 48t-10 49.5t-27 41t-38.5 28t-45.5 10.5h-175zM409 892q8 0 5 -7l-43 -104q-1 -4 -5 -4h-114q-4 0 -5 4l-44 104q-2 3 0 5t5 2h60q3 0 5 -3l31 -42q5 -8 10 0l30 42q1 3 5 3h60z" />
    <glyph glyph-name="rcaron" unicode="&#x159;" 
d="M234 506q3 0 5 -5l10 -45q2 -5 5.5 -4t5.5 3q16 22 48 41.5t83 19.5q54 0 95 -18.5t68.5 -50.5t41 -75t13.5 -92v-5q0 -5 -5 -5h-85q-5 0 -5 5v5q0 28 -7 55.5t-22.5 48.5t-41 34t-62.5 13q-32 0 -56.5 -12.5t-41 -33.5t-25.5 -48.5t-9 -56.5v-275q0 -5 -5 -5h-85
q-5 0 -5 5v496q0 5 5 5h75zM492 704q8 0 5 -7l-43 -104q-1 -4 -5 -4h-114q-4 0 -5 4l-44 104q-2 3 0 5t5 2h60q3 0 5 -3l31 -42q5 -8 10 0l30 42q1 3 5 3h60z" />
    <glyph glyph-name="Sacute" unicode="&#x15a;" 
d="M478 511q0 25 -11 46.5t-31 37.5t-48 25t-61 9q-30 0 -56 -8.5t-45.5 -24t-31 -37t-11.5 -46.5q0 -31 14.5 -49.5t37 -29.5t50 -16t53.5 -8q49 -6 97 -16.5t85.5 -33t61 -61.5t23.5 -101q0 -38 -14.5 -75t-46.5 -66.5t-82.5 -48t-123.5 -18.5q-65 0 -115 16.5t-83.5 44.5
t-51 64.5t-17.5 77.5q0 5 5 5h89q6 0 6 -6q0 -19 10 -39.5t31 -38t52.5 -28.5t73.5 -11q40 0 71 10t52.5 27t32.5 39t11 47q0 34 -14 55t-37 34t-53 19t-63 9q-42 4 -87 14t-82.5 31.5t-61.5 58t-24 94.5q0 48 21 85.5t55.5 63t78 39t89.5 13.5q48 0 92 -12.5t78.5 -37.5
t56.5 -63.5t24 -89.5q0 -5 -5 -5h-90q-5 0 -5 5zM271 787q-3 0 -5 2t0 5l43 101q2 7 10 7h87q8 0 5 -7l-72 -101l-4.5 -4.5t-6.5 -2.5h-57z" />
    <glyph glyph-name="sacute" unicode="&#x15b;" 
d="M457 335q-5 0 -5 5q0 42 -32 66.5t-93 24.5q-57 0 -82.5 -20.5t-25.5 -43.5q0 -21 12 -33t30 -18t39.5 -8.5t40.5 -5.5q37 -5 76.5 -11t71 -21t52 -43t20.5 -76q0 -43 -17 -73.5t-46.5 -50t-69.5 -28.5t-87 -9q-57 0 -99.5 14t-70.5 38t-42 56t-14 68q0 5 5 5h84
q6 0 6 -5q0 -38 35.5 -64.5t95.5 -26.5q19 0 41 2.5t40.5 11t31 23.5t12.5 39q0 21 -13.5 33.5t-33 19t-41 9t-37.5 4.5q-36 4 -74.5 10.5t-70 22t-52 43t-20.5 74.5q0 31 14.5 58t40.5 47t63.5 32t84.5 12q46 0 86 -11t70 -33t47 -55t17 -77q0 -5 -4 -5h-86zM283 589
q-3 0 -5 2t0 5l43 101q2 7 10 7h87q8 0 5 -7l-72 -101l-4.5 -4.5t-6.5 -2.5h-57z" />
    <glyph glyph-name="Scircumflex" unicode="&#x15c;" 
d="M478 511q0 25 -11 46.5t-31 37.5t-48 25t-61 9q-30 0 -56 -8.5t-45.5 -24t-31 -37t-11.5 -46.5q0 -31 14.5 -49.5t37 -29.5t50 -16t53.5 -8q49 -6 97 -16.5t85.5 -33t61 -61.5t23.5 -101q0 -38 -14.5 -75t-46.5 -66.5t-82.5 -48t-123.5 -18.5q-65 0 -115 16.5t-83.5 44.5
t-51 64.5t-17.5 77.5q0 5 5 5h89q6 0 6 -6q0 -19 10 -39.5t31 -38t52.5 -28.5t73.5 -11q40 0 71 10t52.5 27t32.5 39t11 47q0 34 -14 55t-37 34t-53 19t-63 9q-42 4 -87 14t-82.5 31.5t-61.5 58t-24 94.5q0 48 21 85.5t55.5 63t78 39t89.5 13.5q48 0 92 -12.5t78.5 -37.5
t56.5 -63.5t24 -89.5q0 -5 -5 -5h-90q-5 0 -5 5zM379 787q-4 0 -5 3l-30 42q-5 8 -10 0l-31 -42q-2 -3 -5 -3h-60q-3 0 -5 2t0 5l44 104q1 4 5 4h114q4 0 5 -4l43 -104q3 -7 -5 -7h-60z" />
    <glyph glyph-name="scircumflex" unicode="&#x15d;" 
d="M457 335q-5 0 -5 5q0 42 -32 66.5t-93 24.5q-57 0 -82.5 -20.5t-25.5 -43.5q0 -21 12 -33t30 -18t39.5 -8.5t40.5 -5.5q37 -5 76.5 -11t71 -21t52 -43t20.5 -76q0 -43 -17 -73.5t-46.5 -50t-69.5 -28.5t-87 -9q-57 0 -99.5 14t-70.5 38t-42 56t-14 68q0 5 5 5h84
q6 0 6 -5q0 -38 35.5 -64.5t95.5 -26.5q19 0 41 2.5t40.5 11t31 23.5t12.5 39q0 21 -13.5 33.5t-33 19t-41 9t-37.5 4.5q-36 4 -74.5 10.5t-70 22t-52 43t-20.5 74.5q0 31 14.5 58t40.5 47t63.5 32t84.5 12q46 0 86 -11t70 -33t47 -55t17 -77q0 -5 -4 -5h-86zM371 589
q-4 0 -5 3l-30 42q-5 8 -10 0l-31 -42q-2 -3 -5 -3h-60q-3 0 -5 2t0 5l44 104q1 4 5 4h114q4 0 5 -4l43 -104q3 -7 -5 -7h-60z" />
    <glyph glyph-name="Scedilla" unicode="&#x15e;" 
d="M478 511q0 25 -11 46.5t-31 37.5t-48 25t-61 9q-30 0 -56 -8.5t-45.5 -24t-31 -37t-11.5 -46.5q0 -31 14.5 -49.5t37 -29.5t50 -16t53.5 -8q49 -6 97 -16.5t85.5 -33t61 -61.5t23.5 -101q0 -33 -11 -65t-34 -60t-60.5 -48t-89.5 -29l-58 -41q-2 -2 -1.5 -5t4.5 -3
q13 0 27 -4t25.5 -13t19 -23t7.5 -34q0 -31 -25.5 -56t-74.5 -25q-45 0 -67 25.5t-22 55.5q0 5 5 5h33q5 0 5 -5q0 -16 13 -29.5t33 -13.5q24 0 37 13.5t13 29.5q0 14 -5.5 23.5t-14 15t-18 8t-17.5 2.5q-13 0 -16 3l-8 8q-4 4 -3.5 7t2.5 5l44 36q2 2 2 5.5t-5 3.5h-7
q-65 0 -115 16.5t-83.5 44.5t-51 64.5t-17.5 77.5q0 5 5 5h89q6 0 6 -6q0 -19 10 -39.5t31 -38t52.5 -28.5t73.5 -11q40 0 71 10t52.5 27t32.5 39t11 47q0 34 -14 55t-37 34t-53 19t-63 9q-42 4 -87 14t-82.5 31.5t-61.5 58t-24 94.5q0 48 21 85.5t55.5 63t78 39t89.5 13.5
q48 0 92 -12.5t78.5 -37.5t56.5 -63.5t24 -89.5q0 -5 -5 -5h-90q-5 0 -5 5z" />
    <glyph glyph-name="scedilla" unicode="&#x15f;" 
d="M457 335q-5 0 -5 5q0 42 -32 66.5t-93 24.5q-57 0 -82.5 -20.5t-25.5 -43.5q0 -21 12 -33t30 -18t39.5 -8.5t40.5 -5.5q37 -5 76.5 -11t71 -21t52 -43t20.5 -76q0 -72 -46 -110t-118 -47l-53 -39q-2 -2 -1.5 -5t4.5 -3q13 0 27 -4t25.5 -13t19 -23t7.5 -34
q0 -31 -25.5 -56t-74.5 -25q-45 0 -67 25.5t-22 55.5q0 5 5 5h33q5 0 5 -5q0 -16 13 -29.5t33 -13.5q24 0 37 13.5t13 29.5q0 14 -5.5 23.5t-14 15t-18 8t-17.5 2.5q-13 0 -16 3l-8 8q-4 4 -3.5 7t2.5 5l50 40q5 5 -2 5h-3q-57 0 -99.5 14t-70.5 38t-42 56t-14 68q0 5 5 5
h84q6 0 6 -5q0 -38 35.5 -64.5t95.5 -26.5q19 0 41 2.5t40.5 11t31 23.5t12.5 39q0 21 -13.5 33.5t-33 19t-41 9t-37.5 4.5q-36 4 -74.5 10.5t-70 22t-52 43t-20.5 74.5q0 31 14.5 58t40.5 47t63.5 32t84.5 12q46 0 86 -11t70 -33t47 -55t17 -77q0 -5 -4 -5h-86z" />
    <glyph glyph-name="Scaron" unicode="&#x160;" 
d="M478 511q0 25 -11 46.5t-31 37.5t-48 25t-61 9q-30 0 -56 -8.5t-45.5 -24t-31 -37t-11.5 -46.5q0 -31 14.5 -49.5t37 -29.5t50 -16t53.5 -8q49 -6 97 -16.5t85.5 -33t61 -61.5t23.5 -101q0 -38 -14.5 -75t-46.5 -66.5t-82.5 -48t-123.5 -18.5q-65 0 -115 16.5t-83.5 44.5
t-51 64.5t-17.5 77.5q0 5 5 5h89q6 0 6 -6q0 -19 10 -39.5t31 -38t52.5 -28.5t73.5 -11q40 0 71 10t52.5 27t32.5 39t11 47q0 34 -14 55t-37 34t-53 19t-63 9q-42 4 -87 14t-82.5 31.5t-61.5 58t-24 94.5q0 48 21 85.5t55.5 63t78 39t89.5 13.5q48 0 92 -12.5t78.5 -37.5
t56.5 -63.5t24 -89.5q0 -5 -5 -5h-90q-5 0 -5 5zM439 892q8 0 5 -7l-43 -104q-1 -4 -5 -4h-114q-4 0 -5 4l-44 104q-2 3 0 5t5 2h60q3 0 5 -3l31 -42q5 -8 10 0l30 42q1 3 5 3h60z" />
    <glyph glyph-name="scaron" unicode="&#x161;" 
d="M457 335q-5 0 -5 5q0 42 -32 66.5t-93 24.5q-57 0 -82.5 -20.5t-25.5 -43.5q0 -21 12 -33t30 -18t39.5 -8.5t40.5 -5.5q37 -5 76.5 -11t71 -21t52 -43t20.5 -76q0 -43 -17 -73.5t-46.5 -50t-69.5 -28.5t-87 -9q-57 0 -99.5 14t-70.5 38t-42 56t-14 68q0 5 5 5h84
q6 0 6 -5q0 -38 35.5 -64.5t95.5 -26.5q19 0 41 2.5t40.5 11t31 23.5t12.5 39q0 21 -13.5 33.5t-33 19t-41 9t-37.5 4.5q-36 4 -74.5 10.5t-70 22t-52 43t-20.5 74.5q0 31 14.5 58t40.5 47t63.5 32t84.5 12q46 0 86 -11t70 -33t47 -55t17 -77q0 -5 -4 -5h-86zM435 704
q8 0 5 -7l-43 -104q-1 -4 -5 -4h-114q-4 0 -5 4l-44 104q-2 3 0 5t5 2h60q3 0 5 -3l31 -42q5 -8 10 0l30 42q1 3 5 3h60z" />
    <glyph glyph-name="uni0162" unicode="&#x162;" 
d="M291 615q-2 4 -5 4h-193q-5 0 -5 5v75q0 5 5 5h491q5 0 5 -5v-75q0 -5 -5 -5h-193q-5 0 -5 -5v-609q0 -5 -5 -5h-85q-5 0 -5 5v610zM305 -134q-5 0 -5 5v69q0 5 5 5h68q5 0 5 -5v-71q0 -34 -20 -55.5t-53 -21.5q-5 0 -5 5v29q0 5 5 5q9 0 18 7t9 23q0 5 -5 5h-22z" />
    <glyph glyph-name="uni0163" unicode="&#x163;" 
d="M524 5q0 -5 -5 -5h-157q-63 -2 -97 27t-34 91v308q0 5 -5 5h-139q-5 0 -5 5v65q0 5 5 5h139q5 0 5 5v135q0 5 5 5h85q5 0 5 -5v-135q0 -5 5 -5h188q5 0 5 -5v-65q0 -5 -5 -5h-188q-5 0 -5 -5v-291q0 -23 12 -36.5t42 -13.5h139q5 0 5 -5v-75zM305 -134q-5 0 -5 5v69
q0 5 5 5h68q5 0 5 -5v-71q0 -34 -20 -55.5t-53 -21.5q-5 0 -5 5v29q0 5 5 5q9 0 18 7t9 23q0 5 -5 5h-22z" />
    <glyph glyph-name="Tcaron" unicode="&#x164;" 
d="M291 615q-2 4 -5 4h-193q-5 0 -5 5v75q0 5 5 5h491q5 0 5 -5v-75q0 -5 -5 -5h-193q-5 0 -5 -5v-609q0 -5 -5 -5h-85q-5 0 -5 5v610zM439 892q8 0 5 -7l-43 -104q-1 -4 -5 -4h-114q-4 0 -5 4l-44 104q-2 3 0 5t5 2h60q3 0 5 -3l31 -42q5 -8 10 0l30 42q1 3 5 3h60z" />
    <glyph glyph-name="tcaron" unicode="&#x165;" 
d="M486 625q-5 0 -5 5v69q0 5 5 5h68q5 0 5 -5v-71q0 -34 -20 -55.5t-53 -21.5q-5 0 -5 5v29q0 5 5 5q9 0 18 7t9 23q0 5 -5 5h-22zM559 5q0 -5 -5 -5h-157q-63 -2 -97 27t-34 91v308q0 5 -5 5h-139q-5 0 -5 5v65q0 5 5 5h139q5 0 5 5v135q0 5 5 5h85q5 0 5 -5v-135
q0 -5 5 -5h188q5 0 5 -5v-65q0 -5 -5 -5h-188q-5 0 -5 -5v-291q0 -23 12 -36.5t42 -13.5h139q5 0 5 -5v-75z" />
    <glyph glyph-name="Tbar" unicode="&#x166;" 
d="M291 615q-2 4 -5 4h-193q-5 0 -5 5v75q0 5 5 5h491q5 0 5 -5v-75q0 -5 -5 -5h-193q-5 0 -5 -5v-103q0 -5 5 -5h196q5 0 5 -5v-65q0 -5 -5 -5h-196q-5 0 -5 -5v-421q0 -5 -5 -5h-85q-5 0 -5 5v421q0 5 -5 5h-196q-5 0 -5 5v65q0 5 5 5h196q5 0 5 5v104z" />
    <glyph glyph-name="tbar" unicode="&#x167;" 
d="M376 135q0 -23 12 -36.5t42 -13.5h139q5 0 5 -5v-75q0 -5 -5 -5h-157q-63 -2 -97 27t-34 91v129q0 5 -5 5h-139q-5 0 -5 5v65q0 5 5 5h139q5 0 5 5v94q0 5 -5 5h-139q-5 0 -5 5v65q0 5 5 5h139q5 0 5 5v135q0 5 5 5h85q5 0 5 -5v-135q0 -5 5 -5h188q5 0 5 -5v-65
q0 -5 -5 -5h-188q-5 0 -5 -5v-94q0 -5 5 -5h188q5 0 5 -5v-65q0 -5 -5 -5h-188q-5 0 -5 -5v-112z" />
    <glyph glyph-name="Utilde" unicode="&#x168;" 
d="M183 239q0 -32 12.5 -61.5t33.5 -52.5t49.5 -36.5t60.5 -13.5t60 13.5t49 36.5t33 52.5t12 61.5v460q0 5 5 5h85q5 0 5 -5v-460q0 -52 -19.5 -97.5t-53 -79t-79 -53t-97.5 -19.5t-98 19.5t-80 53t-53.5 79t-19.5 97.5v460q0 5 5 5h85q5 0 5 -5v-460zM183 815q0 13 5 28
t16.5 28t31 21.5t49.5 8.5q22 0 38.5 -7t29 -16t22 -16t17.5 -7q3 0 8.5 0.5t11 4t9 12t3.5 24.5q0 5 5 5h60q5 0 5 -5v-24q0 -13 -5 -28t-17 -27.5t-31.5 -21t-48.5 -8.5q-20 0 -36 7t-29 16t-23 16t-19 7q-3 0 -8.5 -0.5t-11 -4t-9 -12t-3.5 -24.5q0 -5 -5 -5h-60
q-5 0 -5 5v23z" />
    <glyph glyph-name="utilde" unicode="&#x169;" 
d="M486 0q-3 0 -5 5l-10 45q-2 5 -5.5 4t-5.5 -3q-7 -10 -19 -20.5t-29 -19.5t-38 -15t-45 -6q-62 0 -103.5 18.5t-67 50.5t-36.5 75t-11 92v275q0 5 5 5h85q5 0 5 -5v-275q0 -29 7 -56t22.5 -48t41 -34t62.5 -13q31 0 56 12.5t41.5 33.5t25.5 48.5t9 56.5v275q0 5 5 5h85
q5 0 5 -5v-496q0 -5 -5 -5h-75zM184 618q0 13 5 28t16.5 28t31 21.5t49.5 8.5q22 0 38.5 -7t29 -16t22 -16t17.5 -7q3 0 8.5 0.5t11 4t9 12t3.5 24.5q0 5 5 5h60q5 0 5 -5v-24q0 -13 -5 -28t-17 -27.5t-31.5 -21t-48.5 -8.5q-20 0 -36 7t-29 16t-23 16t-19 7q-3 0 -8.5 -0.5
t-11 -4t-9 -12t-3.5 -24.5q0 -5 -5 -5h-60q-5 0 -5 5v23z" />
    <glyph glyph-name="Umacron" unicode="&#x16a;" 
d="M183 239q0 -32 12.5 -61.5t33.5 -52.5t49.5 -36.5t60.5 -13.5t60 13.5t49 36.5t33 52.5t12 61.5v460q0 5 5 5h85q5 0 5 -5v-460q0 -52 -19.5 -97.5t-53 -79t-79 -53t-97.5 -19.5t-98 19.5t-80 53t-53.5 79t-19.5 97.5v460q0 5 5 5h85q5 0 5 -5v-460zM215 787q-4 0 -4 5
v58q0 5 4 5h246q5 0 5 -5v-58q0 -5 -5 -5h-246z" />
    <glyph glyph-name="umacron" unicode="&#x16b;" 
d="M486 0q-3 0 -5 5l-10 45q-2 5 -5.5 4t-5.5 -3q-7 -10 -19 -20.5t-29 -19.5t-38 -15t-45 -6q-62 0 -103.5 18.5t-67 50.5t-36.5 75t-11 92v275q0 5 5 5h85q5 0 5 -5v-275q0 -29 7 -56t22.5 -48t41 -34t62.5 -13q31 0 56 12.5t41.5 33.5t25.5 48.5t9 56.5v275q0 5 5 5h85
q5 0 5 -5v-496q0 -5 -5 -5h-75zM216 589q-4 0 -4 5v58q0 5 4 5h246q5 0 5 -5v-58q0 -5 -5 -5h-246z" />
    <glyph glyph-name="Ubreve" unicode="&#x16c;" 
d="M183 239q0 -32 12.5 -61.5t33.5 -52.5t49.5 -36.5t60.5 -13.5t60 13.5t49 36.5t33 52.5t12 61.5v460q0 5 5 5h85q5 0 5 -5v-460q0 -52 -19.5 -97.5t-53 -79t-79 -53t-97.5 -19.5t-98 19.5t-80 53t-53.5 79t-19.5 97.5v460q0 5 5 5h85q5 0 5 -5v-460zM447 902q5 0 5 -5
q0 -31 -10.5 -52t-27 -34t-36.5 -18.5t-40 -5.5t-40 5.5t-36.5 18.5t-27 34t-10.5 52q0 5 5 5h62q5 0 5 -5q0 -21 14 -29.5t28 -8.5t27.5 8.5t13.5 29.5q0 5 5 5h63z" />
    <glyph glyph-name="ubreve" unicode="&#x16d;" 
d="M486 0q-3 0 -5 5l-10 45q-2 5 -5.5 4t-5.5 -3q-7 -10 -19 -20.5t-29 -19.5t-38 -15t-45 -6q-62 0 -103.5 18.5t-67 50.5t-36.5 75t-11 92v275q0 5 5 5h85q5 0 5 -5v-275q0 -29 7 -56t22.5 -48t41 -34t62.5 -13q31 0 56 12.5t41.5 33.5t25.5 48.5t9 56.5v275q0 5 5 5h85
q5 0 5 -5v-496q0 -5 -5 -5h-75zM449 704q5 0 5 -5q0 -31 -10.5 -52t-27 -34t-36.5 -18.5t-40 -5.5t-40 5.5t-36.5 18.5t-27 34t-10.5 52q0 5 5 5h62q5 0 5 -5q0 -21 14 -29.5t28 -8.5t27.5 8.5t13.5 29.5q0 5 5 5h63z" />
    <glyph glyph-name="Uring" unicode="&#x16e;" 
d="M183 239q0 -32 12.5 -61.5t33.5 -52.5t49.5 -36.5t60.5 -13.5t60 13.5t49 36.5t33 52.5t12 61.5v460q0 5 5 5h85q5 0 5 -5v-460q0 -52 -19.5 -97.5t-53 -79t-79 -53t-97.5 -19.5t-98 19.5t-80 53t-53.5 79t-19.5 97.5v460q0 5 5 5h85q5 0 5 -5v-460zM430 864
q0 -36 -26 -61.5t-62 -25.5t-61.5 25.5t-25.5 61.5t25.5 62t61.5 26q18 0 34 -7t28 -19t19 -28t7 -34zM387 864q0 19 -13 32t-32 13t-32 -13t-13 -32t13 -32t32 -13t32 13t13 32z" />
    <glyph glyph-name="uring" unicode="&#x16f;" 
d="M486 0q-3 0 -5 5l-10 45q-2 5 -5.5 4t-5.5 -3q-7 -10 -19 -20.5t-29 -19.5t-38 -15t-45 -6q-62 0 -103.5 18.5t-67 50.5t-36.5 75t-11 92v275q0 5 5 5h85q5 0 5 -5v-275q0 -29 7 -56t22.5 -48t41 -34t62.5 -13q31 0 56 12.5t41.5 33.5t25.5 48.5t9 56.5v275q0 5 5 5h85
q5 0 5 -5v-496q0 -5 -5 -5h-75zM427 625q0 -36 -26 -61.5t-62 -25.5t-61.5 25.5t-25.5 61.5t25.5 62t61.5 26q18 0 34 -7t28 -19t19 -28t7 -34zM384 625q0 19 -13 32t-32 13t-32 -13t-13 -32t13 -32t32 -13t32 13t13 32z" />
    <glyph glyph-name="Uhungarumlaut" unicode="&#x170;" 
d="M183 239q0 -32 12.5 -61.5t33.5 -52.5t49.5 -36.5t60.5 -13.5t60 13.5t49 36.5t33 52.5t12 61.5v460q0 5 5 5h85q5 0 5 -5v-460q0 -52 -19.5 -97.5t-53 -79t-79 -53t-97.5 -19.5t-98 19.5t-80 53t-53.5 79t-19.5 97.5v460q0 5 5 5h85q5 0 5 -5v-460zM163 777q-4 0 -4 5
l29 132q0 5 6 5h109q4 0 4 -5l-29 -132q0 -5 -6 -5h-109zM383 777q-4 0 -4 5l29 132q0 5 6 5h109q4 0 4 -5l-29 -132q0 -5 -6 -5h-109z" />
    <glyph glyph-name="uhungarumlaut" unicode="&#x171;" 
d="M486 0q-3 0 -5 5l-10 45q-2 5 -5.5 4t-5.5 -3q-7 -10 -19 -20.5t-29 -19.5t-38 -15t-45 -6q-62 0 -103.5 18.5t-67 50.5t-36.5 75t-11 92v275q0 5 5 5h85q5 0 5 -5v-275q0 -29 7 -56t22.5 -48t41 -34t62.5 -13q31 0 56 12.5t41.5 33.5t25.5 48.5t9 56.5v275q0 5 5 5h85
q5 0 5 -5v-496q0 -5 -5 -5h-75zM160 562q-4 0 -4 5l29 132q0 5 6 5h109q4 0 4 -5l-29 -132q0 -5 -6 -5h-109zM380 562q-4 0 -4 5l29 132q0 5 6 5h109q4 0 4 -5l-29 -132q0 -5 -6 -5h-109z" />
    <glyph glyph-name="Uogonek" unicode="&#x172;" 
d="M183 239q0 -32 12.5 -61.5t33.5 -52.5t49.5 -36.5t60.5 -13.5t60 13.5t49 36.5t33 52.5t12 61.5v460q0 5 5 5h85q5 0 5 -5v-460q0 -63 -27.5 -115.5t-75.5 -87.5q-13 -10 -26.5 -19t-25 -20t-19 -25.5t-7.5 -33.5q0 -31 20 -46t52 -15h14q5 0 5 -5v-65q0 -5 -5 -5h-24
q-59 0 -96 25.5t-38 73.5q-1 44 28 80q3 4 1.5 7.5t-6.5 2.5q-6 -1 -10 -1h-9q-52 0 -98 19.5t-80 53t-53.5 79t-19.5 97.5v460q0 5 5 5h85q5 0 5 -5v-460z" />
    <glyph glyph-name="uogonek" unicode="&#x173;" 
d="M529 0q-29 -2 -49 -20t-20 -42q0 -31 20 -46t52 -15h14q5 0 5 -5v-65q0 -5 -5 -5h-24q-59 0 -96 25.5t-38 73.5q0 35 18 60.5t55 38.5q5 2 4 8l-9 42q-1 5 -5 4t-6 -3q-7 -10 -19 -20.5t-29 -19.5t-38 -15t-45 -6q-62 0 -103.5 18.5t-67 50.5t-36.5 75t-11 92v275
q0 5 5 5h85q5 0 5 -5v-275q0 -29 7 -56t22.5 -48t41 -34t62.5 -13q31 0 56 12.5t41.5 33.5t25.5 48.5t9 56.5v275q0 5 5 5h85q5 0 5 -5v-496q0 -5 -5 -5h-17z" />
    <glyph glyph-name="Wcircumflex" unicode="&#x174;" 
d="M482 100q1 -5 5 -5t5 5l60 599q2 5 5 5h86q7 0 6 -5l-83 -694q-2 -5 -6 -5h-142q-3 0 -5 5l-69 598q-1 4 -5 4t-5 -4l-69 -598q-2 -5 -5 -5h-142q-4 0 -6 5l-83 694q-1 5 6 5h86q3 0 5 -5l60 -599q1 -5 5 -5t5 5l69 599q2 5 5 5h138q3 0 5 -5zM379 787q-4 0 -5 3l-30 42
q-5 8 -10 0l-31 -42q-2 -3 -5 -3h-60q-3 0 -5 2t0 5l44 104q1 4 5 4h114q4 0 5 -4l43 -104q3 -7 -5 -7h-60z" />
    <glyph glyph-name="wcircumflex" unicode="&#x175;" 
d="M420 0q-3 0 -5 5l-72 399q-1 4 -5 4t-5 -4l-71 -399q-2 -5 -5 -5h-137q-4 0 -6 5l-94 496q-1 5 6 5h85q3 0 5 -5l67 -402q1 -4 5 -4t5 4l74 402q2 5 5 5h133q3 0 5 -5l74 -402q1 -4 5 -4t5 4l67 402q2 5 5 5h85q7 0 6 -5l-94 -496q-2 -5 -6 -5h-137zM369 589q-4 0 -5 3
l-30 42q-5 8 -10 0l-31 -42q-2 -3 -5 -3h-60q-3 0 -5 2t0 5l44 104q1 4 5 4h114q4 0 5 -4l43 -104q3 -7 -5 -7h-60z" />
    <glyph glyph-name="Ycircumflex" unicode="&#x176;" 
d="M389 313q-2 -4 -2.5 -6t-0.5 -4v-298q0 -5 -5 -5h-85q-5 0 -5 5v298q0 2 -5 10l-236 386q-3 5 3 5h101q5 0 8 -5l171 -285q5 -7 10 0l172 285q4 5 10 5h99q6 0 3 -5zM379 787q-4 0 -5 3l-30 42q-5 8 -10 0l-31 -42q-2 -3 -5 -3h-60q-3 0 -5 2t0 5l44 104q1 4 5 4h114
q4 0 5 -4l43 -104q3 -7 -5 -7h-60z" />
    <glyph glyph-name="ycircumflex" unicode="&#x177;" 
d="M101 -118q0 5 5 5h113q45 0 59 25.5t0 65.5l-9 27l-169 496q-1 5 6 5h91q3 0 5 -5l131 -402q2 -4 5 -4t5 4l132 402q2 5 5 5h91q7 0 5 -5l-171 -501l-29 -87q-11 -30 -23 -51.5t-27.5 -34.5t-37.5 -19t-52 -6h-130q-5 0 -5 5v75v0zM378 589q-4 0 -5 3l-30 42q-5 8 -10 0
l-31 -42q-2 -3 -5 -3h-60q-3 0 -5 2t0 5l44 104q1 4 5 4h114q4 0 5 -4l43 -104q3 -7 -5 -7h-60z" />
    <glyph glyph-name="Ydieresis" unicode="&#x178;" 
d="M389 313q-2 -4 -2.5 -6t-0.5 -4v-298q0 -5 -5 -5h-85q-5 0 -5 5v298q0 2 -5 10l-236 386q-3 5 3 5h101q5 0 8 -5l171 -285q5 -7 10 0l172 285q4 5 10 5h99q6 0 3 -5zM275 782q0 -5 -5 -5h-105q-5 0 -5 5v104q0 5 5 5h105q5 0 5 -5v-104zM519 782q0 -5 -5 -5h-105
q-5 0 -5 5v104q0 5 5 5h105q5 0 5 -5v-104z" />
    <glyph glyph-name="Zacute" unicode="&#x179;" 
d="M88 75q0 8 0.5 9.5t2.5 3.5l381 525q4 6 -2 6h-377q-5 0 -5 5v75q0 5 5 5h490q5 0 5 -5v-70v-9.5t-2 -3.5l-383 -526q-3 -5 2 -5h378q5 0 5 -5v-75q0 -5 -5 -5h-490q-5 0 -5 5v70zM271 787q-3 0 -5 2t0 5l43 101q2 7 10 7h87q8 0 5 -7l-72 -101l-4.5 -4.5t-6.5 -2.5h-57z
" />
    <glyph glyph-name="zacute" unicode="&#x17a;" 
d="M137 80q0 4 4 10l268 323q2 2 1 5t-5 3h-252q-5 0 -5 5v75q0 5 5 5h369q5 0 5 -5v-75q0 -5 -4 -10l-266 -323q-2 -2 -0.5 -5t4.5 -3h274q5 0 5 -5v-75q0 -5 -5 -5h-393q-5 0 -5 5v75zM289 589q-3 0 -5 2t0 5l43 101q2 7 10 7h87q8 0 5 -7l-72 -101l-4.5 -4.5t-6.5 -2.5
h-57z" />
    <glyph glyph-name="Zdotaccent" unicode="&#x17b;" 
d="M88 75q0 8 0.5 9.5t2.5 3.5l381 525q4 6 -2 6h-377q-5 0 -5 5v75q0 5 5 5h490q5 0 5 -5v-70v-9.5t-2 -3.5l-383 -526q-3 -5 2 -5h378q5 0 5 -5v-75q0 -5 -5 -5h-490q-5 0 -5 5v70zM274 786q-5 0 -5 5v132q0 5 5 5h129q5 0 5 -5v-132q0 -5 -5 -5h-129z" />
    <glyph glyph-name="zdotaccent" unicode="&#x17c;" 
d="M137 80q0 4 4 10l268 323q2 2 1 5t-5 3h-252q-5 0 -5 5v75q0 5 5 5h369q5 0 5 -5v-75q0 -5 -4 -10l-266 -323q-2 -2 -0.5 -5t4.5 -3h274q5 0 5 -5v-75q0 -5 -5 -5h-393q-5 0 -5 5v75zM280 562q-5 0 -5 5v132q0 5 5 5h129q5 0 5 -5v-132q0 -5 -5 -5h-129z" />
    <glyph glyph-name="Zcaron" unicode="&#x17d;" 
d="M88 75q0 8 0.5 9.5t2.5 3.5l381 525q4 6 -2 6h-377q-5 0 -5 5v75q0 5 5 5h490q5 0 5 -5v-70v-9.5t-2 -3.5l-383 -526q-3 -5 2 -5h378q5 0 5 -5v-75q0 -5 -5 -5h-490q-5 0 -5 5v70zM439 892q8 0 5 -7l-43 -104q-1 -4 -5 -4h-114q-4 0 -5 4l-44 104q-2 3 0 5t5 2h60
q3 0 5 -3l31 -42q5 -8 10 0l30 42q1 3 5 3h60z" />
    <glyph glyph-name="zcaron" unicode="&#x17e;" 
d="M137 80q0 4 4 10l268 323q2 2 1 5t-5 3h-252q-5 0 -5 5v75q0 5 5 5h369q5 0 5 -5v-75q0 -5 -4 -10l-266 -323q-2 -2 -0.5 -5t4.5 -3h274q5 0 5 -5v-75q0 -5 -5 -5h-393q-5 0 -5 5v75zM446 704q8 0 5 -7l-43 -104q-1 -4 -5 -4h-114q-4 0 -5 4l-44 104q-2 3 0 5t5 2h60
q3 0 5 -3l31 -42q5 -8 10 0l30 42q1 3 5 3h60z" />
    <glyph glyph-name="longs" unicode="&#x17f;" 
d="M574 624q0 -5 -5 -5h-146q-23 0 -35 -13.5t-12 -36.5v-564q0 -5 -5 -5h-85q-5 0 -5 5v421q0 5 -5 5h-139q-5 0 -5 5v65q0 5 5 5h139q5 0 5 5v75q0 121 141 118h147q5 0 5 -5v-75z" />
    <glyph glyph-name="florin" unicode="&#x192;" 
d="M101 -118q2 5 6 5h59q29 0 43.5 13.5t19.5 36.5l95 490q0 4 -4 4h-89q-6 0 -4 5l13 65q0 5 6 5h89q4 0 6 5l14 75q24 121 164 118h67q6 0 4 -5l-14 -75q-2 -5 -6 -5h-66q-23 0 -37.5 -13.5t-19.5 -36.5l-11 -58q-2 -5 4 -5h108q4 0 4 -5l-13 -65q-2 -5 -6 -5h-108
q-4 0 -6 -5l-98 -506q-12 -62 -52 -91t-101 -27h-77q-6 0 -4 5z" />
    <glyph glyph-name="uni0218" unicode="&#x218;" 
d="M478 511q0 25 -11 46.5t-31 37.5t-48 25t-61 9q-30 0 -56 -8.5t-45.5 -24t-31 -37t-11.5 -46.5q0 -31 14.5 -49.5t37 -29.5t50 -16t53.5 -8q49 -6 97 -16.5t85.5 -33t61 -61.5t23.5 -101q0 -38 -14.5 -75t-46.5 -66.5t-82.5 -48t-123.5 -18.5q-65 0 -115 16.5t-83.5 44.5
t-51 64.5t-17.5 77.5q0 5 5 5h89q6 0 6 -6q0 -19 10 -39.5t31 -38t52.5 -28.5t73.5 -11q40 0 71 10t52.5 27t32.5 39t11 47q0 34 -14 55t-37 34t-53 19t-63 9q-42 4 -87 14t-82.5 31.5t-61.5 58t-24 94.5q0 48 21 85.5t55.5 63t78 39t89.5 13.5q48 0 92 -12.5t78.5 -37.5
t56.5 -63.5t24 -89.5q0 -5 -5 -5h-90q-5 0 -5 5zM299 -134q-5 0 -5 5v69q0 5 5 5h68q5 0 5 -5v-71q0 -34 -20 -55.5t-53 -21.5q-5 0 -5 5v29q0 5 5 5q9 0 18 7t9 23q0 5 -5 5h-22z" />
    <glyph glyph-name="uni0219" unicode="&#x219;" 
d="M457 335q-5 0 -5 5q0 42 -32 66.5t-93 24.5q-57 0 -82.5 -20.5t-25.5 -43.5q0 -21 12 -33t30 -18t39.5 -8.5t40.5 -5.5q37 -5 76.5 -11t71 -21t52 -43t20.5 -76q0 -43 -17 -73.5t-46.5 -50t-69.5 -28.5t-87 -9q-57 0 -99.5 14t-70.5 38t-42 56t-14 68q0 5 5 5h84
q6 0 6 -5q0 -38 35.5 -64.5t95.5 -26.5q19 0 41 2.5t40.5 11t31 23.5t12.5 39q0 21 -13.5 33.5t-33 19t-41 9t-37.5 4.5q-36 4 -74.5 10.5t-70 22t-52 43t-20.5 74.5q0 31 14.5 58t40.5 47t63.5 32t84.5 12q46 0 86 -11t70 -33t47 -55t17 -77q0 -5 -4 -5h-86zM299 -134
q-5 0 -5 5v69q0 5 5 5h68q5 0 5 -5v-71q0 -34 -20 -55.5t-53 -21.5q-5 0 -5 5v29q0 5 5 5q9 0 18 7t9 23q0 5 -5 5h-22z" />
    <glyph glyph-name="uni021A" unicode="&#x21a;" 
d="M291 615q-2 4 -5 4h-193q-5 0 -5 5v75q0 5 5 5h491q5 0 5 -5v-75q0 -5 -5 -5h-193q-5 0 -5 -5v-609q0 -5 -5 -5h-85q-5 0 -5 5v610zM305 -134q-5 0 -5 5v69q0 5 5 5h68q5 0 5 -5v-71q0 -34 -20 -55.5t-53 -21.5q-5 0 -5 5v29q0 5 5 5q9 0 18 7t9 23q0 5 -5 5h-22z" />
    <glyph glyph-name="uni021B" unicode="&#x21b;" 
d="M524 5q0 -5 -5 -5h-157q-63 -2 -97 27t-34 91v308q0 5 -5 5h-139q-5 0 -5 5v65q0 5 5 5h139q5 0 5 5v135q0 5 5 5h85q5 0 5 -5v-135q0 -5 5 -5h188q5 0 5 -5v-65q0 -5 -5 -5h-188q-5 0 -5 -5v-291q0 -23 12 -36.5t42 -13.5h139q5 0 5 -5v-75zM305 -134q-5 0 -5 5v69
q0 5 5 5h68q5 0 5 -5v-71q0 -34 -20 -55.5t-53 -21.5q-5 0 -5 5v29q0 5 5 5q9 0 18 7t9 23q0 5 -5 5h-22z" />
    <glyph glyph-name="circumflex" unicode="&#x2c6;" 
d="M379 589q-4 0 -5 3l-30 42q-5 8 -10 0l-31 -42q-2 -3 -5 -3h-60q-3 0 -5 2t0 5l44 104q1 4 5 4h114q4 0 5 -4l43 -104q3 -7 -5 -7h-60z" />
    <glyph glyph-name="caron" unicode="&#x2c7;" 
d="M439 704q8 0 5 -7l-43 -104q-1 -4 -5 -4h-114q-4 0 -5 4l-44 104q-2 3 0 5t5 2h60q3 0 5 -3l31 -42q5 -8 10 0l30 42q1 3 5 3h60z" />
    <glyph glyph-name="uni02C9" unicode="&#x2c9;" 
d="M215 589q-4 0 -4 5v58q0 5 4 5h246q5 0 5 -5v-58q0 -5 -5 -5h-246z" />
    <glyph glyph-name="breve" unicode="&#x2d8;" 
d="M447 704q5 0 5 -5q0 -31 -10.5 -52t-27 -34t-36.5 -18.5t-40 -5.5t-40 5.5t-36.5 18.5t-27 34t-10.5 52q0 5 5 5h62q5 0 5 -5q0 -21 14 -29.5t28 -8.5t27.5 8.5t13.5 29.5q0 5 5 5h63z" />
    <glyph glyph-name="dotaccent" unicode="&#x2d9;" 
d="M274 562q-5 0 -5 5v132q0 5 5 5h129q5 0 5 -5v-132q0 -5 -5 -5h-129z" />
    <glyph glyph-name="ring" unicode="&#x2da;" 
d="M426 625q0 -36 -26 -61.5t-62 -25.5t-61.5 25.5t-25.5 61.5t25.5 62t61.5 26q18 0 34 -7t28 -19t19 -28t7 -34zM383 625q0 19 -13 32t-32 13t-32 -13t-13 -32t13 -32t32 -13t32 13t13 32z" />
    <glyph glyph-name="ogonek" unicode="&#x2db;" 
d="M411 10q5 0 5 -5t-5 -5h-6q-32 0 -53.5 -18.5t-21.5 -43.5q0 -31 20 -46t52 -15h14q5 0 5 -5v-65q0 -5 -5 -5h-24q-59 0 -96 25.5t-38 73.5q0 25 10.5 46t30 35t46.5 21.5t60 6.5h6z" />
    <glyph glyph-name="tilde" unicode="&#x2dc;" 
d="M183 618q0 13 5 28t16.5 28t31 21.5t49.5 8.5q22 0 38.5 -7t29 -16t22 -16t17.5 -7q3 0 8.5 0.5t11 4t9 12t3.5 24.5q0 5 5 5h60q5 0 5 -5v-24q0 -13 -5 -28t-17 -27.5t-31.5 -21t-48.5 -8.5q-20 0 -36 7t-29 16t-23 16t-19 7q-3 0 -8.5 -0.5t-11 -4t-9 -12t-3.5 -24.5
q0 -5 -5 -5h-60q-5 0 -5 5v23z" />
    <glyph glyph-name="hungarumlaut" unicode="&#x2dd;" 
d="M158 562q-4 0 -4 5l29 132q0 5 6 5h109q4 0 4 -5l-29 -132q0 -5 -6 -5h-109zM378 562q-4 0 -4 5l29 132q0 5 6 5h109q4 0 4 -5l-29 -132q0 -5 -6 -5h-109z" />
    <glyph glyph-name="uni0394" unicode="&#x394;" horiz-adv-x="685" 
d="M69 0q-5 0 -5 5v73q0 2 1 4.5t2 4.5l208 612q2 5 6 5h127q3 0 5 -5l205 -611q1 -2 2 -4.5t1 -5.5v-73q0 -5 -5 -5h-547zM171 91q-2 -6 5 -6h333q7 0 5 7l-165 513q-2 4 -5 4t-5 -4z" />
    <glyph glyph-name="uni03A9" unicode="&#x3a9;" 
d="M549 5q0 -5 -5 -5h-411q-5 0 -5 5v694q0 5 5 5h411q5 0 5 -5v-694zM512 681h-346l173 -306zM512 24l-173 305l-173 -305h346zM525 48v608q-43 -75 -87 -152t-86 -152zM326 352l-173 305v-610z" />
    <glyph glyph-name="uni03BC" unicode="&#x3bc;" 
d="M549 5q0 -5 -5 -5h-411q-5 0 -5 5v694q0 5 5 5h411q5 0 5 -5v-694zM512 681h-346l173 -306zM512 24l-173 305l-173 -305h346zM525 48v608q-43 -75 -87 -152t-86 -152zM326 352l-173 305v-610z" />
    <glyph glyph-name="pi" unicode="&#x3c0;" 
d="M549 5q0 -5 -5 -5h-411q-5 0 -5 5v694q0 5 5 5h411q5 0 5 -5v-694zM512 681h-346l173 -306zM512 24l-173 305l-173 -305h346zM525 48v608q-43 -75 -87 -152t-86 -152zM326 352l-173 305v-610z" />
    <glyph glyph-name="Wgrave" unicode="&#x1e80;" 
d="M482 100q1 -5 5 -5t5 5l60 599q2 5 5 5h86q7 0 6 -5l-83 -694q-2 -5 -6 -5h-142q-3 0 -5 5l-69 598q-1 4 -5 4t-5 -4l-69 -598q-2 -5 -5 -5h-142q-4 0 -6 5l-83 694q-1 5 6 5h86q3 0 5 -5l60 -599q1 -5 5 -5t5 5l69 599q2 5 5 5h138q3 0 5 -5zM349 787q-4 0 -6.5 2.5
l-4.5 4.5l-72 101q-2 3 0 5t5 2h87q8 0 10 -7l43 -101q3 -7 -5 -7h-57z" />
    <glyph glyph-name="wgrave" unicode="&#x1e81;" 
d="M420 0q-3 0 -5 5l-72 399q-1 4 -5 4t-5 -4l-71 -399q-2 -5 -5 -5h-137q-4 0 -6 5l-94 496q-1 5 6 5h85q3 0 5 -5l67 -402q1 -4 5 -4t5 4l74 402q2 5 5 5h133q3 0 5 -5l74 -402q1 -4 5 -4t5 4l67 402q2 5 5 5h85q7 0 6 -5l-94 -496q-2 -5 -6 -5h-137zM309 589
q-4 0 -6.5 2.5l-4.5 4.5l-72 101q-2 3 0 5t5 2h87q8 0 10 -7l43 -101q3 -7 -5 -7h-57z" />
    <glyph glyph-name="Wacute" unicode="&#x1e82;" 
d="M482 100q1 -5 5 -5t5 5l60 599q2 5 5 5h86q7 0 6 -5l-83 -694q-2 -5 -6 -5h-142q-3 0 -5 5l-69 598q-1 4 -5 4t-5 -4l-69 -598q-2 -5 -5 -5h-142q-4 0 -6 5l-83 694q-1 5 6 5h86q3 0 5 -5l60 -599q1 -5 5 -5t5 5l69 599q2 5 5 5h138q3 0 5 -5zM271 787q-3 0 -5 2t0 5
l43 101q2 7 10 7h87q8 0 5 -7l-72 -101l-4.5 -4.5t-6.5 -2.5h-57z" />
    <glyph glyph-name="wacute" unicode="&#x1e83;" 
d="M420 0q-3 0 -5 5l-72 399q-1 4 -5 4t-5 -4l-71 -399q-2 -5 -5 -5h-137q-4 0 -6 5l-94 496q-1 5 6 5h85q3 0 5 -5l67 -402q1 -4 5 -4t5 4l74 402q2 5 5 5h133q3 0 5 -5l74 -402q1 -4 5 -4t5 4l67 402q2 5 5 5h85q7 0 6 -5l-94 -496q-2 -5 -6 -5h-137zM301 589q-3 0 -5 2
t0 5l43 101q2 7 10 7h87q8 0 5 -7l-72 -101l-4.5 -4.5t-6.5 -2.5h-57z" />
    <glyph glyph-name="Wdieresis" unicode="&#x1e84;" 
d="M482 100q1 -5 5 -5t5 5l60 599q2 5 5 5h86q7 0 6 -5l-83 -694q-2 -5 -6 -5h-142q-3 0 -5 5l-69 598q-1 4 -5 4t-5 -4l-69 -598q-2 -5 -5 -5h-142q-4 0 -6 5l-83 694q-1 5 6 5h86q3 0 5 -5l60 -599q1 -5 5 -5t5 5l69 599q2 5 5 5h138q3 0 5 -5zM274 829q0 -5 -5 -5h-105
q-5 0 -5 5v105q0 5 5 5h105q5 0 5 -5v-105zM518 829q0 -5 -5 -5h-105q-5 0 -5 5v105q0 5 5 5h105q5 0 5 -5v-105z" />
    <glyph glyph-name="wdieresis" unicode="&#x1e85;" 
d="M420 0q-3 0 -5 5l-72 399q-1 4 -5 4t-5 -4l-71 -399q-2 -5 -5 -5h-137q-4 0 -6 5l-94 496q-1 5 6 5h85q3 0 5 -5l67 -402q1 -4 5 -4t5 4l74 402q2 5 5 5h133q3 0 5 -5l74 -402q1 -4 5 -4t5 4l67 402q2 5 5 5h85q7 0 6 -5l-94 -496q-2 -5 -6 -5h-137zM275 595q0 -5 -5 -5
h-105q-5 0 -5 5v104q0 5 5 5h105q5 0 5 -5v-104zM519 595q0 -5 -5 -5h-105q-5 0 -5 5v104q0 5 5 5h105q5 0 5 -5v-104z" />
    <glyph glyph-name="endash" unicode="&#x2013;" 
d="M116 211q-5 0 -5 5v75q0 5 5 5h445q5 0 5 -5v-75q0 -5 -5 -5h-445z" />
    <glyph glyph-name="emdash" unicode="&#x2014;" 
d="M28 211q-5 0 -5 5v75q0 5 5 5h621q5 0 5 -5v-75q0 -5 -5 -5h-621z" />
    <glyph glyph-name="quoteleft" unicode="&#x2018;" 
d="M398 581q5 0 5 -5v-140q0 -5 -5 -5h-120q-5 0 -5 5v139q0 57 34.5 93t90.5 36q5 0 5 -5v-55q0 -5 -5 -5q-15 0 -32 -13.5t-17 -39.5q0 -5 5 -5h44z" />
    <glyph glyph-name="quoteright" unicode="&#x2019;" 
d="M278 554q-5 0 -5 5v140q0 5 5 5h120q5 0 5 -5v-139q0 -57 -34.5 -93t-90.5 -36q-5 0 -5 5v55q0 5 5 5q15 0 32 13.5t17 39.5q0 5 -5 5h-44z" />
    <glyph glyph-name="quotesinglbase" unicode="&#x201a;" 
d="M278 0q-5 0 -5 5v122q0 5 5 5h120q5 0 5 -5v-121q0 -57 -34.5 -93t-90.5 -36q-5 0 -5 5v55q0 5 5 5q15 0 32 13.5t17 39.5q0 5 -5 5h-44z" />
    <glyph glyph-name="quotedblleft" unicode="&#x201c;" 
d="M488 581q5 0 5 -5v-140q0 -5 -5 -5h-120q-5 0 -5 5v139q0 57 34.5 93t90.5 36q5 0 5 -5v-55q0 -5 -5 -5q-15 0 -32 -13.5t-17 -39.5q0 -5 5 -5h44zM308 581q5 0 5 -5v-140q0 -5 -5 -5h-120q-5 0 -5 5v139q0 57 34.5 93t90.5 36q5 0 5 -5v-55q0 -5 -5 -5q-15 0 -32 -13.5
t-17 -39.5q0 -5 5 -5h44z" />
    <glyph glyph-name="quotedblright" unicode="&#x201d;" 
d="M188 554q-5 0 -5 5v140q0 5 5 5h120q5 0 5 -5v-139q0 -57 -34.5 -93t-90.5 -36q-5 0 -5 5v55q0 5 5 5q15 0 32 13.5t17 39.5q0 5 -5 5h-44zM368 554q-5 0 -5 5v140q0 5 5 5h120q5 0 5 -5v-139q0 -57 -34.5 -93t-90.5 -36q-5 0 -5 5v55q0 5 5 5q15 0 32 13.5t17 39.5
q0 5 -5 5h-44z" />
    <glyph glyph-name="quotedblbase" unicode="&#x201e;" 
d="M366 0q-5 0 -5 5v152q0 5 5 5h149q5 0 5 -5v-151q0 -25 -8 -48t-26 -41t-47.5 -29t-72.5 -11q-5 0 -5 5v55q0 5 5 5q45 0 61.5 17t16.5 36q0 5 -5 5h-73zM162 0q-5 0 -5 5v152q0 5 5 5h149q5 0 5 -5v-151q0 -25 -8 -48t-26 -41t-47.5 -29t-72.5 -11q-5 0 -5 5v55q0 5 5 5
q45 0 61.5 17t16.5 36q0 5 -5 5h-73z" />
    <glyph glyph-name="dagger" unicode="&#x2020;" 
d="M286 506q5 0 5 5v188q0 5 5 5h85q5 0 5 -5v-188q0 -5 5 -5h196q5 0 5 -5v-85q0 -5 -5 -5h-196q-5 0 -5 -5v-599q0 -5 -5 -5h-85q-5 0 -5 5v599q0 5 -5 5h-196q-5 0 -5 5v85q0 5 5 5h196z" />
    <glyph glyph-name="daggerdbl" unicode="&#x2021;" 
d="M90 1q-5 0 -5 5v85q0 5 5 5h196q5 0 5 5v305q0 5 -5 5h-196q-5 0 -5 5v85q0 5 5 5h196q5 0 5 5v189q0 5 5 5h85q5 0 5 -5v-189q0 -5 5 -5h196q5 0 5 -5v-85q0 -5 -5 -5h-196q-5 0 -5 -5v-305q0 -5 5 -5h196q5 0 5 -5v-85q0 -5 -5 -5h-196q-5 0 -5 -5v-189q0 -5 -5 -5h-85
q-5 0 -5 5v189q0 5 -5 5h-196z" />
    <glyph glyph-name="bullet" unicode="&#x2022;" 
d="M75 253q0 55 20.5 103t56 83.5t83.5 56t103 20.5t103 -20.5t83.5 -56t56 -83.5t20.5 -103t-20.5 -103t-56 -83.5t-83.5 -56t-103 -20.5t-103 20.5t-83.5 56t-56 83.5t-20.5 103z" />
    <glyph glyph-name="ellipsis" unicode="&#x2026;" 
d="M74 0q-5 0 -5 5v122q0 5 5 5h120q5 0 5 -5v-122q0 -5 -5 -5h-120zM279 0q-5 0 -5 5v122q0 5 5 5h120q5 0 5 -5v-122q0 -5 -5 -5h-120zM483 0q-5 0 -5 5v122q0 5 5 5h120q5 0 5 -5v-122q0 -5 -5 -5h-120z" />
    <glyph glyph-name="perthousand" unicode="&#x2030;" 
d="M668 160q0 -34 -6 -63.5t-19.5 -51t-36 -33.5t-55.5 -12q-34 0 -56.5 12t-36.5 34q-14 -22 -36.5 -34t-55.5 -12t-56 12t-37 33.5t-20 51t-6 63.5t6 63t20 50.5t37 33.5t56 12t55.5 -12t36.5 -34q14 22 36.5 34t56.5 12q33 0 55.5 -12t36 -33.5t19.5 -50.5t6 -63z
M273 545q0 -34 -6 -63.5t-19.5 -51t-36 -33.5t-55.5 -12t-56 12t-37 33.5t-20 51t-6 63.5t6 63t20 50.5t37 33.5t56 12t55.5 -12t36 -33.5t19.5 -50.5t6 -63zM444 702q2 2 4 2h54q8 0 4 -8l-426 -694q-2 -2 -4 -2h-52q-8 0 -4 8zM617 160q0 52 -15 80.5t-51 28.5
q-37 0 -52 -28.5t-15 -80.5q0 -53 15 -82t52 -29q36 0 51 29t15 82zM432 160q0 52 -15 80.5t-51 28.5q-37 0 -52 -28.5t-15 -80.5q0 -53 15 -82t52 -29q34 0 49 27.5t17 83.5zM222 545q0 52 -15 80.5t-51 28.5q-37 0 -52 -28.5t-15 -80.5q0 -53 15 -82t52 -29q36 0 51 29
t15 82z" />
    <glyph glyph-name="guilsinglleft" unicode="&#x2039;" 
d="M275 258q-3 -4 0 -9l212 -242q2 -7 -5 -7h-74q-4 0 -5 3l-212 246q-3 4 0 9l212 246q1 3 5 3h74q7 0 5 -7z" />
    <glyph glyph-name="guilsinglright" unicode="&#x203a;" 
d="M189 500q-2 7 5 7h74q3 0 5 -3l212 -246q3 -5 0 -9l-212 -246q-2 -3 -5 -3h-74q-7 0 -5 7l212 242q3 5 0 9z" />
    <glyph glyph-name="fraction" unicode="&#x2044;" 
d="M519 702q2 2 4 2h54q8 0 4 -8l-426 -694q-2 -2 -4 -2h-52q-8 0 -4 8z" />
    <glyph glyph-name="franc" unicode="&#x20a3;" 
d="M549 5q0 -5 -5 -5h-411q-5 0 -5 5v694q0 5 5 5h411q5 0 5 -5v-694zM512 681h-346l173 -306zM512 24l-173 305l-173 -305h346zM525 48v608q-43 -75 -87 -152t-86 -152zM326 352l-173 305v-610z" />
    <glyph glyph-name="lira" unicode="&#x20a4;" 
d="M549 5q0 -5 -5 -5h-411q-5 0 -5 5v694q0 5 5 5h411q5 0 5 -5v-694zM512 681h-346l173 -306zM512 24l-173 305l-173 -305h346zM525 48v608q-43 -75 -87 -152t-86 -152zM326 352l-173 305v-610z" />
    <glyph glyph-name="peseta" unicode="&#x20a7;" 
d="M549 5q0 -5 -5 -5h-411q-5 0 -5 5v694q0 5 5 5h411q5 0 5 -5v-694zM512 681h-346l173 -306zM512 24l-173 305l-173 -305h346zM525 48v608q-43 -75 -87 -152t-86 -152zM326 352l-173 305v-610z" />
    <glyph glyph-name="Euro" unicode="&#x20ac;" 
d="M150 223q-1 7 -6 7h-76q-5 0 -3 5l20 75q2 5 6 5h41q5 0 5 5q-1 4 -1.5 14.5t-0.5 22.5t0.5 22.5t1.5 15.5q0 5 -5 5h-64q-6 0 -4 5l20 75q2 5 7 5h55q5 0 5 4q12 51 34.5 92.5t56 71t78.5 45.5t103 16q63 0 105.5 -17t79.5 -52q5 -5 2 -14l-26 -80q-1 -3 -3.5 -3t-4.5 3
q-20 34 -58.5 56t-94.5 22q-69 0 -110.5 -32.5t-60.5 -106.5q-1 -5 5 -5h300q6 0 4 -5l-21 -75q-2 -5 -6 -5h-292q-5 0 -5 -5q-6 -38 0 -75q0 -5 5 -5h264q6 0 4 -5l-21 -75q-1 -5 -6 -5h-228q-6 0 -5 -7q17 -72 59 -110t114 -38q31 0 58.5 11.5t50 30.5t40.5 42t30 47
q2 4 6.5 4t4.5 -5v-116q0 -7 -5 -14q-25 -38 -73.5 -61.5t-111.5 -23.5q-59 0 -104.5 16.5t-79.5 47t-56 73.5t-33 96z" />
    <glyph glyph-name="uni2113" unicode="&#x2113;" 
d="M553 191q5 0 5 -5v-28q0 -33 -12.5 -62t-34 -50t-50.5 -33.5t-61 -12.5t-60.5 12t-50 32.5t-34 48.5t-13.5 60q0 3 -3 4.5t-6 -1.5l-107 -107q-2 -2 -5 -0.5t-3 4.5v79q0 4 2 6l118 118q4 4 4 6v284q0 33 12.5 62t34 50t50 33.5t61.5 12.5q30 0 59 -11.5t52 -34.5
t34.5 -52t11.5 -59.5t-11.5 -59.5t-34.5 -52l-199 -200q-3 -3 -3 -7v-70q0 -19 7 -36t19.5 -29.5t29 -19.5t35.5 -7t35.5 7t28.5 19.5t19 29.5t7 36v28q0 5 5 5h58zM464 611q-27 27 -64 27q-19 0 -35.5 -7t-29 -19.5t-19.5 -29.5t-7 -36v-207q0 -4 3 -5t5 1l147 147
q13 13 20 30t7 34.5t-7 34.5t-20 30z" />
    <glyph glyph-name="trademark" unicode="&#x2122;" 
d="M462 699q2 5 6 5h56q5 0 5 -5v-188q0 -5 -5 -5h-26q-5 0 -5 5v154q0 2 -2 2.5t-3 -2.5l-40 -154q-2 -5 -6 -5h-43q-4 0 -6 5l-40 154q-1 3 -3 2.5t-2 -2.5v-154q0 -5 -5 -5h-26q-5 0 -5 5v188q0 5 5 5h56q4 0 6 -5l39 -157q1 -2 2.5 -2t2.5 2zM245 668q-5 0 -5 -5v-152
q0 -5 -5 -5h-26q-5 0 -5 5v152q0 5 -5 5h-47q-5 0 -5 5v26q0 5 4 5h142q5 0 5 -5v-26q0 -5 -5 -5h-48z" />
    <glyph glyph-name="Omega" unicode="&#x2126;" 
d="M549 5q0 -5 -5 -5h-411q-5 0 -5 5v694q0 5 5 5h411q5 0 5 -5v-694zM512 681h-346l173 -306zM512 24l-173 305l-173 -305h346zM525 48v608q-43 -75 -87 -152t-86 -152zM326 352l-173 305v-610z" />
    <glyph glyph-name="estimated" unicode="&#x212e;" 
d="M533 128q4 -2 2 -6q-29 -57 -81.5 -89.5t-115.5 -32.5q-45 0 -85 17.5t-70 47.5t-47.5 70t-17.5 85v51q0 45 17.5 85.5t47.5 70.5t70 47.5t85 17.5t85 -17.5t70 -47.5t47.5 -70.5t17.5 -85.5v-28q0 -5 -5 -5h-364q-5 0 -5 -5v-146q28 -33 67.5 -52t86.5 -19q57 0 106 30
t77 81q2 4 6 3zM338 476q-47 0 -86.5 -19.5t-67.5 -51.5v-145q0 -5 5 -5h297q5 0 5 5v146q-29 32 -68 51t-85 19z" />
    <glyph glyph-name="arrowleft" unicode="&#x2190;" 
d="M34 320q-4 4 -4 10v52q0 6 4 10l125 108q6 5 10 5.5t12 0.5h75q4 0 5 -3.5t-2 -5.5l-123 -104q-3 -2 -2.5 -3.5t2.5 -1.5h506q5 0 5 -5v-54q0 -5 -5 -5h-506q-2 0 -2.5 -1.5t2.5 -3.5l123 -104q3 -2 2 -5.5t-5 -3.5h-75q-8 0 -12 0.5t-10 5.5z" />
    <glyph glyph-name="arrowup" unicode="&#x2191;" 
d="M482 575q5 -6 5.5 -10t0.5 -12v-75q0 -4 -3.5 -5t-5.5 2l-104 123q-2 3 -3.5 2.5t-1.5 -2.5v-593q0 -5 -5 -5h-54q-5 0 -5 5v593q0 2 -1.5 2.5t-3.5 -2.5l-104 -123q-2 -3 -5.5 -2t-3.5 5v75q0 8 0.5 12t5.5 10l108 125q4 4 10 4h52q6 0 10 -4z" />
    <glyph glyph-name="arrowright" unicode="&#x2192;" 
d="M518 212q-6 -5 -10 -5.5t-12 -0.5h-75q-4 0 -5 3.5t2 5.5l123 104q3 2 2.5 3.5t-2.5 1.5h-506q-5 0 -5 5v54q0 5 5 5h506q2 0 2.5 1.5t-2.5 3.5l-123 104q-3 2 -2 5.5t5 3.5h75q8 0 12 -0.5t10 -5.5l125 -108q4 -4 4 -10v-52q0 -6 -4 -10z" />
    <glyph glyph-name="arrowdown" unicode="&#x2193;" 
d="M374 4q-4 -4 -10 -4h-52q-6 0 -10 4l-108 125q-5 6 -5.5 10t-0.5 12v75q0 4 3.5 5t5.5 -2l104 -123q2 -3 3.5 -2.5t1.5 2.5v593q0 5 5 5h54q5 0 5 -5v-593q0 -2 1.5 -2.5t3.5 2.5l104 123q2 3 5.5 2t3.5 -5v-75q0 -8 -0.5 -12t-5.5 -10z" />
    <glyph glyph-name="carriagereturn" unicode="&#x21b5;" 
d="M647 344h-1v-15q0 -5 -5 -5h-506q-2 0 -2.5 -1.5t2.5 -3.5l123 -104q3 -2 2 -5.5t-5 -3.5h-75q-8 0 -12 0.5t-10 5.5l-125 108q-4 4 -4 10v52q0 6 4 10l125 108q6 5 10 5.5t12 0.5h75q4 0 5 -3.5t-2 -5.5l-123 -104q-3 -2 -2.5 -3.5t2.5 -1.5h443q5 0 5 5v306q0 5 5 5h54
q5 0 5 -5v-355z" />
    <glyph glyph-name="partialdiff" unicode="&#x2202;" 
d="M549 5q0 -5 -5 -5h-411q-5 0 -5 5v694q0 5 5 5h411q5 0 5 -5v-694zM512 681h-346l173 -306zM512 24l-173 305l-173 -305h346zM525 48v608q-43 -75 -87 -152t-86 -152zM326 352l-173 305v-610z" />
    <glyph glyph-name="Delta" unicode="&#x2206;" horiz-adv-x="685" 
d="M69 0q-5 0 -5 5v73q0 2 1 4.5t2 4.5l208 612q2 5 6 5h127q3 0 5 -5l205 -611q1 -2 2 -4.5t1 -5.5v-73q0 -5 -5 -5h-547zM171 91q-2 -6 5 -6h333q7 0 5 7l-165 513q-2 4 -5 4t-5 -4z" />
    <glyph glyph-name="product" unicode="&#x220f;" 
d="M549 5q0 -5 -5 -5h-411q-5 0 -5 5v694q0 5 5 5h411q5 0 5 -5v-694zM512 681h-346l173 -306zM512 24l-173 305l-173 -305h346zM525 48v608q-43 -75 -87 -152t-86 -152zM326 352l-173 305v-610z" />
    <glyph glyph-name="summation" unicode="&#x2211;" 
d="M549 5q0 -5 -5 -5h-411q-5 0 -5 5v694q0 5 5 5h411q5 0 5 -5v-694zM512 681h-346l173 -306zM512 24l-173 305l-173 -305h346zM525 48v608q-43 -75 -87 -152t-86 -152zM326 352l-173 305v-610z" />
    <glyph glyph-name="minus" unicode="&#x2212;" 
d="M90 208q-5 0 -5 5v80q0 5 5 5h497q5 0 5 -5v-80q0 -5 -5 -5h-497z" />
    <glyph glyph-name="uni2215" unicode="&#x2215;" 
d="M519 702q2 2 4 2h54q8 0 4 -8l-426 -694q-2 -2 -4 -2h-52q-8 0 -4 8z" />
    <glyph glyph-name="radical" unicode="&#x221a;" 
d="M145 416q-1 5 -6 5h-92q-5 0 -5 5v75q0 5 5 5h154q3 0 5 -5l112 -402q2 -4 5 -4t5 4l221 788q2 5 5 5h74q7 0 5 -5l-246 -882q-2 -5 -5 -5h-117q-4 0 -6 5z" />
    <glyph glyph-name="infinity" unicode="&#x221e;" 
d="M345 332q-5 5 -10 0l-88 -69q-16 -13 -38 -21.5t-46 -8.5q-30 0 -55 11t-44 30.5t-29.5 45t-10.5 55.5q0 29 10.5 55t29.5 45t44 30t55 11q24 0 48.5 -8t42.5 -23l81 -69q5 -4 10 0l77 69q17 15 42.5 23t47.5 8q30 0 55.5 -11t44.5 -30t30 -45t11 -55q0 -30 -11 -55.5
t-30 -45t-44.5 -30.5t-55.5 -11q-23 0 -45 8t-38 22zM512 454q-30 0 -48 -15l-79 -60q-5 -5 0 -8l79 -58q12 -8 23.5 -13t24.5 -5q34 0 57 23.5t23 56.5t-23 56t-57 23zM163 454q-34 0 -56.5 -23t-22.5 -56t22.5 -56.5t56.5 -23.5q14 0 25 4.5t21 12.5l81 58q2 2 2 4.5
t-2 4.5l-78 60q-20 15 -49 15z" />
    <glyph glyph-name="integral" unicode="&#x222b;" 
d="M549 5q0 -5 -5 -5h-411q-5 0 -5 5v694q0 5 5 5h411q5 0 5 -5v-694zM512 681h-346l173 -306zM512 24l-173 305l-173 -305h346zM525 48v608q-43 -75 -87 -152t-86 -152zM326 352l-173 305v-610z" />
    <glyph glyph-name="approxequal" unicode="&#x2248;" 
d="M549 5q0 -5 -5 -5h-411q-5 0 -5 5v694q0 5 5 5h411q5 0 5 -5v-694zM512 681h-346l173 -306zM512 24l-173 305l-173 -305h346zM525 48v608q-43 -75 -87 -152t-86 -152zM326 352l-173 305v-610z" />
    <glyph glyph-name="notequal" unicode="&#x2260;" 
d="M115 96q-5 0 -5 5v90q0 5 5 5h447q5 0 5 -5v-90q0 -5 -5 -5h-447zM115 312q-5 0 -5 5v90q0 5 5 5h447q5 0 5 -5v-90q0 -5 -5 -5h-447z" />
    <glyph glyph-name="lessequal" unicode="&#x2264;" 
d="M109 504q0 3 3 5l448 193q7 3 7 -5v-78q0 -3 -3 -4l-372 -164q-2 -1 -2 -3t2 -3l372 -160q3 -2 3 -4v-78q0 -3 -2 -5t-5 0l-448 189q-3 1 -3 5v56v56zM114 0q-5 0 -5 5v75q0 5 5 5h448q5 0 5 -5v-75q0 -5 -5 -5h-448z" />
    <glyph glyph-name="greaterequal" unicode="&#x2265;" 
d="M567 448v-56q0 -4 -3 -5l-448 -189q-3 -2 -5 0t-2 5v78q0 2 3 4l372 160q2 1 2 3t-2 3l-372 164q-3 1 -3 4v78q0 8 7 5l448 -193q3 -2 3 -5v-56zM114 0q-5 0 -5 5v75q0 5 5 5h448q5 0 5 -5v-75q0 -5 -5 -5h-448z" />
    <glyph glyph-name="lozenge" unicode="&#x25ca;" 
d="M549 5q0 -5 -5 -5h-411q-5 0 -5 5v694q0 5 5 5h411q5 0 5 -5v-694zM512 681h-346l173 -306zM512 24l-173 305l-173 -305h346zM525 48v608q-43 -75 -87 -152t-86 -152zM326 352l-173 305v-610z" />
    <glyph glyph-name="commaaccent" unicode="&#xf6c3;" 
d="M278 198q-5 0 -5 5v122q0 5 5 5h120q5 0 5 -5v-121q0 -57 -34.5 -93t-90.5 -36q-5 0 -5 5v55q0 5 5 5q15 0 32 13.5t17 39.5q0 5 -5 5h-44z" />
    <glyph glyph-name="apple" unicode="&#xf8ff;" 
d="M454 540q0 -27 -5.5 -51t-27.5 -46q-14 -14 -31.5 -24t-41.5 -10q-1 0 -1 0.5t-1 0.5q0 25 7 46t25 41q16 16 34.5 27.5t41.5 15.5zM566 144q-19 -41 -36 -68.5t-31 -43.5q-31 -32 -68 -32q-15 0 -43 12q-14 6 -23.5 8t-17.5 2q-6 0 -16.5 -2t-24.5 -8q-27 -12 -42 -12
q-23 0 -42 15q-26 18 -46.5 45.5t-35 59t-22.5 66t-8 67.5q0 30 10 59.5t29 52.5t46 37t61 14q12 0 25 -3.5t27 -8.5q28 -11 39 -11q7 0 16.5 3t23.5 8q15 5 27.5 8.5t22.5 3.5q36 0 66 -14q27 -12 52 -40q-27 -19 -46.5 -44.5t-19.5 -62.5t20.5 -66t56.5 -45z" />
    <glyph glyph-name="f_f" unicode="&#xfb00;" 
d="M628 624q0 -5 -5 -5h-66q-23 0 -35 -13.5t-12 -36.5v-58q0 -5 5 -5h108q5 0 5 -5v-65q0 -5 -5 -5h-108q-5 0 -5 -5v-421q0 -5 -5 -5h-85q-5 0 -5 5v421q0 5 -5 5h-145q-5 0 -5 -5v-421q0 -5 -5 -5h-85q-5 0 -5 5v421q0 5 -5 5h-109q-5 0 -5 5v65q0 5 5 5h109q5 0 5 5v75
q0 121 141 118h67q5 0 5 -5v-75q0 -5 -5 -5h-66q-23 0 -35 -13.5t-12 -36.5v-58q0 -5 5 -5h145q5 0 5 5v75q0 121 141 118h67q5 0 5 -5v-75z" />
    <glyph glyph-name="fi" unicode="&#xfb01;" 
d="M408 624q0 -5 -5 -5h-66q-23 0 -35 -13.5t-12 -36.5v-58q0 -5 5 -5h271q5 0 5 -5v-496q0 -5 -5 -5h-85q-5 0 -5 5v421q0 5 -5 5h-176q-5 0 -5 -5v-421q0 -5 -5 -5h-85q-5 0 -5 5v421q0 5 -5 5h-109q-5 0 -5 5v65q0 5 5 5h109q5 0 5 5v75q0 121 141 118h67q5 0 5 -5v-75z
M581 594q0 -5 -5 -5h-105q-5 0 -5 5v105q0 5 5 5h105q5 0 5 -5v-105z" />
    <glyph glyph-name="fl" unicode="&#xfb02;" 
d="M573 704q5 0 5 -5v-694q0 -5 -5 -5h-85q-5 0 -5 5v609q0 5 -5 5h-148q-23 0 -35 -13.5t-12 -36.5v-58q0 -5 5 -5h118q5 0 5 -5v-65q0 -5 -5 -5h-118q-5 0 -5 -5v-421q0 -5 -5 -5h-85q-5 0 -5 5v421q0 5 -5 5h-109q-5 0 -5 5v65q0 5 5 5h109q5 0 5 5v75q0 121 141 118h244
z" />
    <glyph glyph-name="f_f_i" unicode="&#xfb03;" 
d="M549 5q0 -5 -5 -5h-411q-5 0 -5 5v694q0 5 5 5h411q5 0 5 -5v-694zM512 681h-346l173 -306zM512 24l-173 305l-173 -305h346zM525 48v608q-43 -75 -87 -152t-86 -152zM326 352l-173 305v-610z" />
    <glyph glyph-name="f_f_l" unicode="&#xfb04;" 
d="M549 5q0 -5 -5 -5h-411q-5 0 -5 5v694q0 5 5 5h411q5 0 5 -5v-694zM512 681h-346l173 -306zM512 24l-173 305l-173 -305h346zM525 48v608q-43 -75 -87 -152t-86 -152zM326 352l-173 305v-610z" />
    <glyph glyph-name="longs_t" unicode="&#xfb05;" 
d="M549 5q0 -5 -5 -5h-411q-5 0 -5 5v694q0 5 5 5h411q5 0 5 -5v-694zM512 681h-346l173 -306zM512 24l-173 305l-173 -305h346zM525 48v608q-43 -75 -87 -152t-86 -152zM326 352l-173 305v-610z" />
    <glyph glyph-name="breve.case" 
d="M447 902q5 0 5 -5q0 -31 -10.5 -52t-27 -34t-36.5 -18.5t-40 -5.5t-40 5.5t-36.5 18.5t-27 34t-10.5 52q0 5 5 5h62q5 0 5 -5q0 -21 14 -29.5t28 -8.5t27.5 8.5t13.5 29.5q0 5 5 5h63z" />
    <glyph glyph-name="caron.case" 
d="M441 902q8 0 5 -7l-43 -104q-1 -4 -5 -4h-114q-4 0 -5 4l-44 104q-2 3 0 5t5 2h60q3 0 5 -3l31 -42q5 -8 10 0l30 42q1 3 5 3h60z" />
    <glyph glyph-name="circumflex.case" 
d="M379 787q-4 0 -5 3l-30 42q-5 8 -10 0l-31 -42q-2 -3 -5 -3h-60q-3 0 -5 2t0 5l44 104q1 4 5 4h114q4 0 5 -4l43 -104q3 -7 -5 -7h-60z" />
    <glyph glyph-name="acute.case" 
d="M271 787q-3 0 -5 2t0 5l43 101q2 7 10 7h87q8 0 5 -7l-72 -101l-4.5 -4.5t-6.5 -2.5h-57z" />
    <glyph glyph-name="macron.case" 
d="M196 787q-4 0 -4 5v58q0 5 4 5h246q5 0 5 -5v-58q0 -5 -5 -5h-246z" />
    <glyph glyph-name="dieresis.case" 
d="M274 792q0 -5 -5 -5h-105q-5 0 -5 5v105q0 5 5 5h105q5 0 5 -5v-105zM518 792q0 -5 -5 -5h-105q-5 0 -5 5v105q0 5 5 5h105q5 0 5 -5v-105z" />
    <glyph glyph-name="grave.case" 
d="M338 787q-4 0 -6.5 2.5l-4.5 4.5l-72 101q-2 3 0 5t5 2h87q8 0 10 -7l43 -101q3 -7 -5 -7h-57z" />
    <glyph glyph-name="dotaccent.case" 
d="M273 786q-5 0 -5 5v132q0 5 5 5h129q5 0 5 -5v-132q0 -5 -5 -5h-129z" />
    <glyph glyph-name="ring.case" 
d="M427 819q0 -36 -26 -61.5t-62 -25.5t-61.5 25.5t-25.5 61.5t25.5 62t61.5 26q18 0 34 -7t28 -19t19 -28t7 -34zM384 819q0 19 -13 32t-32 13t-32 -13t-13 -32t13 -32t32 -13t32 13t13 32z" />
    <glyph glyph-name="tilde.case" 
d="M183 815q0 13 5 28t16.5 28t31 21.5t49.5 8.5q22 0 38.5 -7t29 -16t22 -16t17.5 -7q3 0 8.5 0.5t11 4t9 12t3.5 24.5q0 5 5 5h60q5 0 5 -5v-24q0 -13 -5 -28t-17 -27.5t-31.5 -21t-48.5 -8.5q-20 0 -36 7t-29 16t-23 16t-19 7q-3 0 -8.5 -0.5t-11 -4t-9 -12t-3.5 -24.5
q0 -5 -5 -5h-60q-5 0 -5 5v23z" />
    <glyph glyph-name="hungarumlaut.case" 
d="M158 786q-4 0 -4 5l29 132q0 5 6 5h109q4 0 4 -5l-29 -132q0 -5 -6 -5h-109zM378 786q-4 0 -4 5l29 132q0 5 6 5h109q4 0 4 -5l-29 -132q0 -5 -6 -5h-109z" />
    <glyph glyph-name="caron.salt" 
d="M441 902q8 0 5 -7l-43 -104q-1 -4 -5 -4h-114q-4 0 -5 4l-44 104q-2 3 0 5t5 2h60q3 0 5 -3l31 -42q5 -8 10 0l30 42q1 3 5 3h60z" />
    <glyph glyph-name="commaaccent.salt" 
d="M304 -134q-5 0 -5 5v69q0 5 5 5h68q5 0 5 -5v-71q0 -34 -20 -55.5t-53 -21.5q-5 0 -5 5v29q0 5 5 5q9 0 18 7t9 23q0 5 -5 5h-22z" />
    <glyph glyph-name="_0127" 
 />
    <glyph glyph-name="_0005" horiz-adv-x="0" 
 />
  </font>
</defs>
</svg>
