<?xml version="1.0" standalone="no"?>
<!DOCTYPE svg PUBLIC "-//W3C//DTD SVG 1.1//EN" "http://www.w3.org/Graphics/SVG/1.1/DTD/svg11.dtd" >
<svg xmlns="http://www.w3.org/2000/svg" xmlns:xlink="http://www.w3.org/1999/xlink" version="1.1">
<metadata>
Created by FontForge 20160405 at Mon Jan 21 16:24:40 2019
 By www-data
Copyright (c) 2008 by Stefan Gandl. All rights reserved.
</metadata>
<defs>
<font id="NBInternationalPro-Light" horiz-adv-x="496" >
  <font-face 
    font-family="NB International Light"
    font-weight="300"
    font-stretch="normal"
    units-per-em="1000"
    panose-1="2 11 3 3 4 1 0 2 0 4"
    ascent="800"
    descent="-200"
    x-height="506"
    cap-height="704"
    bbox="-138 -208 1114 911"
    underline-thickness="85"
    underline-position="-217"
    unicode-range="U+0009-FB05"
  />
<missing-glyph 
d="M456 5q0 -5 -5 -5h-411q-5 0 -5 5v694q0 5 5 5h411q5 0 5 -5v-694zM419 681h-346l173 -306zM419 24l-173 305l-173 -305h346zM432 48v608q-43 -75 -87 -152t-86 -152zM233 352l-173 305v-610z" />
    <glyph glyph-name="fi" unicode="fi" horiz-adv-x="572" 
d="M123 506q5 0 5 5v66q0 58 30.5 92.5t104.5 34.5h55q5 0 5 -5v-50q0 -5 -5 -5h-54q-32 0 -49 -17.5t-17 -49.5v-66q0 -5 5 -5h115q5 0 5 -5v-50q0 -5 -5 -5h-115q-5 0 -5 -5v-436q0 -5 -5 -5h-60q-5 0 -5 5v436q0 5 -5 5h-95q-5 0 -5 5v50q0 5 5 5h95zM474 506q5 0 5 -5
v-496q0 -5 -5 -5h-60q-5 0 -5 5v496q0 5 5 5h60zM484 704q5 0 5 -5v-80q0 -5 -5 -5h-80q-5 0 -5 5v80q0 5 5 5h80z" />
    <glyph glyph-name="fl" unicode="fl" horiz-adv-x="552" 
d="M123 506q5 0 5 5v66q0 58 30.5 92.5t104.5 34.5h55q5 0 5 -5v-50q0 -5 -5 -5h-54q-32 0 -49 -17.5t-17 -49.5v-66q0 -5 5 -5h115q5 0 5 -5v-50q0 -5 -5 -5h-115q-5 0 -5 -5v-436q0 -5 -5 -5h-60q-5 0 -5 5v436q0 5 -5 5h-95q-5 0 -5 5v50q0 5 5 5h95zM464 704q5 0 5 -5
v-694q0 -5 -5 -5h-60q-5 0 -5 5v694q0 5 5 5h60z" />
    <glyph glyph-name=".notdef" 
d="M456 5q0 -5 -5 -5h-411q-5 0 -5 5v694q0 5 5 5h411q5 0 5 -5v-694zM419 681h-346l173 -306zM419 24l-173 305l-173 -305h346zM432 48v608q-43 -75 -87 -152t-86 -152zM233 352l-173 305v-610z" />
    <glyph glyph-name=".null" horiz-adv-x="10" 
 />
    <glyph glyph-name=".null" horiz-adv-x="10" 
 />
    <glyph glyph-name="nonmarkingreturn" unicode="&#xd;" horiz-adv-x="10" 
 />
    <glyph glyph-name="HT" unicode="&#x9;" horiz-adv-x="260" 
 />
    <glyph glyph-name="LF" unicode="&#xa;" horiz-adv-x="260" 
 />
    <glyph glyph-name="DLE" horiz-adv-x="260" 
 />
    <glyph glyph-name="DC1" horiz-adv-x="260" 
 />
    <glyph glyph-name="DC2" horiz-adv-x="260" 
 />
    <glyph glyph-name="DC3" horiz-adv-x="260" 
 />
    <glyph glyph-name="DC4" horiz-adv-x="260" 
 />
    <glyph glyph-name="RS" horiz-adv-x="10" 
 />
    <glyph glyph-name="US" horiz-adv-x="10" 
 />
    <glyph glyph-name="space" unicode=" " horiz-adv-x="246" 
 />
    <glyph glyph-name="exclam" unicode="!" horiz-adv-x="214" 
d="M80 208q-5 0 -5 5l-10 293v193q0 5 5 5h64q5 0 5 -5v-193l-10 -293q0 -5 -5 -5h-44zM52 0q-5 0 -5 5v100q0 5 5 5h100q5 0 5 -5v-100q0 -5 -5 -5h-100z" />
    <glyph glyph-name="quotedbl" unicode="&#x22;" horiz-adv-x="356" 
d="M78 446q-5 0 -5 5l-10 120v128q0 5 5 5h60q5 0 5 -5v-128l-10 -120q0 -5 -5 -5h-40zM228 446q-5 0 -5 5l-10 120v128q0 5 5 5h60q5 0 5 -5v-128l-10 -120q0 -5 -5 -5h-40z" />
    <glyph glyph-name="numbersign" unicode="#" horiz-adv-x="576" 
d="M169 402q1 6 -5 6h-136q-5 0 -5 5v59q0 5 5 5h154q5 0 6 4l48 220q1 3 5 3h55q7 0 5 -7l-47 -214q-2 -6 5 -6h102q5 0 6 5l48 219q1 3 5 3h55q7 0 5 -7l-47 -214q-2 -6 5 -6h99q5 0 5 -5v-59q0 -5 -5 -5h-117q-4 0 -6 -5l-26 -110q-2 -6 5 -6h144q5 0 5 -5v-59
q0 -5 -5 -5h-162q-4 0 -5 -4l-47 -211q-2 -3 -5 -3h-54q-7 0 -5 7l46 206q2 5 -4 5h-105q-3 0 -5 -5l-47 -210q-2 -3 -5 -3h-54q-7 0 -5 7l45 205q2 6 -5 6h-92q-5 0 -5 5v59q0 5 5 5h110q5 0 6 5zM241 408q-4 0 -6 -5l-26 -109q-2 -7 5 -7h104q3 0 5 5l25 110q2 6 -4 6
h-103z" />
    <glyph glyph-name="dollar" unicode="$" horiz-adv-x="605" 
d="M268 -12q0 5 -6 5q-51 6 -90.5 23.5t-67.5 44.5t-42.5 60.5t-14.5 71.5q0 5 5 5h60q5 0 5 -5q0 -23 9.5 -45t28 -41t45 -32.5t61.5 -19.5q7 -1 7 4v271q0 5 -5 6q-39 6 -76.5 17.5t-66 32.5t-46 53.5t-17.5 80.5q0 42 17 75t45.5 57.5t66 39t77.5 19.5q5 1 5 5v81
q0 5 4 5h61q5 0 5 -5v-81q0 -5 6 -6q39 -6 75.5 -21t64 -39t44.5 -58.5t17 -80.5q0 -5 -5 -5h-60q-5 0 -5 5q0 60 -36.5 94t-93.5 45q-7 2 -7 -5v-251q0 -6 7 -6q42 -5 82.5 -14.5t72.5 -31t51.5 -57t19.5 -92.5q0 -42 -17 -77t-47 -61.5t-72 -42.5t-92 -20q-5 0 -5 -5v-82
q0 -5 -5 -5h-61q-4 0 -4 5v83zM501 193q0 37 -13 61t-35 39.5t-50.5 23t-58.5 11.5q-6 0 -6 -5v-267q0 -7 8 -5q31 4 59.5 15t49.5 29t33.5 42.5t12.5 55.5zM127 520q0 -20 5 -38.5t20 -34.5t41.5 -29t68.5 -20q6 -2 6 5v243q0 5 -5 5q-29 -5 -53.5 -16.5t-43 -28t-29 -38.5
t-10.5 -48z" />
    <glyph glyph-name="percent" unicode="%" horiz-adv-x="827" 
d="M594 702q2 2 4 2h44q8 0 4 -8l-426 -694q-2 -2 -4 -2h-42q-8 0 -4 8zM764 188q0 -43 -7.5 -79.5t-24.5 -62.5t-45 -41t-70 -15t-70.5 15t-45.5 41t-24.5 62.5t-7.5 79.5t7.5 80t24.5 63.5t45.5 41.5t70.5 15t70 -15t45 -41.5t24.5 -63.5t7.5 -80zM712 188
q0 75 -21.5 112.5t-73.5 37.5q-53 0 -74.5 -37.5t-21.5 -112.5q0 -72 21.5 -110t74.5 -38q52 0 73.5 38t21.5 110zM348 514q0 -43 -7.5 -79.5t-24.5 -62.5t-45 -41t-70 -15t-70.5 15t-45.5 41t-24.5 62.5t-7.5 79.5t7.5 80t24.5 63.5t45.5 41.5t70.5 15t70 -15t45 -41.5
t24.5 -63.5t7.5 -80zM296 514q0 75 -21.5 112.5t-73.5 37.5q-53 0 -74.5 -37.5t-21.5 -112.5q0 -72 21.5 -110t74.5 -38q52 0 73.5 38t21.5 110z" />
    <glyph glyph-name="ampersand" unicode="&#x26;" horiz-adv-x="668" 
d="M591 254q0 -34 -7.5 -67.5t-25.5 -60.5q-3 -5 -1.5 -7t3.5 -4t8.5 -9t16 -15t20.5 -14.5t22 -6.5v-70q-29 2 -56 19.5t-52 42.5q-2 2 -4 3t-6 -2q-38 -32 -95.5 -52.5t-123.5 -20.5q-56 0 -100.5 17.5t-75.5 47.5t-47.5 70t-16.5 85q0 40 13 73t33 58.5t44 44t46 30.5
q4 2 4 4.5t-2 4.5q-39 42 -59 76.5t-20 69.5q0 30 10.5 56t32 45.5t53.5 30.5t75 11q40 0 71.5 -12.5t52.5 -33t32 -46t11 -51.5q0 -37 -14.5 -64.5t-36 -47.5t-46.5 -34.5t-47 -24.5q-7 -4 -3 -8l199 -219q2 -3 5 0q6 7 9.5 20t5 25.5t2 22.5t0.5 13v82q0 5 5 5h60
q5 0 5 -5v-82zM300 53q19 0 41 3.5t43.5 10.5t41.5 18.5t35 26.5q5 5 1 10l-222 241q-2 2 -4 3t-7 -1q-18 -9 -37.5 -22.5t-35 -32.5t-26 -44t-10.5 -56q0 -37 13 -66t37 -49.5t57 -31t73 -10.5zM280 654q-18 0 -36 -4.5t-32.5 -14t-23.5 -25.5t-9 -39q-1 -25 16.5 -54
t56.5 -67q4 -2 8 -1l41 17q32 15 54 39.5t22 65.5q0 21 -8.5 36.5t-22.5 26t-31.5 15.5t-34.5 5zM627 70q5 0 5 -5v-60q0 -5 -5 -5v70z" />
    <glyph glyph-name="quotesingle" unicode="'" horiz-adv-x="206" 
d="M78 446q-5 0 -5 5l-10 120v128q0 5 5 5h60q5 0 5 -5v-128l-10 -120q0 -5 -5 -5h-40z" />
    <glyph glyph-name="parenleft" unicode="(" horiz-adv-x="230" 
d="M85 253q0 -121 34 -234t97 -212q3 -5 -3 -5h-60q-5 0 -7 5q-26 41 -50 93t-42 110.5t-28.5 120.5t-10.5 122t10.5 122t28.5 120.5t42 110.5t50 93q2 5 7 5h60q6 0 3 -5q-63 -99 -97 -212t-34 -234z" />
    <glyph glyph-name="parenright" unicode=")" horiz-adv-x="230" 
d="M147 253q0 121 -34 234t-97 212q-3 5 3 5h60q4 0 7 -5q26 -41 50 -93t42 -110.5t28.5 -120.5t10.5 -122t-10.5 -122t-28.5 -120.5t-42 -110.5t-50 -93q-3 -5 -7 -5h-60q-6 0 -3 5q63 99 97 212t34 234z" />
    <glyph glyph-name="asterisk" unicode="*" horiz-adv-x="402" 
d="M214 573q-1 -2 1.5 -4t4.5 -1l66 30l50 16q4 1 6 -3l13 -38q2 -5 -4 -7l-50 -16l-72 -16q-10 -2 -2 -10l48 -52l31 -43q2 -4 -1 -6l-33 -24q-4 -4 -7 1l-31 43l-33 57q-5 7 -10 0l-33 -57l-31 -43q-3 -5 -7 -1l-33 24q-3 2 -1 6l31 43l48 52q5 5 2 7.5t-6 3.5l-70 15
l-50 16q-6 2 -4 7l13 38q1 4 6 3l50 -16l65 -30q3 -2 5.5 0t1.5 5l-7 73v53q0 5 5 5h40q5 0 5 -5v-53z" />
    <glyph glyph-name="plus" unicode="+" horiz-adv-x="602" 
d="M326 5q0 -5 -5 -5h-60q-5 0 -5 5v208q0 5 -5 5h-203q-5 0 -5 5v60q0 5 5 5h203q5 0 5 5v208q0 5 5 5h60q5 0 5 -5v-208q0 -5 5 -5h213q5 0 5 -5v-60q0 -5 -5 -5h-213q-5 0 -5 -5v-208z" />
    <glyph glyph-name="comma" unicode="," horiz-adv-x="226" 
d="M58 0q-5 0 -5 5v100q0 5 5 5h100q5 0 5 -5v-104q0 -54 -24.5 -82.5t-80.5 -28.5q-5 0 -5 5v40q0 5 5 5q45 0 45 55q0 5 -5 5h-40z" />
    <glyph glyph-name="hyphen" unicode="-" horiz-adv-x="380" 
d="M48 218q-5 0 -5 5v60q0 5 5 5h274q5 0 5 -5v-60q0 -5 -5 -5h-274z" />
    <glyph glyph-name="period" unicode="." horiz-adv-x="226" 
d="M58 0q-5 0 -5 5v100q0 5 5 5h100q5 0 5 -5v-100q0 -5 -5 -5h-100z" />
    <glyph glyph-name="slash" unicode="/" horiz-adv-x="361" 
d="M98 3q-2 -3 -5 -3h-64q-7 0 -5 7l236 694q1 3 5 3h57q7 0 5 -7z" />
    <glyph glyph-name="zero" unicode="0" horiz-adv-x="620" 
d="M593 351q0 -78 -13.5 -144.5t-44.5 -114.5t-82.5 -75t-127.5 -27t-127.5 27t-83 75t-45 114.5t-13.5 144.5q0 79 13.5 145.5t45 115t83 75.5t127.5 27t127.5 -27t82.5 -75.5t44.5 -115t13.5 -145.5zM518 351q0 149 -43.5 226t-149.5 77q-53 0 -90 -19.5t-60 -57.5
t-33.5 -94.5t-10.5 -131.5q0 -74 10.5 -130t33.5 -94t60 -57.5t90 -19.5q106 0 149.5 77t43.5 224z" />
    <glyph glyph-name="one" unicode="1" horiz-adv-x="369" 
d="M25 561q0 5 5 5h127q29 0 49 20t20 49v60v4q0 5 5 5h60q5 0 5 -5v-694q0 -5 -5 -5h-60q-5 0 -5 5v466q0 14 -10.5 24.5t-24.5 10.5h-161q-5 0 -5 5v50z" />
    <glyph glyph-name="two" unicode="2" horiz-adv-x="539" 
d="M54 511q0 51 17.5 89.5t47.5 63.5t70 37.5t85 12.5q54 0 96 -15.5t71 -42.5t44 -64t15 -80q0 -36 -11 -66.5t-28 -56t-37 -46t-37 -36.5l-252 -238q-3 -3 -1.5 -6t4.5 -3h357q5 0 5 -5v-50q0 -5 -5 -5h-457q-5 0 -5 5v55q0 2 1.5 3.5l3.5 3.5l296 284q10 10 26.5 27
t32 38t26.5 45.5t11 50.5q0 23 -9 48t-28 46t-48.5 34.5t-70.5 13.5q-30 0 -57 -10t-47.5 -28.5t-33 -45t-12.5 -59.5q0 -5 -5 -5h-60q-5 0 -5 5z" />
    <glyph glyph-name="three" unicode="3" horiz-adv-x="555" 
d="M53 511q0 52 17 90.5t46.5 63.5t69.5 37t86 12q49 0 89.5 -15.5t70 -42t45.5 -62.5t16 -77q0 -38 -14.5 -66t-32.5 -46.5t-35.5 -28t-23.5 -10.5q-4 -1 -4.5 -4.5t4.5 -5.5q12 -4 33 -16.5t41 -34t34.5 -51t14.5 -68.5q0 -45 -18 -81.5t-49.5 -62t-75 -39t-95.5 -13.5h-1
q-54 0 -95.5 14.5t-70 41.5t-43 64.5t-14.5 82.5q0 5 5 5h60q5 0 5 -5q0 -63 39 -103t114 -40h1q75 0 121.5 36t46.5 100q0 33 -13 59.5t-35.5 44.5t-53 28t-66.5 10h-47q-5 0 -5 5v50q0 5 5 5h47q68 0 110.5 35t42.5 94q0 27 -11 51.5t-31 43.5t-48.5 30.5t-62.5 11.5
q-31 0 -58 -9t-47.5 -26.5t-32 -44.5t-11.5 -63q0 -5 -5 -5h-60q-5 0 -5 5z" />
    <glyph glyph-name="four" unicode="4" horiz-adv-x="565" 
d="M33 225q0 5 3 10l295 464q3 5 8 5h70q5 0 5 -5v-464q0 -5 5 -5h118q5 0 5 -5v-50q0 -5 -5 -5h-118q-5 0 -5 -5v-160q0 -5 -5 -5h-60q-5 0 -5 5v160q0 5 -5 5h-301q-5 0 -5 5v50zM114 236q-4 -6 3 -6h222q5 0 5 5v345q0 5 -4 6t-6 -4z" />
    <glyph glyph-name="five" unicode="5" horiz-adv-x="574" 
d="M187 644q-2 0 -4.5 -0.5t-3.5 -5.5q-2 -17 -6.5 -50.5t-9.5 -66.5q-5 -40 -11 -83q-1 -5 3 -5.5t6 1.5q15 21 56.5 38t102.5 17q51 0 93.5 -18t74 -51t49 -78.5t17.5 -100.5q0 -59 -18 -105.5t-50 -78.5t-77 -49.5t-99 -17.5q-66 0 -112 21t-75 52t-42 66t-13 64q0 5 5 5
h60q5 0 5 -5q0 -21 9 -45.5t29.5 -46.5t53.5 -36.5t80 -14.5q38 0 70 13t55 37.5t36 60t13 80.5q0 41 -13 75.5t-36 59.5t-55 39t-70 14q-54 0 -94.5 -18.5t-68.5 -59.5q-3 -5 -8 -5h-57q-5 0 -5 5l45 348q1 5 8 5h366q5 0 5 -5v-50q0 -5 -5 -5h-309z" />
    <glyph glyph-name="six" unicode="6" horiz-adv-x="583" 
d="M219 474q-1 -2 1 -4.5t7 -0.5q13 6 36 13t54 7q51 0 94 -18.5t74.5 -51.5t49.5 -79.5t18 -101.5q0 -54 -17 -99.5t-49 -78.5t-78 -51.5t-105 -18.5t-104.5 18.5t-77.5 51.5t-48.5 78.5t-16.5 99.5q0 41 10.5 78.5t27.5 68.5l168 314q2 5 8 5h58q7 0 4 -6zM483 238
q0 87 -45 139t-134 52q-88 0 -132.5 -52t-44.5 -139t44.5 -137.5t132.5 -50.5q89 0 134 50.5t45 137.5z" />
    <glyph glyph-name="seven" unicode="7" horiz-adv-x="507" 
d="M484 657q0 -8 -0.5 -11t-2.5 -7l-243 -634q-2 -5 -6 -5h-65q-6 0 -4 5l241 634q2 5 -4 5h-362q-5 0 -5 5v50q0 5 5 5h441q5 0 5 -5v-42z" />
    <glyph glyph-name="eight" unicode="8" horiz-adv-x="586" 
d="M306 -10q-52 0 -95.5 13.5t-75 39t-49.5 62t-18 81.5q0 42 14.5 72.5t34.5 51t41 31.5t33 15q5 2 4.5 5.5t-4.5 4.5q-9 2 -27 11.5t-35.5 27.5t-30.5 46t-13 66q0 41 16 77t45.5 62.5t70 42t89.5 15.5t89.5 -15.5t70 -42t45.5 -62.5t16 -77q0 -38 -14.5 -66t-32.5 -46.5
t-35.5 -28t-23.5 -10.5q-4 -1 -4.5 -4.5t4.5 -5.5q12 -4 33 -16.5t41 -34t34.5 -51t14.5 -68.5q0 -45 -18 -81.5t-49.5 -62t-75 -39t-95.5 -13.5zM306 50q75 0 121.5 36t46.5 100q0 33 -13 59.5t-35.5 44.5t-53 28t-66.5 10t-66.5 -10t-53 -28t-35.5 -44.5t-13 -59.5
q0 -64 46.5 -100t121.5 -36zM153 517q0 -59 42.5 -94t110.5 -35t110.5 35t42.5 94q0 27 -11 51.5t-31 43.5t-48.5 30.5t-62.5 11.5q-35 0 -63 -11.5t-48 -30.5t-31 -43.5t-11 -51.5z" />
    <glyph glyph-name="nine" unicode="9" horiz-adv-x="583" 
d="M391 230q1 2 -1 4.5t-7 0.5q-13 -6 -36 -13t-54 -7q-51 0 -94 18.5t-74.5 51.5t-49.5 79t-18 102q0 54 17 99.5t49 78.5t78 51.5t105 18.5q58 0 104 -18.5t78 -51.5t48.5 -78.5t16.5 -99.5q0 -41 -10.5 -78.5t-27.5 -68.5l-168 -314q-3 -5 -8 -5h-58q-7 0 -4 6zM127 466
q0 -87 45 -139t134 -52q88 0 132.5 52t44.5 139t-44.5 137.5t-132.5 50.5q-89 0 -134 -50.5t-45 -137.5z" />
    <glyph glyph-name="colon" unicode=":" horiz-adv-x="226" 
d="M58 0q-5 0 -5 5v100q0 5 5 5h100q5 0 5 -5v-100q0 -5 -5 -5h-100zM58 396q-5 0 -5 5v100q0 5 5 5h100q5 0 5 -5v-100q0 -5 -5 -5h-100z" />
    <glyph glyph-name="semicolon" unicode=";" horiz-adv-x="246" 
d="M52 396q-5 0 -5 5v100q0 5 5 5h100q5 0 5 -5v-100q0 -5 -5 -5h-100zM54 0q-5 0 -5 5v100q0 5 5 5h100q5 0 5 -5v-104q0 -54 -24.5 -82.5t-80.5 -28.5q-5 0 -5 5v40q0 5 5 5q45 0 45 55q0 5 -5 5h-40z" />
    <glyph glyph-name="less" unicode="&#x3c;" horiz-adv-x="506" 
d="M94 258q-3 -2 -3 -5t3 -5l381 -173q5 -2 5 -7v-63q0 -6 -5 -4l-446 201q-5 2 -5 6v90q0 4 5 6l446 201q5 2 5 -4v-63q0 -5 -5 -7z" />
    <glyph glyph-name="equal" unicode="=" horiz-adv-x="530" 
d="M38 331q-5 0 -5 5v60q0 5 5 5h444q5 0 5 -5v-60q0 -5 -5 -5h-444zM38 106q-5 0 -5 5v60q0 5 5 5h444q5 0 5 -5v-60q0 -5 -5 -5h-444z" />
    <glyph glyph-name="greater" unicode="&#x3e;" horiz-adv-x="506" 
d="M29 431q-5 2 -5 7v63q0 6 5 4l446 -201q5 -2 5 -6v-90q0 -4 -5 -6l-446 -201q-5 -2 -5 4v63q0 5 5 7l381 173q3 2 3 5t-3 5z" />
    <glyph glyph-name="question" unicode="?" horiz-adv-x="506" 
d="M35 511q0 42 15.5 79t44 64.5t69 43.5t90.5 16q112 0 172 -55t60 -147q0 -47 -14 -76t-37.5 -49t-54 -36.5t-63.5 -38.5q-12 -7 -19.5 -15.5t-7.5 -24.5v-59q0 -5 -5 -5h-60q-5 0 -5 5v70q0 29 18.5 48.5t50.5 39.5q42 25 67 42.5t38.5 32.5t17.5 30.5t4 35.5
q0 29 -10 55t-30 45.5t-50.5 30.5t-71.5 11q-36 0 -64 -13t-46.5 -33t-28.5 -46t-10 -51q0 -5 -5 -5h-60q-5 0 -5 5zM204 0q-5 0 -5 5v100q0 5 5 5h100q5 0 5 -5v-100q0 -5 -5 -5h-100z" />
    <glyph glyph-name="at" unicode="@" horiz-adv-x="981" 
d="M733 -138q-23 -12 -56 -24t-72.5 -22.5t-83.5 -17t-89 -6.5q-117 0 -201 37t-134.5 100t-68.5 147.5t-4 179.5q16 109 67 194.5t125.5 144t165.5 89t189 30.5q97 0 177.5 -30t134 -88t74 -143.5t-1.5 -196.5q-17 -87 -45 -139t-60 -80.5t-63.5 -37.5t-56.5 -9
q-23 0 -39 7t-26.5 18t-17 24.5t-10.5 27.5q-1 4 -4 4t-5 -2q-30 -30 -76 -54.5t-103 -24.5q-65 0 -108 21.5t-67 58.5t-30 84.5t3 100.5q13 67 41.5 116t66 81.5t81.5 48.5t89 16q65 0 100 -19.5t53 -45.5q2 -2 4.5 -2t3.5 2l22 49q3 5 8 5h48q5 0 5 -5l-70 -335
q-13 -61 -5 -88.5t46 -27.5q18 0 38.5 10.5t40 34.5t37 63.5t29.5 97.5q20 98 6 173t-57.5 125.5t-114 76t-164.5 25.5q-90 0 -167.5 -29t-137 -81.5t-100 -126.5t-56.5 -163q-15 -87 -0.5 -161t57.5 -128t113 -84.5t168 -30.5q87 0 168.5 20.5t145.5 52.5q3 2 4.5 0t0.5 -4
l-12 -51q-2 -6 -6 -8zM317 255q-9 -40 -6.5 -77t18.5 -65.5t45.5 -45.5t74.5 -17q76 0 126.5 51.5t72.5 154.5q12 56 8.5 94.5t-20.5 62t-45.5 34t-65.5 10.5q-40 0 -74 -16t-61 -44t-45.5 -64.5t-27.5 -77.5z" />
    <glyph glyph-name="A" unicode="A" horiz-adv-x="662" 
d="M487 158q-2 5 -7 5h-308q-5 0 -7 -5l-50 -153q-2 -5 -7 -5h-64q-6 0 -4 5l230 694q2 5 6 5h100q4 0 6 -5l230 -694q2 -5 -4 -5h-64q-5 0 -7 5zM188 228q-2 -5 4 -5h269q5 0 3 5l-133 412q-2 4 -5 4t-5 -4z" />
    <glyph glyph-name="B" unicode="B" horiz-adv-x="673" 
d="M82 0q-5 0 -5 5v694q0 5 5 5h335q39 0 71.5 -15.5t56 -41.5t36.5 -61.5t13 -74.5q0 -31 -9.5 -55t-23.5 -41.5t-29.5 -28.5t-27.5 -16q-4 -2 -4.5 -5t4.5 -5q15 -5 34 -20t35 -37t27 -50t11 -60q0 -43 -15 -78.5t-42 -61t-63.5 -39.5t-79.5 -14h-329zM152 332q-5 0 -5 -5
v-262q0 -5 5 -5h245q32 0 58.5 11t45.5 29t29.5 42t10.5 51q0 26 -11 51t-29.5 44.5t-43.5 31.5t-53 12h-252zM524 511q0 27 -8 51t-24 42t-40 29t-55 11h-245q-5 0 -5 -5v-242q0 -5 5 -5h245q23 1 45.5 10t40.5 24.5t29.5 37t11.5 47.5z" />
    <glyph glyph-name="C" unicode="C" horiz-adv-x="678" 
d="M571 193q2 5 7 5h59q5 0 5 -5q-1 -20 -18 -54t-50.5 -67t-84.5 -57.5t-121 -24.5q-75 0 -133 26.5t-98.5 74.5t-61.5 114.5t-21 146.5q0 79 21 145.5t61.5 114.5t98.5 75t133 27q70 0 121 -24.5t84.5 -57.5t50.5 -67t18 -54q0 -5 -5 -5h-59q-5 0 -7 5q-5 16 -19.5 40
t-39 47t-60.5 39.5t-84 16.5q-118 0 -179.5 -79.5t-61.5 -222.5t61.5 -222.5t179.5 -79.5q48 0 84 16.5t60.5 39.5t39 47t19.5 40z" />
    <glyph glyph-name="D" unicode="D" horiz-adv-x="683" 
d="M80 0q-5 0 -5 5v694q0 5 5 5h254q78 0 136.5 -27t97.5 -74.5t58 -113t19 -144.5q0 -80 -19 -143.5t-58 -108.5t-97.5 -69t-136.5 -24h-254zM150 644q-5 0 -5 -5v-574q0 -5 5 -5h184q112 0 174 71.5t62 213.5q0 69 -16 124.5t-46 94t-74 59.5t-100 21h-184z" />
    <glyph glyph-name="E" unicode="E" horiz-adv-x="607" 
d="M82 0q-5 0 -5 5v694q0 5 5 5h470q5 0 5 -5v-50q0 -5 -5 -5h-400q-5 0 -5 -5v-242q0 -5 5 -5h357q5 0 5 -5v-50q0 -5 -5 -5h-357q-5 0 -5 -5v-262q0 -5 5 -5h400q5 0 5 -5v-50q0 -5 -5 -5h-470z" />
    <glyph glyph-name="F" unicode="F" horiz-adv-x="544" 
d="M82 0q-5 0 -5 5v694q0 5 5 5h434q5 0 5 -5v-50q0 -5 -5 -5h-364q-5 0 -5 -5v-242q0 -5 5 -5h321q5 0 5 -5v-50q0 -5 -5 -5h-321q-5 0 -5 -5v-322q0 -5 -5 -5h-60z" />
    <glyph glyph-name="G" unicode="G" horiz-adv-x="744" 
d="M591 317q0 5 -5 5h-224q-5 0 -5 5v50q0 5 5 5h294q5 0 5 -5v-372q0 -5 -5 -5h-49q-5 0 -6 5l-10 85q-1 5 -4 5t-5 -3q-12 -17 -35 -35t-52.5 -33t-65 -24.5t-72.5 -9.5q-79 0 -138 26.5t-98.5 74.5t-59 114.5t-19.5 146.5q0 79 21 145.5t61.5 114.5t99 75t133.5 27
q65 0 114 -17.5t83.5 -46t55.5 -65t30 -74.5q1 -5 -4 -5h-57q-6 0 -8 5q-28 78 -83.5 110.5t-130.5 32.5q-118 0 -179 -79.5t-61 -222.5t61 -222.5t179 -79.5q61 0 105 20t72.5 53t42.5 74.5t14 84.5v35z" />
    <glyph glyph-name="H" unicode="H" horiz-adv-x="665" 
d="M517 0q-5 0 -5 5v322q0 5 -5 5h-359q-5 0 -5 -5v-322q0 -5 -5 -5h-60q-5 0 -5 5v694q0 5 5 5h60q5 0 5 -5v-302q0 -5 5 -5h359q5 0 5 5v302q0 5 5 5h60q5 0 5 -5v-694q0 -5 -5 -5h-60z" />
    <glyph glyph-name="I" unicode="I" horiz-adv-x="226" 
d="M138 704q5 0 5 -5v-694q0 -5 -5 -5h-60q-5 0 -5 5v694q0 5 5 5h60z" />
    <glyph glyph-name="J" unicode="J" horiz-adv-x="457" 
d="M83 193q0 -26 3.5 -51.5t15.5 -45.5t36 -33t66 -13t67 12.5t37.5 33t16 45.5t3.5 50v508q0 5 5 5h60q5 0 5 -5v-508q0 -42 -7.5 -78.5t-28.5 -64t-59 -43t-99 -15.5q-57 0 -94 15.5t-58.5 43t-30 64.5t-8.5 80q0 5 5 5h60q5 0 5 -5z" />
    <glyph glyph-name="K" unicode="K" horiz-adv-x="615" 
d="M517 0q-5 0 -8 5l-247 375q-2 4 -6 0l-107 -105q-6 -6 -6 -13v-257q0 -5 -5 -5h-60q-5 0 -5 5v694q0 5 5 5h60q5 0 5 -5v-327q0 -2 2 -3t4 1l337 329q5 5 9 5h79q7 0 2 -5l-261 -259q-5 -5 -1 -11l277 -424q3 -5 -3 -5h-71z" />
    <glyph glyph-name="L" unicode="L" horiz-adv-x="540" 
d="M78 0q-5 0 -5 5v694q0 5 5 5h60q5 0 5 -5v-634q0 -5 5 -5h364q5 0 5 -5v-50q0 -5 -5 -5h-434z" />
    <glyph glyph-name="M" unicode="M" horiz-adv-x="850" 
d="M233 704q5 0 7 -5l184 -635q2 -4 5 -4t5 4l184 635q2 5 7 5h123q5 0 5 -5v-694q0 -5 -5 -5h-60q-5 0 -5 5v634q0 4 -4 5t-6 -5l-186 -634q-2 -5 -6 -5h-104q-4 0 -6 5l-186 634q-2 6 -6 5t-4 -5v-634q0 -5 -5 -5h-60q-5 0 -5 5v694q0 5 5 5h123z" />
    <glyph glyph-name="N" unicode="N" horiz-adv-x="685" 
d="M597 704q5 0 5 -5v-694q0 -5 -5 -5h-112q-5 0 -7 5l-325 635q-3 6 -6.5 4t-3.5 -5v-634q0 -5 -5 -5h-60q-5 0 -5 5v694q0 5 5 5h115q3 0 5 -5l324 -636q2 -4 6 -3t4 4v635q0 5 5 5h60z" />
    <glyph glyph-name="O" unicode="O" horiz-adv-x="724" 
d="M357 -10q-78 0 -137 26.5t-98.5 74.5t-59.5 114.5t-20 146.5q0 79 20 145.5t59.5 114.5t98.5 75t137 27t137 -27t98.5 -75t59.5 -114.5t20 -145.5q0 -80 -20 -146.5t-59.5 -114.5t-98.5 -74.5t-137 -26.5zM357 50q118 0 179 79.5t61 222.5t-61 222.5t-179 79.5
t-179 -79.5t-61 -222.5t61 -222.5t179 -79.5z" />
    <glyph glyph-name="P" unicode="P" horiz-adv-x="592" 
d="M78 0q-5 0 -5 5v694q0 5 5 5h294q43 0 79.5 -15.5t62.5 -43.5t40.5 -65.5t14.5 -81.5t-14.5 -82t-40.5 -65.5t-62.5 -43t-79.5 -15.5h-224q-5 0 -5 -5v-282q0 -5 -5 -5h-60zM148 644q-5 0 -5 -5v-282q0 -5 5 -5h214q31 0 56.5 12.5t43.5 33.5t27.5 47t9.5 53t-9.5 53
t-27.5 47t-43.5 33.5t-56.5 12.5h-214z" />
    <glyph glyph-name="Q" unicode="Q" horiz-adv-x="726" 
d="M621 -49q-5 0 -10 5l-72 72q-3 3 -9 0q-34 -20 -72 -29t-87 -9q-78 0 -137 26.5t-98.5 74.5t-59.5 114.5t-20 146.5q0 79 20 145.5t59.5 114.5t98.5 75t137 27t137 -27t98.5 -75t59.5 -114.5t20 -145.5q0 -91 -24 -162.5t-75 -119.5q-4 -4 0 -7l107 -107q5 -5 -2 -5h-71z
M532 117q3 -4 7 0q72 75 72 235q0 143 -61 222.5t-179 79.5t-179 -79.5t-61 -222.5t61 -222.5t179 -79.5q34 0 61.5 5.5t52.5 18.5q5 2 0 7l-101 101q-2 2 -1 3.5t3 1.5h73q2 0 4 -1.5t4 -3.5z" />
    <glyph glyph-name="R" unicode="R" horiz-adv-x="630" 
d="M78 0q-5 0 -5 5v694q0 5 5 5h294q43 0 79.5 -15.5t62.5 -43.5t40.5 -65.5t14.5 -81.5q0 -35 -9 -65.5t-25 -56t-38.5 -43.5t-49.5 -27q-6 -2 -3 -8q32 -75 65.5 -146.5t66.5 -146.5q2 -5 -4 -5h-59q-5 0 -7 5l-127 282q-3 5 -7 5h-224q-5 0 -5 -5v-282q0 -5 -5 -5h-60z
M148 644q-5 0 -5 -5v-282q0 -5 5 -5h214q31 0 56.5 12.5t43.5 33.5t27.5 47t9.5 53t-9.5 53t-27.5 47t-43.5 33.5t-56.5 12.5h-214z" />
    <glyph glyph-name="S" unicode="S" horiz-adv-x="600" 
d="M103 193q0 -26 13 -52t38 -46t60.5 -32.5t80.5 -12.5q37 0 71.5 9.5t61.5 27.5t43 44.5t16 61.5q0 42 -17 68t-44 41t-61.5 21t-69.5 9q-44 4 -89 13t-81 29.5t-59 55.5t-23 90q0 46 21 82.5t55 61t77.5 37.5t88.5 13t89.5 -12t79 -37t56 -63.5t21.5 -90.5q0 -5 -5 -5
h-60q-5 0 -5 5q0 35 -14 62t-38 45t-56 27t-68 9q-34 0 -65 -9.5t-55 -27t-38 -42.5t-14 -55q0 -22 7 -43t26.5 -38t55.5 -29.5t93 -17.5q45 -4 92 -12t84.5 -29t61.5 -58t24 -100q0 -45 -19.5 -82.5t-54.5 -64.5t-83 -41.5t-105 -14.5q-60 0 -108.5 16t-82.5 44t-52.5 64.5
t-18.5 78.5q0 5 5 5h60q5 0 5 -5z" />
    <glyph glyph-name="T" unicode="T" horiz-adv-x="537" 
d="M234 642q0 5 -5 5h-201q-5 0 -5 5v47q0 5 5 5h482q5 0 5 -5v-47q0 -5 -5 -5h-201q-5 0 -5 -5v-637q0 -5 -5 -5h-60q-5 0 -5 5v637z" />
    <glyph glyph-name="U" unicode="U" horiz-adv-x="616" 
d="M550 704q5 0 5 -5v-465q0 -51 -19 -95.5t-52 -77.5t-77.5 -52t-95.5 -19t-96 19t-78.5 52t-53 77.5t-19.5 95.5v465q0 5 5 5h60q5 0 5 -5v-465q0 -36 14 -69.5t38 -59t56 -40.5t69 -15q36 0 68 15t55.5 40.5t37 59t13.5 69.5v465q0 5 5 5h60z" />
    <glyph glyph-name="V" unicode="V" horiz-adv-x="662" 
d="M321 64q2 -4 5 -4t5 4l206 635q2 5 7 5h64q6 0 4 -5l-230 -694q-2 -5 -6 -5h-100q-4 0 -6 5l-230 694q-2 5 4 5h64q5 0 7 -5z" />
    <glyph glyph-name="W" unicode="W" horiz-adv-x="862" 
d="M618 65q1 -5 5 -5t5 5l116 634q2 5 7 5h63q6 0 4 -5l-137 -694q-2 -5 -6 -5h-105q-4 0 -6 5l-133 635q-1 5 -5 5t-5 -5l-133 -635q-2 -5 -6 -5h-105q-4 0 -6 5l-137 694q-2 5 4 5h63q5 0 7 -5l116 -634q1 -5 5 -5t5 5l126 634q2 5 7 5h117q5 0 7 -5z" />
    <glyph glyph-name="X" unicode="X" horiz-adv-x="627" 
d="M34 699q-3 5 3 5h70q4 0 7 -5l189 -288q2 -3 5 -3t5 3l189 288q3 5 7 5h70q6 0 3 -5l-231 -341q-4 -5 0 -10l231 -343q3 -5 -3 -5h-69q-5 0 -8 5l-189 289q-5 7 -10 0l-189 -289q-3 -5 -8 -5h-69q-6 0 -3 5l231 343q4 5 0 10z" />
    <glyph glyph-name="Y" unicode="Y" horiz-adv-x="654" 
d="M135 704q6 0 9 -5l189 -309q4 -6 8 0l191 309q3 5 8 5h69q4 0 2 -5l-234 -377q-3 -5 -3.5 -8t-0.5 -8v-301q0 -5 -5 -5h-60q-5 0 -5 5v301q0 4 -0.5 7.5t-3.5 8.5l-234 377q-5 5 2 5h68z" />
    <glyph glyph-name="Z" unicode="Z" horiz-adv-x="561" 
d="M25 699q0 5 5 5h481q5 0 5 -5v-50q0 -2 -1.5 -5t-3.5 -5l-400 -571q-2 -3 -0.5 -5.5t4.5 -2.5h396q5 0 5 -5v-50q0 -5 -5 -5h-481q-5 0 -5 5v50q0 2 1.5 5t3.5 5l401 571q2 2 0.5 5t-4.5 3h-397q-5 0 -5 5v50z" />
    <glyph glyph-name="bracketleft" unicode="[" horiz-adv-x="354" 
d="M286 -138q5 0 5 -4v-51q0 -5 -5 -5h-228q-5 0 -5 5v892q0 5 5 5h228q5 0 5 -5v-51q0 -4 -5 -4h-158q-5 0 -5 -5v-772q0 -5 5 -5h158z" />
    <glyph glyph-name="backslash" unicode="\" horiz-adv-x="361" 
d="M24 697q-2 7 5 7h57q3 0 5 -3l236 -694q2 -7 -5 -7h-64q-4 0 -5 3z" />
    <glyph glyph-name="bracketright" unicode="]" horiz-adv-x="354" 
d="M216 -138q5 0 5 5v772q0 5 -5 5h-158q-5 0 -5 4v51q0 5 5 5h228q5 0 5 -5v-892q0 -5 -5 -5h-228q-5 0 -5 5v51q0 4 5 4h158z" />
    <glyph glyph-name="asciicircum" unicode="^" horiz-adv-x="506" 
d="M258 640q-2 4 -5 4t-5 -4l-120 -275q-2 -5 -7 -5h-63q-6 0 -4 5l148 334q2 5 6 5h90q4 0 6 -5l148 -334q2 -5 -4 -5h-63q-5 0 -7 5z" />
    <glyph glyph-name="underscore" unicode="_" horiz-adv-x="526" 
d="M38 0q-5 0 -5 5v60q0 5 5 5h440q5 0 5 -5v-60q0 -5 -5 -5h-440z" />
    <glyph glyph-name="grave" unicode="`" horiz-adv-x="274" 
d="M155 576q-4 0 -6.5 2.5l-4.5 4.5l-72 114q-2 3 0 5t5 2h67q8 0 10 -7l49 -114q3 -7 -5 -7h-43z" />
    <glyph glyph-name="a" unicode="a" horiz-adv-x="596" 
d="M53 335q0 46 17 80t46 56.5t68.5 33.5t84.5 11q103 0 163 -44.5t60 -135.5v-209q0 -39 11.5 -53t43.5 -14h11q5 0 5 -5v-50q0 -5 -5 -5h-11q-52 0 -76.5 14.5t-37.5 45.5q-3 8 -9 2t-18.5 -17.5t-34.5 -23t-55 -21t-79 -10.5q-100 0 -152 42.5t-52 111.5t53.5 109.5
t160.5 40.5h125q12 0 21.5 0.5t15.5 4.5t9.5 12.5t3.5 24.5q0 19 -4 40.5t-19.5 39t-46 29t-83.5 11.5q-75 0 -110.5 -30.5t-35.5 -90.5q0 -5 -5 -5h-60q-5 0 -5 5zM422 229q0 5 -5 5h-166q-48 0 -77 -8t-44.5 -20.5t-21 -29t-5.5 -32.5q0 -17 7.5 -34t23.5 -30.5
t41.5 -21.5t61.5 -8q49 0 84 14.5t57 37t32.5 50t11.5 53.5v24z" />
    <glyph glyph-name="b" unicode="b" horiz-adv-x="602" 
d="M73 699q0 5 5 5h60q5 0 5 -5v-255q0 -3 3.5 -4t5.5 3q3 5 14.5 17t32 24.5t50.5 22t72 9.5q57 0 101 -19t74.5 -54t46.5 -83.5t16 -106.5q0 -59 -15.5 -107t-45.5 -83t-74.5 -54t-102.5 -19q-42 0 -73 9.5t-51.5 22t-31 24t-13.5 15.5q-2 4 -5 3t-4 -4l-10 -55
q-2 -5 -5 -5h-50q-5 0 -5 5v694zM489 253q0 45 -12 82.5t-35 64t-56 41.5t-75 15t-73.5 -15t-52.5 -41.5t-31.5 -64t-10.5 -82.5t10.5 -82.5t31.5 -64t52.5 -41.5t73.5 -15t75 15t56 41.5t35 64t12 82.5z" />
    <glyph glyph-name="c" unicode="c" horiz-adv-x="545" 
d="M437 171q2 5 6 5h59q5 0 5 -5q-4 -26 -17.5 -57.5t-40.5 -59t-68.5 -46t-99.5 -18.5q-59 0 -105 19t-78 53.5t-48.5 83t-16.5 107.5t16.5 107.5t48.5 83t78 53.5t105 19q58 0 99.5 -18.5t68.5 -46t40.5 -59t17.5 -57.5q0 -5 -5 -5h-59q-4 0 -6 5q-15 57 -54 89t-102 32
q-42 0 -75 -15t-56 -41.5t-35 -64t-12 -82.5t12 -82.5t35 -64t56 -41.5t75 -15q63 0 102 32t54 89z" />
    <glyph glyph-name="d" unicode="d" horiz-adv-x="602" 
d="M519 5q0 -5 -5 -5h-50q-3 0 -5 5l-10 55q-1 3 -4 4t-5 -3q-3 -4 -13.5 -15.5t-31 -24t-51.5 -22t-73 -9.5q-59 0 -103.5 19t-74.5 54t-45 83t-15 107q0 58 16 106.5t46.5 83.5t74.5 54t101 19q42 0 72 -9.5t50.5 -22t32 -24.5t14.5 -17q2 -4 5.5 -3t3.5 4v255q0 5 5 5h60
q5 0 5 -5v-694zM103 253q0 -45 12 -82.5t35 -64t56 -41.5t75 -15t73.5 15t52.5 41.5t31.5 64t10.5 82.5t-10.5 82.5t-31.5 64t-52.5 41.5t-73.5 15t-75 -15t-56 -41.5t-35 -64t-12 -82.5z" />
    <glyph glyph-name="e" unicode="e" horiz-adv-x="579" 
d="M124 227q-5 0 -5 -5q0 -33 11.5 -64t33 -55t52.5 -38.5t70 -14.5q30 0 54 7t42 18t30 25t19 28q2 5 8 5h64q7 0 6 -5q-23 -69 -82.5 -103.5t-140.5 -34.5q-54 0 -99 19t-77 54t-49.5 83t-17.5 107t17 107.5t48.5 83.5t76.5 54t101 19t100.5 -19.5t75.5 -54t47.5 -83.5
t16.5 -107q0 -5 -0.5 -12t-1.5 -9q-2 -5 -6 -5h-394zM450 292q0 27 -9 56t-29 53.5t-51 40t-75 15.5q-43 0 -74.5 -17.5t-52 -42.5t-30.5 -54t-10 -51q0 -5 5 -5h321q5 0 5 5z" />
    <glyph glyph-name="f" unicode="f" horiz-adv-x="336" 
d="M123 506q5 0 5 5v66q0 58 30.5 92.5t104.5 34.5h55q5 0 5 -5v-50q0 -5 -5 -5h-54q-32 0 -49 -17.5t-17 -49.5v-66q0 -5 5 -5h115q5 0 5 -5v-50q0 -5 -5 -5h-115q-5 0 -5 -5v-436q0 -5 -5 -5h-60q-5 0 -5 5v436q0 5 -5 5h-95q-5 0 -5 5v50q0 5 5 5h95z" />
    <glyph glyph-name="g" unicode="g" horiz-adv-x="610" 
d="M527 36v-1v-14q0 -108 -63 -168.5t-174 -60.5q-47 0 -86.5 11.5t-68.5 31.5t-46.5 46.5t-21.5 55.5q0 5 5 5h58q5 0 7 -5q4 -15 15.5 -30t30.5 -27t46 -20t61 -8q49 0 81 14t51 37.5t26.5 54t8.5 63.5v39q0 2 -3 3.5t-6 -1.5q-8 -9 -21.5 -21.5t-34 -24t-48.5 -19
t-65 -7.5q-53 0 -96.5 19t-75 54t-49 83t-17.5 107q0 58 16.5 106.5t47.5 83.5t75 54t99 19q37 0 66 -9t49.5 -21t34 -24t19.5 -18q3 -3 5.5 -2t3.5 4l10 55q2 5 5 5h50q5 0 5 -5v-465zM111 253q0 -45 12 -82.5t35 -64t56 -41.5t75 -15t73.5 15t52.5 41.5t31.5 64t10.5 82.5
t-10.5 82.5t-31.5 64t-52.5 41.5t-73.5 15t-75 -15t-56 -41.5t-35 -64t-12 -82.5z" />
    <glyph glyph-name="h" unicode="h" horiz-adv-x="578" 
d="M455 282q0 33 -8 64t-26.5 55.5t-48.5 39.5t-73 15q-84 0 -120 -41.5t-36 -131.5v-278q0 -5 -5 -5h-60q-5 0 -5 5v694q0 5 5 5h60q5 0 5 -5v-243q0 -4 3.5 -4.5t5.5 1.5q6 6 17.5 17t29.5 21t42.5 17.5t57.5 7.5q57 0 99.5 -19t70.5 -50.5t42 -74t14 -90.5v-277
q0 -5 -5 -5h-60q-5 0 -5 5v277z" />
    <glyph glyph-name="i" unicode="i" horiz-adv-x="246" 
d="M148 506q5 0 5 -5v-496q0 -5 -5 -5h-60q-5 0 -5 5v496q0 5 5 5h60zM158 704q5 0 5 -5v-80q0 -5 -5 -5h-80q-5 0 -5 5v80q0 5 5 5h80z" />
    <glyph glyph-name="j" unicode="j" horiz-adv-x="291" 
d="M208 -71q0 -66 -34 -96.5t-101 -30.5h-55q-5 0 -5 5v50q0 5 5 5h54q32 0 49 17.5t17 49.5v572q0 5 5 5h60q5 0 5 -5v-572zM213 704q5 0 5 -5v-80q0 -5 -5 -5h-80q-5 0 -5 5v80q0 5 5 5h80z" />
    <glyph glyph-name="k" unicode="k" horiz-adv-x="567" 
d="M345 352q-2 -2 0 -6l198 -341q3 -5 -3 -5h-63q-4 0 -7 5l-174 297q-2 2 -3.5 3t-5.5 -2l-137 -118q-5 -5 -5 -10v-170q0 -5 -5 -5h-60q-5 0 -5 5v694q0 5 5 5h60q5 0 5 -5v-423q0 -2 2 -3.5t5 1.5l266 227q5 5 10 5h89q7 0 2 -5z" />
    <glyph glyph-name="l" unicode="l" horiz-adv-x="226" 
d="M138 704q5 0 5 -5v-694q0 -5 -5 -5h-60q-5 0 -5 5v694q0 5 5 5h60z" />
    <glyph glyph-name="m" unicode="m" horiz-adv-x="873" 
d="M401 282q0 34 -5 65.5t-19.5 55.5t-41 38.5t-69.5 14.5q-41 0 -66.5 -14.5t-40.5 -38.5t-20.5 -55.5t-5.5 -65.5v-277q0 -5 -5 -5h-60q-5 0 -5 5v496q0 5 5 5h49q5 0 6 -5l10 -55q1 -5 4.5 -5.5t5.5 3.5l12 16t25 24.5t39.5 22t56.5 9.5q41 0 70 -8.5t48.5 -21.5t31 -27
t18.5 -26q2 -4 5 -3.5t5 3.5q27 46 65.5 65t95.5 19q54 0 91 -16t60 -46t33 -73.5t10 -99.5v-277h1q0 -5 -5 -5h-60q-5 0 -5 5v277q0 33 -6 65t-21 56.5t-41 39.5t-67 15q-43 0 -69 -14.5t-40.5 -39t-19.5 -56.5t-5 -66v-277q0 -5 -5 -5h-60q-5 0 -5 5v277z" />
    <glyph glyph-name="n" unicode="n" horiz-adv-x="588" 
d="M455 272q0 37 -8 70t-26.5 58.5t-48.5 40.5t-73 15q-84 0 -120 -47t-36 -137v-267q0 -5 -5 -5h-60q-5 0 -5 5v496q0 5 5 5h49q5 0 6 -5l10 -55q1 -5 4.5 -5t5.5 3q5 7 18 19t32.5 24t46 20.5t59.5 8.5q57 0 98 -17.5t67.5 -49.5t38.5 -77t12 -100v-267q0 -5 -5 -5h-60
q-5 0 -5 5v267z" />
    <glyph glyph-name="o" unicode="o" horiz-adv-x="592" 
d="M529 253q0 -59 -17 -107t-48.5 -83t-78 -54t-104.5 -19q-59 0 -105 19t-78 54t-48.5 83t-16.5 107t16.5 107.5t48.5 83t78 53.5t105 19q58 0 104.5 -19t78 -54t48.5 -83.5t17 -106.5zM459 253q0 45 -12 82.5t-35 64t-56 41.5t-75 15t-75 -15t-56 -41.5t-35 -64t-12 -82.5
t12 -82.5t35 -64t56 -41.5t75 -15t75 15t56 41.5t35 64t12 82.5z" />
    <glyph glyph-name="p" unicode="p" horiz-adv-x="602" 
d="M73 501q0 5 5 5h50q3 0 5 -5l10 -55q1 -3 4 -4t5 3q3 4 13.5 15.5t31 24t51.5 22t73 9.5q58 0 102.5 -19t74.5 -54t45.5 -83.5t15.5 -106.5q0 -59 -16 -107t-46.5 -83t-74.5 -54t-101 -19q-42 0 -72 9.5t-50.5 22t-32 24.5t-14.5 17q-2 4 -5.5 3t-3.5 -4v-255q0 -5 -5 -5
h-60q-5 0 -5 5v694zM489 253q0 45 -12 82.5t-35 64t-56 41.5t-75 15t-73.5 -15t-52.5 -41.5t-31.5 -64t-10.5 -82.5t10.5 -82.5t31.5 -64t52.5 -41.5t73.5 -15t75 15t56 41.5t35 64t12 82.5z" />
    <glyph glyph-name="q" unicode="q" horiz-adv-x="602" 
d="M519 -193q0 -5 -5 -5h-60q-5 0 -5 5v255q0 3 -3.5 4t-5.5 -3q-3 -5 -14.5 -17t-32 -24.5t-50.5 -22t-72 -9.5q-57 0 -101 19t-74.5 54t-46.5 83t-16 107q0 58 15 106.5t45 83.5t74.5 54t103.5 19q42 0 73 -9.5t51.5 -22t31 -24t13.5 -15.5q2 -4 5 -3t4 4l10 55q2 5 5 5
h50q5 0 5 -5v-694zM103 253q0 -45 12 -82.5t35 -64t56 -41.5t75 -15t73.5 15t52.5 41.5t31.5 64t10.5 82.5t-10.5 82.5t-31.5 64t-52.5 41.5t-73.5 15t-75 -15t-56 -41.5t-35 -64t-12 -82.5z" />
    <glyph glyph-name="r" unicode="r" horiz-adv-x="369" 
d="M73 501q0 5 5 5h50q3 0 5 -5l10 -55q1 -5 4.5 -5t5.5 3q5 6 15.5 18t27.5 24t42.5 21t60.5 9h42q5 0 5 -5v-60q0 -5 -5 -5h-42q-84 0 -120 -43t-36 -131v-267q0 -5 -5 -5h-60q-5 0 -5 5v496z" />
    <glyph glyph-name="s" unicode="s" horiz-adv-x="530" 
d="M103 171q0 -17 6.5 -38t23.5 -39.5t46.5 -31t74.5 -12.5q18 0 44 2.5t50 12.5t41.5 29t17.5 51q0 27 -14 42.5t-36 24.5t-49.5 13t-53.5 7q-33 3 -70 9t-68 20t-51.5 41t-20.5 72q0 30 15.5 56t42.5 45t63.5 30t78.5 11q46 0 86 -11t70 -33t47 -56.5t17 -80.5q0 -5 -5 -5
h-60q-5 0 -5 5q0 62 -40.5 91.5t-109.5 29.5q-61 0 -95.5 -24.5t-34.5 -57.5q0 -22 9.5 -36.5t27.5 -23.5t44 -14t59 -8q46 -4 86.5 -10.5t71 -21.5t48 -42t17.5 -73q0 -81 -60.5 -118t-162.5 -37q-57 0 -98.5 15t-68.5 39.5t-40.5 57.5t-13.5 69q0 5 5 5h60q5 0 5 -5z" />
    <glyph glyph-name="t" unicode="t" horiz-adv-x="350" 
d="M28 446q-5 0 -5 5v50q0 5 5 5h95q5 0 5 5v128q0 5 5 5h60q5 0 5 -5v-128q0 -5 5 -5h115q5 0 5 -5v-50q0 -5 -5 -5h-115q-5 0 -5 -5v-314q0 -39 17 -53t49 -14h54q5 0 5 -5v-50q0 -5 -5 -5h-55q-75 0 -105 30.5t-30 96.5v314q0 5 -5 5h-95z" />
    <glyph glyph-name="u" unicode="u" horiz-adv-x="578" 
d="M123 234q0 -37 8 -70t26.5 -58.5t48 -40.5t73.5 -15q84 0 120 47t36 137v267q0 5 5 5h60q5 0 5 -5v-496q0 -5 -5 -5h-49q-5 0 -6 5l-10 55q-1 5 -4.5 5t-5.5 -3q-5 -7 -18 -19t-32.5 -24t-46 -20.5t-59.5 -8.5q-57 0 -98 17.5t-67.5 49.5t-38.5 76.5t-12 100.5v267
q0 5 5 5h60q5 0 5 -5v-267z" />
    <glyph glyph-name="v" unicode="v" horiz-adv-x="516" 
d="M398 501q2 5 7 5h63q6 0 4 -5l-168 -496q-2 -5 -6 -5h-90q-4 0 -6 5l-168 496q-2 5 4 5h63q5 0 7 -5l140 -437q2 -5 5.5 -4.5t4.5 4.5z" />
    <glyph glyph-name="w" unicode="w" horiz-adv-x="746" 
d="M527 65q1 -5 5 -5t5 5l96 436q2 5 7 5h58q6 0 4 -5l-118 -496q-2 -5 -6 -5h-91q-4 0 -6 5l-108 436q-1 5 -5 5t-5 -5l-108 -436q-2 -5 -6 -5h-91q-4 0 -6 5l-118 496q-2 5 4 5h58q5 0 7 -5l96 -436q1 -5 5 -5t5 5l100 436q2 5 7 5h104q5 0 7 -5z" />
    <glyph glyph-name="x" unicode="x" horiz-adv-x="528" 
d="M426 501q2 2 3 3.5t5 1.5h62q7 0 2 -5l-180 -246q-4 -5 0 -10l180 -240q5 -5 -2 -5h-66q-4 0 -5 1.5t-3 3.5l-142 187q-5 7 -10 0l-142 -187q-2 -2 -3 -3.5t-5 -1.5h-66q-2 0 -3 1.5t1 3.5l180 240q4 5 0 10l-180 246q-5 5 2 5h62q4 0 5 -1.5t3 -3.5l146 -194q5 -7 10 0z
" />
    <glyph glyph-name="y" unicode="y" horiz-adv-x="532" 
d="M416 501q2 5 7 5h63q6 0 4 -5l-168 -497l-25 -75q-10 -31 -20 -55t-24.5 -40t-36 -24t-54.5 -8h-103q-5 0 -5 5v50q0 5 5 5h102q16 0 26.5 4.5t17.5 13t12 21t10 28.5q4 12 4.5 27t-9.5 44l-170 501q-2 5 4 5h63q5 0 7 -5l140 -437q2 -4 5 -4t5 4z" />
    <glyph glyph-name="z" unicode="z" horiz-adv-x="467" 
d="M37 501q0 5 5 5h361q5 0 5 -5v-50q0 -2 -1.5 -5t-3.5 -5l-290 -373q-2 -3 0 -5.5t4 -2.5h300q5 0 5 -5v-50q0 -5 -5 -5h-387q-5 0 -5 5v50q0 2 1.5 5t3.5 5l290 373q2 3 0 5.5t-4 2.5h-274q-5 0 -5 5v50z" />
    <glyph glyph-name="braceleft" unicode="{" horiz-adv-x="431" 
d="M368 -193q0 -5 -5 -5h-55q-36 0 -59.5 8.5t-37.5 24t-19.5 36.5t-5.5 45v254q0 22 -15.5 37.5t-37.5 15.5h-55q-5 0 -5 5v50q0 5 5 5h55q21 0 37 15.5t16 38.5v253q0 22 5.5 42.5t19.5 36.5t37.5 25.5t59.5 9.5h55q5 0 5 -5v-51q0 -4 -5 -4h-54q-22 0 -38 -16t-16 -38
v-223q0 -32 -4.5 -51t-11.5 -30.5t-16 -17.5t-18 -10q-4 -2 -4 -5t4 -5q9 -4 17.5 -10t16 -17.5t12 -31t4.5 -49.5v-224q0 -22 16 -38t38 -16h54q5 0 5 -4v-51z" />
    <glyph glyph-name="bar" unicode="|" horiz-adv-x="196" 
d="M62 -198q-4 0 -4 5v892q0 5 4 5h61q5 0 5 -5v-892q0 -5 -5 -5h-61z" />
    <glyph glyph-name="braceright" unicode="}" horiz-adv-x="431" 
d="M73 -142q0 4 5 4h54q22 0 38 16t16 38v224q0 30 4.5 49.5t12 31t16 17.5t17.5 10q4 2 4 5t-4 5q-9 4 -18 10t-16 17.5t-11.5 30.5t-4.5 51v223q0 22 -16 38t-38 16h-54q-5 0 -5 4v51q0 5 5 5h55q36 0 59.5 -9.5t37.5 -25.5t19.5 -36.5t5.5 -42.5v-253q0 -23 16 -38.5
t37 -15.5h55q5 0 5 -5v-50q0 -5 -5 -5h-55q-22 0 -37.5 -15.5t-15.5 -37.5v-254q0 -24 -5.5 -45t-19.5 -36.5t-37.5 -24t-59.5 -8.5h-55q-5 0 -5 5v51z" />
    <glyph glyph-name="asciitilde" unicode="~" horiz-adv-x="510" 
d="M477 311q0 -22 -8.5 -41.5t-23 -33.5t-34 -22.5t-41.5 -8.5q-32 0 -65 11.5t-66 25.5q-32 14 -59.5 23.5t-49.5 9.5q-14 0 -25.5 -10.5t-11.5 -24.5v-30q0 -5 -5 -5l-60 20q-5 0 -5 5v10q0 23 8.5 42.5t22.5 34t33.5 23t42.5 8.5q30 0 64.5 -12.5t66.5 -25.5
q29 -12 58.5 -22.5t50.5 -10.5q14 0 25.5 10t11.5 24v32q0 5 5 5l60 -20q5 0 5 -5v-12z" />
    <glyph glyph-name="DEL" horiz-adv-x="260" 
 />
    <glyph glyph-name="nonbreakingspace" unicode="&#xa0;" horiz-adv-x="260" 
 />
    <glyph glyph-name="exclamdown" unicode="&#xa1;" horiz-adv-x="237" 
d="M95 496.025q-5 0 -5 -4.99902l-10 -292.965v-192.977q0 -4.99902 5 -4.99902h64q5 0 5 4.99902v192.977l-10 292.965q0 4.99902 -5 4.99902h-44zM67 704q-5 0 -5 -4.99902v-99.9883q0 -4.99902 5 -4.99902h100q5 0 5 4.99902v99.9883q0 4.99902 -5 4.99902h-100z" />
    <glyph glyph-name="cent" unicode="&#xa2;" horiz-adv-x="532" 
d="M437 171q2 5 6 5h59q5 0 5 -5q-3 -24 -15 -52.5t-34.5 -54.5t-57 -45.5t-82.5 -25.5v-88q0 -5 -5 -5h-61q-4 0 -4 5v87q-103 11 -159 81t-56 180q0 54 14.5 100t42 80t67.5 55t91 26v86q0 5 4 5h61q5 0 5 -5v-87q48 -6 82.5 -25.5t57 -45.5t34.5 -54.5t15 -52.5
q0 -5 -5 -5h-59q-4 0 -6 5q-15 57 -54 89t-102 32q-42 0 -75 -15t-56 -41.5t-35 -64t-12 -82.5t12 -82.5t35 -64t56 -41.5t75 -15q63 0 102 32t54 89z" />
    <glyph glyph-name="sterling" unicode="&#xa3;" horiz-adv-x="645" 
d="M575 511q0 -5 -5 -5h-60q-5 0 -5 5q0 72 -38 107.5t-101 35.5q-35 0 -59.5 -11.5t-40.5 -30.5t-23.5 -43.5t-7.5 -51.5v-117q0 -5 5 -5h122q5 0 5 -5v-50q0 -5 -5 -5h-122q-5 0 -5 -5v-203q0 -37 -13 -59q-2 -2 -1 -5t5 -3h274q5 0 5 5v131q0 5 5 5h60q5 0 5 -5v-191
q0 -5 -5 -5h-505q-5 0 -5 5v51q0 2 4 4h35q32 0 49 14t17 53v203q0 5 -5 5h-95q-5 0 -5 5v50q0 5 5 5h95q5 0 5 5v117q0 41 13 77t38.5 62.5t63 42t86.5 15.5q46 0 84.5 -12t66 -37t43 -63.5t15.5 -90.5z" />
    <glyph glyph-name="currency" unicode="&#xa4;" horiz-adv-x="645" 
d="M496 351q0 45 -12 82.5t-35 64t-56 41.5t-75 15t-75 -15t-56 -41.5t-35 -64t-12 -82.5t12 -82.5t35 -64t56 -41.5t75 -15t75 15t56 41.5t35 64t12 82.5zM34 119q-5 3 0 7l69 69q4 4 1 8q-34 63 -34 147q0 41 8.5 78.5t25.5 67.5q3 5 -1 9l-69 70q-5 3 0 7l53 53q3 5 7 0
l63 -64q6 -6 11 -2q29 20 67 32t83 12q88 0 148 -43q7 -5 13 1l64 64q3 5 7 0l53 -53q5 -4 0 -7l-70 -70q-4 -4 -1 -10q16 -31 25 -67t9 -78q0 -86 -35 -148q-2 -3 2 -7l70 -69q5 -4 0 -7l-53 -53q-4 -5 -7 0l-65 64q-5 5 -12 0q-60 -43 -148 -43q-90 0 -151 43q-5 4 -9 0
l-64 -64q-4 -5 -7 0z" />
    <glyph glyph-name="yen" unicode="&#xa5;" horiz-adv-x="625" 
d="M273 101q0 5 -5 5h-183q-5 0 -5 5v60q0 5 5 5h183q5 0 5 5v131q0 5 -5 5h-183q-5 0 -5 5v60q0 5 5 5h135q3 0 4 2t0 4l-189 306q-5 5 2 5h68q6 0 9 -5l190 -309q3 -5 6 0l192 309q3 5 8 5h69q4 0 2 -5l-190 -305q-2 -2 -0.5 -4.5t3.5 -2.5h136q5 0 5 -5v-60q0 -5 -5 -5
h-182q-5 0 -5 -5v-131q0 -5 5 -5h182q5 0 5 -5v-60q0 -5 -5 -5h-182q-5 0 -5 -5v-96q0 -5 -5 -5h-60q-5 0 -5 5v96z" />
    <glyph glyph-name="brokenbar" unicode="&#xa6;" horiz-adv-x="196" 
d="M62 -198q-4 0 -4 5v401q0 5 4 5h61q5 0 5 -5v-401q0 -5 -5 -5h-61zM62 293q-4 0 -4 5v401q0 5 4 5h61q5 0 5 -5v-401q0 -5 -5 -5h-61z" />
    <glyph glyph-name="section" unicode="&#xa7;" horiz-adv-x="625" 
d="M37 294q0 55 25.5 94t61.5 62q5 3 3 7q-19 36 -19 85q0 33 13.5 64t38.5 55t60 38.5t77 14.5q46 0 84 -14.5t65.5 -40.5t43 -64t15.5 -84q0 -5 -5 -5h-60q-5 0 -5 5q0 31 -9 57t-26 45t-43 30t-60 11q-30 0 -52.5 -11.5t-37.5 -28t-22 -36.5t-7 -36q0 -14 3.5 -31
t15.5 -33.5t35.5 -32t64.5 -25.5q45 -12 91 -25t83.5 -35.5t61.5 -57.5t24 -90q0 -56 -25 -94t-61 -61q-2 -1 -3.5 -3t0.5 -6q9 -18 13.5 -38t4.5 -46q0 -33 -13.5 -64t-38.5 -55t-60 -38.5t-77 -14.5q-46 0 -84 14.5t-65.5 40.5t-43 63.5t-15.5 84.5q0 5 5 5h60q5 0 5 -5
q0 -62 35 -102.5t103 -40.5q30 0 52.5 11.5t37.5 28t22 36t7 36.5q0 14 -3.5 31t-15.5 33.5t-36 31.5t-64 26q-45 12 -91.5 25t-84 35.5t-61 57.5t-23.5 90zM297 156q37 -9 68.5 -22t56.5 -32q26 14 45.5 41t19.5 69q0 34 -19.5 57t-48.5 39t-62 25.5t-60 16.5q-37 9 -69 22
t-56 32q-26 -15 -45.5 -41.5t-19.5 -68.5q0 -34 19.5 -57t48.5 -39t62 -25.5t60 -16.5z" />
    <glyph glyph-name="dieresis" unicode="&#xa8;" horiz-adv-x="419" 
d="M135 704q5 0 5 -5v-80q0 -5 -5 -5h-80q-5 0 -5 5v80q0 5 5 5h80zM354 704q5 0 5 -5v-80q0 -5 -5 -5h-80q-5 0 -5 5v80q0 5 5 5h80z" />
    <glyph glyph-name="copyright" unicode="&#xa9;" horiz-adv-x="781" 
d="M734 353q0 -73 -27.5 -137t-75 -112t-111.5 -76t-137 -28q-72 0 -136 28t-111.5 76t-75 112t-27.5 137q0 72 27.5 136t75 112t111.5 75.5t136 27.5q73 0 137 -27.5t111.5 -75.5t75 -112t27.5 -136zM704 353q0 66 -25.5 124.5t-69 102t-102 69t-124.5 25.5t-124.5 -25.5
t-102 -69t-68.5 -102t-25 -124.5t25 -125t68.5 -102.5t102 -69t124.5 -25.5t124.5 25.5t102 69t69 102.5t25.5 125zM500 270q1 3 4 3h51q5 0 5 -5q0 -15 -11.5 -37.5t-34 -44t-56.5 -36.5t-79 -15t-80.5 16t-60 45t-37.5 68.5t-13 87.5t13 87.5t37.5 68.5t60 45t80.5 16
q47 0 81 -16.5t56.5 -38.5t33 -45t10.5 -35q0 -3 -3 -3h-53q-3 0 -4 3q-3 10 -10.5 24t-21.5 27.5t-36 23t-53 9.5q-62 0 -96.5 -44t-34.5 -122t34.5 -122t96.5 -44q31 0 52.5 8.5t35.5 21.5t22 27.5t11 26.5z" />
    <glyph glyph-name="ordfeminine" unicode="&#xaa;" horiz-adv-x="344" 
d="M53.6191 615.893q0 24.8389 9.17969 43.1982t24.8389 30.5088t36.9883 18.0889q21.3291 5.94043 45.6279 5.94043q55.6182 0 88.0166 -24.0293t32.3984 -73.167v-112.855q0 -21.0596 6.20996 -28.6191t23.4893 -7.55957h5.93945q2.7002 0 2.7002 -2.69922v-26.999
q0 -2.7002 -2.7002 -2.7002h-5.93945q-28.0791 0 -41.3086 7.83008q-13.2295 7.8291 -20.249 24.5684q-1.62012 4.32031 -4.85938 1.08008q-3.24023 -3.24023 -9.99023 -9.44922q-6.75 -6.20996 -18.6289 -12.4199q-11.8799 -6.20996 -29.6992 -11.3398
q-17.8193 -5.12891 -42.6582 -5.66895q-53.998 0 -82.0762 22.9482q-28.0791 22.9492 -28.0791 60.208t28.8887 59.1279t86.667 21.8691h67.4971q6.47949 0 11.6094 0.269531q5.12988 0.270508 8.36914 2.42969q3.24023 2.16016 5.12988 6.75
q1.89062 4.58984 1.89062 13.2295q0 10.2598 -2.16016 21.8691t-10.5293 21.0596q-8.37012 9.44922 -24.8398 15.6592q-16.4688 6.20996 -45.0879 6.20996q-40.498 0 -59.667 -16.4697q-19.1699 -16.4697 -19.1699 -48.8682q0 -2.7002 -2.69922 -2.7002h-32.3994
q-2.69922 0 -2.69922 2.7002zM252.871 558.655q0 2.69922 -2.7002 2.69922h-89.6367q-25.9189 0 -41.5781 -4.31934q-15.6592 -4.32031 -24.0293 -11.0693q-8.36914 -6.75 -11.3389 -15.6602q-2.96973 -8.90918 -2.96973 -17.5488q0 -9.17969 4.0498 -18.3594
t12.6895 -16.4688q8.63965 -7.29004 22.4092 -11.6104q13.7686 -4.31934 33.208 -4.31934q26.459 0 45.3584 7.8291q18.8994 7.83008 30.7783 19.9795q11.8799 12.1494 17.5498 26.999t6.20996 28.8887v12.96z" />
    <glyph glyph-name="guillemotleft" unicode="&#xab;" horiz-adv-x="571" 
d="M145 258q-3 -4 0 -9l212 -242q2 -7 -5 -7h-74q-4 0 -5 3l-212 246q-3 4 0 9l212 245q1 3 5 3h74q7 0 5 -7zM330 258q-3 -4 0 -9l212 -242q2 -7 -5 -7h-74q-4 0 -5 3l-212 246q-3 4 0 9l212 245q1 3 5 3h74q7 0 5 -7z" />
    <glyph glyph-name="logicalnot" unicode="&#xac;" horiz-adv-x="631" 
d="M563 5q0 -5 -5 -5h-60q-5 0 -5 5v208q0 5 -5 5h-425q-5 0 -5 5v60q0 5 5 5h495q5 0 5 -5v-278z" />
    <glyph glyph-name="uni00AD" unicode="&#xad;" horiz-adv-x="506" 
d="M456 5q0 -5 -5 -5h-411q-5 0 -5 5v694q0 5 5 5h411q5 0 5 -5v-694zM419 681h-346l173 -306zM419 24l-173 305l-173 -305h346zM432 48v608q-43 -75 -87 -152t-86 -152zM233 352l-173 305v-610z" />
    <glyph glyph-name="registered" unicode="&#xae;" horiz-adv-x="781" 
d="M734 353q0 -73 -27.5 -137t-75 -112t-111.5 -76t-137 -28q-72 0 -136 28t-111.5 76t-75 112t-27.5 137q0 72 27.5 136t75 112t111.5 76t136 28q73 0 137 -28t111.5 -76t75 -112t27.5 -136zM704 353q0 66 -25.5 124.5t-69 102.5t-102 69.5t-124.5 25.5t-124.5 -25.5
t-102 -69.5t-68.5 -102.5t-25 -124.5t25 -125t68.5 -102.5t102 -69t124.5 -25.5t124.5 25.5t102 69t69 102.5t25.5 125zM218 558q0 5 5 5h207q25 0 47 -10t39 -27.5t27 -40.5t10 -50q0 -39 -19 -69t-51 -44q-5 -2 -2 -7l76 -168q3 -6 -4 -6h-47q-2 0 -5 1t-5 4l-69 159
q-1 4 -7 4h-142q-3 0 -3 -3v-160q0 -5 -5 -5h-47q-5 0 -5 5v412zM280 512q-5 0 -5 -5v-142q0 -5 5 -5h145q28 1 49.5 22.5t21.5 52.5t-22 54t-51 23h-143z" />
    <glyph glyph-name="macron" unicode="&#xaf;" horiz-adv-x="325" 
d="M34 576q-4 0 -4 5v40q0 5 4 5h246q5 0 5 -5v-40q0 -5 -5 -5h-246z" />
    <glyph glyph-name="degree" unicode="&#xb0;" horiz-adv-x="399" 
d="M33 552q0 33 12.5 62.5t34.5 51.5t51.5 35t62.5 13t62.5 -13t51.5 -35t35 -51.5t13 -62.5t-13 -62.5t-35 -51.5t-51.5 -34.5t-62.5 -12.5t-62.5 12.5t-51.5 34.5t-34.5 51.5t-12.5 62.5zM98 552q0 -40 28 -68t68 -28q41 0 69 28t28 68q0 41 -28 69t-69 28q-40 0 -68 -28
t-28 -69z" />
    <glyph glyph-name="plusminus" unicode="&#xb1;" horiz-adv-x="602" 
d="M326 203q0 -5 -5 -5h-60q-5 0 -5 5v208q0 5 -5 5h-203q-5 0 -5 5v60q0 5 5 5h203q5 0 5 5v208q0 5 5 5h60q5 0 5 -5v-208q0 -5 5 -5h213q5 0 5 -5v-60q0 -5 -5 -5h-213q-5 0 -5 -5v-208zM48 0q-5 0 -5 5v60q0 5 5 5h496q5 0 5 -5v-60q0 -5 -5 -5h-496z" />
    <glyph glyph-name="twosuperior" unicode="&#xb2;" horiz-adv-x="368" 
d="M64.1592 593.929q0 27.5391 9.44922 48.3281t25.6494 34.2881q16.1992 13.5 37.7979 20.25q21.5996 6.74902 45.8984 6.74902q29.1592 0 51.8379 -8.36914q22.6787 -8.37012 38.3379 -22.9492q15.6602 -14.5791 23.7598 -34.5586t8.09961 -43.1982
q0 -19.4395 -5.94043 -35.9082q-5.93945 -16.4697 -15.1191 -30.2393t-19.9785 -24.8389q-10.7998 -11.0693 -19.9795 -19.709l-136.074 -128.515q-1.62012 -1.62012 -0.810547 -3.24023q0.810547 -1.62012 2.42969 -1.62012h192.772q2.7002 0 2.7002 -2.69922v-26.999
q0 -2.7002 -2.7002 -2.7002h-246.77q-2.7002 0 -2.7002 2.7002v29.6982q0 1.08008 0.80957 1.89062q0.810547 0.80957 1.89062 1.88965l159.833 153.354q5.39941 5.39941 14.3096 14.5791q8.90918 9.17969 17.2793 20.5195q8.36914 11.3398 14.3096 24.5693
q5.93945 13.2295 5.93945 27.2686q0 12.4199 -4.85938 25.9189q-4.86035 13.499 -15.1201 24.8389q-10.2588 11.3398 -26.1885 18.6289q-15.9297 7.29004 -38.0684 7.29004q-16.1992 0 -30.7793 -5.39941q-14.5791 -5.40039 -25.6484 -15.3896t-17.8193 -24.2988
t-6.75 -32.1289q0 -2.7002 -2.69922 -2.7002h-32.3994q-2.69922 0 -2.69922 2.7002z" />
    <glyph glyph-name="threesuperior" unicode="&#xb3;" horiz-adv-x="365" 
d="M55.6191 593.929q0 28.0791 9.17969 48.8682t25.1084 34.2881q15.9297 13.5 37.5283 19.9795q21.5996 6.47949 46.4385 6.47949q26.459 0 48.3281 -8.36914q21.8691 -8.37012 37.7988 -22.6797q15.9287 -14.3086 24.5684 -33.748t8.63965 -41.5781
q0 -20.5195 -7.8291 -35.6387q-7.83008 -15.1191 -17.5498 -25.1094q-9.71973 -9.98926 -19.1689 -15.1191q-9.4502 -5.12988 -12.6895 -5.66992q-2.16016 -0.540039 -2.42969 -2.42969q-0.270508 -1.88965 2.42969 -2.96973q6.47949 -2.16016 17.8193 -8.91016
q11.3389 -6.74902 22.1387 -18.3594q10.7998 -11.6094 18.6299 -27.5381q7.8291 -15.9297 7.8291 -36.9893q0 -24.2988 -9.71973 -44.0078t-26.7285 -33.4785q-17.0098 -13.7695 -40.498 -21.0596q-23.4893 -7.28906 -51.5684 -7.28906h-0.540039
q-29.1592 0 -51.5674 7.8291q-22.4092 7.83008 -37.7988 22.4092t-23.2188 34.8291q-7.83008 20.249 -7.83008 44.5479q0 2.7002 2.7002 2.7002h32.3984q2.7002 0 2.7002 -2.7002q0 -34.0186 21.0586 -55.6182q21.0596 -21.5986 61.5576 -21.5986h0.540039
q40.498 0 65.6074 19.4395q25.1084 19.4385 25.1084 53.9971q0 17.8193 -7.01953 32.1289t-19.1689 24.0293t-28.6191 15.1191q-16.4688 5.40039 -35.9082 5.40039h-25.3789q-2.7002 0 -2.7002 2.69922v26.999q0 2.7002 2.7002 2.7002h25.3789q36.7188 0 59.668 18.8994
q22.9482 18.8984 22.9482 50.7578q0 14.5791 -5.93945 27.8086t-16.7393 23.4893t-26.1885 16.4688q-15.3896 6.20996 -33.749 6.20996q-16.7393 0 -31.3184 -4.85938q-14.5801 -4.86035 -25.6494 -14.3096q-11.0693 -9.4502 -17.2793 -24.0293t-6.20996 -34.0186
q0 -2.7002 -2.69922 -2.7002h-32.3994q-2.69922 0 -2.69922 2.7002z" />
    <glyph glyph-name="acute" unicode="&#xb4;" horiz-adv-x="274" 
d="M76 576q-3 0 -5 2t0 5l49 114q2 7 10 7h67q3 0 5 -2t0 -5l-72 -114l-4.5 -4.5t-6.5 -2.5h-43z" />
    <glyph glyph-name="mu" unicode="&#xb5;" 
d="M456 5q0 -5 -5 -5h-411q-5 0 -5 5v694q0 5 5 5h411q5 0 5 -5v-694zM419 681h-346l173 -306zM419 24l-173 305l-173 -305h346zM432 48v608q-43 -75 -87 -152t-86 -152zM233 352l-173 305v-610z" />
    <glyph glyph-name="paragraph" unicode="&#xb6;" horiz-adv-x="524" 
d="M226 311q0 5 -5 5q-38 0 -71 15.5t-58 42t-39 61.5t-14 75q0 38 13.5 72.5t37.5 61t57 42.5t71 18h213q5 0 5 -5v-892q0 -5 -5 -5h-60q-5 0 -5 5v832q0 5 -5 5h-60q-5 0 -5 -5v-832q0 -5 -5 -5h-60q-5 0 -5 5v504z" />
    <glyph glyph-name="periodcentered" unicode="&#xb7;" horiz-adv-x="215" 
d="M28 276q-5 0 -5 5v151q0 5 5 5h149q5 0 5 -5v-151q0 -5 -5 -5h-149z" />
    <glyph glyph-name="cedilla" unicode="&#xb8;" horiz-adv-x="265" 
d="M196 3q7 0 5 -5l-61 -43q-2 -2 -1.5 -5t4.5 -3q13 0 27 -4t25.5 -13t19 -23t7.5 -34q0 -31 -25.5 -56t-74.5 -25q-45 0 -67 25.5t-22 55.5q0 5 5 5h33q5 0 5 -5q0 -16 13 -29.5t33 -13.5q24 0 37 13.5t13 29.5q0 14 -5.5 23.5t-14 15t-18 8t-17.5 2.5q-13 0 -16 3l-8 8
q-4 4 -3.5 7t2.5 5l45 36q3 2 2 5.5t-5 3.5q-8 0 -8 6.5t8 6.5h62v0z" />
    <glyph glyph-name="onesuperior" unicode="&#xb9;" horiz-adv-x="263" 
d="M53.499 626.928q0 2.7002 2.7002 2.7002h68.5771q15.6592 0 26.459 10.7988q10.7998 10.7998 10.7998 26.459v32.3994v2.15918q0 2.7002 2.7002 2.7002h32.3984q2.7002 0 2.7002 -2.7002v-374.744q0 -2.7002 -2.7002 -2.7002h-32.3984q-2.7002 0 -2.7002 2.7002v251.63
q0 7.55957 -5.66992 13.2295q-5.66992 5.66895 -13.2295 5.66895h-86.9365q-2.7002 0 -2.7002 2.7002v26.999z" />
    <glyph glyph-name="ordmasculine" unicode="&#xba;" horiz-adv-x="364" 
d="M310.648 572.614q0 -31.8584 -9.17969 -57.7773t-26.1885 -44.8184q-17.0098 -18.8994 -42.1191 -29.1592q-25.1084 -10.2588 -56.4277 -10.2588q-31.8584 0 -56.6973 10.2588q-24.8389 10.2598 -42.1182 29.1592t-26.1895 44.8184q-8.90918 25.9189 -8.90918 57.7773
t8.90918 58.0479q8.91016 26.1885 26.1895 44.8184q17.2793 18.6289 42.1182 28.8887t56.6973 10.2598q31.3193 0 56.4277 -10.2598q25.1094 -10.2598 42.1191 -29.1592q17.0088 -18.8994 26.1885 -45.0879t9.17969 -57.5078zM272.85 572.614q0 24.2988 -6.47949 44.5488
q-6.47949 20.249 -18.8994 34.5586q-12.4189 14.3086 -30.2383 22.4082q-17.8193 8.10059 -40.499 8.10059q-22.6787 0 -40.498 -8.10059q-17.8193 -8.09961 -30.2383 -22.4082q-12.4199 -14.3096 -18.8994 -34.5586q-6.47949 -20.25 -6.47949 -44.5488t6.47949 -44.5479
t18.8994 -34.5586q12.4189 -14.3096 30.2383 -22.4092t40.498 -8.09961q22.6797 0 40.499 8.09961t30.2383 22.4092q12.4199 14.3096 18.8994 34.5586t6.47949 44.5479z" />
    <glyph glyph-name="guillemotright" unicode="&#xbb;" horiz-adv-x="571" 
d="M59 499q-2 7 5 7h74q3 0 5 -3l212 -245q3 -5 0 -9l-212 -246q-2 -3 -5 -3h-74q-7 0 -5 7l212 242q3 5 0 9zM244 499q-2 7 5 7h74q3 0 5 -3l212 -245q3 -5 0 -9l-212 -246q-2 -3 -5 -3h-74q-7 0 -5 7l212 242q3 5 0 9z" />
    <glyph glyph-name="onequarter" unicode="&#xbc;" horiz-adv-x="731" 
d="M530 702q2 2 4 2h44q8 0 4 -8l-426 -694q-2 -2 -4 -2h-42q-8 0 -4 8zM53 628q0 3 3 3h69q15 0 26 10.5t11 26.5v32v2q0 3 3 3h32q3 0 3 -3v-374q0 -3 -3 -3h-32q-3 0 -3 3v251q0 8 -5.5 13.5t-13.5 5.5h-87q-3 0 -3 3v27zM393 122q0 3 1 5l160 250q1 3 4 3h38q3 0 3 -3
v-250q0 -3 2 -3h64q3 0 3 -2v-28q0 -2 -3 -2h-64q-2 0 -2 -3v-86q0 -3 -3 -3h-33q-2 0 -2 3v86q0 3 -3 3h-162q-3 0 -3 2v28zM437 127q-2 -1 -1 -2t2 -1h120q3 0 3 3v186q0 3 -2 3.5t-4 -2.5z" />
    <glyph glyph-name="onehalf" unicode="&#xbd;" horiz-adv-x="747" 
d="M490 702q2 2 4 2h44q8 0 4 -8l-426 -694q-2 -2 -4 -2h-42q-8 0 -4 8zM53 627q0 3 3 3h69q15 0 26 10.5t11 26.5v32v2q0 3 3 3h32q3 0 3 -3v-374q0 -3 -3 -3h-32q-3 0 -3 3v251q0 8 -5.5 13.5t-13.5 5.5h-87q-3 0 -3 3v27zM443 276q0 28 9.5 48.5t26 34t38 20.5t45.5 7
q58 0 90 -31.5t32 -78.5q0 -19 -6 -35.5t-15 -30t-20 -24.5l-20 -20l-136 -129q-2 -2 -1 -3.5t3 -1.5h192q3 0 3 -2v-27q0 -3 -3 -3h-246q-3 0 -3 3v29q0 2 3 4l159 154q6 5 15 14t17 20.5t14 24.5t6 27q0 12 -5 26t-15 25t-26 18.5t-38 7.5q-32 0 -56.5 -20.5t-24.5 -56.5
q0 -3 -3 -3h-32q-3 0 -3 3z" />
    <glyph glyph-name="threequarters" unicode="&#xbe;" horiz-adv-x="775" 
d="M583 702q2 2 4 2h44q8 0 4 -8l-426 -694q-2 -2 -4 -2h-42q-8 0 -4 8zM56 594q0 57 33.5 83.5t84.5 26.5q27 0 48.5 -8.5t37.5 -22.5t24.5 -34t8.5 -42q0 -21 -7.5 -36t-17.5 -24.5t-19.5 -14.5t-12.5 -6q-2 -1 -2 -3t2 -3q7 -2 18 -9t21.5 -18.5t18.5 -27.5t8 -37
q0 -48 -36 -76.5t-92 -28.5h-1q-58 0 -89 30t-31 79q0 3 3 3h32q3 0 3 -3q0 -34 21 -55.5t61 -21.5h1q41 0 66 19.5t25 53.5q0 36 -26.5 56.5t-64.5 20.5h-25q-3 0 -3 3v27q0 3 3 3h25q36 0 59.5 18.5t23.5 50.5q0 29 -22.5 51.5t-60.5 22.5q-34 0 -57.5 -19t-23.5 -58
q0 -3 -2 -3h-33q-2 0 -2 3zM437 122q0 3 1 5l160 250q1 3 4 3h38q3 0 3 -3v-250q0 -3 2 -3h64q3 0 3 -2v-28q0 -2 -3 -2h-64q-2 0 -2 -3v-86q0 -3 -3 -3h-33q-2 0 -2 3v86q0 3 -3 3h-162q-3 0 -3 2v28zM481 127q-2 -1 -1 -2t2 -1h120q3 0 3 3v186q0 3 -2 3.5t-4 -2.5z" />
    <glyph glyph-name="questiondown" unicode="&#xbf;" horiz-adv-x="506" 
d="M499.004 193.062q0 -41.9951 -15.498 -78.9902q-15.498 -36.9961 -43.9941 -64.4922q-28.4971 -27.4971 -68.9922 -43.4951q-40.4941 -15.998 -90.4883 -15.998q-111.986 0 -171.979 54.9932q-59.9922 54.9941 -59.9922 146.982q0 46.9941 13.998 75.9902
q13.998 28.9971 37.4951 48.9941q23.4971 19.998 53.9941 36.4961q30.4961 16.498 63.4922 38.4951q11.998 6.99902 19.4971 15.498t7.49902 24.4971v58.9932q0 4.99902 5 4.99902h59.9922q5 0 5 -4.99902v-69.9922q0 -28.9961 -18.498 -48.4941
q-18.498 -19.4971 -50.4941 -39.4951q-41.9951 -24.9961 -66.9922 -42.4941q-24.9961 -17.498 -38.4951 -32.4961q-13.498 -14.998 -17.4971 -30.4961q-4 -15.498 -4 -35.4961q0 -28.9961 9.99902 -54.9932t29.9961 -45.4941q19.9971 -19.498 50.4941 -30.4971
q30.4961 -10.998 71.4912 -10.998q35.9951 0 63.9922 12.998q27.9961 12.998 46.4941 32.9961t28.4961 45.9941q9.99902 25.9971 9.99902 50.9941q0 4.99902 4.99902 4.99902h59.9932q4.99902 0 4.99902 -4.99902zM330.025 704q4.99902 0 4.99902 -4.99902v-99.9883
q0 -4.99902 -4.99902 -4.99902h-99.9883q-4.99902 0 -4.99902 4.99902v99.9883q0 4.99902 4.99902 4.99902h99.9883z" />
    <glyph glyph-name="Agrave" unicode="&#xc0;" horiz-adv-x="662" 
d="M487 158q-2 5 -7 5h-308q-5 0 -7 -5l-50 -153q-2 -5 -7 -5h-64q-6 0 -4 5l230 694q2 5 6 5h100q4 0 6 -5l230 -694q2 -5 -4 -5h-64q-5 0 -7 5zM188 228q-2 -5 4 -5h269q5 0 3 5l-133 412q-2 4 -5 4t-5 -4zM304 774q-4 0 -6.5 2.5l-4.5 4.5l-72 114q-2 3 0 5t5 2h67
q8 0 10 -7l49 -114q3 -7 -5 -7h-43z" />
    <glyph glyph-name="Aacute" unicode="&#xc1;" horiz-adv-x="662" 
d="M487 158q-2 5 -7 5h-308q-5 0 -7 -5l-50 -153q-2 -5 -7 -5h-64q-6 0 -4 5l230 694q2 5 6 5h100q4 0 6 -5l230 -694q2 -5 -4 -5h-64q-5 0 -7 5zM188 228q-2 -5 4 -5h269q5 0 3 5l-133 412q-2 4 -5 4t-5 -4zM265 774q-3 0 -5 2t0 5l49 114q2 7 10 7h67q3 0 5 -2t0 -5
l-72 -114l-4.5 -4.5t-6.5 -2.5h-43z" />
    <glyph glyph-name="Acircumflex" unicode="&#xc2;" horiz-adv-x="662" 
d="M487 158q-2 5 -7 5h-308q-5 0 -7 -5l-50 -153q-2 -5 -7 -5h-64q-6 0 -4 5l230 694q2 5 6 5h100q4 0 6 -5l230 -694q2 -5 -4 -5h-64q-5 0 -7 5zM188 228q-2 -5 4 -5h269q5 0 3 5l-133 412q-2 4 -5 4t-5 -4zM370 774q-4 0 -5 3l-34 62q-2 3 -5 3t-5 -3l-34 -62q-2 -3 -5 -3
h-47q-3 0 -5 2t0 5l51 117q1 4 5 4h80q4 0 5 -4l51 -117q3 -7 -5 -7h-47z" />
    <glyph glyph-name="Atilde" unicode="&#xc3;" horiz-adv-x="662" 
d="M487 158q-2 5 -7 5h-308q-5 0 -7 -5l-50 -153q-2 -5 -7 -5h-64q-6 0 -4 5l230 694q2 5 6 5h100q4 0 6 -5l230 -694q2 -5 -4 -5h-64q-5 0 -7 5zM188 228q-2 -5 4 -5h269q5 0 3 5l-133 412q-2 4 -5 4t-5 -4zM175 792q0 13 5 28t16 28t28 21.5t41 8.5q22 0 38 -7t29.5 -16
t26.5 -16t28 -7q3 0 8.5 2t11 6.5t9 12.5t3.5 20q0 5 5 5h48q5 0 5 -5v-14q0 -13 -5 -28t-16 -27.5t-28 -21t-41 -8.5q-20 0 -37 7t-31.5 16t-28 16t-25.5 7q-3 0 -8.5 -2t-11 -6.5t-9 -12.5t-3.5 -20q0 -5 -5 -5h-48q-5 0 -5 5v13z" />
    <glyph glyph-name="Adieresis" unicode="&#xc4;" horiz-adv-x="662" 
d="M487 158q-2 5 -7 5h-308q-5 0 -7 -5l-50 -153q-2 -5 -7 -5h-64q-6 0 -4 5l230 694q2 5 6 5h100q4 0 6 -5l230 -694q2 -5 -4 -5h-64q-5 0 -7 5zM188 228q-2 -5 4 -5h269q5 0 3 5l-133 412q-2 4 -5 4t-5 -4zM256 864q5 0 5 -5v-80q0 -5 -5 -5h-80q-5 0 -5 5v80q0 5 5 5h80z
M475 864q5 0 5 -5v-80q0 -5 -5 -5h-80q-5 0 -5 5v80q0 5 5 5h80z" />
    <glyph glyph-name="Aring" unicode="&#xc5;" horiz-adv-x="662" 
d="M487 158q-2 5 -7 5h-308q-5 0 -7 -5l-50 -153q-2 -5 -7 -5h-64q-6 0 -4 5l230 694q2 5 6 5h100q4 0 6 -5l230 -694q2 -5 -4 -5h-64q-5 0 -7 5zM188 228q-2 -5 4 -5h269q5 0 3 5l-133 412q-2 4 -5 4t-5 -4zM415 823q0 -36 -26 -61.5t-62 -25.5t-61.5 25.5t-25.5 61.5
t25.5 62t61.5 26q18 0 34 -7t28 -19t19 -28t7 -34zM376 823q0 20 -14.5 34.5t-34.5 14.5q-21 0 -35.5 -14.5t-14.5 -34.5q0 -21 14.5 -35.5t35.5 -14.5q20 0 34.5 14.5t14.5 35.5z" />
    <glyph glyph-name="AE" unicode="&#xc6;" horiz-adv-x="983" 
d="M465 0q-5 0 -5 5v153q0 5 -5 5h-263q-5 0 -7 -5l-5 -9l-81 -144q-2 -5 -7 -5h-64q-6 0 -4 5l390 694q2 5 6 5h515q5 0 5 -5v-50q0 -5 -5 -5h-400q-5 0 -5 -5v-246q0 -5 5 -5h357q5 0 5 -5v-50q0 -5 -5 -5h-357q-5 0 -5 -5v-258q0 -5 5 -5h400q5 0 5 -5v-50q0 -5 -5 -5
h-470zM460 638q0 3 -2 3t-4 -3l-230 -410q-2 -5 4 -5h228q4 0 4 5v410z" />
    <glyph glyph-name="Ccedilla" unicode="&#xc7;" horiz-adv-x="618" 
d="M531 193q2 5 7 5h59q5 0 5 -5q-1 -18 -14.5 -47t-39.5 -59t-65.5 -55.5t-93.5 -35.5l-58 -41q-2 -2 -1.5 -5t4.5 -3q13 0 27 -4t25.5 -13t19 -23t7.5 -34q0 -31 -25.5 -56t-74.5 -25q-45 0 -67 25.5t-22 55.5q0 5 5 5h33q5 0 5 -5q0 -16 13 -29.5t33 -13.5q24 0 37 13.5
t13 29.5q0 14 -5.5 23.5t-14 15t-18 8t-17.5 2.5q-13 0 -16 3l-8 8q-4 4 -3.5 7t2.5 5l45 36q3 2 2 5.5t-5 3.5h-3q-73 0 -130.5 27t-97 75t-60 114.5t-20.5 145.5t21 145.5t61.5 114.5t98.5 75t133 27q70 0 121 -24.5t84.5 -57.5t50.5 -67t18 -54q0 -5 -5 -5h-59q-5 0 -7 5
q-5 16 -19.5 40t-39 47t-60.5 39.5t-84 16.5q-118 0 -179.5 -79.5t-61.5 -222.5t61.5 -222.5t179.5 -79.5q48 0 84 16.5t60.5 39.5t39 47t19.5 40z" />
    <glyph glyph-name="Egrave" unicode="&#xc8;" horiz-adv-x="607" 
d="M82 0q-5 0 -5 5v694q0 5 5 5h470q5 0 5 -5v-50q0 -5 -5 -5h-400q-5 0 -5 -5v-242q0 -5 5 -5h357q5 0 5 -5v-50q0 -5 -5 -5h-357q-5 0 -5 -5v-262q0 -5 5 -5h400q5 0 5 -5v-50q0 -5 -5 -5h-470zM316 774q-4 0 -6.5 2.5l-4.5 4.5l-72 114q-2 3 0 5t5 2h67q8 0 10 -7
l49 -114q3 -7 -5 -7h-43z" />
    <glyph glyph-name="Eacute" unicode="&#xc9;" horiz-adv-x="607" 
d="M82 0q-5 0 -5 5v694q0 5 5 5h470q5 0 5 -5v-50q0 -5 -5 -5h-400q-5 0 -5 -5v-242q0 -5 5 -5h357q5 0 5 -5v-50q0 -5 -5 -5h-357q-5 0 -5 -5v-262q0 -5 5 -5h400q5 0 5 -5v-50q0 -5 -5 -5h-470zM237 774q-3 0 -5 2t0 5l49 114q2 7 10 7h67q3 0 5 -2t0 -5l-72 -114
l-4.5 -4.5t-6.5 -2.5h-43z" />
    <glyph glyph-name="Ecircumflex" unicode="&#xca;" horiz-adv-x="607" 
d="M82 0q-5 0 -5 5v694q0 5 5 5h470q5 0 5 -5v-50q0 -5 -5 -5h-400q-5 0 -5 -5v-242q0 -5 5 -5h357q5 0 5 -5v-50q0 -5 -5 -5h-357q-5 0 -5 -5v-262q0 -5 5 -5h400q5 0 5 -5v-50q0 -5 -5 -5h-470zM342 774q-4 0 -5 3l-34 62q-2 3 -5 3t-5 -3l-34 -62q-2 -3 -5 -3h-47
q-3 0 -5 2t0 5l51 117q1 4 5 4h80q4 0 5 -4l51 -117q3 -7 -5 -7h-47z" />
    <glyph glyph-name="Edieresis" unicode="&#xcb;" horiz-adv-x="607" 
d="M82 0q-5 0 -5 5v694q0 5 5 5h470q5 0 5 -5v-50q0 -5 -5 -5h-400q-5 0 -5 -5v-242q0 -5 5 -5h357q5 0 5 -5v-50q0 -5 -5 -5h-357q-5 0 -5 -5v-262q0 -5 5 -5h400q5 0 5 -5v-50q0 -5 -5 -5h-470zM249 864q5 0 5 -5v-80q0 -5 -5 -5h-80q-5 0 -5 5v80q0 5 5 5h80zM468 864
q5 0 5 -5v-80q0 -5 -5 -5h-80q-5 0 -5 5v80q0 5 5 5h80z" />
    <glyph glyph-name="Igrave" unicode="&#xcc;" horiz-adv-x="226" 
d="M138 704q5 0 5 -5v-694q0 -5 -5 -5h-60q-5 0 -5 5v694q0 5 5 5h60zM92 774q-4 0 -6.5 2.5l-4.5 4.5l-72 114q-2 3 0 5t5 2h67q8 0 10 -7l49 -114q3 -7 -5 -7h-43z" />
    <glyph glyph-name="Iacute" unicode="&#xcd;" horiz-adv-x="226" 
d="M138 704q5 0 5 -5v-694q0 -5 -5 -5h-60q-5 0 -5 5v694q0 5 5 5h60zM87 774q-3 0 -5 2t0 5l49 114q2 7 10 7h67q3 0 5 -2t0 -5l-72 -114l-4.5 -4.5t-6.5 -2.5h-43z" />
    <glyph glyph-name="Icircumflex" unicode="&#xce;" horiz-adv-x="226" 
d="M138 704q5 0 5 -5v-694q0 -5 -5 -5h-60q-5 0 -5 5v694q0 5 5 5h60zM152 774q-4 0 -5 3l-34 62q-2 3 -5 3t-5 -3l-34 -62q-2 -3 -5 -3h-47q-3 0 -5 2t0 5l51 117q1 4 5 4h80q4 0 5 -4l51 -117q3 -7 -5 -7h-47z" />
    <glyph glyph-name="Idieresis" unicode="&#xcf;" horiz-adv-x="226" 
d="M138 704q5 0 5 -5v-694q0 -5 -5 -5h-60q-5 0 -5 5v694q0 5 5 5h60zM39 864q5 0 5 -5v-80q0 -5 -5 -5h-80q-5 0 -5 5v80q0 5 5 5h80zM258 864q5 0 5 -5v-80q0 -5 -5 -5h-80q-5 0 -5 5v80q0 5 5 5h80z" />
    <glyph glyph-name="Eth" unicode="&#xd0;" horiz-adv-x="683" 
d="M75 318q0 5 -5 5h-65q-5 0 -5 5v60q0 5 5 5h65q5 0 5 5v301q0 5 5 5h254q78 0 136.5 -27t97.5 -74.5t58 -113t19 -144.5q0 -80 -19 -143.5t-58 -108.5t-97.5 -69t-136.5 -24h-254q-5 0 -5 5v313zM150 323q-5 0 -5 -5v-253q0 -5 5 -5h184q112 0 174 71.5t62 213.5
q0 69 -16 124.5t-46 94t-74 59.5t-100 21h-184q-5 0 -5 -5v-241q0 -5 5 -5h180q5 0 5 -5v-60q0 -5 -5 -5h-180z" />
    <glyph glyph-name="Ntilde" unicode="&#xd1;" horiz-adv-x="685" 
d="M597 704q5 0 5 -5v-694q0 -5 -5 -5h-112q-5 0 -7 5l-325 635q-3 6 -6.5 4t-3.5 -5v-634q0 -5 -5 -5h-60q-5 0 -5 5v694q0 5 5 5h115q3 0 5 -5l324 -636q2 -4 6 -3t4 4v635q0 5 5 5h60z" />
    <glyph glyph-name="Ograve" unicode="&#xd2;" horiz-adv-x="724" 
d="M357 -10q-78 0 -137 26.5t-98.5 74.5t-59.5 114.5t-20 146.5q0 79 20 145.5t59.5 114.5t98.5 75t137 27t137 -27t98.5 -75t59.5 -114.5t20 -145.5q0 -80 -20 -146.5t-59.5 -114.5t-98.5 -74.5t-137 -26.5zM357 50q118 0 179 79.5t61 222.5t-61 222.5t-179 79.5
t-179 -79.5t-61 -222.5t61 -222.5t179 -79.5zM345 774q-4 0 -6.5 2.5l-4.5 4.5l-72 114q-2 3 0 5t5 2h67q8 0 10 -7l49 -114q3 -7 -5 -7h-43z" />
    <glyph glyph-name="Oacute" unicode="&#xd3;" horiz-adv-x="724" 
d="M357 -10q-78 0 -137 26.5t-98.5 74.5t-59.5 114.5t-20 146.5q0 79 20 145.5t59.5 114.5t98.5 75t137 27t137 -27t98.5 -75t59.5 -114.5t20 -145.5q0 -80 -20 -146.5t-59.5 -114.5t-98.5 -74.5t-137 -26.5zM357 50q118 0 179 79.5t61 222.5t-61 222.5t-179 79.5
t-179 -79.5t-61 -222.5t61 -222.5t179 -79.5zM316 774q-3 0 -5 2t0 5l49 114q2 7 10 7h67q3 0 5 -2t0 -5l-72 -114l-4.5 -4.5t-6.5 -2.5h-43z" />
    <glyph glyph-name="Ocircumflex" unicode="&#xd4;" horiz-adv-x="724" 
d="M357 -10q-78 0 -137 26.5t-98.5 74.5t-59.5 114.5t-20 146.5q0 79 20 145.5t59.5 114.5t98.5 75t137 27t137 -27t98.5 -75t59.5 -114.5t20 -145.5q0 -80 -20 -146.5t-59.5 -114.5t-98.5 -74.5t-137 -26.5zM357 50q118 0 179 79.5t61 222.5t-61 222.5t-179 79.5
t-179 -79.5t-61 -222.5t61 -222.5t179 -79.5zM401 774q-4 0 -5 3l-34 62q-2 3 -5 3t-5 -3l-34 -62q-2 -3 -5 -3h-47q-3 0 -5 2t0 5l51 117q1 4 5 4h80q4 0 5 -4l51 -117q3 -7 -5 -7h-47z" />
    <glyph glyph-name="Otilde" unicode="&#xd5;" horiz-adv-x="724" 
d="M357 -10q-78 0 -137 26.5t-98.5 74.5t-59.5 114.5t-20 146.5q0 79 20 145.5t59.5 114.5t98.5 75t137 27t137 -27t98.5 -75t59.5 -114.5t20 -145.5q0 -80 -20 -146.5t-59.5 -114.5t-98.5 -74.5t-137 -26.5zM357 50q118 0 179 79.5t61 222.5t-61 222.5t-179 79.5
t-179 -79.5t-61 -222.5t61 -222.5t179 -79.5zM206 792q0 13 5 28t16 28t28 21.5t41 8.5q22 0 38 -7t29.5 -16t26.5 -16t28 -7q3 0 8.5 2t11 6.5t9 12.5t3.5 20q0 5 5 5h48q5 0 5 -5v-14q0 -13 -5 -28t-16 -27.5t-28 -21t-41 -8.5q-20 0 -37 7t-31.5 16t-28 16t-25.5 7
q-3 0 -8.5 -2t-11 -6.5t-9 -12.5t-3.5 -20q0 -5 -5 -5h-48q-5 0 -5 5v13z" />
    <glyph glyph-name="Odieresis" unicode="&#xd6;" horiz-adv-x="724" 
d="M357 -10q-78 0 -137 26.5t-98.5 74.5t-59.5 114.5t-20 146.5q0 79 20 145.5t59.5 114.5t98.5 75t137 27t137 -27t98.5 -75t59.5 -114.5t20 -145.5q0 -80 -20 -146.5t-59.5 -114.5t-98.5 -74.5t-137 -26.5zM357 50q118 0 179 79.5t61 222.5t-61 222.5t-179 79.5
t-179 -79.5t-61 -222.5t61 -222.5t179 -79.5zM289 864q5 0 5 -5v-80q0 -5 -5 -5h-80q-5 0 -5 5v80q0 5 5 5h80zM508 864q5 0 5 -5v-80q0 -5 -5 -5h-80q-5 0 -5 5v80q0 5 5 5h80z" />
    <glyph glyph-name="multiply" unicode="&#xd7;" horiz-adv-x="452" 
d="M418 504q3 3 7 0l47 -47q3 -4 0 -7l-196 -196q-4 -4 0 -7l196 -195q3 -4 0 -7l-44 -44q-4 -4 -7 0l-196 196q-3 3 -7 0l-193 -195q-4 -4 -7 0l-46 47q-4 3 0 7l193 194q3 4 0 8l-193 191q-4 3 0 7l43 44q4 3 8 0l192 -192q3 -4 7 0z" />
    <glyph glyph-name="Oslash" unicode="&#xd8;" horiz-adv-x="724" 
d="M621 579q-3 -3 0 -8q26 -45 38.5 -100t12.5 -119q0 -80 -19.5 -146t-58.5 -113.5t-98 -74t-137 -26.5l-2 -2q-76 0 -132 24t-96 68q-5 5 -10 0l-40 -40q-4 -4 -7 0l-36 36q-4 3 0 7l50 50q3 3 1 7q-45 88 -45 210q0 79 20 145.5t59.5 114.5t98.5 75t137 27q70 0 124 -21
t93 -60q5 -5 10 0l36 36q3 3 7 0l39 -39q3 -4 0 -7zM359 52q118 0 178 78.5t60 221.5q0 48 -5.5 90t-22.5 75q-3 7 -9 1l-384 -379q-4 -4 0 -7q61 -82 181 -82zM117 352q0 -90 23 -152q4 -7 9 -2l378 378q4 4 0 8q-62 70 -170 70q-118 0 -179 -79.5t-61 -222.5z" />
    <glyph glyph-name="Ugrave" unicode="&#xd9;" horiz-adv-x="616" 
d="M550 704q5 0 5 -5v-465q0 -51 -19 -95.5t-52 -77.5t-77.5 -52t-95.5 -19t-96 19t-78.5 52t-53 77.5t-19.5 95.5v465q0 5 5 5h60q5 0 5 -5v-465q0 -36 14 -69.5t38 -59t56 -40.5t69 -15q36 0 68 15t55.5 40.5t37 59t13.5 69.5v465q0 5 5 5h60zM321 774q-4 0 -6.5 2.5
l-4.5 4.5l-72 114q-2 3 0 5t5 2h67q8 0 10 -7l49 -114q3 -7 -5 -7h-43z" />
    <glyph glyph-name="Uacute" unicode="&#xda;" horiz-adv-x="616" 
d="M550 704q5 0 5 -5v-465q0 -51 -19 -95.5t-52 -77.5t-77.5 -52t-95.5 -19t-96 19t-78.5 52t-53 77.5t-19.5 95.5v465q0 5 5 5h60q5 0 5 -5v-465q0 -36 14 -69.5t38 -59t56 -40.5t69 -15q36 0 68 15t55.5 40.5t37 59t13.5 69.5v465q0 5 5 5h60zM242 774q-3 0 -5 2t0 5
l49 114q2 7 10 7h67q3 0 5 -2t0 -5l-72 -114l-4.5 -4.5t-6.5 -2.5h-43z" />
    <glyph glyph-name="Ucircumflex" unicode="&#xdb;" horiz-adv-x="616" 
d="M550 704q5 0 5 -5v-465q0 -51 -19 -95.5t-52 -77.5t-77.5 -52t-95.5 -19t-96 19t-78.5 52t-53 77.5t-19.5 95.5v465q0 5 5 5h60q5 0 5 -5v-465q0 -36 14 -69.5t38 -59t56 -40.5t69 -15q36 0 68 15t55.5 40.5t37 59t13.5 69.5v465q0 5 5 5h60zM347 774q-4 0 -5 3l-34 62
q-2 3 -5 3t-5 -3l-34 -62q-2 -3 -5 -3h-47q-3 0 -5 2t0 5l51 117q1 4 5 4h80q4 0 5 -4l51 -117q3 -7 -5 -7h-47z" />
    <glyph glyph-name="Udieresis" unicode="&#xdc;" horiz-adv-x="616" 
d="M550 704q5 0 5 -5v-465q0 -51 -19 -95.5t-52 -77.5t-77.5 -52t-95.5 -19t-96 19t-78.5 52t-53 77.5t-19.5 95.5v465q0 5 5 5h60q5 0 5 -5v-465q0 -36 14 -69.5t38 -59t56 -40.5t69 -15q36 0 68 15t55.5 40.5t37 59t13.5 69.5v465q0 5 5 5h60zM243 864q5 0 5 -5v-80
q0 -5 -5 -5h-80q-5 0 -5 5v80q0 5 5 5h80zM462 864q5 0 5 -5v-80q0 -5 -5 -5h-80q-5 0 -5 5v80q0 5 5 5h80z" />
    <glyph glyph-name="Yacute" unicode="&#xdd;" horiz-adv-x="654" 
d="M135 704q6 0 9 -5l189 -309q4 -6 8 0l191 309q3 5 8 5h69q4 0 2 -5l-234 -377q-3 -5 -3.5 -8t-0.5 -8v-301q0 -5 -5 -5h-60q-5 0 -5 5v301q0 4 -0.5 7.5t-3.5 8.5l-234 377q-5 5 2 5h68zM301 774q-3 0 -5 2t0 5l49 114q2 7 10 7h67q3 0 5 -2t0 -5l-72 -114l-4.5 -4.5
t-6.5 -2.5h-43z" />
    <glyph glyph-name="Thorn" unicode="&#xde;" horiz-adv-x="612" 
d="M138 704q5 0 5 -5v-148q0 -5 5 -5h254q40 0 74 -15.5t59 -42t39.5 -62t14.5 -74.5q0 -40 -14.5 -75t-39.5 -61.5t-59 -42t-74 -15.5h-254q-5 0 -5 -5v-148q0 -5 -5 -5h-60q-5 0 -5 5v694q0 5 5 5h60zM148 486q-5 0 -5 -5v-258q0 -5 5 -5h254q24 0 45.5 11t37 29.5t25 43
t9.5 50.5t-9.5 50.5t-25 43t-37 29.5t-45.5 11h-254z" />
    <glyph glyph-name="germandbls" unicode="&#xdf;" horiz-adv-x="553" 
d="M237 45q0 5 5 5h39q169 0 169 145q0 36 -15 62.5t-38.5 43.5t-51 25.5t-52.5 8.5h-23q-5 0 -5 5v50q0 5 5 5h23q25 0 50.5 7t46 22.5t33 41t12.5 62.5q0 58 -45.5 93t-122.5 35q-33 0 -57 -13t-39.5 -34t-23 -48t-7.5 -55v-501q0 -5 -5 -5h-60q-5 0 -5 5v501
q0 53 16.5 92t44 65t63 38.5t73.5 12.5q60 0 103.5 -15t71.5 -40.5t41.5 -59.5t13.5 -71q0 -23 -6.5 -46.5t-20 -45t-33.5 -39t-47 -27.5q-5 -2 -5 -6t5 -5q17 -3 39.5 -14t42.5 -30.5t34 -49t14 -70.5q0 -98 -58 -151.5t-181 -53.5h-39q-5 0 -5 5v50z" />
    <glyph glyph-name="agrave" unicode="&#xe0;" horiz-adv-x="608" 
d="M65 335q0 46 17 80t46 56.5t68.5 33.5t84.5 11q103 0 163 -44.5t60 -135.5v-209q0 -39 11.5 -53t43.5 -14h11q5 0 5 -5v-50q0 -5 -5 -5h-11q-52 0 -76.5 14.5t-37.5 45.5q-3 8 -9 2t-18.5 -17.5t-34.5 -23t-55 -21t-79 -10.5q-100 0 -152 42.5t-52 111.5t53.5 109.5
t160.5 40.5h125q12 0 21.5 0.5t15.5 4.5t9.5 12.5t3.5 24.5q0 19 -4 40.5t-19.5 39t-46 29t-83.5 11.5q-75 0 -110.5 -30.5t-35.5 -90.5q0 -5 -5 -5h-60q-5 0 -5 5zM434 229q0 5 -5 5h-166q-48 0 -77 -8t-44.5 -20.5t-21 -29t-5.5 -32.5q0 -17 7.5 -34t23.5 -30.5
t41.5 -21.5t61.5 -8q49 0 84 14.5t57 37t32.5 50t11.5 53.5v24zM267 576q-4 0 -6.5 2.5l-4.5 4.5l-72 114q-2 3 0 5t5 2h67q8 0 10 -7l49 -114q3 -7 -5 -7h-43z" />
    <glyph glyph-name="aacute" unicode="&#xe1;" horiz-adv-x="608" 
d="M65 335q0 46 17 80t46 56.5t68.5 33.5t84.5 11q103 0 163 -44.5t60 -135.5v-209q0 -39 11.5 -53t43.5 -14h11q5 0 5 -5v-50q0 -5 -5 -5h-11q-52 0 -76.5 14.5t-37.5 45.5q-3 8 -9 2t-18.5 -17.5t-34.5 -23t-55 -21t-79 -10.5q-100 0 -152 42.5t-52 111.5t53.5 109.5
t160.5 40.5h125q12 0 21.5 0.5t15.5 4.5t9.5 12.5t3.5 24.5q0 19 -4 40.5t-19.5 39t-46 29t-83.5 11.5q-75 0 -110.5 -30.5t-35.5 -90.5q0 -5 -5 -5h-60q-5 0 -5 5zM434 229q0 5 -5 5h-166q-48 0 -77 -8t-44.5 -20.5t-21 -29t-5.5 -32.5q0 -17 7.5 -34t23.5 -30.5
t41.5 -21.5t61.5 -8q49 0 84 14.5t57 37t32.5 50t11.5 53.5v24zM248 576q-3 0 -5 2t0 5l49 114q2 7 10 7h67q3 0 5 -2t0 -5l-72 -114l-4.5 -4.5t-6.5 -2.5h-43z" />
    <glyph glyph-name="acircumflex" unicode="&#xe2;" horiz-adv-x="596" 
d="M53 335q0 46 17 80t46 56.5t68.5 33.5t84.5 11q103 0 163 -44.5t60 -135.5v-209q0 -39 11.5 -53t43.5 -14h11q5 0 5 -5v-50q0 -5 -5 -5h-11q-52 0 -76.5 14.5t-37.5 45.5q-3 8 -9 2t-18.5 -17.5t-34.5 -23t-55 -21t-79 -10.5q-100 0 -152 42.5t-52 111.5t53.5 109.5
t160.5 40.5h125q12 0 21.5 0.5t15.5 4.5t9.5 12.5t3.5 24.5q0 19 -4 40.5t-19.5 39t-46 29t-83.5 11.5q-75 0 -110.5 -30.5t-35.5 -90.5q0 -5 -5 -5h-60q-5 0 -5 5zM422 229q0 5 -5 5h-166q-48 0 -77 -8t-44.5 -20.5t-21 -29t-5.5 -32.5q0 -17 7.5 -34t23.5 -30.5
t41.5 -21.5t61.5 -8q49 0 84 14.5t57 37t32.5 50t11.5 53.5v24zM316 576q-4 0 -5 3l-34 62q-2 3 -5 3t-5 -3l-34 -62q-2 -3 -5 -3h-47q-3 0 -5 2t0 5l51 117q1 4 5 4h80q4 0 5 -4l51 -117q3 -7 -5 -7h-47z" />
    <glyph glyph-name="atilde" unicode="&#xe3;" horiz-adv-x="596" 
d="M53 335q0 46 17 80t46 56.5t68.5 33.5t84.5 11q103 0 163 -44.5t60 -135.5v-209q0 -39 11.5 -53t43.5 -14h11q5 0 5 -5v-50q0 -5 -5 -5h-11q-52 0 -76.5 14.5t-37.5 45.5q-3 8 -9 2t-18.5 -17.5t-34.5 -23t-55 -21t-79 -10.5q-100 0 -152 42.5t-52 111.5t53.5 109.5
t160.5 40.5h125q12 0 21.5 0.5t15.5 4.5t9.5 12.5t3.5 24.5q0 19 -4 40.5t-19.5 39t-46 29t-83.5 11.5q-75 0 -110.5 -30.5t-35.5 -90.5q0 -5 -5 -5h-60q-5 0 -5 5zM422 229q0 5 -5 5h-166q-48 0 -77 -8t-44.5 -20.5t-21 -29t-5.5 -32.5q0 -17 7.5 -34t23.5 -30.5
t41.5 -21.5t61.5 -8q49 0 84 14.5t57 37t32.5 50t11.5 53.5v24zM121 618q0 13 5 28t16 28t28 21.5t41 8.5q22 0 38 -7t29.5 -16t26.5 -16t28 -7q3 0 8.5 2t11 6.5t9 12.5t3.5 20q0 5 5 5h48q5 0 5 -5v-14q0 -13 -5 -28t-16 -27.5t-28 -21t-41 -8.5q-20 0 -37 7t-31.5 16
t-28 16t-25.5 7q-3 0 -8.5 -2t-11 -6.5t-9 -12.5t-3.5 -20q0 -5 -5 -5h-48q-5 0 -5 5v13z" />
    <glyph glyph-name="adieresis" unicode="&#xe4;" horiz-adv-x="608" 
d="M65 335q0 46 17 80t46 56.5t68.5 33.5t84.5 11q103 0 163 -44.5t60 -135.5v-209q0 -39 11.5 -53t43.5 -14h11q5 0 5 -5v-50q0 -5 -5 -5h-11q-52 0 -76.5 14.5t-37.5 45.5q-3 8 -9 2t-18.5 -17.5t-34.5 -23t-55 -21t-79 -10.5q-100 0 -152 42.5t-52 111.5t53.5 109.5
t160.5 40.5h125q12 0 21.5 0.5t15.5 4.5t9.5 12.5t3.5 24.5q0 19 -4 40.5t-19.5 39t-46 29t-83.5 11.5q-75 0 -110.5 -30.5t-35.5 -90.5q0 -5 -5 -5h-60q-5 0 -5 5zM434 229q0 5 -5 5h-166q-48 0 -77 -8t-44.5 -20.5t-21 -29t-5.5 -32.5q0 -17 7.5 -34t23.5 -30.5
t41.5 -21.5t61.5 -8q49 0 84 14.5t57 37t32.5 50t11.5 53.5v24zM212 704q5 0 5 -5v-80q0 -5 -5 -5h-80q-5 0 -5 5v80q0 5 5 5h80zM431 704q5 0 5 -5v-80q0 -5 -5 -5h-80q-5 0 -5 5v80q0 5 5 5h80z" />
    <glyph glyph-name="aring" unicode="&#xe5;" horiz-adv-x="608" 
d="M65 335q0 46 17 80t46 56.5t68.5 33.5t84.5 11q103 0 163 -44.5t60 -135.5v-209q0 -39 11.5 -53t43.5 -14h11q5 0 5 -5v-50q0 -5 -5 -5h-11q-52 0 -76.5 14.5t-37.5 45.5q-3 8 -9 2t-18.5 -17.5t-34.5 -23t-55 -21t-79 -10.5q-100 0 -152 42.5t-52 111.5t53.5 109.5
t160.5 40.5h125q12 0 21.5 0.5t15.5 4.5t9.5 12.5t3.5 24.5q0 19 -4 40.5t-19.5 39t-46 29t-83.5 11.5q-75 0 -110.5 -30.5t-35.5 -90.5q0 -5 -5 -5h-60q-5 0 -5 5zM434 229q0 5 -5 5h-166q-48 0 -77 -8t-44.5 -20.5t-21 -29t-5.5 -32.5q0 -17 7.5 -34t23.5 -30.5
t41.5 -21.5t61.5 -8q49 0 84 14.5t57 37t32.5 50t11.5 53.5v24zM369 627q0 -36 -26 -61.5t-62 -25.5t-61.5 25.5t-25.5 61.5t25.5 62t61.5 26q18 0 34 -7t28 -19t19 -28t7 -34zM330 627q0 20 -14.5 34.5t-34.5 14.5q-21 0 -35.5 -14.5t-14.5 -34.5q0 -21 14.5 -35.5
t35.5 -14.5q20 0 34.5 14.5t14.5 35.5z" />
    <glyph glyph-name="ae" unicode="&#xe6;" horiz-adv-x="962" 
d="M63 340q0 43 17 76t46 55.5t68.5 33.5t84.5 11q68 0 118 -19.5t77 -59.5q2 -2 4.5 -3.5t6.5 2.5q35 35 79.5 58t104.5 23q56 0 100.5 -18t75.5 -52t47.5 -81.5t16.5 -105.5q0 -5 -0.5 -12t-1.5 -9q-2 -5 -6 -5h-394q-5 0 -5 -5q0 -33 11.5 -65t33 -57.5t52.5 -41
t70 -15.5q30 0 54 7t42 18t30 25t19 28q2 5 8 5h64q7 0 6 -5q-23 -69 -82.5 -103.5t-140.5 -34.5q-65 0 -114.5 26t-82.5 72q-5 7 -10 0q-7 -9 -16.5 -19t-20.5 -19q-7 -6 -21 -15.5t-36 -19t-52 -17t-69 -8.5q-100 0 -152 42.5t-52 111.5t53.5 109.5t160.5 40.5h125
q12 0 21.5 0.5t15.5 4.5t9.5 12.5t3.5 24.5q0 19 -4 40.5t-19.5 39t-46 29t-83.5 11.5q-75 0 -110.5 -30.5t-35.5 -85.5q0 -5 -5 -5h-60q-5 0 -5 5zM432 229q0 5 -5 5h-166q-48 0 -77 -8t-44.5 -20.5t-21 -29t-5.5 -32.5q0 -17 7.5 -34t23.5 -30.5t41.5 -21.5t61.5 -8
q49 0 84 14.5t57 37t32.5 50t11.5 53.5v24zM833 299q0 27 -9 55t-29 51t-51 37.5t-75 14.5q-43 0 -74.5 -16.5t-52 -40.5t-30.5 -51.5t-10 -49.5q0 -5 5 -5h321q5 0 5 5z" />
    <glyph glyph-name="ccedilla" unicode="&#xe7;" horiz-adv-x="532" 
d="M446 171q2 5 6 5h59q5 0 5 -5q-3 -24 -15 -52.5t-34 -54t-55.5 -45.5t-80.5 -26l-53 -38q-2 -2 -1.5 -5t4.5 -3q13 0 27 -4t25.5 -13t19 -23t7.5 -34q0 -31 -25.5 -56t-74.5 -25q-45 0 -67 25.5t-22 55.5q0 5 5 5h33q5 0 5 -5q0 -16 13 -29.5t33 -13.5q24 0 37 13.5
t13 29.5q0 14 -5.5 23.5t-14 15t-18 8t-17.5 2.5q-13 0 -16 3l-8 8q-4 4 -3.5 7t2.5 5l45 36q3 2 2 5.5t-5 3.5h-4q-54 0 -96 20t-71 55.5t-44 83.5t-15 104q0 59 16.5 107.5t48.5 83t78 53.5t105 19q58 0 99.5 -18.5t68.5 -46t40.5 -59t17.5 -57.5q0 -5 -5 -5h-59
q-4 0 -6 5q-15 57 -54 89t-102 32q-42 0 -75 -15t-56 -41.5t-35 -64t-12 -82.5t12 -82.5t35 -64t56 -41.5t75 -15q63 0 102 32t54 89z" />
    <glyph glyph-name="egrave" unicode="&#xe8;" horiz-adv-x="569" 
d="M124 227q-5 0 -5 -5q0 -33 11.5 -64t33 -55t52.5 -38.5t70 -14.5q30 0 54 7t42 18t30 25t19 28q2 5 8 5h64q7 0 6 -5q-23 -69 -82.5 -103.5t-140.5 -34.5q-54 0 -99 19t-77 54t-49.5 83t-17.5 107t17 107.5t48.5 83.5t76.5 54t101 19t100.5 -19.5t75.5 -54t47.5 -83.5
t16.5 -107q0 -5 -0.5 -12t-1.5 -9q-2 -5 -6 -5h-394zM450 292q0 27 -9 56t-29 53.5t-51 40t-75 15.5q-43 0 -74.5 -17.5t-52 -42.5t-30.5 -54t-10 -51q0 -5 5 -5h321q5 0 5 5zM275 576q-4 0 -6.5 2.5l-4.5 4.5l-72 114q-2 3 0 5t5 2h67q8 0 10 -7l49 -114q3 -7 -5 -7h-43z
" />
    <glyph glyph-name="eacute" unicode="&#xe9;" horiz-adv-x="569" 
d="M124 227q-5 0 -5 -5q0 -33 11.5 -64t33 -55t52.5 -38.5t70 -14.5q30 0 54 7t42 18t30 25t19 28q2 5 8 5h64q7 0 6 -5q-23 -69 -82.5 -103.5t-140.5 -34.5q-54 0 -99 19t-77 54t-49.5 83t-17.5 107t17 107.5t48.5 83.5t76.5 54t101 19t100.5 -19.5t75.5 -54t47.5 -83.5
t16.5 -107q0 -5 -0.5 -12t-1.5 -9q-2 -5 -6 -5h-394zM450 292q0 27 -9 56t-29 53.5t-51 40t-75 15.5q-43 0 -74.5 -17.5t-52 -42.5t-30.5 -54t-10 -51q0 -5 5 -5h321q5 0 5 5zM246 576q-3 0 -5 2t0 5l49 114q2 7 10 7h67q3 0 5 -2t0 -5l-72 -114l-4.5 -4.5t-6.5 -2.5h-43z
" />
    <glyph glyph-name="ecircumflex" unicode="&#xea;" horiz-adv-x="569" 
d="M124 227q-5 0 -5 -5q0 -33 11.5 -64t33 -55t52.5 -38.5t70 -14.5q30 0 54 7t42 18t30 25t19 28q2 5 8 5h64q7 0 6 -5q-23 -69 -82.5 -103.5t-140.5 -34.5q-54 0 -99 19t-77 54t-49.5 83t-17.5 107t17 107.5t48.5 83.5t76.5 54t101 19t100.5 -19.5t75.5 -54t47.5 -83.5
t16.5 -107q0 -5 -0.5 -12t-1.5 -9q-2 -5 -6 -5h-394zM450 292q0 27 -9 56t-29 53.5t-51 40t-75 15.5q-43 0 -74.5 -17.5t-52 -42.5t-30.5 -54t-10 -51q0 -5 5 -5h321q5 0 5 5zM333 576q-4 0 -5 3l-34 62q-2 3 -5 3t-5 -3l-34 -62q-2 -3 -5 -3h-47q-3 0 -5 2t0 5l51 117
q1 4 5 4h80q4 0 5 -4l51 -117q3 -7 -5 -7h-47z" />
    <glyph glyph-name="edieresis" unicode="&#xeb;" horiz-adv-x="569" 
d="M124 227q-5 0 -5 -5q0 -33 11.5 -64t33 -55t52.5 -38.5t70 -14.5q30 0 54 7t42 18t30 25t19 28q2 5 8 5h64q7 0 6 -5q-23 -69 -82.5 -103.5t-140.5 -34.5q-54 0 -99 19t-77 54t-49.5 83t-17.5 107t17 107.5t48.5 83.5t76.5 54t101 19t100.5 -19.5t75.5 -54t47.5 -83.5
t16.5 -107q0 -5 -0.5 -12t-1.5 -9q-2 -5 -6 -5h-394zM450 292q0 27 -9 56t-29 53.5t-51 40t-75 15.5q-43 0 -74.5 -17.5t-52 -42.5t-30.5 -54t-10 -51q0 -5 5 -5h321q5 0 5 5zM220 704q5 0 5 -5v-80q0 -5 -5 -5h-80q-5 0 -5 5v80q0 5 5 5h80zM439 704q5 0 5 -5v-80
q0 -5 -5 -5h-80q-5 0 -5 5v80q0 5 5 5h80z" />
    <glyph glyph-name="igrave" unicode="&#xec;" horiz-adv-x="246" 
d="M148 506q5 0 5 -5v-496q0 -5 -5 -5h-60q-5 0 -5 5v496q0 5 5 5h60zM104 576q-4 0 -6.5 2.5l-4.5 4.5l-72 114q-2 3 0 5t5 2h67q8 0 10 -7l49 -114q3 -7 -5 -7h-43z" />
    <glyph glyph-name="iacute" unicode="&#xed;" horiz-adv-x="246" 
d="M148 506q5 0 5 -5v-496q0 -5 -5 -5h-60q-5 0 -5 5v496q0 5 5 5h60zM90 576q-3 0 -5 2t0 5l49 114q2 7 10 7h67q3 0 5 -2t0 -5l-72 -114l-4.5 -4.5t-6.5 -2.5h-43z" />
    <glyph glyph-name="icircumflex" unicode="&#xee;" horiz-adv-x="246" 
d="M148 506q5 0 5 -5v-496q0 -5 -5 -5h-60q-5 0 -5 5v496q0 5 5 5h60zM162 576q-4 0 -5 3l-34 62q-2 3 -5 3t-5 -3l-34 -62q-2 -3 -5 -3h-47q-3 0 -5 2t0 5l51 117q1 4 5 4h80q4 0 5 -4l51 -117q3 -7 -5 -7h-47z" />
    <glyph glyph-name="idieresis" unicode="&#xef;" horiz-adv-x="246" 
d="M148 506q5 0 5 -5v-496q0 -5 -5 -5h-60q-5 0 -5 5v496q0 5 5 5h60zM49 704q5 0 5 -5v-80q0 -5 -5 -5h-80q-5 0 -5 5v80q0 5 5 5h80zM268 704q5 0 5 -5v-80q0 -5 -5 -5h-80q-5 0 -5 5v80q0 5 5 5h80z" />
    <glyph glyph-name="eth" unicode="&#xf0;" horiz-adv-x="583" 
d="M329 558q-3 7 -7 5l-79 -42q-2 -2 -5 -1t-5 3l-21 40q-3 5 0 8l81 43q3 2 3 4t-1 4l-41 76q-3 6 4 6h62q5 0 8 -5l25 -47q3 -5 8 -2l78 42q4 4 8 -2l22 -41q3 -4 -1 -8l-79 -42q-7 -2 -4 -7l110 -207q17 -31 27.5 -68.5t10.5 -78.5q0 -54 -16.5 -99.5t-48.5 -78.5
t-78 -51.5t-104 -18.5q-59 0 -105 18.5t-78 51.5t-49 78.5t-17 99.5q0 55 18 101.5t49.5 79.5t74.5 51.5t94 18.5q31 0 56.5 -7t38.5 -13q5 -2 6 0t0 4zM107 238q0 -87 45 -137.5t134 -50.5q88 0 132.5 50.5t44.5 137.5t-44.5 139t-132.5 52q-89 0 -134 -52t-45 -139z" />
    <glyph glyph-name="ntilde" unicode="&#xf1;" horiz-adv-x="588" 
d="M455 272q0 37 -8 70t-26.5 58.5t-48.5 40.5t-73 15q-84 0 -120 -47t-36 -137v-267q0 -5 -5 -5h-60q-5 0 -5 5v496q0 5 5 5h49q5 0 6 -5l10 -55q1 -5 4.5 -5t5.5 3q5 7 18 19t32.5 24t46 20.5t59.5 8.5q57 0 98 -17.5t67.5 -49.5t38.5 -77t12 -100v-267q0 -5 -5 -5h-60
q-5 0 -5 5v267zM138 618q0 13 5 28t16 28t28 21.5t41 8.5q22 0 38 -7t29.5 -16t26.5 -16t28 -7q3 0 8.5 2t11 6.5t9 12.5t3.5 20q0 5 5 5h48q5 0 5 -5v-14q0 -13 -5 -28t-16 -27.5t-28 -21t-41 -8.5q-20 0 -37 7t-31.5 16t-28 16t-25.5 7q-3 0 -8.5 -2t-11 -6.5t-9 -12.5
t-3.5 -20q0 -5 -5 -5h-48q-5 0 -5 5v13z" />
    <glyph glyph-name="ograve" unicode="&#xf2;" horiz-adv-x="572" 
d="M529 253q0 -59 -17 -107t-48.5 -83t-78 -54t-104.5 -19q-59 0 -105 19t-78 54t-48.5 83t-16.5 107t16.5 107.5t48.5 83t78 53.5t105 19q58 0 104.5 -19t78 -54t48.5 -83.5t17 -106.5zM459 253q0 45 -12 82.5t-35 64t-56 41.5t-75 15t-75 -15t-56 -41.5t-35 -64t-12 -82.5
t12 -82.5t35 -64t56 -41.5t75 -15t75 15t56 41.5t35 64t12 82.5zM269 576q-4 0 -6.5 2.5l-4.5 4.5l-72 114q-2 3 0 5t5 2h67q8 0 10 -7l49 -114q3 -7 -5 -7h-43z" />
    <glyph glyph-name="oacute" unicode="&#xf3;" horiz-adv-x="572" 
d="M529 253q0 -59 -17 -107t-48.5 -83t-78 -54t-104.5 -19q-59 0 -105 19t-78 54t-48.5 83t-16.5 107t16.5 107.5t48.5 83t78 53.5t105 19q58 0 104.5 -19t78 -54t48.5 -83.5t17 -106.5zM459 253q0 45 -12 82.5t-35 64t-56 41.5t-75 15t-75 -15t-56 -41.5t-35 -64t-12 -82.5
t12 -82.5t35 -64t56 -41.5t75 -15t75 15t56 41.5t35 64t12 82.5zM250 576q-3 0 -5 2t0 5l49 114q2 7 10 7h67q3 0 5 -2t0 -5l-72 -114l-4.5 -4.5t-6.5 -2.5h-43z" />
    <glyph glyph-name="ocircumflex" unicode="&#xf4;" horiz-adv-x="572" 
d="M529 253q0 -59 -17 -107t-48.5 -83t-78 -54t-104.5 -19q-59 0 -105 19t-78 54t-48.5 83t-16.5 107t16.5 107.5t48.5 83t78 53.5t105 19q58 0 104.5 -19t78 -54t48.5 -83.5t17 -106.5zM459 253q0 45 -12 82.5t-35 64t-56 41.5t-75 15t-75 -15t-56 -41.5t-35 -64t-12 -82.5
t12 -82.5t35 -64t56 -41.5t75 -15t75 15t56 41.5t35 64t12 82.5zM325 576q-4 0 -5 3l-34 62q-2 3 -5 3t-5 -3l-34 -62q-2 -3 -5 -3h-47q-3 0 -5 2t0 5l51 117q1 4 5 4h80q4 0 5 -4l51 -117q3 -7 -5 -7h-47z" />
    <glyph glyph-name="otilde" unicode="&#xf5;" horiz-adv-x="572" 
d="M529 253q0 -59 -17 -107t-48.5 -83t-78 -54t-104.5 -19q-59 0 -105 19t-78 54t-48.5 83t-16.5 107t16.5 107.5t48.5 83t78 53.5t105 19q58 0 104.5 -19t78 -54t48.5 -83.5t17 -106.5zM459 253q0 45 -12 82.5t-35 64t-56 41.5t-75 15t-75 -15t-56 -41.5t-35 -64t-12 -82.5
t12 -82.5t35 -64t56 -41.5t75 -15t75 15t56 41.5t35 64t12 82.5zM130 618q0 13 5 28t16 28t28 21.5t41 8.5q22 0 38 -7t29.5 -16t26.5 -16t28 -7q3 0 8.5 2t11 6.5t9 12.5t3.5 20q0 5 5 5h48q5 0 5 -5v-14q0 -13 -5 -28t-16 -27.5t-28 -21t-41 -8.5q-20 0 -37 7t-31.5 16
t-28 16t-25.5 7q-3 0 -8.5 -2t-11 -6.5t-9 -12.5t-3.5 -20q0 -5 -5 -5h-48q-5 0 -5 5v13z" />
    <glyph glyph-name="odieresis" unicode="&#xf6;" horiz-adv-x="572" 
d="M529 253q0 -59 -17 -107t-48.5 -83t-78 -54t-104.5 -19q-59 0 -105 19t-78 54t-48.5 83t-16.5 107t16.5 107.5t48.5 83t78 53.5t105 19q58 0 104.5 -19t78 -54t48.5 -83.5t17 -106.5zM459 253q0 45 -12 82.5t-35 64t-56 41.5t-75 15t-75 -15t-56 -41.5t-35 -64t-12 -82.5
t12 -82.5t35 -64t56 -41.5t75 -15t75 15t56 41.5t35 64t12 82.5zM214 704q5 0 5 -5v-80q0 -5 -5 -5h-80q-5 0 -5 5v80q0 5 5 5h80zM433 704q5 0 5 -5v-80q0 -5 -5 -5h-80q-5 0 -5 5v80q0 5 5 5h80z" />
    <glyph glyph-name="divide" unicode="&#xf7;" horiz-adv-x="215" 
d="M52 0q-5 0 -5 5v100q0 5 5 5h100q5 0 5 -5v-100q0 -5 -5 -5h-100zM52 396q-5 0 -5 5v100q0 5 5 5h100q5 0 5 -5v-100q0 -5 -5 -5h-100zM-133 218q-5 0 -5 5v60q0 5 5 5h496q5 0 5 -5v-60q0 -5 -5 -5h-496z" />
    <glyph glyph-name="oslash" unicode="&#xf8;" horiz-adv-x="572" 
d="M488 420q-4 -4 -1 -8q42 -65 42 -159q0 -59 -17 -107t-48.5 -83t-78 -54t-104.5 -19q-51 0 -91 13.5t-72 39.5q-4 3 -7 0l-41 -41q-4 -4 -7 0l-35 36q-4 3 0 7l44 44q3 3 0 8q-19 32 -29 71.5t-10 84.5q0 59 16.5 107.5t48.5 83t78 53.5t105 19q95 0 158 -51q2 -2 5 -2
t5 3l38 38q3 3 7 0l35 -36q3 -4 0 -7zM459 253q0 61 -22 106q-3 7 -8 2l-262 -262q-4 -4 0 -8q23 -20 51 -30.5t63 -10.5q42 0 75 15t56 41.5t35 64t12 82.5zM103 253q0 -58 20 -104q1 -2 3.5 -2.5t5.5 2.5l261 261q4 4 0 8q-44 38 -112 38q-42 0 -75 -15t-56 -41.5t-35 -64
t-12 -82.5z" />
    <glyph glyph-name="ugrave" unicode="&#xf9;" horiz-adv-x="558" 
d="M143 234q0 -37 8 -70t26.5 -58.5t48 -40.5t73.5 -15q84 0 120 47t36 137v267q0 5 5 5h60q5 0 5 -5v-496q0 -5 -5 -5h-49q-5 0 -6 5l-10 55q-1 5 -4.5 5t-5.5 -3q-5 -7 -18 -19t-32.5 -24t-46 -20.5t-59.5 -8.5q-57 0 -98 17.5t-67.5 49.5t-38.5 76.5t-12 100.5v267
q0 5 5 5h60q5 0 5 -5v-267zM280 576q-4 0 -6.5 2.5l-4.5 4.5l-72 114q-2 3 0 5t5 2h67q8 0 10 -7l49 -114q3 -7 -5 -7h-43z" />
    <glyph glyph-name="uacute" unicode="&#xfa;" horiz-adv-x="558" 
d="M143 234q0 -37 8 -70t26.5 -58.5t48 -40.5t73.5 -15q84 0 120 47t36 137v267q0 5 5 5h60q5 0 5 -5v-496q0 -5 -5 -5h-49q-5 0 -6 5l-10 55q-1 5 -4.5 5t-5.5 -3q-5 -7 -18 -19t-32.5 -24t-46 -20.5t-59.5 -8.5q-57 0 -98 17.5t-67.5 49.5t-38.5 76.5t-12 100.5v267
q0 5 5 5h60q5 0 5 -5v-267zM251 576q-3 0 -5 2t0 5l49 114q2 7 10 7h67q3 0 5 -2t0 -5l-72 -114l-4.5 -4.5t-6.5 -2.5h-43z" />
    <glyph glyph-name="ucircumflex" unicode="&#xfb;" horiz-adv-x="568" 
d="M113 234q0 -37 8 -70t26.5 -58.5t48 -40.5t73.5 -15q84 0 120 47t36 137v267q0 5 5 5h60q5 0 5 -5v-496q0 -5 -5 -5h-49q-5 0 -6 5l-10 55q-1 5 -4.5 5t-5.5 -3q-5 -7 -18 -19t-32.5 -24t-46 -20.5t-59.5 -8.5q-57 0 -98 17.5t-67.5 49.5t-38.5 76.5t-12 100.5v267
q0 5 5 5h60q5 0 5 -5v-267zM313 576q-4 0 -5 3l-34 62q-2 3 -5 3t-5 -3l-34 -62q-2 -3 -5 -3h-47q-3 0 -5 2t0 5l51 117q1 4 5 4h80q4 0 5 -4l51 -117q3 -7 -5 -7h-47z" />
    <glyph glyph-name="udieresis" unicode="&#xfc;" horiz-adv-x="603" 
d="M143 234q0 -37 8 -70t26.5 -58.5t48 -40.5t73.5 -15q84 0 120 47t36 137v267q0 5 5 5h60q5 0 5 -5v-496q0 -5 -5 -5h-49q-5 0 -6 5l-10 55q-1 5 -4.5 5t-5.5 -3q-5 -7 -18 -19t-32.5 -24t-46 -20.5t-59.5 -8.5q-57 0 -98 17.5t-67.5 49.5t-38.5 76.5t-12 100.5v267
q0 5 5 5h60q5 0 5 -5v-267zM234 704q5 0 5 -5v-80q0 -5 -5 -5h-80q-5 0 -5 5v80q0 5 5 5h80zM453 704q5 0 5 -5v-80q0 -5 -5 -5h-80q-5 0 -5 5v80q0 5 5 5h80z" />
    <glyph glyph-name="yacute" unicode="&#xfd;" horiz-adv-x="532" 
d="M416 501q2 5 7 5h63q6 0 4 -5l-168 -497l-25 -75q-10 -31 -20 -55t-24.5 -40t-36 -24t-54.5 -8h-103q-5 0 -5 5v50q0 5 5 5h102q16 0 26.5 4.5t17.5 13t12 21t10 28.5q4 12 4.5 27t-9.5 44l-170 501q-2 5 4 5h63q5 0 7 -5l140 -437q2 -4 5 -4t5 4zM218 576q-3 0 -5 2t0 5
l49 114q2 7 10 7h67q3 0 5 -2t0 -5l-72 -114l-4.5 -4.5t-6.5 -2.5h-43z" />
    <glyph glyph-name="thorn" unicode="&#xfe;" horiz-adv-x="602" 
d="M73 699q0 5 5 5h60q5 0 5 -5v-243q0 -2 2.5 -3t4.5 1q7 6 20.5 16.5t33.5 20.5t47 17.5t60 7.5q57 0 102.5 -19t78 -54t50 -83.5t17.5 -106.5q0 -59 -17 -107t-48.5 -83t-78 -54t-104.5 -19q-34 0 -60.5 7t-47 17t-33.5 20t-20 16q-5 5 -7 0v-243q-2 -5 -5 -5h-60
q-5 0 -5 5v892zM489 253q0 45 -12 82.5t-35 64t-56 41.5t-75 15t-73.5 -15t-52.5 -41.5t-31.5 -64t-10.5 -82.5t10.5 -82.5t31.5 -64t52.5 -41.5t73.5 -15t75 15t56 41.5t35 64t12 82.5z" />
    <glyph glyph-name="ydieresis" unicode="&#xff;" horiz-adv-x="532" 
d="M416 501q2 5 7 5h63q6 0 4 -5l-168 -497l-25 -75q-10 -31 -20 -55t-24.5 -40t-36 -24t-54.5 -8h-103q-5 0 -5 5v50q0 5 5 5h102q16 0 26.5 4.5t17.5 13t12 21t10 28.5q4 12 4.5 27t-9.5 44l-170 501q-2 5 4 5h63q5 0 7 -5l140 -437q2 -4 5 -4t5 4zM203 704q5 0 5 -5v-80
q0 -5 -5 -5h-80q-5 0 -5 5v80q0 5 5 5h80zM422 704q5 0 5 -5v-80q0 -5 -5 -5h-80q-5 0 -5 5v80q0 5 5 5h80z" />
    <glyph glyph-name="Amacron" unicode="&#x100;" horiz-adv-x="662" 
d="M487 158q-2 5 -7 5h-308q-5 0 -7 -5l-50 -153q-2 -5 -7 -5h-64q-6 0 -4 5l230 694q2 5 6 5h100q4 0 6 -5l230 -694q2 -5 -4 -5h-64q-5 0 -7 5zM188 228q-2 -5 4 -5h269q5 0 3 5l-133 412q-2 4 -5 4t-5 -4zM202 774q-4 0 -4 5v40q0 5 4 5h246q5 0 5 -5v-40q0 -5 -5 -5
h-246z" />
    <glyph glyph-name="amacron" unicode="&#x101;" horiz-adv-x="596" 
d="M53 335q0 46 17 80t46 56.5t68.5 33.5t84.5 11q103 0 163 -44.5t60 -135.5v-209q0 -39 11.5 -53t43.5 -14h11q5 0 5 -5v-50q0 -5 -5 -5h-11q-52 0 -76.5 14.5t-37.5 45.5q-3 8 -9 2t-18.5 -17.5t-34.5 -23t-55 -21t-79 -10.5q-100 0 -152 42.5t-52 111.5t53.5 109.5
t160.5 40.5h125q12 0 21.5 0.5t15.5 4.5t9.5 12.5t3.5 24.5q0 19 -4 40.5t-19.5 39t-46 29t-83.5 11.5q-75 0 -110.5 -30.5t-35.5 -90.5q0 -5 -5 -5h-60q-5 0 -5 5zM422 229q0 5 -5 5h-166q-48 0 -77 -8t-44.5 -20.5t-21 -29t-5.5 -32.5q0 -17 7.5 -34t23.5 -30.5
t41.5 -21.5t61.5 -8q49 0 84 14.5t57 37t32.5 50t11.5 53.5v24zM169 576q-4 0 -4 5v40q0 5 4 5h246q5 0 5 -5v-40q0 -5 -5 -5h-246z" />
    <glyph glyph-name="Abreve" unicode="&#x102;" horiz-adv-x="662" 
d="M487 158q-2 5 -7 5h-308q-5 0 -7 -5l-50 -153q-2 -5 -7 -5h-64q-6 0 -4 5l230 694q2 5 6 5h100q4 0 6 -5l230 -694q2 -5 -4 -5h-64q-5 0 -7 5zM188 228q-2 -5 4 -5h269q5 0 3 5l-133 412q-2 4 -5 4t-5 -4zM445 902q5 0 5 -5q0 -63 -34.5 -93t-89.5 -30q-54 0 -89 30
t-35 93q0 5 5 5h42q5 0 5 -5q0 -11 3 -23.5t11 -23.5t22 -18.5t36 -7.5t36 7.5t21.5 18.5t10.5 23.5t3 23.5q0 5 5 5h43z" />
    <glyph glyph-name="abreve" unicode="&#x103;" horiz-adv-x="555" 
d="M53 335q0 46 17 80t46 56.5t68.5 33.5t84.5 11q103 0 163 -44.5t60 -135.5v-209q0 -39 11.5 -53t43.5 -14h11q5 0 5 -5v-50q0 -5 -5 -5h-11q-52 0 -76.5 14.5t-37.5 45.5q-3 8 -9 2t-18.5 -17.5t-34.5 -23t-55 -21t-79 -10.5q-100 0 -152 42.5t-52 111.5t53.5 109.5
t160.5 40.5h125q12 0 21.5 0.5t15.5 4.5t9.5 12.5t3.5 24.5q0 19 -4 40.5t-19.5 39t-46 29t-83.5 11.5q-75 0 -110.5 -30.5t-35.5 -90.5q0 -5 -5 -5h-60q-5 0 -5 5zM422 229q0 5 -5 5h-166q-48 0 -77 -8t-44.5 -20.5t-21 -29t-5.5 -32.5q0 -17 7.5 -34t23.5 -30.5
t41.5 -21.5t61.5 -8q49 0 84 14.5t57 37t32.5 50t11.5 53.5v24zM391 704q5 0 5 -5q0 -63 -34.5 -93t-89.5 -30q-54 0 -89 30t-35 93q0 5 5 5h42q5 0 5 -5q0 -11 3 -23.5t11 -23.5t22 -18.5t36 -7.5t36 7.5t21.5 18.5t10.5 23.5t3 23.5q0 5 5 5h43z" />
    <glyph glyph-name="Aogonek" unicode="&#x104;" horiz-adv-x="662" 
d="M456 -98q-1 37 21 64t54 36q5 2 5 4.5t-1 4.5l-48 147q-2 5 -7 5h-308q-5 0 -7 -5l-50 -153q-2 -5 -7 -5h-64q-6 0 -4 5l230 694q2 5 6 5h100q4 0 6 -5l230 -694q2 -5 -4 -5h-15q-31 -1 -51.5 -21t-20.5 -51q0 -32 21.5 -49t53.5 -17h11q5 0 5 -5v-50q0 -5 -5 -5h-21
q-59 0 -94 28t-36 72zM188 228q-2 -5 4 -5h269q5 0 3 5l-133 412q-2 4 -5 4t-5 -4z" />
    <glyph glyph-name="aogonek" unicode="&#x105;" horiz-adv-x="596" 
d="M53 335q0 46 17 80t46 56.5t68.5 33.5t84.5 11q103 0 163 -44.5t60 -135.5v-209q0 -39 11.5 -53t43.5 -14h11q5 0 5 -5v-50q0 -5 -5 -5h-12q-33 0 -53.5 -21.5t-20.5 -51.5q0 -32 21.5 -48.5t53.5 -16.5h11q5 0 5 -5v-50q0 -5 -5 -5h-21q-59 0 -93.5 30t-36.5 74
q0 29 17.5 56t52.5 38q5 2 4.5 5.5t-4.5 5.5q-17 7 -27 19.5t-17 29.5q-3 8 -9 2t-18.5 -17.5t-34.5 -23t-55 -21t-79 -10.5q-100 0 -152 42.5t-52 111.5t53.5 109.5t160.5 40.5h125q12 0 21.5 0.5t15.5 4.5t9.5 12.5t3.5 24.5q0 19 -4 40.5t-19.5 39t-46 29t-83.5 11.5
q-75 0 -110.5 -30.5t-35.5 -90.5q0 -5 -5 -5h-60q-5 0 -5 5zM422 229q0 5 -5 5h-166q-48 0 -77 -8t-44.5 -20.5t-21 -29t-5.5 -32.5q0 -17 7.5 -34t23.5 -30.5t41.5 -21.5t61.5 -8q49 0 84 14.5t57 37t32.5 50t11.5 53.5v24z" />
    <glyph glyph-name="Cacute" unicode="&#x106;" horiz-adv-x="678" 
d="M571 193q2 5 7 5h59q5 0 5 -5q-1 -20 -18 -54t-50.5 -67t-84.5 -57.5t-121 -24.5q-75 0 -133 26.5t-98.5 74.5t-61.5 114.5t-21 146.5q0 79 21 145.5t61.5 114.5t98.5 75t133 27q70 0 121 -24.5t84.5 -57.5t50.5 -67t18 -54q0 -5 -5 -5h-59q-5 0 -7 5q-5 16 -19.5 40
t-39 47t-60.5 39.5t-84 16.5q-118 0 -179.5 -79.5t-61.5 -222.5t61.5 -222.5t179.5 -79.5q48 0 84 16.5t60.5 39.5t39 47t19.5 40zM323 774q-3 0 -5 2t0 5l49 114q2 7 10 7h67q3 0 5 -2t0 -5l-72 -114l-4.5 -4.5t-6.5 -2.5h-43z" />
    <glyph glyph-name="cacute" unicode="&#x107;" horiz-adv-x="540" 
d="M437 171q2 5 6 5h59q5 0 5 -5q-4 -26 -17.5 -57.5t-40.5 -59t-68.5 -46t-99.5 -18.5q-59 0 -105 19t-78 53.5t-48.5 83t-16.5 107.5t16.5 107.5t48.5 83t78 53.5t105 19q58 0 99.5 -18.5t68.5 -46t40.5 -59t17.5 -57.5q0 -5 -5 -5h-59q-4 0 -6 5q-15 57 -54 89t-102 32
q-42 0 -75 -15t-56 -41.5t-35 -64t-12 -82.5t12 -82.5t35 -64t56 -41.5t75 -15q63 0 102 32t54 89zM232 576q-3 0 -5 2t0 5l49 114q2 7 10 7h67q3 0 5 -2t0 -5l-72 -114l-4.5 -4.5t-6.5 -2.5h-43z" />
    <glyph glyph-name="Ccircumflex" unicode="&#x108;" horiz-adv-x="678" 
d="M571 193q2 5 7 5h59q5 0 5 -5q-1 -20 -18 -54t-50.5 -67t-84.5 -57.5t-121 -24.5q-75 0 -133 26.5t-98.5 74.5t-61.5 114.5t-21 146.5q0 79 21 145.5t61.5 114.5t98.5 75t133 27q70 0 121 -24.5t84.5 -57.5t50.5 -67t18 -54q0 -5 -5 -5h-59q-5 0 -7 5q-5 16 -19.5 40
t-39 47t-60.5 39.5t-84 16.5q-118 0 -179.5 -79.5t-61.5 -222.5t61.5 -222.5t179.5 -79.5q48 0 84 16.5t60.5 39.5t39 47t19.5 40zM378 774q-4 0 -5 3l-34 62q-2 3 -5 3t-5 -3l-34 -62q-2 -3 -5 -3h-47q-3 0 -5 2t0 5l51 117q1 4 5 4h80q4 0 5 -4l51 -117q3 -7 -5 -7h-47z
" />
    <glyph glyph-name="ccircumflex" unicode="&#x109;" horiz-adv-x="540" 
d="M437 171q2 5 6 5h59q5 0 5 -5q-4 -26 -17.5 -57.5t-40.5 -59t-68.5 -46t-99.5 -18.5q-59 0 -105 19t-78 53.5t-48.5 83t-16.5 107.5t16.5 107.5t48.5 83t78 53.5t105 19q58 0 99.5 -18.5t68.5 -46t40.5 -59t17.5 -57.5q0 -5 -5 -5h-59q-4 0 -6 5q-15 57 -54 89t-102 32
q-42 0 -75 -15t-56 -41.5t-35 -64t-12 -82.5t12 -82.5t35 -64t56 -41.5t75 -15q63 0 102 32t54 89zM319 576q-4 0 -5 3l-34 62q-2 3 -5 3t-5 -3l-34 -62q-2 -3 -5 -3h-47q-3 0 -5 2t0 5l51 117q1 4 5 4h80q4 0 5 -4l51 -117q3 -7 -5 -7h-47z" />
    <glyph glyph-name="Cdotaccent" unicode="&#x10a;" horiz-adv-x="678" 
d="M571 193q2 5 7 5h59q5 0 5 -5q-1 -20 -18 -54t-50.5 -67t-84.5 -57.5t-121 -24.5q-75 0 -133 26.5t-98.5 74.5t-61.5 114.5t-21 146.5q0 79 21 145.5t61.5 114.5t98.5 75t133 27q70 0 121 -24.5t84.5 -57.5t50.5 -67t18 -54q0 -5 -5 -5h-59q-5 0 -7 5q-5 16 -19.5 40
t-39 47t-60.5 39.5t-84 16.5q-118 0 -179.5 -79.5t-61.5 -222.5t61.5 -222.5t179.5 -79.5q48 0 84 16.5t60.5 39.5t39 47t19.5 40zM299 759q-5 0 -5 5v132q0 5 5 5h129q5 0 5 -5v-132q0 -5 -5 -5h-129z" />
    <glyph glyph-name="cdotaccent" unicode="&#x10b;" horiz-adv-x="540" 
d="M437 171q2 5 6 5h59q5 0 5 -5q-4 -26 -17.5 -57.5t-40.5 -59t-68.5 -46t-99.5 -18.5q-59 0 -105 19t-78 53.5t-48.5 83t-16.5 107.5t16.5 107.5t48.5 83t78 53.5t105 19q58 0 99.5 -18.5t68.5 -46t40.5 -59t17.5 -57.5q0 -5 -5 -5h-59q-4 0 -6 5q-15 57 -54 89t-102 32
q-42 0 -75 -15t-56 -41.5t-35 -64t-12 -82.5t12 -82.5t35 -64t56 -41.5t75 -15q63 0 102 32t54 89zM200 562q-5 0 -5 5v132q0 5 5 5h129q5 0 5 -5v-132q0 -5 -5 -5h-129z" />
    <glyph glyph-name="Ccaron" unicode="&#x10c;" horiz-adv-x="678" 
d="M571 193q2 5 7 5h59q5 0 5 -5q-1 -20 -18 -54t-50.5 -67t-84.5 -57.5t-121 -24.5q-75 0 -133 26.5t-98.5 74.5t-61.5 114.5t-21 146.5q0 79 21 145.5t61.5 114.5t98.5 75t133 27q70 0 121 -24.5t84.5 -57.5t50.5 -67t18 -54q0 -5 -5 -5h-59q-5 0 -7 5q-5 16 -19.5 40
t-39 47t-60.5 39.5t-84 16.5q-118 0 -179.5 -79.5t-61.5 -222.5t61.5 -222.5t179.5 -79.5q48 0 84 16.5t60.5 39.5t39 47t19.5 40zM455 902q8 0 5 -7l-51 -117q-1 -4 -5 -4h-80q-4 0 -5 4l-51 117q-2 3 0 5t5 2h47q3 0 5 -3l34 -62q2 -3 5 -3t5 3l34 62q1 3 5 3h47z" />
    <glyph glyph-name="ccaron" unicode="&#x10d;" horiz-adv-x="540" 
d="M437 171q2 5 6 5h59q5 0 5 -5q-4 -26 -17.5 -57.5t-40.5 -59t-68.5 -46t-99.5 -18.5q-59 0 -105 19t-78 53.5t-48.5 83t-16.5 107.5t16.5 107.5t48.5 83t78 53.5t105 19q58 0 99.5 -18.5t68.5 -46t40.5 -59t17.5 -57.5q0 -5 -5 -5h-59q-4 0 -6 5q-15 57 -54 89t-102 32
q-42 0 -75 -15t-56 -41.5t-35 -64t-12 -82.5t12 -82.5t35 -64t56 -41.5t75 -15q63 0 102 32t54 89zM356 704q8 0 5 -7l-51 -117q-1 -4 -5 -4h-80q-4 0 -5 4l-51 117q-2 3 0 5t5 2h47q3 0 5 -3l34 -62q2 -3 5 -3t5 3l34 62q1 3 5 3h47z" />
    <glyph glyph-name="Dcaron" unicode="&#x10e;" horiz-adv-x="683" 
d="M80 0q-5 0 -5 5v694q0 5 5 5h254q78 0 136.5 -27t97.5 -74.5t58 -113t19 -144.5q0 -80 -19 -143.5t-58 -108.5t-97.5 -69t-136.5 -24h-254zM150 644q-5 0 -5 -5v-574q0 -5 5 -5h184q112 0 174 71.5t62 213.5q0 69 -16 124.5t-46 94t-74 59.5t-100 21h-184zM405 902
q8 0 5 -7l-51 -117q-1 -4 -5 -4h-80q-4 0 -5 4l-51 117q-2 3 0 5t5 2h47q3 0 5 -3l34 -62q2 -3 5 -3t5 3l34 62q1 3 5 3h47z" />
    <glyph glyph-name="dcaron" unicode="&#x10f;" horiz-adv-x="672" 
d="M574 625q-5 0 -5 5v69q0 5 5 5h68q5 0 5 -5v-71q0 -34 -20 -55.5t-53 -21.5q-5 0 -5 5v29q0 5 5 5q9 0 18 7t9 23q0 5 -5 5h-22zM519 5q0 -5 -5 -5h-50q-3 0 -5 5l-10 55q-1 3 -4 4t-5 -3q-3 -4 -13.5 -15.5t-31 -24t-51.5 -22t-73 -9.5q-59 0 -103.5 19t-74.5 54t-45 83
t-15 107q0 58 16 106.5t46.5 83.5t74.5 54t101 19q42 0 72 -9.5t50.5 -22t32 -24.5t14.5 -17q2 -4 5.5 -3t3.5 4v255q0 5 5 5h60q5 0 5 -5v-694zM103 253q0 -45 12 -82.5t35 -64t56 -41.5t75 -15t73.5 15t52.5 41.5t31.5 64t10.5 82.5t-10.5 82.5t-31.5 64t-52.5 41.5
t-73.5 15t-75 -15t-56 -41.5t-35 -64t-12 -82.5z" />
    <glyph glyph-name="Dcroat" unicode="&#x110;" horiz-adv-x="683" 
d="M75 318q0 5 -5 5h-65q-5 0 -5 5v60q0 5 5 5h65q5 0 5 5v301q0 5 5 5h254q78 0 136.5 -27t97.5 -74.5t58 -113t19 -144.5q0 -80 -19 -143.5t-58 -108.5t-97.5 -69t-136.5 -24h-254q-5 0 -5 5v313zM150 323q-5 0 -5 -5v-253q0 -5 5 -5h184q112 0 174 71.5t62 213.5
q0 69 -16 124.5t-46 94t-74 59.5t-100 21h-184q-5 0 -5 -5v-241q0 -5 5 -5h180q5 0 5 -5v-60q0 -5 -5 -5h-180z" />
    <glyph glyph-name="dcroat" unicode="&#x111;" horiz-adv-x="602" 
d="M449 554q0 5 -5 5h-130q-5 0 -5 5v60q0 5 5 5h130q5 0 5 5v65q0 5 5 5h60q5 0 5 -5v-65q0 -5 5 -5h64q5 0 5 -5v-60q0 -5 -5 -5h-64q-5 0 -5 -5v-549q0 -5 -5 -5h-50q-3 0 -5 5l-10 55q-1 3 -4 4t-5 -3q-3 -4 -13.5 -15.5t-31 -24t-51.5 -22t-73 -9.5q-59 0 -103.5 19
t-74.5 54t-45 83t-15 107q0 58 16 106.5t46.5 83.5t74.5 54t101 19q42 0 72 -9.5t50.5 -22t32 -24.5t14.5 -17q2 -4 5.5 -3t3.5 4v110zM103 253q0 -45 12 -82.5t35 -64t56 -41.5t75 -15t73.5 15t52.5 41.5t31.5 64t10.5 82.5t-10.5 82.5t-31.5 64t-52.5 41.5t-73.5 15
t-75 -15t-56 -41.5t-35 -64t-12 -82.5z" />
    <glyph glyph-name="Emacron" unicode="&#x112;" horiz-adv-x="607" 
d="M82 0q-5 0 -5 5v694q0 5 5 5h470q5 0 5 -5v-50q0 -5 -5 -5h-400q-5 0 -5 -5v-242q0 -5 5 -5h357q5 0 5 -5v-50q0 -5 -5 -5h-357q-5 0 -5 -5v-262q0 -5 5 -5h400q5 0 5 -5v-50q0 -5 -5 -5h-470zM175 774q-4 0 -4 5v40q0 5 4 5h246q5 0 5 -5v-40q0 -5 -5 -5h-246z" />
    <glyph glyph-name="emacron" unicode="&#x113;" horiz-adv-x="569" 
d="M124 227q-5 0 -5 -5q0 -33 11.5 -64t33 -55t52.5 -38.5t70 -14.5q30 0 54 7t42 18t30 25t19 28q2 5 8 5h64q7 0 6 -5q-23 -69 -82.5 -103.5t-140.5 -34.5q-54 0 -99 19t-77 54t-49.5 83t-17.5 107t17 107.5t48.5 83.5t76.5 54t101 19t100.5 -19.5t75.5 -54t47.5 -83.5
t16.5 -107q0 -5 -0.5 -12t-1.5 -9q-2 -5 -6 -5h-394zM450 292q0 27 -9 56t-29 53.5t-51 40t-75 15.5q-43 0 -74.5 -17.5t-52 -42.5t-30.5 -54t-10 -51q0 -5 5 -5h321q5 0 5 5zM156 576q-4 0 -4 5v40q0 5 4 5h246q5 0 5 -5v-40q0 -5 -5 -5h-246z" />
    <glyph glyph-name="Ebreve" unicode="&#x114;" horiz-adv-x="607" 
d="M82 0q-5 0 -5 5v694q0 5 5 5h470q5 0 5 -5v-50q0 -5 -5 -5h-400q-5 0 -5 -5v-242q0 -5 5 -5h357q5 0 5 -5v-50q0 -5 -5 -5h-357q-5 0 -5 -5v-262q0 -5 5 -5h400q5 0 5 -5v-50q0 -5 -5 -5h-470zM417 902q5 0 5 -5q0 -63 -34.5 -93t-89.5 -30q-54 0 -89 30t-35 93q0 5 5 5
h42q5 0 5 -5q0 -11 3 -23.5t11 -23.5t22 -18.5t36 -7.5t36 7.5t21.5 18.5t10.5 23.5t3 23.5q0 5 5 5h43z" />
    <glyph glyph-name="ebreve" unicode="&#x115;" horiz-adv-x="569" 
d="M124 227q-5 0 -5 -5q0 -33 11.5 -64t33 -55t52.5 -38.5t70 -14.5q30 0 54 7t42 18t30 25t19 28q2 5 8 5h64q7 0 6 -5q-23 -69 -82.5 -103.5t-140.5 -34.5q-54 0 -99 19t-77 54t-49.5 83t-17.5 107t17 107.5t48.5 83.5t76.5 54t101 19t100.5 -19.5t75.5 -54t47.5 -83.5
t16.5 -107q0 -5 -0.5 -12t-1.5 -9q-2 -5 -6 -5h-394zM450 292q0 27 -9 56t-29 53.5t-51 40t-75 15.5q-43 0 -74.5 -17.5t-52 -42.5t-30.5 -54t-10 -51q0 -5 5 -5h321q5 0 5 5zM398 704q5 0 5 -5q0 -63 -34.5 -93t-89.5 -30q-54 0 -89 30t-35 93q0 5 5 5h42q5 0 5 -5
q0 -11 3 -23.5t11 -23.5t22 -18.5t36 -7.5t36 7.5t21.5 18.5t10.5 23.5t3 23.5q0 5 5 5h43z" />
    <glyph glyph-name="Edotaccent" unicode="&#x116;" horiz-adv-x="607" 
d="M82 0q-5 0 -5 5v694q0 5 5 5h470q5 0 5 -5v-50q0 -5 -5 -5h-400q-5 0 -5 -5v-242q0 -5 5 -5h357q5 0 5 -5v-50q0 -5 -5 -5h-357q-5 0 -5 -5v-262q0 -5 5 -5h400q5 0 5 -5v-50q0 -5 -5 -5h-470zM234 759q-5 0 -5 5v132q0 5 5 5h129q5 0 5 -5v-132q0 -5 -5 -5h-129z" />
    <glyph glyph-name="edotaccent" unicode="&#x117;" horiz-adv-x="569" 
d="M124 227q-5 0 -5 -5q0 -33 11.5 -64t33 -55t52.5 -38.5t70 -14.5q30 0 54 7t42 18t30 25t19 28q2 5 8 5h64q7 0 6 -5q-23 -69 -82.5 -103.5t-140.5 -34.5q-54 0 -99 19t-77 54t-49.5 83t-17.5 107t17 107.5t48.5 83.5t76.5 54t101 19t100.5 -19.5t75.5 -54t47.5 -83.5
t16.5 -107q0 -5 -0.5 -12t-1.5 -9q-2 -5 -6 -5h-394zM450 292q0 27 -9 56t-29 53.5t-51 40t-75 15.5q-43 0 -74.5 -17.5t-52 -42.5t-30.5 -54t-10 -51q0 -5 5 -5h321q5 0 5 5zM215 562q-5 0 -5 5v132q0 5 5 5h129q5 0 5 -5v-132q0 -5 -5 -5h-129z" />
    <glyph glyph-name="Eogonek" unicode="&#x118;" horiz-adv-x="607" 
d="M541 0q-31 -1 -51.5 -21.5t-20.5 -51.5q0 -32 21.5 -48.5t53.5 -16.5h8q5 0 5 -5v-50q0 -5 -5 -5h-18q-59 0 -93.5 30.5t-36.5 73.5q-1 27 11 48.5t36 35.5q3 2 3 6t-5 4h-367q-5 0 -5 5v694q0 5 5 5h470q5 0 5 -5v-50q0 -5 -5 -5h-400q-5 0 -5 -5v-242q0 -5 5 -5h357
q5 0 5 -5v-50q0 -5 -5 -5h-357q-5 0 -5 -5v-262q0 -5 5 -5h400q5 0 5 -5v-50q0 -5 -5 -5h-11z" />
    <glyph glyph-name="eogonek" unicode="&#x119;" horiz-adv-x="569" 
d="M124 227q-5 0 -5 -5q0 -33 11.5 -64t33 -55t52.5 -38.5t70 -14.5q30 0 54 7t42 18t30 25t19 28q2 5 8 5h64q7 0 6 -5q-11 -32 -29.5 -55t-44.5 -43q-12 -10 -26.5 -22t-26.5 -26t-20 -29t-8 -30q0 -32 21.5 -46.5t53.5 -14.5h38q5 0 5 -5v-50q0 -5 -5 -5h-48q-33 0 -57 9
t-40 23.5t-24 33t-9 38.5q-1 26 7 45t21 31q3 3 1.5 6t-5.5 3q-8 -1 -13.5 -1h-13.5q-54 0 -99 19t-77 54t-49.5 83t-17.5 107t17 107.5t48.5 83.5t76.5 54t101 19t100.5 -19.5t75.5 -54t47.5 -83.5t16.5 -107q0 -5 -0.5 -12t-1.5 -9q-2 -5 -6 -5h-394zM450 292q0 27 -9 56
t-29 53.5t-51 40t-75 15.5q-43 0 -74.5 -17.5t-52 -42.5t-30.5 -54t-10 -51q0 -5 5 -5h321q5 0 5 5z" />
    <glyph glyph-name="Ecaron" unicode="&#x11a;" horiz-adv-x="607" 
d="M82 0q-5 0 -5 5v694q0 5 5 5h470q5 0 5 -5v-50q0 -5 -5 -5h-400q-5 0 -5 -5v-242q0 -5 5 -5h357q5 0 5 -5v-50q0 -5 -5 -5h-357q-5 0 -5 -5v-262q0 -5 5 -5h400q5 0 5 -5v-50q0 -5 -5 -5h-470zM415 902q8 0 5 -7l-51 -117q-1 -4 -5 -4h-80q-4 0 -5 4l-51 117q-2 3 0 5
t5 2h47q3 0 5 -3l34 -62q2 -3 5 -3t5 3l34 62q1 3 5 3h47z" />
    <glyph glyph-name="ecaron" unicode="&#x11b;" horiz-adv-x="569" 
d="M124 227q-5 0 -5 -5q0 -33 11.5 -64t33 -55t52.5 -38.5t70 -14.5q30 0 54 7t42 18t30 25t19 28q2 5 8 5h64q7 0 6 -5q-23 -69 -82.5 -103.5t-140.5 -34.5q-54 0 -99 19t-77 54t-49.5 83t-17.5 107t17 107.5t48.5 83.5t76.5 54t101 19t100.5 -19.5t75.5 -54t47.5 -83.5
t16.5 -107q0 -5 -0.5 -12t-1.5 -9q-2 -5 -6 -5h-394zM450 292q0 27 -9 56t-29 53.5t-51 40t-75 15.5q-43 0 -74.5 -17.5t-52 -42.5t-30.5 -54t-10 -51q0 -5 5 -5h321q5 0 5 5zM370 704q8 0 5 -7l-51 -117q-1 -4 -5 -4h-80q-4 0 -5 4l-51 117q-2 3 0 5t5 2h47q3 0 5 -3
l34 -62q2 -3 5 -3t5 3l34 62q1 3 5 3h47z" />
    <glyph glyph-name="Gcircumflex" unicode="&#x11c;" horiz-adv-x="744" 
d="M591 317q0 5 -5 5h-224q-5 0 -5 5v50q0 5 5 5h294q5 0 5 -5v-372q0 -5 -5 -5h-49q-5 0 -6 5l-10 85q-1 5 -4 5t-5 -3q-12 -17 -35 -35t-52.5 -33t-65 -24.5t-72.5 -9.5q-79 0 -138 26.5t-98.5 74.5t-59 114.5t-19.5 146.5q0 79 21 145.5t61.5 114.5t99 75t133.5 27
q65 0 114 -17.5t83.5 -46t55.5 -65t30 -74.5q1 -5 -4 -5h-57q-6 0 -8 5q-28 78 -83.5 110.5t-130.5 32.5q-118 0 -179 -79.5t-61 -222.5t61 -222.5t179 -79.5q61 0 105 20t72.5 53t42.5 74.5t14 84.5v35zM411 774q-4 0 -5 3l-34 62q-2 3 -5 3t-5 -3l-34 -62q-2 -3 -5 -3h-47
q-3 0 -5 2t0 5l51 117q1 4 5 4h80q4 0 5 -4l51 -117q3 -7 -5 -7h-47z" />
    <glyph glyph-name="gcircumflex" unicode="&#x11d;" horiz-adv-x="610" 
d="M527 36v-1v-14q0 -108 -63 -168.5t-174 -60.5q-47 0 -86.5 11.5t-68.5 31.5t-46.5 46.5t-21.5 55.5q0 5 5 5h58q5 0 7 -5q4 -15 15.5 -30t30.5 -27t46 -20t61 -8q49 0 81 14t51 37.5t26.5 54t8.5 63.5v39q0 2 -3 3.5t-6 -1.5q-8 -9 -21.5 -21.5t-34 -24t-48.5 -19
t-65 -7.5q-53 0 -96.5 19t-75 54t-49 83t-17.5 107q0 58 16.5 106.5t47.5 83.5t75 54t99 19q37 0 66 -9t49.5 -21t34 -24t19.5 -18q3 -3 5.5 -2t3.5 4l10 55q2 5 5 5h50q5 0 5 -5v-465zM111 253q0 -45 12 -82.5t35 -64t56 -41.5t75 -15t73.5 15t52.5 41.5t31.5 64t10.5 82.5
t-10.5 82.5t-31.5 64t-52.5 41.5t-73.5 15t-75 -15t-56 -41.5t-35 -64t-12 -82.5zM344 576q-4 0 -5 3l-34 62q-2 3 -5 3t-5 -3l-34 -62q-2 -3 -5 -3h-47q-3 0 -5 2t0 5l51 117q1 4 5 4h80q4 0 5 -4l51 -117q3 -7 -5 -7h-47z" />
    <glyph glyph-name="Gbreve" unicode="&#x11e;" horiz-adv-x="744" 
d="M591 317q0 5 -5 5h-224q-5 0 -5 5v50q0 5 5 5h294q5 0 5 -5v-372q0 -5 -5 -5h-49q-5 0 -6 5l-10 85q-1 5 -4 5t-5 -3q-12 -17 -35 -35t-52.5 -33t-65 -24.5t-72.5 -9.5q-79 0 -138 26.5t-98.5 74.5t-59 114.5t-19.5 146.5q0 79 21 145.5t61.5 114.5t99 75t133.5 27
q65 0 114 -17.5t83.5 -46t55.5 -65t30 -74.5q1 -5 -4 -5h-57q-6 0 -8 5q-28 78 -83.5 110.5t-130.5 32.5q-118 0 -179 -79.5t-61 -222.5t61 -222.5t179 -79.5q61 0 105 20t72.5 53t42.5 74.5t14 84.5v35zM486 902q5 0 5 -5q0 -63 -34.5 -93t-89.5 -30q-54 0 -89 30t-35 93
q0 5 5 5h42q5 0 5 -5q0 -11 3 -23.5t11 -23.5t22 -18.5t36 -7.5t36 7.5t21.5 18.5t10.5 23.5t3 23.5q0 5 5 5h43z" />
    <glyph glyph-name="gbreve" unicode="&#x11f;" horiz-adv-x="610" 
d="M527 36v-1v-14q0 -108 -63 -168.5t-174 -60.5q-47 0 -86.5 11.5t-68.5 31.5t-46.5 46.5t-21.5 55.5q0 5 5 5h58q5 0 7 -5q4 -15 15.5 -30t30.5 -27t46 -20t61 -8q49 0 81 14t51 37.5t26.5 54t8.5 63.5v39q0 2 -3 3.5t-6 -1.5q-8 -9 -21.5 -21.5t-34 -24t-48.5 -19
t-65 -7.5q-53 0 -96.5 19t-75 54t-49 83t-17.5 107q0 58 16.5 106.5t47.5 83.5t75 54t99 19q37 0 66 -9t49.5 -21t34 -24t19.5 -18q3 -3 5.5 -2t3.5 4l10 55q2 5 5 5h50q5 0 5 -5v-465zM111 253q0 -45 12 -82.5t35 -64t56 -41.5t75 -15t73.5 15t52.5 41.5t31.5 64t10.5 82.5
t-10.5 82.5t-31.5 64t-52.5 41.5t-73.5 15t-75 -15t-56 -41.5t-35 -64t-12 -82.5zM419 704q5 0 5 -5q0 -63 -34.5 -93t-89.5 -30q-54 0 -89 30t-35 93q0 5 5 5h42q5 0 5 -5q0 -11 3 -23.5t11 -23.5t22 -18.5t36 -7.5t36 7.5t21.5 18.5t10.5 23.5t3 23.5q0 5 5 5h43z" />
    <glyph glyph-name="Gdotaccent" unicode="&#x120;" horiz-adv-x="744" 
d="M591 317q0 5 -5 5h-224q-5 0 -5 5v50q0 5 5 5h294q5 0 5 -5v-372q0 -5 -5 -5h-49q-5 0 -6 5l-10 85q-1 5 -4 5t-5 -3q-12 -17 -35 -35t-52.5 -33t-65 -24.5t-72.5 -9.5q-79 0 -138 26.5t-98.5 74.5t-59 114.5t-19.5 146.5q0 79 21 145.5t61.5 114.5t99 75t133.5 27
q65 0 114 -17.5t83.5 -46t55.5 -65t30 -74.5q1 -5 -4 -5h-57q-6 0 -8 5q-28 78 -83.5 110.5t-130.5 32.5q-118 0 -179 -79.5t-61 -222.5t61 -222.5t179 -79.5q61 0 105 20t72.5 53t42.5 74.5t14 84.5v35zM302 759q-5 0 -5 5v132q0 5 5 5h129q5 0 5 -5v-132q0 -5 -5 -5h-129z
" />
    <glyph glyph-name="gdotaccent" unicode="&#x121;" horiz-adv-x="610" 
d="M527 36v-1v-14q0 -108 -63 -168.5t-174 -60.5q-47 0 -86.5 11.5t-68.5 31.5t-46.5 46.5t-21.5 55.5q0 5 5 5h58q5 0 7 -5q4 -15 15.5 -30t30.5 -27t46 -20t61 -8q49 0 81 14t51 37.5t26.5 54t8.5 63.5v39q0 2 -3 3.5t-6 -1.5q-8 -9 -21.5 -21.5t-34 -24t-48.5 -19
t-65 -7.5q-53 0 -96.5 19t-75 54t-49 83t-17.5 107q0 58 16.5 106.5t47.5 83.5t75 54t99 19q37 0 66 -9t49.5 -21t34 -24t19.5 -18q3 -3 5.5 -2t3.5 4l10 55q2 5 5 5h50q5 0 5 -5v-465zM111 253q0 -45 12 -82.5t35 -64t56 -41.5t75 -15t73.5 15t52.5 41.5t31.5 64t10.5 82.5
t-10.5 82.5t-31.5 64t-52.5 41.5t-73.5 15t-75 -15t-56 -41.5t-35 -64t-12 -82.5zM235 562q-5 0 -5 5v132q0 5 5 5h129q5 0 5 -5v-132q0 -5 -5 -5h-129z" />
    <glyph glyph-name="uni0122" unicode="&#x122;" horiz-adv-x="744" 
d="M591 317q0 5 -5 5h-224q-5 0 -5 5v50q0 5 5 5h294q5 0 5 -5v-372q0 -5 -5 -5h-49q-5 0 -6 5l-10 85q-1 5 -4 5t-5 -3q-12 -17 -35 -35t-52.5 -33t-65 -24.5t-72.5 -9.5q-79 0 -138 26.5t-98.5 74.5t-59 114.5t-19.5 146.5q0 79 21 145.5t61.5 114.5t99 75t133.5 27
q65 0 114 -17.5t83.5 -46t55.5 -65t30 -74.5q1 -5 -4 -5h-57q-6 0 -8 5q-28 78 -83.5 110.5t-130.5 32.5q-118 0 -179 -79.5t-61 -222.5t61 -222.5t179 -79.5q61 0 105 20t72.5 53t42.5 74.5t14 84.5v35zM323 -134q-5 0 -5 5v69q0 5 5 5h68q5 0 5 -5v-71q0 -34 -20 -55.5
t-53 -21.5q-5 0 -5 5v29q0 5 5 5q9 0 18 7t9 23q0 5 -5 5h-22z" />
    <glyph glyph-name="uni0123" unicode="&#x123;" horiz-adv-x="610" 
d="M527 36v-1v-14q0 -108 -63 -168.5t-174 -60.5q-47 0 -86.5 11.5t-68.5 31.5t-46.5 46.5t-21.5 55.5q0 5 5 5h58q5 0 7 -5q4 -15 15.5 -30t30.5 -27t46 -20t61 -8q49 0 81 14t51 37.5t26.5 54t8.5 63.5v39q0 2 -3 3.5t-6 -1.5q-8 -9 -21.5 -21.5t-34 -24t-48.5 -19
t-65 -7.5q-53 0 -96.5 19t-75 54t-49 83t-17.5 107q0 58 16.5 106.5t47.5 83.5t75 54t99 19q37 0 66 -9t49.5 -21t34 -24t19.5 -18q3 -3 5.5 -2t3.5 4l10 55q2 5 5 5h50q5 0 5 -5v-465zM111 253q0 -45 12 -82.5t35 -64t56 -41.5t75 -15t73.5 15t52.5 41.5t31.5 64t10.5 82.5
t-10.5 82.5t-31.5 64t-52.5 41.5t-73.5 15t-75 -15t-56 -41.5t-35 -64t-12 -82.5zM255 625q-5 0 -5 5v69q0 5 5 5h68q5 0 5 -5v-71q0 -34 -20 -55.5t-53 -21.5q-5 0 -5 5v29q0 5 5 5q9 0 18 7t9 23q0 5 -5 5h-22z" />
    <glyph glyph-name="Hcircumflex" unicode="&#x124;" horiz-adv-x="665" 
d="M517 0q-5 0 -5 5v322q0 5 -5 5h-359q-5 0 -5 -5v-322q0 -5 -5 -5h-60q-5 0 -5 5v694q0 5 5 5h60q5 0 5 -5v-302q0 -5 5 -5h359q5 0 5 5v302q0 5 5 5h60q5 0 5 -5v-694q0 -5 -5 -5h-60zM371 774q-4 0 -5 3l-34 62q-2 3 -5 3t-5 -3l-34 -62q-2 -3 -5 -3h-47q-3 0 -5 2t0 5
l51 117q1 4 5 4h80q4 0 5 -4l51 -117q3 -7 -5 -7h-47z" />
    <glyph glyph-name="hcircumflex" unicode="&#x125;" horiz-adv-x="578" 
d="M455 282q0 33 -8 64t-26.5 55.5t-48.5 39.5t-73 15q-84 0 -120 -41.5t-36 -131.5v-278q0 -5 -5 -5h-60q-5 0 -5 5v694q0 5 5 5h60q5 0 5 -5v-243q0 -4 3.5 -4.5t5.5 1.5q6 6 17.5 17t29.5 21t42.5 17.5t57.5 7.5q57 0 99.5 -19t70.5 -50.5t42 -74t14 -90.5v-277
q0 -5 -5 -5h-60q-5 0 -5 5v277zM151 774q-4 0 -5 3l-34 62q-2 3 -5 3t-5 -3l-34 -62q-2 -3 -5 -3h-47q-3 0 -5 2t0 5l51 117q1 4 5 4h80q4 0 5 -4l51 -117q3 -7 -5 -7h-47z" />
    <glyph glyph-name="Hbar" unicode="&#x126;" horiz-adv-x="665" 
d="M73 564q0 5 -5 5h-58q-4 0 -4 5v40q0 5 4 5h58q5 0 5 5v75q0 5 5 5h60q5 0 5 -5v-75q0 -5 5 -5h359q5 0 5 5v75q0 5 5 5h61q5 0 5 -5v-75q0 -5 5 -5h56q5 0 5 -5v-40q0 -5 -5 -5h-56q-5 0 -5 -5v-559q0 -5 -5 -5h-61q-5 0 -5 5v322q0 5 -5 5h-359q-5 0 -5 -4v-323
q0 -5 -5 -5h-60q-5 0 -5 5v559zM512 564q0 5 -5 5h-359q-5 0 -5 -5v-167q0 -5 5 -5h359q5 0 5 5v167z" />
    <glyph glyph-name="hbar" unicode="&#x127;" horiz-adv-x="578" 
d="M455 282q0 33 -8 64t-26.5 55.5t-48.5 39.5t-73 15q-84 0 -120 -41.5t-36 -131.5v-278q0 -5 -5 -5h-60q-5 0 -5 5v566q0 5 -5 5h-64q-4 0 -4 5v41q0 5 4 5h64q5 0 5 5v67q0 5 5 5h60q5 0 5 -5v-67q0 -5 5 -5h160q5 0 5 -5v-41q0 -5 -5 -5h-160q-5 0 -5 -5v-115
q0 -4 3.5 -4.5t5.5 1.5q6 6 17.5 17t29.5 21t42.5 17.5t57.5 7.5q57 0 99.5 -19t70.5 -50.5t42 -74t14 -90.5v-277q0 -5 -5 -5h-60q-5 0 -5 5v277z" />
    <glyph glyph-name="Itilde" unicode="&#x128;" horiz-adv-x="226" 
d="M138 704q5 0 5 -5v-694q0 -5 -5 -5h-60q-5 0 -5 5v694q0 5 5 5h60zM-43 792q0 13 5 28t16 28t28 21.5t41 8.5q22 0 38 -7t29.5 -16t26.5 -16t28 -7q3 0 8.5 2t11 6.5t9 12.5t3.5 20q0 5 5 5h48q5 0 5 -5v-14q0 -13 -5 -28t-16 -27.5t-28 -21t-41 -8.5q-20 0 -37 7
t-31.5 16t-28 16t-25.5 7q-3 0 -8.5 -2t-11 -6.5t-9 -12.5t-3.5 -20q0 -5 -5 -5h-48q-5 0 -5 5v13z" />
    <glyph glyph-name="itilde" unicode="&#x129;" horiz-adv-x="246" 
d="M148 506q5 0 5 -5v-496q0 -5 -5 -5h-60q-5 0 -5 5v496q0 5 5 5h60zM-33 618q0 13 5 28t16 28t28 21.5t41 8.5q22 0 38 -7t29.5 -16t26.5 -16t28 -7q3 0 8.5 2t11 6.5t9 12.5t3.5 20q0 5 5 5h48q5 0 5 -5v-14q0 -13 -5 -28t-16 -27.5t-28 -21t-41 -8.5q-20 0 -37 7
t-31.5 16t-28 16t-25.5 7q-3 0 -8.5 -2t-11 -6.5t-9 -12.5t-3.5 -20q0 -5 -5 -5h-48q-5 0 -5 5v13z" />
    <glyph glyph-name="Imacron" unicode="&#x12a;" horiz-adv-x="226" 
d="M138 704q5 0 5 -5v-694q0 -5 -5 -5h-60q-5 0 -5 5v694q0 5 5 5h60zM-15 774q-4 0 -4 5v40q0 5 4 5h246q5 0 5 -5v-40q0 -5 -5 -5h-246z" />
    <glyph glyph-name="imacron" unicode="&#x12b;" horiz-adv-x="246" 
d="M148 506q5 0 5 -5v-496q0 -5 -5 -5h-60q-5 0 -5 5v496q0 5 5 5h60zM-6 576q-4 0 -4 5v40q0 5 4 5h246q5 0 5 -5v-40q0 -5 -5 -5h-246z" />
    <glyph glyph-name="Iogonek" unicode="&#x12e;" horiz-adv-x="226" 
d="M138 704q5 0 5 -5v-694q0 -5 -5 -5h-6q-32 0 -53.5 -20.5t-21.5 -50.5q0 -32 21.5 -49.5t53.5 -17.5h11q5 0 5 -5v-50q0 -5 -5 -5h-21q-59 0 -93.5 27.5t-36.5 71.5q-1 38 20.5 63.5t53.5 36.5q7 3 7 6v692q0 5 5 5h60z" />
    <glyph glyph-name="iogonek" unicode="&#x12f;" horiz-adv-x="246" 
d="M158 704q5 0 5 -5v-80q0 -5 -5 -5h-80q-5 0 -5 5v80q0 5 5 5h80zM148 506q5 0 5 -5v-496q0 -5 -5 -5h-6q-32 0 -53.5 -20.5t-21.5 -50.5q0 -32 21.5 -49.5t53.5 -17.5h11q5 0 5 -5v-50q0 -5 -5 -5h-21q-59 0 -93.5 27.5t-36.5 71.5q-1 38 20.5 63.5t53.5 36.5q7 3 7 6
v494q0 5 5 5h60z" />
    <glyph glyph-name="Idotaccent" unicode="&#x130;" horiz-adv-x="226" 
d="M138 704q5 0 5 -5v-694q0 -5 -5 -5h-60q-5 0 -5 5v694q0 5 5 5h60zM44 759q-5 0 -5 5v132q0 5 5 5h129q5 0 5 -5v-132q0 -5 -5 -5h-129z" />
    <glyph glyph-name="dotlessi" unicode="&#x131;" horiz-adv-x="246" 
d="M148 506q5 0 5 -5v-496q0 -5 -5 -5h-60q-5 0 -5 5v496q0 5 5 5h60z" />
    <glyph glyph-name="IJ" unicode="&#x132;" 
d="M456 5q0 -5 -5 -5h-411q-5 0 -5 5v694q0 5 5 5h411q5 0 5 -5v-694zM419 681h-346l173 -306zM419 24l-173 305l-173 -305h346zM432 48v608q-43 -75 -87 -152t-86 -152zM233 352l-173 305v-610z" />
    <glyph glyph-name="ij" unicode="&#x133;" 
d="M456 5q0 -5 -5 -5h-411q-5 0 -5 5v694q0 5 5 5h411q5 0 5 -5v-694zM419 681h-346l173 -306zM419 24l-173 305l-173 -305h346zM432 48v608q-43 -75 -87 -152t-86 -152zM233 352l-173 305v-610z" />
    <glyph glyph-name="Jcircumflex" unicode="&#x134;" horiz-adv-x="457" 
d="M83 193q0 -26 3.5 -51.5t15.5 -45.5t36 -33t66 -13t67 12.5t37.5 33t16 45.5t3.5 50v508q0 5 5 5h60q5 0 5 -5v-508q0 -42 -7.5 -78.5t-28.5 -64t-59 -43t-99 -15.5q-57 0 -94 15.5t-58.5 43t-30 64.5t-8.5 80q0 5 5 5h60q5 0 5 -5zM407 774q-4 0 -5 3l-34 62q-2 3 -5 3
t-5 -3l-34 -62q-2 -3 -5 -3h-47q-3 0 -5 2t0 5l51 117q1 4 5 4h80q4 0 5 -4l51 -117q3 -7 -5 -7h-47z" />
    <glyph glyph-name="jcircumflex" unicode="&#x135;" horiz-adv-x="291" 
d="M208 -71q0 -66 -34 -96.5t-101 -30.5h-55q-5 0 -5 5v50q0 5 5 5h54q32 0 49 17.5t17 49.5v572q0 5 5 5h60q5 0 5 -5v-572zM216 576q-4 0 -5 3l-34 62q-2 3 -5 3t-5 -3l-34 -62q-2 -3 -5 -3h-47q-3 0 -5 2t0 5l51 117q1 4 5 4h80q4 0 5 -4l51 -117q3 -7 -5 -7h-47z" />
    <glyph glyph-name="uni0136" unicode="&#x136;" horiz-adv-x="615" 
d="M517 0q-5 0 -8 5l-247 375q-2 4 -6 0l-107 -105q-6 -6 -6 -13v-257q0 -5 -5 -5h-60q-5 0 -5 5v694q0 5 5 5h60q5 0 5 -5v-327q0 -2 2 -3t4 1l337 329q5 5 9 5h79q7 0 2 -5l-261 -259q-5 -5 -1 -11l277 -424q3 -5 -3 -5h-71zM266 -134q-5 0 -5 5v69q0 5 5 5h68q5 0 5 -5
v-71q0 -34 -20 -55.5t-53 -21.5q-5 0 -5 5v29q0 5 5 5q9 0 18 7t9 23q0 5 -5 5h-22z" />
    <glyph glyph-name="uni0137" unicode="&#x137;" horiz-adv-x="567" 
d="M345 352q-2 -2 0 -6l198 -341q3 -5 -3 -5h-63q-4 0 -7 5l-174 297q-2 2 -3.5 3t-5.5 -2l-137 -118q-5 -5 -5 -10v-170q0 -5 -5 -5h-60q-5 0 -5 5v694q0 5 5 5h60q5 0 5 -5v-423q0 -2 2 -3.5t5 1.5l266 227q5 5 10 5h89q7 0 2 -5zM255 -134q-5 0 -5 5v69q0 5 5 5h68
q5 0 5 -5v-71q0 -34 -20 -55.5t-53 -21.5q-5 0 -5 5v29q0 5 5 5q9 0 18 7t9 23q0 5 -5 5h-22z" />
    <glyph glyph-name="kgreenlandic" unicode="&#x138;" horiz-adv-x="567" 
d="M345 352q-2 -2 0 -6l198 -341q3 -5 -3 -5h-63q-4 0 -7 5l-174 297q-2 2 -3.5 3t-5.5 -2l-137 -118q-5 -5 -5 -10v-170q0 -5 -5 -5h-60q-5 0 -5 5v496q0 5 5 5h60q5 0 5 -5v-225q0 -2 2 -3.5t5 1.5l266 227q5 5 10 5h89q7 0 2 -5z" />
    <glyph glyph-name="Lacute" unicode="&#x139;" horiz-adv-x="540" 
d="M78 0q-5 0 -5 5v694q0 5 5 5h60q5 0 5 -5v-634q0 -5 5 -5h364q5 0 5 -5v-50q0 -5 -5 -5h-434zM82 774q-3 0 -5 2t0 5l49 114q2 7 10 7h67q3 0 5 -2t0 -5l-72 -114l-4.5 -4.5t-6.5 -2.5h-43z" />
    <glyph glyph-name="lacute" unicode="&#x13a;" horiz-adv-x="226" 
d="M138 704q5 0 5 -5v-694q0 -5 -5 -5h-60q-5 0 -5 5v694q0 5 5 5h60zM80 774q-3 0 -5 2t0 5l49 114q2 7 10 7h67q3 0 5 -2t0 -5l-72 -114l-4.5 -4.5t-6.5 -2.5h-43z" />
    <glyph glyph-name="uni013B" unicode="&#x13b;" horiz-adv-x="540" 
d="M78 0q-5 0 -5 5v694q0 5 5 5h60q5 0 5 -5v-634q0 -5 5 -5h364q5 0 5 -5v-50q0 -5 -5 -5h-434zM283 -134q-5 0 -5 5v69q0 5 5 5h68q5 0 5 -5v-71q0 -34 -20 -55.5t-53 -21.5q-5 0 -5 5v29q0 5 5 5q9 0 18 7t9 23q0 5 -5 5h-22z" />
    <glyph glyph-name="uni013C" unicode="&#x13c;" horiz-adv-x="226" 
d="M138 704q5 0 5 -5v-694q0 -5 -5 -5h-60q-5 0 -5 5v694q0 5 5 5h60zM74 -134q-5 0 -5 5v69q0 5 5 5h68q5 0 5 -5v-71q0 -34 -20 -55.5t-53 -21.5q-5 0 -5 5v29q0 5 5 5q9 0 18 7t9 23q0 5 -5 5h-22z" />
    <glyph glyph-name="Lcaron" unicode="&#x13d;" horiz-adv-x="540" 
d="M178 625q-5 0 -5 5v69q0 5 5 5h68q5 0 5 -5v-71q0 -34 -20 -55.5t-53 -21.5q-5 0 -5 5v29q0 5 5 5q9 0 18 7t9 23q0 5 -5 5h-22zM78 0q-5 0 -5 5v694q0 5 5 5h60q5 0 5 -5v-634q0 -5 5 -5h364q5 0 5 -5v-50q0 -5 -5 -5h-434z" />
    <glyph glyph-name="lcaron" unicode="&#x13e;" horiz-adv-x="291" 
d="M178 625q-5 0 -5 5v69q0 5 5 5h68q5 0 5 -5v-71q0 -34 -20 -55.5t-53 -21.5q-5 0 -5 5v29q0 5 5 5q9 0 18 7t9 23q0 5 -5 5h-22zM138 704q5 0 5 -5v-694q0 -5 -5 -5h-60q-5 0 -5 5v694q0 5 5 5h60z" />
    <glyph glyph-name="Ldot" unicode="&#x13f;" horiz-adv-x="540" 
d="M78 0q-5 0 -5 5v694q0 5 5 5h60q5 0 5 -5v-634q0 -5 5 -5h364q5 0 5 -5v-50q0 -5 -5 -5h-434zM190 276q-5 0 -5 5v151q0 5 5 5h149q5 0 5 -5v-151q0 -5 -5 -5h-149z" />
    <glyph glyph-name="ldot" unicode="&#x140;" horiz-adv-x="371" 
d="M138 704q5 0 5 -5v-694q0 -5 -5 -5h-60q-5 0 -5 5v694q0 5 5 5h60zM194 276q-5 0 -5 5v151q0 5 5 5h149q5 0 5 -5v-151q0 -5 -5 -5h-149z" />
    <glyph glyph-name="Lslash" unicode="&#x141;" horiz-adv-x="540" 
d="M73 213q0 8 -7 5l-59 -39q-2 -2 -4.5 -0.5t-2.5 3.5v59q0 3 3 5l66 45q4 2 4 6v402q0 5 5 5h60q5 0 5 -5v-347q0 -3 3 -4.5t5 0.5l58 40q2 2 4.5 0.5t2.5 -3.5v-64q0 -4 -3 -5l-67 -45q-3 -2 -3 -6v-200q0 -5 5 -5h364q5 0 5 -5v-50q0 -5 -5 -5h-434q-5 0 -5 5v208z" />
    <glyph glyph-name="lslash" unicode="&#x142;" horiz-adv-x="226" 
d="M73 213q0 4 -3 5t-5 -1l-58 -38q-2 -2 -4.5 -0.5t-2.5 3.5v59q0 3 3 5l66 46q4 3 4 7v400q0 5 5 5h60q5 0 5 -5v-346q0 -3 3 -4.5t5 0.5l58 40q2 2 4.5 0.5t2.5 -3.5v-66q0 -4 -3 -5l-67 -44q-3 -2 -3 -6v-260q0 -5 -5 -5h-60q-5 0 -5 5v208z" />
    <glyph glyph-name="Nacute" unicode="&#x143;" horiz-adv-x="685" 
d="M597 704q5 0 5 -5v-694q0 -5 -5 -5h-112q-5 0 -7 5l-325 635q-3 6 -6.5 4t-3.5 -5v-634q0 -5 -5 -5h-60q-5 0 -5 5v694q0 5 5 5h115q3 0 5 -5l324 -636q2 -4 6 -3t4 4v635q0 5 5 5h60zM306 774q-3 0 -5 2t0 5l49 114q2 7 10 7h67q3 0 5 -2t0 -5l-72 -114l-4.5 -4.5
t-6.5 -2.5h-43z" />
    <glyph glyph-name="nacute" unicode="&#x144;" horiz-adv-x="588" 
d="M455 272q0 37 -8 70t-26.5 58.5t-48.5 40.5t-73 15q-84 0 -120 -47t-36 -137v-267q0 -5 -5 -5h-60q-5 0 -5 5v496q0 5 5 5h49q5 0 6 -5l10 -55q1 -5 4.5 -5t5.5 3q5 7 18 19t32.5 24t46 20.5t59.5 8.5q57 0 98 -17.5t67.5 -49.5t38.5 -77t12 -100v-267q0 -5 -5 -5h-60
q-5 0 -5 5v267zM246 576q-3 0 -5 2t0 5l49 114q2 7 10 7h67q3 0 5 -2t0 -5l-72 -114l-4.5 -4.5t-6.5 -2.5h-43z" />
    <glyph glyph-name="uni0145" unicode="&#x145;" horiz-adv-x="685" 
d="M597 704q5 0 5 -5v-694q0 -5 -5 -5h-112q-5 0 -7 5l-325 635q-3 6 -6.5 4t-3.5 -5v-634q0 -5 -5 -5h-60q-5 0 -5 5v694q0 5 5 5h115q3 0 5 -5l324 -636q2 -4 6 -3t4 4v635q0 5 5 5h60zM313 -134q-5 0 -5 5v69q0 5 5 5h68q5 0 5 -5v-71q0 -34 -20 -55.5t-53 -21.5
q-5 0 -5 5v29q0 5 5 5q9 0 18 7t9 23q0 5 -5 5h-22z" />
    <glyph glyph-name="uni0146" unicode="&#x146;" horiz-adv-x="588" 
d="M455 272q0 37 -8 70t-26.5 58.5t-48.5 40.5t-73 15q-84 0 -120 -47t-36 -137v-267q0 -5 -5 -5h-60q-5 0 -5 5v496q0 5 5 5h49q5 0 6 -5l10 -55q1 -5 4.5 -5t5.5 3q5 7 18 19t32.5 24t46 20.5t59.5 8.5q57 0 98 -17.5t67.5 -49.5t38.5 -77t12 -100v-267q0 -5 -5 -5h-60
q-5 0 -5 5v267zM263 -134q-5 0 -5 5v69q0 5 5 5h68q5 0 5 -5v-71q0 -34 -20 -55.5t-53 -21.5q-5 0 -5 5v29q0 5 5 5q9 0 18 7t9 23q0 5 -5 5h-22z" />
    <glyph glyph-name="Ncaron" unicode="&#x147;" horiz-adv-x="685" 
d="M597 704q5 0 5 -5v-694q0 -5 -5 -5h-112q-5 0 -7 5l-325 635q-3 6 -6.5 4t-3.5 -5v-634q0 -5 -5 -5h-60q-5 0 -5 5v694q0 5 5 5h115q3 0 5 -5l324 -636q2 -4 6 -3t4 4v635q0 5 5 5h60zM435 902q8 0 5 -7l-51 -117q-1 -4 -5 -4h-80q-4 0 -5 4l-51 117q-2 3 0 5t5 2h47
q3 0 5 -3l34 -62q2 -3 5 -3t5 3l34 62q1 3 5 3h47z" />
    <glyph glyph-name="ncaron" unicode="&#x148;" horiz-adv-x="588" 
d="M455 272q0 37 -8 70t-26.5 58.5t-48.5 40.5t-73 15q-84 0 -120 -47t-36 -137v-267q0 -5 -5 -5h-60q-5 0 -5 5v496q0 5 5 5h49q5 0 6 -5l10 -55q1 -5 4.5 -5t5.5 3q5 7 18 19t32.5 24t46 20.5t59.5 8.5q57 0 98 -17.5t67.5 -49.5t38.5 -77t12 -100v-267q0 -5 -5 -5h-60
q-5 0 -5 5v267zM380 704q8 0 5 -7l-51 -117q-1 -4 -5 -4h-80q-4 0 -5 4l-51 117q-2 3 0 5t5 2h47q3 0 5 -3l34 -62q2 -3 5 -3t5 3l34 62q1 3 5 3h47z" />
    <glyph glyph-name="napostrophe" unicode="&#x149;" horiz-adv-x="588" 
d="M78 625q-5 0 -5 5v69q0 5 5 5h68q5 0 5 -5v-71q0 -34 -20 -55.5t-53 -21.5q-5 0 -5 5v29q0 5 5 5q9 0 18 7t9 23q0 5 -5 5h-22zM455 272q0 37 -8 70t-26.5 58.5t-48.5 40.5t-73 15q-84 0 -120 -47t-36 -137v-267q0 -5 -5 -5h-60q-5 0 -5 5v496q0 5 5 5h49q5 0 6 -5
l10 -55q1 -5 4.5 -5t5.5 3q5 7 18 19t32.5 24t46 20.5t59.5 8.5q57 0 98 -17.5t67.5 -49.5t38.5 -77t12 -100v-267q0 -5 -5 -5h-60q-5 0 -5 5v267z" />
    <glyph glyph-name="Omacron" unicode="&#x14c;" horiz-adv-x="724" 
d="M357 -10q-78 0 -137 26.5t-98.5 74.5t-59.5 114.5t-20 146.5q0 79 20 145.5t59.5 114.5t98.5 75t137 27t137 -27t98.5 -75t59.5 -114.5t20 -145.5q0 -80 -20 -146.5t-59.5 -114.5t-98.5 -74.5t-137 -26.5zM357 50q118 0 179 79.5t61 222.5t-61 222.5t-179 79.5
t-179 -79.5t-61 -222.5t61 -222.5t179 -79.5zM233 774q-4 0 -4 5v40q0 5 4 5h246q5 0 5 -5v-40q0 -5 -5 -5h-246z" />
    <glyph glyph-name="omacron" unicode="&#x14d;" horiz-adv-x="572" 
d="M529 253q0 -59 -17 -107t-48.5 -83t-78 -54t-104.5 -19q-59 0 -105 19t-78 54t-48.5 83t-16.5 107t16.5 107.5t48.5 83t78 53.5t105 19q58 0 104.5 -19t78 -54t48.5 -83.5t17 -106.5zM459 253q0 45 -12 82.5t-35 64t-56 41.5t-75 15t-75 -15t-56 -41.5t-35 -64t-12 -82.5
t12 -82.5t35 -64t56 -41.5t75 -15t75 15t56 41.5t35 64t12 82.5zM157 576q-4 0 -4 5v40q0 5 4 5h246q5 0 5 -5v-40q0 -5 -5 -5h-246z" />
    <glyph glyph-name="Obreve" unicode="&#x14e;" horiz-adv-x="724" 
d="M357 -10q-78 0 -137 26.5t-98.5 74.5t-59.5 114.5t-20 146.5q0 79 20 145.5t59.5 114.5t98.5 75t137 27t137 -27t98.5 -75t59.5 -114.5t20 -145.5q0 -80 -20 -146.5t-59.5 -114.5t-98.5 -74.5t-137 -26.5zM357 50q118 0 179 79.5t61 222.5t-61 222.5t-179 79.5
t-179 -79.5t-61 -222.5t61 -222.5t179 -79.5zM476 902q5 0 5 -5q0 -63 -34.5 -93t-89.5 -30q-54 0 -89 30t-35 93q0 5 5 5h42q5 0 5 -5q0 -11 3 -23.5t11 -23.5t22 -18.5t36 -7.5t36 7.5t21.5 18.5t10.5 23.5t3 23.5q0 5 5 5h43z" />
    <glyph glyph-name="obreve" unicode="&#x14f;" horiz-adv-x="572" 
d="M529 253q0 -59 -17 -107t-48.5 -83t-78 -54t-104.5 -19q-59 0 -105 19t-78 54t-48.5 83t-16.5 107t16.5 107.5t48.5 83t78 53.5t105 19q58 0 104.5 -19t78 -54t48.5 -83.5t17 -106.5zM459 253q0 45 -12 82.5t-35 64t-56 41.5t-75 15t-75 -15t-56 -41.5t-35 -64t-12 -82.5
t12 -82.5t35 -64t56 -41.5t75 -15t75 15t56 41.5t35 64t12 82.5zM400 704q5 0 5 -5q0 -63 -34.5 -93t-89.5 -30q-54 0 -89 30t-35 93q0 5 5 5h42q5 0 5 -5q0 -11 3 -23.5t11 -23.5t22 -18.5t36 -7.5t36 7.5t21.5 18.5t10.5 23.5t3 23.5q0 5 5 5h43z" />
    <glyph glyph-name="Ohungarumlaut" unicode="&#x150;" horiz-adv-x="707" 
d="M357 -10q-78 0 -137 26.5t-98.5 74.5t-59.5 114.5t-20 146.5q0 79 20 145.5t59.5 114.5t98.5 75t137 27t137 -27t98.5 -75t59.5 -114.5t20 -145.5q0 -80 -20 -146.5t-59.5 -114.5t-98.5 -74.5t-137 -26.5zM357 50q118 0 179 79.5t61 222.5t-61 222.5t-179 79.5
t-179 -79.5t-61 -222.5t61 -222.5t179 -79.5zM188 762q-4 0 -4 5l29 132q0 5 6 5h89q4 0 4 -5l-29 -132q0 -5 -6 -5h-89zM408 762q-4 0 -4 5l29 132q0 5 6 5h89q4 0 4 -5l-29 -132q0 -5 -6 -5h-89z" />
    <glyph glyph-name="ohungarumlaut" unicode="&#x151;" horiz-adv-x="572" 
d="M529 253q0 -59 -17 -107t-48.5 -83t-78 -54t-104.5 -19q-59 0 -105 19t-78 54t-48.5 83t-16.5 107t16.5 107.5t48.5 83t78 53.5t105 19q58 0 104.5 -19t78 -54t48.5 -83.5t17 -106.5zM459 253q0 45 -12 82.5t-35 64t-56 41.5t-75 15t-75 -15t-56 -41.5t-35 -64t-12 -82.5
t12 -82.5t35 -64t56 -41.5t75 -15t75 15t56 41.5t35 64t12 82.5zM111 562q-4 0 -4 5l29 132q0 5 6 5h89q4 0 4 -5l-29 -132q0 -5 -6 -5h-89zM331 562q-4 0 -4 5l29 132q0 5 6 5h89q4 0 4 -5l-29 -132q0 -5 -6 -5h-89z" />
    <glyph glyph-name="OE" unicode="&#x152;" horiz-adv-x="1072" 
d="M564 0q-5 0 -5 5v89q-37 -50 -91.5 -77t-129.5 -27t-130 26.5t-92 74.5t-55 114.5t-18 146.5q0 79 18 145.5t55 114.5t92 75t130 27t129.5 -27.5t91.5 -77.5v90q0 5 5 5h450q5 0 5 -5v-50q0 -5 -5 -5h-380q-5 0 -5 -5v-246q0 -5 5 -5h337q5 0 5 -5v-50q0 -5 -5 -5h-337
q-5 0 -5 -5v-258q0 -5 5 -5h380q5 0 5 -5v-50q0 -5 -5 -5h-450zM338 50q103 0 161.5 79.5t58.5 222.5t-58.5 222.5t-161.5 79.5t-161.5 -79.5t-58.5 -222.5t58.5 -222.5t161.5 -79.5z" />
    <glyph glyph-name="oe" unicode="&#x153;" horiz-adv-x="998" 
d="M543 227q-5 0 -5 -5q0 -33 11.5 -64t33 -55t52.5 -38.5t70 -14.5q30 0 54 7t42 18t30 25t19 28q2 5 8 5h64q7 0 6 -5q-23 -69 -82.5 -103.5t-140.5 -34.5q-69 0 -121 29t-83 81q-31 -52 -84 -81t-126 -29q-59 0 -105 19t-78 54t-48.5 83t-16.5 107t16.5 107.5t48.5 83
t78 53.5t105 19q72 0 125 -29t84 -80q31 51 83 80.5t122 29.5q56 0 100.5 -19.5t75.5 -54t47.5 -83.5t16.5 -107q0 -5 -0.5 -12t-1.5 -9q-2 -5 -6 -5h-394zM469 253q0 45 -12 82.5t-35 64t-56 41.5t-75 15t-75 -15t-56 -41.5t-35 -64t-12 -82.5t12 -82.5t35 -64t56 -41.5
t75 -15t75 15t56 41.5t35 64t12 82.5zM869 292q0 27 -9 56t-29 53.5t-51 40t-75 15.5q-43 0 -74.5 -17.5t-52 -42.5t-30.5 -54t-10 -51q0 -5 5 -5h321q5 0 5 5z" />
    <glyph glyph-name="Racute" unicode="&#x154;" horiz-adv-x="630" 
d="M78 0q-5 0 -5 5v694q0 5 5 5h294q43 0 79.5 -15.5t62.5 -43.5t40.5 -65.5t14.5 -81.5q0 -35 -9 -65.5t-25 -56t-38.5 -43.5t-49.5 -27q-6 -2 -3 -8q32 -75 65.5 -146.5t66.5 -146.5q2 -5 -4 -5h-59q-5 0 -7 5l-127 282q-3 5 -7 5h-224q-5 0 -5 -5v-282q0 -5 -5 -5h-60z
M148 644q-5 0 -5 -5v-282q0 -5 5 -5h214q31 0 56.5 12.5t43.5 33.5t27.5 47t9.5 53t-9.5 53t-27.5 47t-43.5 33.5t-56.5 12.5h-214zM249 774q-3 0 -5 2t0 5l49 114q2 7 10 7h67q3 0 5 -2t0 -5l-72 -114l-4.5 -4.5t-6.5 -2.5h-43z" />
    <glyph glyph-name="racute" unicode="&#x155;" horiz-adv-x="369" 
d="M73 501q0 5 5 5h50q3 0 5 -5l10 -55q1 -5 4.5 -5t5.5 3q5 6 15.5 18t27.5 24t42.5 21t60.5 9h42q5 0 5 -5v-60q0 -5 -5 -5h-42q-84 0 -120 -43t-36 -131v-267q0 -5 -5 -5h-60q-5 0 -5 5v496zM126 576q-3 0 -5 2t0 5l49 114q2 7 10 7h67q3 0 5 -2t0 -5l-72 -114l-4.5 -4.5
t-6.5 -2.5h-43z" />
    <glyph glyph-name="uni0156" unicode="&#x156;" horiz-adv-x="630" 
d="M78 0q-5 0 -5 5v694q0 5 5 5h294q43 0 79.5 -15.5t62.5 -43.5t40.5 -65.5t14.5 -81.5q0 -35 -9 -65.5t-25 -56t-38.5 -43.5t-49.5 -27q-6 -2 -3 -8q32 -75 65.5 -146.5t66.5 -146.5q2 -5 -4 -5h-59q-5 0 -7 5l-127 282q-3 5 -7 5h-224q-5 0 -5 -5v-282q0 -5 -5 -5h-60z
M148 644q-5 0 -5 -5v-282q0 -5 5 -5h214q31 0 56.5 12.5t43.5 33.5t27.5 47t9.5 53t-9.5 53t-27.5 47t-43.5 33.5t-56.5 12.5h-214zM313 -134q-5 0 -5 5v69q0 5 5 5h68q5 0 5 -5v-71q0 -34 -20 -55.5t-53 -21.5q-5 0 -5 5v29q0 5 5 5q9 0 18 7t9 23q0 5 -5 5h-22z" />
    <glyph glyph-name="uni0157" unicode="&#x157;" horiz-adv-x="369" 
d="M73 501q0 5 5 5h50q3 0 5 -5l10 -55q1 -5 4.5 -5t5.5 3q5 6 15.5 18t27.5 24t42.5 21t60.5 9h42q5 0 5 -5v-60q0 -5 -5 -5h-42q-84 0 -120 -43t-36 -131v-267q0 -5 -5 -5h-60q-5 0 -5 5v496zM74 -134q-5 0 -5 5v69q0 5 5 5h68q5 0 5 -5v-71q0 -34 -20 -55.5t-53 -21.5
q-5 0 -5 5v29q0 5 5 5q9 0 18 7t9 23q0 5 -5 5h-22z" />
    <glyph glyph-name="Rcaron" unicode="&#x158;" horiz-adv-x="650" 
d="M78 0q-5 0 -5 5v694q0 5 5 5h294q43 0 79.5 -15.5t62.5 -43.5t40.5 -65.5t14.5 -81.5q0 -35 -9 -65.5t-25 -56t-38.5 -43.5t-49.5 -27q-6 -2 -3 -8q32 -75 65.5 -146.5t66.5 -146.5q2 -5 -4 -5h-59q-5 0 -7 5l-127 282q-3 5 -7 5h-224q-5 0 -5 -5v-282q0 -5 -5 -5h-60z
M148 644q-5 0 -5 -5v-282q0 -5 5 -5h214q31 0 56.5 12.5t43.5 33.5t27.5 47t9.5 53t-9.5 53t-27.5 47t-43.5 33.5t-56.5 12.5h-214zM395 902q8 0 5 -7l-51 -117q-1 -4 -5 -4h-80q-4 0 -5 4l-51 117q-2 3 0 5t5 2h47q3 0 5 -3l34 -62q2 -3 5 -3t5 3l34 62q1 3 5 3h47z" />
    <glyph glyph-name="rcaron" unicode="&#x159;" horiz-adv-x="369" 
d="M73 501q0 5 5 5h50q3 0 5 -5l10 -55q1 -5 4.5 -5t5.5 3q5 6 15.5 18t27.5 24t42.5 21t60.5 9h42q5 0 5 -5v-60q0 -5 -5 -5h-42q-84 0 -120 -43t-36 -131v-267q0 -5 -5 -5h-60q-5 0 -5 5v496zM290 704q8 0 5 -7l-51 -117q-1 -4 -5 -4h-80q-4 0 -5 4l-51 117q-2 3 0 5t5 2
h47q3 0 5 -3l34 -62q2 -3 5 -3t5 3l34 62q1 3 5 3h47z" />
    <glyph glyph-name="Sacute" unicode="&#x15a;" horiz-adv-x="600" 
d="M103 193q0 -26 13 -52t38 -46t60.5 -32.5t80.5 -12.5q37 0 71.5 9.5t61.5 27.5t43 44.5t16 61.5q0 42 -17 68t-44 41t-61.5 21t-69.5 9q-44 4 -89 13t-81 29.5t-59 55.5t-23 90q0 46 21 82.5t55 61t77.5 37.5t88.5 13t89.5 -12t79 -37t56 -63.5t21.5 -90.5q0 -5 -5 -5
h-60q-5 0 -5 5q0 35 -14 62t-38 45t-56 27t-68 9q-34 0 -65 -9.5t-55 -27t-38 -42.5t-14 -55q0 -22 7 -43t26.5 -38t55.5 -29.5t93 -17.5q45 -4 92 -12t84.5 -29t61.5 -58t24 -100q0 -45 -19.5 -82.5t-54.5 -64.5t-83 -41.5t-105 -14.5q-60 0 -108.5 16t-82.5 44t-52.5 64.5
t-18.5 78.5q0 5 5 5h60q5 0 5 -5zM234 774q-3 0 -5 2t0 5l49 114q2 7 10 7h67q3 0 5 -2t0 -5l-72 -114l-4.5 -4.5t-6.5 -2.5h-43z" />
    <glyph glyph-name="sacute" unicode="&#x15b;" horiz-adv-x="520" 
d="M103 171q0 -17 6.5 -38t23.5 -39.5t46.5 -31t74.5 -12.5q18 0 44 2.5t50 12.5t41.5 29t17.5 51q0 27 -14 42.5t-36 24.5t-49.5 13t-53.5 7q-33 3 -70 9t-68 20t-51.5 41t-20.5 72q0 30 15.5 56t42.5 45t63.5 30t78.5 11q46 0 86 -11t70 -33t47 -56.5t17 -80.5q0 -5 -5 -5
h-60q-5 0 -5 5q0 62 -40.5 91.5t-109.5 29.5q-61 0 -95.5 -24.5t-34.5 -57.5q0 -22 9.5 -36.5t27.5 -23.5t44 -14t59 -8q46 -4 86.5 -10.5t71 -21.5t48 -42t17.5 -73q0 -81 -60.5 -118t-162.5 -37q-57 0 -98.5 15t-68.5 39.5t-40.5 57.5t-13.5 69q0 5 5 5h60q5 0 5 -5z
M202 576q-3 0 -5 2t0 5l49 114q2 7 10 7h67q3 0 5 -2t0 -5l-72 -114l-4.5 -4.5t-6.5 -2.5h-43z" />
    <glyph glyph-name="Scircumflex" unicode="&#x15c;" horiz-adv-x="600" 
d="M103 193q0 -26 13 -52t38 -46t60.5 -32.5t80.5 -12.5q37 0 71.5 9.5t61.5 27.5t43 44.5t16 61.5q0 42 -17 68t-44 41t-61.5 21t-69.5 9q-44 4 -89 13t-81 29.5t-59 55.5t-23 90q0 46 21 82.5t55 61t77.5 37.5t88.5 13t89.5 -12t79 -37t56 -63.5t21.5 -90.5q0 -5 -5 -5
h-60q-5 0 -5 5q0 35 -14 62t-38 45t-56 27t-68 9q-34 0 -65 -9.5t-55 -27t-38 -42.5t-14 -55q0 -22 7 -43t26.5 -38t55.5 -29.5t93 -17.5q45 -4 92 -12t84.5 -29t61.5 -58t24 -100q0 -45 -19.5 -82.5t-54.5 -64.5t-83 -41.5t-105 -14.5q-60 0 -108.5 16t-82.5 44t-52.5 64.5
t-18.5 78.5q0 5 5 5h60q5 0 5 -5zM339 774q-4 0 -5 3l-34 62q-2 3 -5 3t-5 -3l-34 -62q-2 -3 -5 -3h-47q-3 0 -5 2t0 5l51 117q1 4 5 4h80q4 0 5 -4l51 -117q3 -7 -5 -7h-47z" />
    <glyph glyph-name="scircumflex" unicode="&#x15d;" horiz-adv-x="520" 
d="M103 171q0 -17 6.5 -38t23.5 -39.5t46.5 -31t74.5 -12.5q18 0 44 2.5t50 12.5t41.5 29t17.5 51q0 27 -14 42.5t-36 24.5t-49.5 13t-53.5 7q-33 3 -70 9t-68 20t-51.5 41t-20.5 72q0 30 15.5 56t42.5 45t63.5 30t78.5 11q46 0 86 -11t70 -33t47 -56.5t17 -80.5q0 -5 -5 -5
h-60q-5 0 -5 5q0 62 -40.5 91.5t-109.5 29.5q-61 0 -95.5 -24.5t-34.5 -57.5q0 -22 9.5 -36.5t27.5 -23.5t44 -14t59 -8q46 -4 86.5 -10.5t71 -21.5t48 -42t17.5 -73q0 -81 -60.5 -118t-162.5 -37q-57 0 -98.5 15t-68.5 39.5t-40.5 57.5t-13.5 69q0 5 5 5h60q5 0 5 -5z
M299 576q-4 0 -5 3l-34 62q-2 3 -5 3t-5 -3l-34 -62q-2 -3 -5 -3h-47q-3 0 -5 2t0 5l51 117q1 4 5 4h80q4 0 5 -4l51 -117q3 -7 -5 -7h-47z" />
    <glyph glyph-name="Scedilla" unicode="&#x15e;" horiz-adv-x="600" 
d="M103 193q0 -26 13 -52t38 -46t60.5 -32.5t80.5 -12.5q37 0 71.5 9.5t61.5 27.5t43 44.5t16 61.5q0 42 -17 68t-44 41t-61.5 21t-69.5 9q-44 4 -89 13t-81 29.5t-59 55.5t-23 90q0 46 21 82.5t55 61t77.5 37.5t88.5 13t89.5 -12t79 -37t56 -63.5t21.5 -90.5q0 -5 -5 -5
h-60q-5 0 -5 5q0 35 -14 62t-38 45t-56 27t-68 9q-34 0 -65 -9.5t-55 -27t-38 -42.5t-14 -55q0 -22 7 -43t26.5 -38t55.5 -29.5t93 -17.5q45 -4 92 -12t84.5 -29t61.5 -58t24 -100q0 -39 -14.5 -72t-41 -58.5t-63 -43t-80.5 -24.5l-57 -40q-2 -2 -1.5 -5t4.5 -3q13 0 27 -4
t25.5 -13t19 -23t7.5 -34q0 -31 -25.5 -56t-74.5 -25q-45 0 -67 25.5t-22 55.5q0 5 5 5h33q5 0 5 -5q0 -16 13 -29.5t33 -13.5q24 0 37 13.5t13 29.5q0 14 -5.5 23.5t-14 15t-18 8t-17.5 2.5q-13 0 -16 3l-8 8q-4 4 -3.5 7t2.5 5l45 36q3 2 2 5.5t-5 3.5h-3
q-60 0 -107.5 16.5t-81.5 44t-52 64t-18 78.5q0 5 5 5h60q5 0 5 -5z" />
    <glyph glyph-name="scedilla" unicode="&#x15f;" horiz-adv-x="520" 
d="M103 171q0 -17 6.5 -38t23.5 -39.5t46.5 -31t74.5 -12.5q18 0 44 2.5t50 12.5t41.5 29t17.5 51q0 27 -14 42.5t-36 24.5t-49.5 13t-53.5 7q-33 3 -70 9t-68 20t-51.5 41t-20.5 72q0 30 15.5 56t42.5 45t63.5 30t78.5 11q46 0 86 -11t70 -33t47 -56.5t17 -80.5q0 -5 -5 -5
h-60q-5 0 -5 5q0 62 -40.5 91.5t-109.5 29.5q-61 0 -95.5 -24.5t-34.5 -57.5q0 -22 9.5 -36.5t27.5 -23.5t44 -14t59 -8q46 -4 86.5 -10.5t71 -21.5t48 -42t17.5 -73q0 -69 -43.5 -105.5t-119.5 -45.5l-54 -39q-2 -2 -1.5 -5t4.5 -3q13 0 27 -4t25.5 -13t19 -23t7.5 -34
q0 -31 -25.5 -56t-74.5 -25q-45 0 -67 25.5t-22 55.5q0 5 5 5h33q5 0 5 -5q0 -16 13 -29.5t33 -13.5q24 0 37 13.5t13 29.5q0 14 -5.5 23.5t-14 15t-18 8t-17.5 2.5q-13 0 -16 3l-8 8q-4 4 -3.5 7t2.5 5l45 36q2 2 1.5 5.5t-5.5 3.5q-57 0 -98.5 15t-68.5 39.5t-40 57.5
t-13 69q0 5 5 5h60q5 0 5 -5z" />
    <glyph glyph-name="Scaron" unicode="&#x160;" horiz-adv-x="600" 
d="M103 193q0 -26 13 -52t38 -46t60.5 -32.5t80.5 -12.5q37 0 71.5 9.5t61.5 27.5t43 44.5t16 61.5q0 42 -17 68t-44 41t-61.5 21t-69.5 9q-44 4 -89 13t-81 29.5t-59 55.5t-23 90q0 46 21 82.5t55 61t77.5 37.5t88.5 13t89.5 -12t79 -37t56 -63.5t21.5 -90.5q0 -5 -5 -5
h-60q-5 0 -5 5q0 35 -14 62t-38 45t-56 27t-68 9q-34 0 -65 -9.5t-55 -27t-38 -42.5t-14 -55q0 -22 7 -43t26.5 -38t55.5 -29.5t93 -17.5q45 -4 92 -12t84.5 -29t61.5 -58t24 -100q0 -45 -19.5 -82.5t-54.5 -64.5t-83 -41.5t-105 -14.5q-60 0 -108.5 16t-82.5 44t-52.5 64.5
t-18.5 78.5q0 5 5 5h60q5 0 5 -5zM380 902q8 0 5 -7l-51 -117q-1 -4 -5 -4h-80q-4 0 -5 4l-51 117q-2 3 0 5t5 2h47q3 0 5 -3l34 -62q2 -3 5 -3t5 3l34 62q1 3 5 3h47z" />
    <glyph glyph-name="scaron" unicode="&#x161;" horiz-adv-x="520" 
d="M103 171q0 -17 6.5 -38t23.5 -39.5t46.5 -31t74.5 -12.5q18 0 44 2.5t50 12.5t41.5 29t17.5 51q0 27 -14 42.5t-36 24.5t-49.5 13t-53.5 7q-33 3 -70 9t-68 20t-51.5 41t-20.5 72q0 30 15.5 56t42.5 45t63.5 30t78.5 11q46 0 86 -11t70 -33t47 -56.5t17 -80.5q0 -5 -5 -5
h-60q-5 0 -5 5q0 62 -40.5 91.5t-109.5 29.5q-61 0 -95.5 -24.5t-34.5 -57.5q0 -22 9.5 -36.5t27.5 -23.5t44 -14t59 -8q46 -4 86.5 -10.5t71 -21.5t48 -42t17.5 -73q0 -81 -60.5 -118t-162.5 -37q-57 0 -98.5 15t-68.5 39.5t-40.5 57.5t-13.5 69q0 5 5 5h60q5 0 5 -5z
M327 704q8 0 5 -7l-51 -117q-1 -4 -5 -4h-80q-4 0 -5 4l-51 117q-2 3 0 5t5 2h47q3 0 5 -3l34 -62q2 -3 5 -3t5 3l34 62q1 3 5 3h47z" />
    <glyph glyph-name="uni0162" unicode="&#x162;" horiz-adv-x="537" 
d="M235 -134q-5 0 -5 5v69q0 5 5 5h68q5 0 5 -5v-71q0 -34 -20 -55.5t-53 -21.5q-5 0 -5 5v29q0 5 5 5q9 0 18 7t9 23q0 5 -5 5h-22zM234 642q0 5 -5 5h-201q-5 0 -5 5v47q0 5 5 5h482q5 0 5 -5v-47q0 -5 -5 -5h-201q-5 0 -5 -5v-637q0 -5 -5 -5h-60q-5 0 -5 5v637z" />
    <glyph glyph-name="uni0163" unicode="&#x163;" horiz-adv-x="350" 
d="M129 -134q-5 0 -5 5v69q0 5 5 5h68q5 0 5 -5v-71q0 -34 -20 -55.5t-53 -21.5q-5 0 -5 5v29q0 5 5 5q9 0 18 7t9 23q0 5 -5 5h-22zM28 446q-5 0 -5 5v50q0 5 5 5h95q5 0 5 5v128q0 5 5 5h60q5 0 5 -5v-128q0 -5 5 -5h115q5 0 5 -5v-50q0 -5 -5 -5h-115q-5 0 -5 -5v-314
q0 -39 17 -53t49 -14h54q5 0 5 -5v-50q0 -5 -5 -5h-55q-75 0 -105 30.5t-30 96.5v314q0 5 -5 5h-95z" />
    <glyph glyph-name="Tcaron" unicode="&#x164;" horiz-adv-x="537" 
d="M234 642q0 5 -5 5h-201q-5 0 -5 5v47q0 5 5 5h482q5 0 5 -5v-47q0 -5 -5 -5h-201q-5 0 -5 -5v-637q0 -5 -5 -5h-60q-5 0 -5 5v637zM359 902q8 0 5 -7l-51 -117q-1 -4 -5 -4h-80q-4 0 -5 4l-51 117q-2 3 0 5t5 2h47q3 0 5 -3l34 -62q2 -3 5 -3t5 3l34 62q1 3 5 3h47z" />
    <glyph glyph-name="tcaron" unicode="&#x165;" horiz-adv-x="350" 
d="M249 625q-5 0 -5 5v69q0 5 5 5h68q5 0 5 -5v-71q0 -34 -20 -55.5t-53 -21.5q-5 0 -5 5v29q0 5 5 5q9 0 18 7t9 23q0 5 -5 5h-22zM28 446q-5 0 -5 5v50q0 5 5 5h95q5 0 5 5v128q0 5 5 5h60q5 0 5 -5v-128q0 -5 5 -5h115q5 0 5 -5v-50q0 -5 -5 -5h-115q-5 0 -5 -5v-314
q0 -39 17 -53t49 -14h54q5 0 5 -5v-50q0 -5 -5 -5h-55q-75 0 -105 30.5t-30 96.5v314q0 5 -5 5h-95z" />
    <glyph glyph-name="Tbar" unicode="&#x166;" horiz-adv-x="537" 
d="M234 643q-2 4 -5 4h-201q-5 0 -5 5v47q0 5 5 5h482q5 0 5 -5v-47q0 -5 -5 -5h-201q-5 0 -5 -5v-131q0 -5 5 -5h173q5 0 5 -5v-41q0 -5 -5 -5h-173q-5 0 -5 -5v-445q0 -5 -5 -5h-60q-5 0 -5 5v445q0 5 -5 5h-164q-5 0 -5 5v41q0 5 5 5h164q5 0 5 5v132z" />
    <glyph glyph-name="tbar" unicode="&#x167;" horiz-adv-x="350" 
d="M28 446q-5 0 -5 5v50q0 5 5 5h95q5 0 5 5v128q0 5 5 5h60q5 0 5 -5v-128q0 -5 5 -5h115q5 0 5 -5v-50q0 -5 -5 -5h-115q-5 0 -5 -5v-314q0 -39 17 -53t49 -14h54q5 0 5 -5v-50q0 -5 -5 -5h-55q-75 0 -105 30.5t-30 96.5v314q0 5 -5 5h-95zM46 273q-4 0 -4 5v40q0 5 4 5
h246q5 0 5 -5v-40q0 -5 -5 -5h-246z" />
    <glyph glyph-name="Utilde" unicode="&#x168;" horiz-adv-x="616" 
d="M550 704q5 0 5 -5v-465q0 -51 -19 -95.5t-52 -77.5t-77.5 -52t-95.5 -19t-96 19t-78.5 52t-53 77.5t-19.5 95.5v465q0 5 5 5h60q5 0 5 -5v-465q0 -36 14 -69.5t38 -59t56 -40.5t69 -15q36 0 68 15t55.5 40.5t37 59t13.5 69.5v465q0 5 5 5h60zM152 792q0 13 5 28t16 28
t28 21.5t41 8.5q22 0 38 -7t29.5 -16t26.5 -16t28 -7q3 0 8.5 2t11 6.5t9 12.5t3.5 20q0 5 5 5h48q5 0 5 -5v-14q0 -13 -5 -28t-16 -27.5t-28 -21t-41 -8.5q-20 0 -37 7t-31.5 16t-28 16t-25.5 7q-3 0 -8.5 -2t-11 -6.5t-9 -12.5t-3.5 -20q0 -5 -5 -5h-48q-5 0 -5 5v13z" />
    <glyph glyph-name="utilde" unicode="&#x169;" horiz-adv-x="578" 
d="M123 234q0 -37 8 -70t26.5 -58.5t48 -40.5t73.5 -15q84 0 120 47t36 137v267q0 5 5 5h60q5 0 5 -5v-496q0 -5 -5 -5h-49q-5 0 -6 5l-10 55q-1 5 -4.5 5t-5.5 -3q-5 -7 -18 -19t-32.5 -24t-46 -20.5t-59.5 -8.5q-57 0 -98 17.5t-67.5 49.5t-38.5 76.5t-12 100.5v267
q0 5 5 5h60q5 0 5 -5v-267zM133 618q0 13 5 28t16 28t28 21.5t41 8.5q22 0 38 -7t29.5 -16t26.5 -16t28 -7q3 0 8.5 2t11 6.5t9 12.5t3.5 20q0 5 5 5h48q5 0 5 -5v-14q0 -13 -5 -28t-16 -27.5t-28 -21t-41 -8.5q-20 0 -37 7t-31.5 16t-28 16t-25.5 7q-3 0 -8.5 -2t-11 -6.5
t-9 -12.5t-3.5 -20q0 -5 -5 -5h-48q-5 0 -5 5v13z" />
    <glyph glyph-name="Umacron" unicode="&#x16a;" horiz-adv-x="616" 
d="M550 704q5 0 5 -5v-465q0 -51 -19 -95.5t-52 -77.5t-77.5 -52t-95.5 -19t-96 19t-78.5 52t-53 77.5t-19.5 95.5v465q0 5 5 5h60q5 0 5 -5v-465q0 -36 14 -69.5t38 -59t56 -40.5t69 -15q36 0 68 15t55.5 40.5t37 59t13.5 69.5v465q0 5 5 5h60zM179 774q-4 0 -4 5v40
q0 5 4 5h246q5 0 5 -5v-40q0 -5 -5 -5h-246z" />
    <glyph glyph-name="umacron" unicode="&#x16b;" horiz-adv-x="578" 
d="M123 234q0 -37 8 -70t26.5 -58.5t48 -40.5t73.5 -15q84 0 120 47t36 137v267q0 5 5 5h60q5 0 5 -5v-496q0 -5 -5 -5h-49q-5 0 -6 5l-10 55q-1 5 -4.5 5t-5.5 -3q-5 -7 -18 -19t-32.5 -24t-46 -20.5t-59.5 -8.5q-57 0 -98 17.5t-67.5 49.5t-38.5 76.5t-12 100.5v267
q0 5 5 5h60q5 0 5 -5v-267zM160 576q-4 0 -4 5v40q0 5 4 5h246q5 0 5 -5v-40q0 -5 -5 -5h-246z" />
    <glyph glyph-name="Ubreve" unicode="&#x16c;" horiz-adv-x="616" 
d="M550 704q5 0 5 -5v-465q0 -51 -19 -95.5t-52 -77.5t-77.5 -52t-95.5 -19t-96 19t-78.5 52t-53 77.5t-19.5 95.5v465q0 5 5 5h60q5 0 5 -5v-465q0 -36 14 -69.5t38 -59t56 -40.5t69 -15q36 0 68 15t55.5 40.5t37 59t13.5 69.5v465q0 5 5 5h60zM422 902q5 0 5 -5
q0 -63 -34.5 -93t-89.5 -30q-54 0 -89 30t-35 93q0 5 5 5h42q5 0 5 -5q0 -11 3 -23.5t11 -23.5t22 -18.5t36 -7.5t36 7.5t21.5 18.5t10.5 23.5t3 23.5q0 5 5 5h43z" />
    <glyph glyph-name="ubreve" unicode="&#x16d;" horiz-adv-x="578" 
d="M123 234q0 -37 8 -70t26.5 -58.5t48 -40.5t73.5 -15q84 0 120 47t36 137v267q0 5 5 5h60q5 0 5 -5v-496q0 -5 -5 -5h-49q-5 0 -6 5l-10 55q-1 5 -4.5 5t-5.5 -3q-5 -7 -18 -19t-32.5 -24t-46 -20.5t-59.5 -8.5q-57 0 -98 17.5t-67.5 49.5t-38.5 76.5t-12 100.5v267
q0 5 5 5h60q5 0 5 -5v-267zM403 704q5 0 5 -5q0 -63 -34.5 -93t-89.5 -30q-54 0 -89 30t-35 93q0 5 5 5h42q5 0 5 -5q0 -11 3 -23.5t11 -23.5t22 -18.5t36 -7.5t36 7.5t21.5 18.5t10.5 23.5t3 23.5q0 5 5 5h43z" />
    <glyph glyph-name="Uring" unicode="&#x16e;" horiz-adv-x="616" 
d="M550 704q5 0 5 -5v-465q0 -51 -19 -95.5t-52 -77.5t-77.5 -52t-95.5 -19t-96 19t-78.5 52t-53 77.5t-19.5 95.5v465q0 5 5 5h60q5 0 5 -5v-465q0 -36 14 -69.5t38 -59t56 -40.5t69 -15q36 0 68 15t55.5 40.5t37 59t13.5 69.5v465q0 5 5 5h60zM400 823q0 -36 -26 -61.5
t-62 -25.5t-61.5 25.5t-25.5 61.5t25.5 62t61.5 26q18 0 34 -7t28 -19t19 -28t7 -34zM361 823q0 20 -14.5 34.5t-34.5 14.5q-21 0 -35.5 -14.5t-14.5 -34.5q0 -21 14.5 -35.5t35.5 -14.5q20 0 34.5 14.5t14.5 35.5z" />
    <glyph glyph-name="uring" unicode="&#x16f;" horiz-adv-x="578" 
d="M123 234q0 -37 8 -70t26.5 -58.5t48 -40.5t73.5 -15q84 0 120 47t36 137v267q0 5 5 5h60q5 0 5 -5v-496q0 -5 -5 -5h-49q-5 0 -6 5l-10 55q-1 5 -4.5 5t-5.5 -3q-5 -7 -18 -19t-32.5 -24t-46 -20.5t-59.5 -8.5q-57 0 -98 17.5t-67.5 49.5t-38.5 76.5t-12 100.5v267
q0 5 5 5h60q5 0 5 -5v-267zM371 625q0 -36 -26 -61.5t-62 -25.5t-61.5 25.5t-25.5 61.5t25.5 62t61.5 26q18 0 34 -7t28 -19t19 -28t7 -34zM332 625q0 20 -14.5 34.5t-34.5 14.5q-21 0 -35.5 -14.5t-14.5 -34.5q0 -21 14.5 -35.5t35.5 -14.5q20 0 34.5 14.5t14.5 35.5z" />
    <glyph glyph-name="Uhungarumlaut" unicode="&#x170;" horiz-adv-x="616" 
d="M550 704q5 0 5 -5v-465q0 -51 -19 -95.5t-52 -77.5t-77.5 -52t-95.5 -19t-96 19t-78.5 52t-53 77.5t-19.5 95.5v465q0 5 5 5h60q5 0 5 -5v-465q0 -36 14 -69.5t38 -59t56 -40.5t69 -15q36 0 68 15t55.5 40.5t37 59t13.5 69.5v465q0 5 5 5h60zM143 760q-4 0 -4 5l29 132
q0 5 6 5h89q4 0 4 -5l-29 -132q0 -5 -6 -5h-89zM363 760q-4 0 -4 5l29 132q0 5 6 5h89q4 0 4 -5l-29 -132q0 -5 -6 -5h-89z" />
    <glyph glyph-name="uhungarumlaut" unicode="&#x171;" horiz-adv-x="578" 
d="M123 234q0 -37 8 -70t26.5 -58.5t48 -40.5t73.5 -15q84 0 120 47t36 137v267q0 5 5 5h60q5 0 5 -5v-496q0 -5 -5 -5h-49q-5 0 -6 5l-10 55q-1 5 -4.5 5t-5.5 -3q-5 -7 -18 -19t-32.5 -24t-46 -20.5t-59.5 -8.5q-57 0 -98 17.5t-67.5 49.5t-38.5 76.5t-12 100.5v267
q0 5 5 5h60q5 0 5 -5v-267zM114 562q-4 0 -4 5l29 132q0 5 6 5h89q4 0 4 -5l-29 -132q0 -5 -6 -5h-89zM334 562q-4 0 -4 5l29 132q0 5 6 5h89q4 0 4 -5l-29 -132q0 -5 -6 -5h-89z" />
    <glyph glyph-name="Uogonek" unicode="&#x172;" horiz-adv-x="616" 
d="M550 704q5 0 5 -5v-465q0 -72 -35.5 -127.5t-91.5 -88.5q-24 -14 -43.5 -33.5t-19.5 -46.5q0 -38 21.5 -57t53.5 -19h11q5 0 5 -5v-50q0 -5 -5 -5h-21q-33 0 -57 8.5t-40 23t-24 32.5t-9 37q-1 28 8 47t22 32q3 3 1.5 6.5t-5.5 2.5q-5 -1 -8 -1h-7q-51 0 -96 19t-78.5 52
t-53 77.5t-19.5 95.5v465q0 5 5 5h60q5 0 5 -5v-465q0 -36 14 -69.5t38 -59t56 -40.5t69 -15q36 0 68 15t55.5 40.5t37 59t13.5 69.5v465q0 5 5 5h60z" />
    <glyph glyph-name="uogonek" unicode="&#x173;" horiz-adv-x="578" 
d="M123 234q0 -37 8 -70t26.5 -58.5t48 -40.5t73.5 -15q84 0 120 47t36 137v267q0 5 5 5h60q5 0 5 -5v-496q0 -5 -5 -5h-17q-29 -2 -49 -22t-20 -49q0 -32 21.5 -49.5t53.5 -17.5h11q5 0 5 -5v-50q0 -5 -5 -5h-21q-59 0 -93.5 27.5t-36.5 71.5q-1 40 23 67t67 38q5 2 4 8
l-8 46q-1 5 -4.5 5t-5.5 -3q-5 -7 -18 -19t-32.5 -24t-46 -20.5t-59.5 -8.5q-57 0 -98 17.5t-67.5 49.5t-38.5 76.5t-12 100.5v267q0 5 5 5h60q5 0 5 -5v-267z" />
    <glyph glyph-name="Wcircumflex" unicode="&#x174;" horiz-adv-x="862" 
d="M618 65q1 -5 5 -5t5 5l116 634q2 5 7 5h63q6 0 4 -5l-137 -694q-2 -5 -6 -5h-105q-4 0 -6 5l-133 635q-1 5 -5 5t-5 -5l-133 -635q-2 -5 -6 -5h-105q-4 0 -6 5l-137 694q-2 5 4 5h63q5 0 7 -5l116 -634q1 -5 5 -5t5 5l126 634q2 5 7 5h117q5 0 7 -5zM470 774q-4 0 -5 3
l-34 62q-2 3 -5 3t-5 -3l-34 -62q-2 -3 -5 -3h-47q-3 0 -5 2t0 5l51 117q1 4 5 4h80q4 0 5 -4l51 -117q3 -7 -5 -7h-47z" />
    <glyph glyph-name="wcircumflex" unicode="&#x175;" horiz-adv-x="746" 
d="M527 65q1 -5 5 -5t5 5l96 436q2 5 7 5h58q6 0 4 -5l-118 -496q-2 -5 -6 -5h-91q-4 0 -6 5l-108 436q-1 5 -5 5t-5 -5l-108 -436q-2 -5 -6 -5h-91q-4 0 -6 5l-118 496q-2 5 4 5h58q5 0 7 -5l96 -436q1 -5 5 -5t5 5l100 436q2 5 7 5h104q5 0 7 -5zM412 576q-4 0 -5 3
l-34 62q-2 3 -5 3t-5 -3l-34 -62q-2 -3 -5 -3h-47q-3 0 -5 2t0 5l51 117q1 4 5 4h80q4 0 5 -4l51 -117q3 -7 -5 -7h-47z" />
    <glyph glyph-name="Ycircumflex" unicode="&#x176;" horiz-adv-x="654" 
d="M135 704q6 0 9 -5l189 -309q4 -6 8 0l191 309q3 5 8 5h69q4 0 2 -5l-234 -377q-3 -5 -3.5 -8t-0.5 -8v-301q0 -5 -5 -5h-60q-5 0 -5 5v301q0 4 -0.5 7.5t-3.5 8.5l-234 377q-5 5 2 5h68zM366 774q-4 0 -5 3l-34 62q-2 3 -5 3t-5 -3l-34 -62q-2 -3 -5 -3h-47q-3 0 -5 2
t0 5l51 117q1 4 5 4h80q4 0 5 -4l51 -117q3 -7 -5 -7h-47z" />
    <glyph glyph-name="ycircumflex" unicode="&#x177;" horiz-adv-x="532" 
d="M416 501q2 5 7 5h63q6 0 4 -5l-168 -497l-25 -75q-10 -31 -20 -55t-24.5 -40t-36 -24t-54.5 -8h-103q-5 0 -5 5v50q0 5 5 5h102q16 0 26.5 4.5t17.5 13t12 21t10 28.5q4 12 4.5 27t-9.5 44l-170 501q-2 5 4 5h63q5 0 7 -5l140 -437q2 -4 5 -4t5 4zM305 576q-4 0 -5 3
l-34 62q-2 3 -5 3t-5 -3l-34 -62q-2 -3 -5 -3h-47q-3 0 -5 2t0 5l51 117q1 4 5 4h80q4 0 5 -4l51 -117q3 -7 -5 -7h-47z" />
    <glyph glyph-name="Ydieresis" unicode="&#x178;" horiz-adv-x="654" 
d="M135 704q6 0 9 -5l189 -309q4 -6 8 0l191 309q3 5 8 5h69q4 0 2 -5l-234 -377q-3 -5 -3.5 -8t-0.5 -8v-301q0 -5 -5 -5h-60q-5 0 -5 5v301q0 4 -0.5 7.5t-3.5 8.5l-234 377q-5 5 2 5h68zM252 864q5 0 5 -5v-80q0 -5 -5 -5h-80q-5 0 -5 5v80q0 5 5 5h80zM471 864q5 0 5 -5
v-80q0 -5 -5 -5h-80q-5 0 -5 5v80q0 5 5 5h80z" />
    <glyph glyph-name="Zacute" unicode="&#x179;" horiz-adv-x="561" 
d="M25 699q0 5 5 5h481q5 0 5 -5v-50q0 -2 -1.5 -5t-3.5 -5l-400 -571q-2 -3 -0.5 -5.5t4.5 -2.5h396q5 0 5 -5v-50q0 -5 -5 -5h-481q-5 0 -5 5v50q0 2 1.5 5t3.5 5l401 571q2 2 0.5 5t-4.5 3h-397q-5 0 -5 5v50zM214 774q-3 0 -5 2t0 5l49 114q2 7 10 7h67q3 0 5 -2t0 -5
l-72 -114l-4.5 -4.5t-6.5 -2.5h-43z" />
    <glyph glyph-name="zacute" unicode="&#x17a;" horiz-adv-x="467" 
d="M37 501q0 5 5 5h361q5 0 5 -5v-50q0 -2 -1.5 -5t-3.5 -5l-290 -373q-2 -3 0 -5.5t4 -2.5h300q5 0 5 -5v-50q0 -5 -5 -5h-387q-5 0 -5 5v50q0 2 1.5 5t3.5 5l290 373q2 3 0 5.5t-4 2.5h-274q-5 0 -5 5v50zM174 576q-3 0 -5 2t0 5l49 114q2 7 10 7h67q3 0 5 -2t0 -5
l-72 -114l-4.5 -4.5t-6.5 -2.5h-43z" />
    <glyph glyph-name="Zdotaccent" unicode="&#x17b;" horiz-adv-x="561" 
d="M25 699q0 5 5 5h481q5 0 5 -5v-50q0 -2 -1.5 -5t-3.5 -5l-400 -571q-2 -3 -0.5 -5.5t4.5 -2.5h396q5 0 5 -5v-50q0 -5 -5 -5h-481q-5 0 -5 5v50q0 2 1.5 5t3.5 5l401 571q2 2 0.5 5t-4.5 3h-397q-5 0 -5 5v50zM195 759q-5 0 -5 5v132q0 5 5 5h129q5 0 5 -5v-132
q0 -5 -5 -5h-129z" />
    <glyph glyph-name="zdotaccent" unicode="&#x17c;" horiz-adv-x="467" 
d="M37 501q0 5 5 5h361q5 0 5 -5v-50q0 -2 -1.5 -5t-3.5 -5l-290 -373q-2 -3 0 -5.5t4 -2.5h300q5 0 5 -5v-50q0 -5 -5 -5h-387q-5 0 -5 5v50q0 2 1.5 5t3.5 5l290 373q2 3 0 5.5t-4 2.5h-274q-5 0 -5 5v50zM153 562q-5 0 -5 5v132q0 5 5 5h129q5 0 5 -5v-132q0 -5 -5 -5
h-129z" />
    <glyph glyph-name="Zcaron" unicode="&#x17d;" horiz-adv-x="561" 
d="M25 699q0 5 5 5h481q5 0 5 -5v-50q0 -2 -1.5 -5t-3.5 -5l-400 -571q-2 -3 -0.5 -5.5t4.5 -2.5h396q5 0 5 -5v-50q0 -5 -5 -5h-481q-5 0 -5 5v50q0 2 1.5 5t3.5 5l401 571q2 2 0.5 5t-4.5 3h-397q-5 0 -5 5v50zM361 902q8 0 5 -7l-51 -117q-1 -4 -5 -4h-80q-4 0 -5 4
l-51 117q-2 3 0 5t5 2h47q3 0 5 -3l34 -62q2 -3 5 -3t5 3l34 62q1 3 5 3h47z" />
    <glyph glyph-name="zcaron" unicode="&#x17e;" horiz-adv-x="467" 
d="M37 501q0 5 5 5h361q5 0 5 -5v-50q0 -2 -1.5 -5t-3.5 -5l-290 -373q-2 -3 0 -5.5t4 -2.5h300q5 0 5 -5v-50q0 -5 -5 -5h-387q-5 0 -5 5v50q0 2 1.5 5t3.5 5l290 373q2 3 0 5.5t-4 2.5h-274q-5 0 -5 5v50zM317 704q8 0 5 -7l-51 -117q-1 -4 -5 -4h-80q-4 0 -5 4l-51 117
q-2 3 0 5t5 2h47q3 0 5 -3l34 -62q2 -3 5 -3t5 3l34 62q1 3 5 3h47z" />
    <glyph glyph-name="longs" unicode="&#x17f;" horiz-adv-x="336" 
d="M123 506q5 0 5 5v66q0 58 30.5 92.5t104.5 34.5h55q5 0 5 -5v-50q0 -5 -5 -5h-54q-32 0 -49 -17.5t-17 -49.5v-572q0 -5 -5 -5h-60q-5 0 -5 5v436q0 5 -5 5h-95q-5 0 -5 5v50q0 5 5 5h95z" />
    <glyph glyph-name="florin" unicode="&#x192;" horiz-adv-x="494" 
d="M246 506q4 0 6 5l12 66q11 58 48.5 92.5t111.5 34.5h55q6 0 4 -5l-10 -50q0 -5 -5 -5h-54q-32 0 -52.5 -17.5t-27.5 -49.5l-12 -66q-2 -5 4 -5h115q4 0 4 -5l-10 -50q-2 -5 -6 -5h-115q-4 0 -6 -5l-85 -436v-1l-14 -75q-13 -66 -53 -96.5t-106 -30.5h-55q-6 0 -4 5l10 50
q0 5 5 5h54q32 0 52 17.5t27 49.5l99 512q2 5 -4 5h-95q-6 0 -4 5l10 50q0 5 6 5h95z" />
    <glyph glyph-name="uni0218" unicode="&#x218;" horiz-adv-x="600" 
d="M103 193q0 -26 13 -52t38 -46t60.5 -32.5t80.5 -12.5q37 0 71.5 9.5t61.5 27.5t43 44.5t16 61.5q0 42 -17 68t-44 41t-61.5 21t-69.5 9q-44 4 -89 13t-81 29.5t-59 55.5t-23 90q0 46 21 82.5t55 61t77.5 37.5t88.5 13t89.5 -12t79 -37t56 -63.5t21.5 -90.5q0 -5 -5 -5
h-60q-5 0 -5 5q0 35 -14 62t-38 45t-56 27t-68 9q-34 0 -65 -9.5t-55 -27t-38 -42.5t-14 -55q0 -22 7 -43t26.5 -38t55.5 -29.5t93 -17.5q45 -4 92 -12t84.5 -29t61.5 -58t24 -100q0 -45 -19.5 -82.5t-54.5 -64.5t-83 -41.5t-105 -14.5q-60 0 -108.5 16t-82.5 44t-52.5 64.5
t-18.5 78.5q0 5 5 5h60q5 0 5 -5zM269 -134q-5 0 -5 5v69q0 5 5 5h68q5 0 5 -5v-71q0 -34 -20 -55.5t-53 -21.5q-5 0 -5 5v29q0 5 5 5q9 0 18 7t9 23q0 5 -5 5h-22z" />
    <glyph glyph-name="uni0219" unicode="&#x219;" horiz-adv-x="520" 
d="M103 171q0 -17 6.5 -38t23.5 -39.5t46.5 -31t74.5 -12.5q18 0 44 2.5t50 12.5t41.5 29t17.5 51q0 27 -14 42.5t-36 24.5t-49.5 13t-53.5 7q-33 3 -70 9t-68 20t-51.5 41t-20.5 72q0 30 15.5 56t42.5 45t63.5 30t78.5 11q46 0 86 -11t70 -33t47 -56.5t17 -80.5q0 -5 -5 -5
h-60q-5 0 -5 5q0 62 -40.5 91.5t-109.5 29.5q-61 0 -95.5 -24.5t-34.5 -57.5q0 -22 9.5 -36.5t27.5 -23.5t44 -14t59 -8q46 -4 86.5 -10.5t71 -21.5t48 -42t17.5 -73q0 -81 -60.5 -118t-162.5 -37q-57 0 -98.5 15t-68.5 39.5t-40.5 57.5t-13.5 69q0 5 5 5h60q5 0 5 -5z
M229 -134q-5 0 -5 5v69q0 5 5 5h68q5 0 5 -5v-71q0 -34 -20 -55.5t-53 -21.5q-5 0 -5 5v29q0 5 5 5q9 0 18 7t9 23q0 5 -5 5h-22z" />
    <glyph glyph-name="uni021A" unicode="&#x21a;" horiz-adv-x="537" 
d="M235 -134q-5 0 -5 5v69q0 5 5 5h68q5 0 5 -5v-71q0 -34 -20 -55.5t-53 -21.5q-5 0 -5 5v29q0 5 5 5q9 0 18 7t9 23q0 5 -5 5h-22zM234 642q0 5 -5 5h-201q-5 0 -5 5v47q0 5 5 5h482q5 0 5 -5v-47q0 -5 -5 -5h-201q-5 0 -5 -5v-637q0 -5 -5 -5h-60q-5 0 -5 5v637z" />
    <glyph glyph-name="uni021B" unicode="&#x21b;" horiz-adv-x="350" 
d="M129 -134q-5 0 -5 5v69q0 5 5 5h68q5 0 5 -5v-71q0 -34 -20 -55.5t-53 -21.5q-5 0 -5 5v29q0 5 5 5q9 0 18 7t9 23q0 5 -5 5h-22zM28 446q-5 0 -5 5v50q0 5 5 5h95q5 0 5 5v128q0 5 5 5h60q5 0 5 -5v-128q0 -5 5 -5h115q5 0 5 -5v-50q0 -5 -5 -5h-115q-5 0 -5 -5v-314
q0 -39 17 -53t49 -14h54q5 0 5 -5v-50q0 -5 -5 -5h-55q-75 0 -105 30.5t-30 96.5v314q0 5 -5 5h-95z" />
    <glyph glyph-name="circumflex" unicode="&#x2c6;" horiz-adv-x="299" 
d="M188 576q-4 0 -5 3l-34 62q-2 3 -5 3t-5 -3l-34 -62q-2 -3 -5 -3h-47q-3 0 -5 2t0 5l51 117q1 4 5 4h80q4 0 5 -4l51 -117q3 -7 -5 -7h-47z" />
    <glyph glyph-name="caron" unicode="&#x2c7;" horiz-adv-x="299" 
d="M235 704q8 0 5 -7l-51 -117q-1 -4 -5 -4h-80q-4 0 -5 4l-51 117q-2 3 0 5t5 2h47q3 0 5 -3l34 -62q2 -3 5 -3t5 3l34 62q1 3 5 3h47z" />
    <glyph glyph-name="uni02C9" unicode="&#x2c9;" horiz-adv-x="325" 
d="M34 576q-4 0 -4 5v40q0 5 4 5h246q5 0 5 -5v-40q0 -5 -5 -5h-246z" />
    <glyph glyph-name="breve" unicode="&#x2d8;" horiz-adv-x="330" 
d="M277 704q5 0 5 -5q0 -63 -34.5 -93t-89.5 -30q-54 0 -89 30t-35 93q0 5 5 5h42q5 0 5 -5q0 -11 3 -23.5t11 -23.5t22 -18.5t36 -7.5t36 7.5t21.5 18.5t10.5 23.5t3 23.5q0 5 5 5h43z" />
    <glyph glyph-name="dotaccent" unicode="&#x2d9;" horiz-adv-x="237" 
d="M48 562q-5 0 -5 5v132q0 5 5 5h129q5 0 5 -5v-132q0 -5 -5 -5h-129z" />
    <glyph glyph-name="ring" unicode="&#x2da;" horiz-adv-x="241" 
d="M203 625q0 -36 -26 -61.5t-62 -25.5t-61.5 25.5t-25.5 61.5t25.5 62t61.5 26q18 0 34 -7t28 -19t19 -28t7 -34zM164 625q0 20 -14.5 34.5t-34.5 14.5q-21 0 -35.5 -14.5t-14.5 -34.5q0 -21 14.5 -35.5t35.5 -14.5q20 0 34.5 14.5t14.5 35.5z" />
    <glyph glyph-name="ogonek" unicode="&#x2db;" horiz-adv-x="260" 
d="M206 10q5 0 5 -5t-5 -5h-6q-32 0 -53.5 -20.5t-21.5 -50.5q0 -32 21.5 -49.5t53.5 -17.5h11q5 0 5 -5v-50q0 -5 -5 -5h-21q-59 0 -93.5 27.5t-36.5 71.5q-1 50 36.5 80.5t103.5 28.5h6z" />
    <glyph glyph-name="tilde" unicode="&#x2dc;" horiz-adv-x="418" 
d="M53 618q0 13 5 28t16 28t28 21.5t41 8.5q22 0 38 -7t29.5 -16t26.5 -16t28 -7q3 0 8.5 2t11 6.5t9 12.5t3.5 20q0 5 5 5h48q5 0 5 -5v-14q0 -13 -5 -28t-16 -27.5t-28 -21t-41 -8.5q-20 0 -37 7t-31.5 16t-28 16t-25.5 7q-3 0 -8.5 -2t-11 -6.5t-9 -12.5t-3.5 -20
q0 -5 -5 -5h-48q-5 0 -5 5v13z" />
    <glyph glyph-name="hungarumlaut" unicode="&#x2dd;" horiz-adv-x="419" 
d="M34 562q-4 0 -4 5l29 132q0 5 6 5h89q4 0 4 -5l-29 -132q0 -5 -6 -5h-89zM254 562q-4 0 -4 5l29 132q0 5 6 5h89q4 0 4 -5l-29 -132q0 -5 -6 -5h-89z" />
    <glyph glyph-name="uni0394" unicode="&#x394;" horiz-adv-x="663" 
d="M65 0q-5 0 -5 5v56q0 2 1 5.5t2 5.5l208 627q2 5 6 5h101q3 0 5 -5l207 -626q1 -2 2 -5.5t1 -6.5v-56q0 -5 -5 -5h-523zM139 76q-2 -6 4 -6h368q6 0 4 6l-183 564q-2 4 -5 4t-5 -4z" />
    <glyph glyph-name="uni03A9" unicode="&#x3a9;" 
d="M456 5q0 -5 -5 -5h-411q-5 0 -5 5v694q0 5 5 5h411q5 0 5 -5v-694zM419 681h-346l173 -306zM419 24l-173 305l-173 -305h346zM432 48v608q-43 -75 -87 -152t-86 -152zM233 352l-173 305v-610z" />
    <glyph glyph-name="uni03BC" unicode="&#x3bc;" 
d="M456 5q0 -5 -5 -5h-411q-5 0 -5 5v694q0 5 5 5h411q5 0 5 -5v-694zM419 681h-346l173 -306zM419 24l-173 305l-173 -305h346zM432 48v608q-43 -75 -87 -152t-86 -152zM233 352l-173 305v-610z" />
    <glyph glyph-name="pi" unicode="&#x3c0;" 
d="M456 5q0 -5 -5 -5h-411q-5 0 -5 5v694q0 5 5 5h411q5 0 5 -5v-694zM419 681h-346l173 -306zM419 24l-173 305l-173 -305h346zM432 48v608q-43 -75 -87 -152t-86 -152zM233 352l-173 305v-610z" />
    <glyph glyph-name="Wgrave" unicode="&#x1e80;" horiz-adv-x="862" 
d="M618 65q1 -5 5 -5t5 5l116 634q2 5 7 5h63q6 0 4 -5l-137 -694q-2 -5 -6 -5h-105q-4 0 -6 5l-133 635q-1 5 -5 5t-5 -5l-133 -635q-2 -5 -6 -5h-105q-4 0 -6 5l-137 694q-2 5 4 5h63q5 0 7 -5l116 -634q1 -5 5 -5t5 5l126 634q2 5 7 5h117q5 0 7 -5zM404 774
q-4 0 -6.5 2.5l-4.5 4.5l-72 114q-2 3 0 5t5 2h67q8 0 10 -7l49 -114q3 -7 -5 -7h-43z" />
    <glyph glyph-name="wgrave" unicode="&#x1e81;" horiz-adv-x="746" 
d="M527 65q1 -5 5 -5t5 5l96 436q2 5 7 5h58q6 0 4 -5l-118 -496q-2 -5 -6 -5h-91q-4 0 -6 5l-108 436q-1 5 -5 5t-5 -5l-108 -436q-2 -5 -6 -5h-91q-4 0 -6 5l-118 496q-2 5 4 5h58q5 0 7 -5l96 -436q1 -5 5 -5t5 5l100 436q2 5 7 5h104q5 0 7 -5zM343 576q-4 0 -6.5 2.5
l-4.5 4.5l-72 114q-2 3 0 5t5 2h67q8 0 10 -7l49 -114q3 -7 -5 -7h-43z" />
    <glyph glyph-name="Wacute" unicode="&#x1e82;" horiz-adv-x="862" 
d="M618 65q1 -5 5 -5t5 5l116 634q2 5 7 5h63q6 0 4 -5l-137 -694q-2 -5 -6 -5h-105q-4 0 -6 5l-133 635q-1 5 -5 5t-5 -5l-133 -635q-2 -5 -6 -5h-105q-4 0 -6 5l-137 694q-2 5 4 5h63q5 0 7 -5l116 -634q1 -5 5 -5t5 5l126 634q2 5 7 5h117q5 0 7 -5zM405 774q-3 0 -5 2
t0 5l49 114q2 7 10 7h67q3 0 5 -2t0 -5l-72 -114l-4.5 -4.5t-6.5 -2.5h-43z" />
    <glyph glyph-name="wacute" unicode="&#x1e83;" horiz-adv-x="746" 
d="M527 65q1 -5 5 -5t5 5l96 436q2 5 7 5h58q6 0 4 -5l-118 -496q-2 -5 -6 -5h-91q-4 0 -6 5l-108 436q-1 5 -5 5t-5 -5l-108 -436q-2 -5 -6 -5h-91q-4 0 -6 5l-118 496q-2 5 4 5h58q5 0 7 -5l96 -436q1 -5 5 -5t5 5l100 436q2 5 7 5h104q5 0 7 -5zM345 576q-3 0 -5 2t0 5
l49 114q2 7 10 7h67q3 0 5 -2t0 -5l-72 -114l-4.5 -4.5t-6.5 -2.5h-43z" />
    <glyph glyph-name="Wdieresis" unicode="&#x1e84;" horiz-adv-x="862" 
d="M618 65q1 -5 5 -5t5 5l116 634q2 5 7 5h63q6 0 4 -5l-137 -694q-2 -5 -6 -5h-105q-4 0 -6 5l-133 635q-1 5 -5 5t-5 -5l-133 -635q-2 -5 -6 -5h-105q-4 0 -6 5l-137 694q-2 5 4 5h63q5 0 7 -5l116 -634q1 -5 5 -5t5 5l126 634q2 5 7 5h117q5 0 7 -5zM356 864q5 0 5 -5
v-80q0 -5 -5 -5h-80q-5 0 -5 5v80q0 5 5 5h80zM575 864q5 0 5 -5v-80q0 -5 -5 -5h-80q-5 0 -5 5v80q0 5 5 5h80z" />
    <glyph glyph-name="wdieresis" unicode="&#x1e85;" horiz-adv-x="746" 
d="M527 65q1 -5 5 -5t5 5l96 436q2 5 7 5h58q6 0 4 -5l-118 -496q-2 -5 -6 -5h-91q-4 0 -6 5l-108 436q-1 5 -5 5t-5 -5l-108 -436q-2 -5 -6 -5h-91q-4 0 -6 5l-118 496q-2 5 4 5h58q5 0 7 -5l96 -436q1 -5 5 -5t5 5l100 436q2 5 7 5h104q5 0 7 -5zM298 704q5 0 5 -5v-80
q0 -5 -5 -5h-80q-5 0 -5 5v80q0 5 5 5h80zM517 704q5 0 5 -5v-80q0 -5 -5 -5h-80q-5 0 -5 5v80q0 5 5 5h80z" />
    <glyph glyph-name="endash" unicode="&#x2013;" horiz-adv-x="591" 
d="M78 218q-5 0 -5 5v60q0 5 5 5h441q5 0 5 -5v-60q0 -5 -5 -5h-441z" />
    <glyph glyph-name="emdash" unicode="&#x2014;" horiz-adv-x="843" 
d="M48 218q-5 0 -5 5v60q0 5 5 5h737q5 0 5 -5v-60q0 -5 -5 -5h-737z" />
    <glyph glyph-name="quoteleft" unicode="&#x2018;" horiz-adv-x="226" 
d="M158 576q5 0 5 -5v-120q0 -5 -5 -5h-100q-5 0 -5 5v145q0 19 6 38.5t18.5 35t32.5 25t48 9.5q5 0 5 -5v-50q0 -5 -5 -5q-21 0 -33 -13.5t-12 -34.5v-15q0 -5 5 -5h40z" />
    <glyph glyph-name="quoteright" unicode="&#x2019;" horiz-adv-x="226" 
d="M58 574q-5 0 -5 5v120q0 5 5 5h100q5 0 5 -5v-145q0 -19 -6 -38.5t-19 -35t-32.5 -25t-47.5 -9.5q-5 0 -5 5v50q0 5 5 5q21 0 33 13.5t12 34.5v15q0 5 -5 5h-40z" />
    <glyph glyph-name="quotesinglbase" unicode="&#x201a;" horiz-adv-x="226" 
d="M58 0q-5 0 -5 5v120q0 5 5 5h100q5 0 5 -5v-145q0 -19 -6 -38.5t-19 -35t-32.5 -25t-47.5 -9.5q-5 0 -5 5v50q0 5 5 5q21 0 33 13.5t12 34.5v15q0 5 -5 5h-40z" />
    <glyph glyph-name="quotedblleft" unicode="&#x201c;" horiz-adv-x="366" 
d="M308 576q5 0 5 -5v-120q0 -5 -5 -5h-100q-5 0 -5 5v145q0 19 6 38.5t18.5 35t32.5 25t48 9.5q5 0 5 -5v-50q0 -5 -5 -5q-21 0 -33 -13.5t-12 -34.5v-15q0 -5 5 -5h40zM148 576q5 0 5 -5v-120q0 -5 -5 -5h-100q-5 0 -5 5v145q0 19 6 38.5t18.5 35t32.5 25t48 9.5q5 0 5 -5
v-50q0 -5 -5 -5q-21 0 -33 -13.5t-12 -34.5v-15q0 -5 5 -5h40z" />
    <glyph glyph-name="quotedblright" unicode="&#x201d;" horiz-adv-x="366" 
d="M48 574q-5 0 -5 5v120q0 5 5 5h100q5 0 5 -5v-145q0 -19 -6 -38.5t-19 -35t-32.5 -25t-47.5 -9.5q-5 0 -5 5v50q0 5 5 5q21 0 33 13.5t12 34.5v15q0 5 -5 5h-40zM208 574q-5 0 -5 5v120q0 5 5 5h100q5 0 5 -5v-145q0 -19 -6 -38.5t-19 -35t-32.5 -25t-47.5 -9.5
q-5 0 -5 5v50q0 5 5 5q21 0 33 13.5t12 34.5v15q0 5 -5 5h-40z" />
    <glyph glyph-name="quotedblbase" unicode="&#x201e;" horiz-adv-x="366" 
d="M48 0q-5 0 -5 5v120q0 5 5 5h100q5 0 5 -5v-145q0 -19 -6 -38.5t-19 -35t-32.5 -25t-47.5 -9.5q-5 0 -5 5v50q0 5 5 5q21 0 33 13.5t12 34.5v15q0 5 -5 5h-40zM208 0q-5 0 -5 5v120q0 5 5 5h100q5 0 5 -5v-145q0 -19 -6 -38.5t-19 -35t-32.5 -25t-47.5 -9.5q-5 0 -5 5v50
q0 5 5 5q21 0 33 13.5t12 34.5v15q0 5 -5 5h-40z" />
    <glyph glyph-name="dagger" unicode="&#x2020;" horiz-adv-x="542" 
d="M296 -193q0 -5 -5 -5h-60q-5 0 -5 5v624q0 5 -5 5h-203q-5 0 -5 5v60q0 5 5 5h203q5 0 5 5v188q0 5 5 5h60q5 0 5 -5v-188q0 -5 5 -5h213q5 0 5 -5v-60q0 -5 -5 -5h-213q-5 0 -5 -5v-624z" />
    <glyph glyph-name="daggerdbl" unicode="&#x2021;" horiz-adv-x="542" 
d="M296 506h218q5 0 5 -5v-60q0 -5 -5 -5h-218v-361q0 -5 5 -5h213q5 0 5 -5v-60q0 -5 -5 -5h-213q-5 0 -5 -5v-188q0 -5 -5 -5h-60q-5 0 -5 5v188q0 5 -5 5h-203q-5 0 -5 5v60q0 5 5 5h203q5 0 5 5v361h-208q-5 0 -5 5v60q0 5 5 5h208v193q0 5 5 5h60q5 0 5 -5v-193z" />
    <glyph glyph-name="bullet" unicode="&#x2022;" horiz-adv-x="682" 
d="M73 253q0 55 20.5 103t56 83.5t83.5 56t103 20.5t103 -20.5t83.5 -56t56 -83.5t20.5 -103t-20.5 -103t-56 -83.5t-83.5 -56t-103 -20.5t-103 20.5t-83.5 56t-56 83.5t-20.5 103z" />
    <glyph glyph-name="ellipsis" unicode="&#x2026;" horiz-adv-x="551" 
d="M58 0q-5 0 -5 5v100q0 5 5 5h100q5 0 5 -5v-100q0 -5 -5 -5h-100zM221 0q-5 0 -5 5v100q0 5 5 5h100q5 0 5 -5v-100q0 -5 -5 -5h-100zM383 0q-5 0 -5 5v100q0 5 5 5h100q5 0 5 -5v-100q0 -5 -5 -5h-100z" />
    <glyph glyph-name="perthousand" unicode="&#x2030;" horiz-adv-x="1177" 
d="M594 702q2 2 4 2h44q8 0 4 -8l-426 -694q-2 -2 -4 -2h-42q-8 0 -4 8zM764 188q0 -43 -7.5 -79.5t-24.5 -62.5t-45 -41t-70 -15t-70.5 15t-45.5 41t-24.5 62.5t-7.5 79.5t7.5 80t24.5 63.5t45.5 41.5t70.5 15t70 -15t45 -41.5t24.5 -63.5t7.5 -80zM712 188
q0 75 -21.5 112.5t-73.5 37.5q-53 0 -74.5 -37.5t-21.5 -112.5q0 -72 21.5 -110t74.5 -38q52 0 73.5 38t21.5 110zM348 514q0 -43 -7.5 -79.5t-24.5 -62.5t-45 -41t-70 -15t-70.5 15t-45.5 41t-24.5 62.5t-7.5 79.5t7.5 80t24.5 63.5t45.5 41.5t70.5 15t70 -15t45 -41.5
t24.5 -63.5t7.5 -80zM296 514q0 75 -21.5 112.5t-73.5 37.5q-53 0 -74.5 -37.5t-21.5 -112.5q0 -72 21.5 -110t74.5 -38q52 0 73.5 38t21.5 110zM1114 188q0 -43 -7.5 -79.5t-24.5 -62.5t-45 -41t-70 -15t-70.5 15t-45.5 41t-24.5 62.5t-7.5 79.5t7.5 80t24.5 63.5
t45.5 41.5t70.5 15t70 -15t45 -41.5t24.5 -63.5t7.5 -80zM1062 188q0 75 -21.5 112.5t-73.5 37.5q-53 0 -74.5 -37.5t-21.5 -112.5q0 -72 21.5 -110t74.5 -38q52 0 73.5 38t21.5 110z" />
    <glyph glyph-name="guilsinglleft" unicode="&#x2039;" horiz-adv-x="386" 
d="M144 258q-3 -4 0 -9l212 -242q2 -2 1 -4.5t-4 -2.5h-73q-5 0 -8 3l-212 246q-3 4 0 9l212 245q2 3 8 3h74q3 0 3.5 -2.5t-1.5 -4.5z" />
    <glyph glyph-name="guilsinglright" unicode="&#x203a;" horiz-adv-x="386" 
d="M59 499q-2 2 -1.5 4.5t3.5 2.5h74q6 0 8 -3l212 -245q3 -5 0 -9l-212 -246q-3 -3 -8 -3h-73q-3 0 -4 2.5t1 4.5l212 242q3 5 0 9z" />
    <glyph glyph-name="fraction" unicode="&#x2044;" horiz-adv-x="617" 
d="M456 702q2 2 4 2h44q8 0 4 -8l-426 -694q-2 -2 -4 -2h-42q-8 0 -4 8z" />
    <glyph glyph-name="franc" unicode="&#x20a3;" 
d="M456 5q0 -5 -5 -5h-411q-5 0 -5 5v694q0 5 5 5h411q5 0 5 -5v-694zM419 681h-346l173 -306zM419 24l-173 305l-173 -305h346zM432 48v608q-43 -75 -87 -152t-86 -152zM233 352l-173 305v-610z" />
    <glyph glyph-name="lira" unicode="&#x20a4;" 
d="M456 5q0 -5 -5 -5h-411q-5 0 -5 5v694q0 5 5 5h411q5 0 5 -5v-694zM419 681h-346l173 -306zM419 24l-173 305l-173 -305h346zM432 48v608q-43 -75 -87 -152t-86 -152zM233 352l-173 305v-610z" />
    <glyph glyph-name="peseta" unicode="&#x20a7;" 
d="M456 5q0 -5 -5 -5h-411q-5 0 -5 5v694q0 5 5 5h411q5 0 5 -5v-694zM419 681h-346l173 -306zM419 24l-173 305l-173 -305h346zM432 48v608q-43 -75 -87 -152t-86 -152zM233 352l-173 305v-610z" />
    <glyph glyph-name="Euro" unicode="&#x20ac;" horiz-adv-x="666" 
d="M123 240q-1 7 -7 7h-83q-6 0 -4 5l15 60q0 5 6 5h60q5 0 5 6q0 10 -0.5 17.5t-0.5 14.5t0.5 15.5t1.5 21.5q0 6 -6 6h-76q-4 0 -4 5l15 60q2 5 6 5h68q5 0 6 5q10 54 29.5 98t50 76t72.5 49.5t97 17.5q40 0 69.5 -8t50 -19.5t34.5 -24t25 -22.5q4 -4 3 -9l-16 -59
q-1 -5 -4.5 -5t-5.5 2q-11 15 -26 30t-34.5 27t-43.5 20t-52 8q-71 0 -114 -45.5t-60 -133.5q-1 -7 6 -7h303q6 0 4 -5l-15 -60q0 -5 -6 -5h-296q-5 0 -5 -6q0 -5 -0.5 -10t-0.5 -12.5v-18.5v-29q0 -5 5 -5h276q4 0 4 -5l-15 -60q-2 -5 -6 -5h-251q-7 0 -5 -7
q30 -190 176 -190q28 0 54.5 10t50 28t42.5 43t31 55q2 3 5 3t3 -4v-95q0 -7 -3 -11q-11 -15 -27 -30.5t-39 -28.5t-52 -21.5t-65 -8.5q-56 0 -99 18t-74 51t-50 79t-28 102z" />
    <glyph glyph-name="uni2113" unicode="&#x2113;" horiz-adv-x="476" 
d="M448 191q5 0 5 -5v-28q0 -33 -12.5 -62t-34 -50t-50.5 -33.5t-61 -12.5t-60.5 12t-50 32.5t-34 48.5t-13.5 60q0 5 -5 5q-2 0 -4 -2l-107 -107q-1 -1 -3 -1q-5 0 -5 5v79q0 4 2 6l118 118q4 4 4 6v284q0 33 12.5 62t34 50t50 33.5t61.5 12.5q32 0 60.5 -12.5t50 -34.5
t34 -50.5t12.5 -60.5q0 -30 -11.5 -59t-34.5 -52l-199 -200q-3 -3 -3 -7v-70q0 -19 7 -36t19.5 -29.5t29 -19.5t35.5 -7t35.5 7t28.5 19.5t19 29.5t7 36v28q0 5 5 5h58zM386 547q0 18 -7 34.5t-19.5 29t-29 20t-35.5 7.5t-35.5 -7t-29 -19.5t-19.5 -29.5t-7 -36v-207
q0 -5 5 -5q2 0 3 1l147 147q27 27 27 65z" />
    <glyph glyph-name="trademark" unicode="&#x2122;" horiz-adv-x="451" 
d="M332 699q2 5 6 5h48q5 0 5 -5v-188q0 -5 -5 -5h-22q-5 0 -5 5v157q0 2 -2 2.5t-3 -2.5l-37 -157q-2 -5 -6 -5h-41q-4 0 -6 5l-37 157q-1 3 -3 2.5t-2 -2.5v-157q0 -5 -5 -5h-22q-5 0 -5 5v188q0 5 5 5h48q4 0 6 -5l39 -160q1 -2 2.5 -2t2.5 2zM121 672q-5 0 -5 -5v-156
q0 -5 -5 -5h-22q-5 0 -5 5v156q0 5 -5 5h-49q-5 0 -5 5v22q0 5 4 5h142q5 0 5 -5v-22q0 -5 -5 -5h-50z" />
    <glyph glyph-name="Omega" unicode="&#x2126;" 
d="M456 5q0 -5 -5 -5h-411q-5 0 -5 5v694q0 5 5 5h411q5 0 5 -5v-694zM419 681h-346l173 -306zM419 24l-173 305l-173 -305h346zM432 48v608q-43 -75 -87 -152t-86 -152zM233 352l-173 305v-610z" />
    <glyph glyph-name="estimated" unicode="&#x212e;" horiz-adv-x="508" 
d="M448 128q4 -2 2 -6q-29 -57 -81.5 -89.5t-115.5 -32.5q-45 0 -85 17.5t-70 47.5t-47.5 70t-17.5 85v51q0 45 17.5 85.5t47.5 70.5t70 47.5t85 17.5t85 -17.5t70 -47.5t47.5 -70.5t17.5 -85.5v-28q0 -5 -5 -5h-364q-5 0 -5 -5v-146q28 -33 67.5 -52t86.5 -19q57 0 106 30
t77 81q2 4 6 3zM253 476q-47 0 -86.5 -19.5t-67.5 -51.5v-145q0 -5 5 -5h297q5 0 5 5v146q-29 32 -68 51t-85 19z" />
    <glyph glyph-name="arrowleft" unicode="&#x2190;" horiz-adv-x="735" 
d="M58 320q-4 4 -4 10v52q0 6 4 10l125 108q6 5 10 5.5t12 0.5h55q4 0 5 -3.5t-2 -5.5l-123 -105q-3 -2 -2.5 -4t2.5 -2h506q5 0 5 -5v-50q0 -5 -5 -5h-506q-2 0 -2.5 -2t2.5 -4l123 -105q3 -2 2 -5.5t-5 -3.5h-55q-8 0 -12 0.5t-10 5.5z" />
    <glyph glyph-name="arrowup" unicode="&#x2191;" horiz-adv-x="420" 
d="M349 575q5 -6 5.5 -10t0.5 -12v-55q0 -4 -3.5 -5t-5.5 2l-105 123q-2 3 -4 2.5t-2 -2.5v-613q0 -5 -5 -5h-50q-5 0 -5 5v613q0 2 -2 2.5t-4 -2.5l-105 -123q-2 -3 -5.5 -2t-3.5 5v55q0 8 0.5 12t5.5 10l108 125q4 4 10 4h52q6 0 10 -4z" />
    <glyph glyph-name="arrowright" unicode="&#x2192;" horiz-adv-x="735" 
d="M522 212q-6 -5 -10 -5.5t-12 -0.5h-55q-4 0 -5 3.5t2 5.5l123 105q3 2 2.5 4t-2.5 2h-506q-5 0 -5 5v50q0 5 5 5h506q2 0 2.5 2t-2.5 4l-123 105q-3 2 -2 5.5t5 3.5h55q8 0 12 -0.5t10 -5.5l125 -108q4 -4 4 -10v-52q0 -6 -4 -10z" />
    <glyph glyph-name="arrowdown" unicode="&#x2193;" horiz-adv-x="420" 
d="M241 4q-4 -4 -10 -4h-52q-6 0 -10 4l-108 125q-5 6 -5.5 10t-0.5 12v55q0 4 3.5 5t5.5 -2l105 -123q2 -3 4 -2.5t2 2.5v613q0 5 5 5h50q5 0 5 -5v-613q0 -2 2 -2.5t4 2.5l105 123q2 3 5.5 2t3.5 -5v-55q0 -8 -0.5 -12t-5.5 -10z" />
    <glyph glyph-name="carriagereturn" unicode="&#x21b5;" horiz-adv-x="683" 
d="M630 331q0 -5 -5 -5h-475h-21q-2 0 -2.5 -2t2.5 -4l123 -105q3 -2 2 -5.5t-5 -3.5h-55q-8 0 -12 0.5t-10 5.5l-125 108q-4 4 -4 10v52q0 6 4 10l125 108q6 5 10 5.5t12 0.5h55q4 0 5 -3.5t-2 -5.5l-123 -105q-3 -2 -2.5 -4t2.5 -2h436q5 0 5 5v308q0 5 5 5h50q5 0 5 -5
v-368z" />
    <glyph glyph-name="partialdiff" unicode="&#x2202;" 
d="M456 5q0 -5 -5 -5h-411q-5 0 -5 5v694q0 5 5 5h411q5 0 5 -5v-694zM419 681h-346l173 -306zM419 24l-173 305l-173 -305h346zM432 48v608q-43 -75 -87 -152t-86 -152zM233 352l-173 305v-610z" />
    <glyph glyph-name="Delta" unicode="&#x2206;" horiz-adv-x="663" 
d="M65 0q-5 0 -5 5v56q0 2 1 5.5t2 5.5l208 627q2 5 6 5h101q3 0 5 -5l207 -626q1 -2 2 -5.5t1 -6.5v-56q0 -5 -5 -5h-523zM139 76q-2 -6 4 -6h368q6 0 4 6l-183 564q-2 4 -5 4t-5 -4z" />
    <glyph glyph-name="product" unicode="&#x220f;" 
d="M456 5q0 -5 -5 -5h-411q-5 0 -5 5v694q0 5 5 5h411q5 0 5 -5v-694zM419 681h-346l173 -306zM419 24l-173 305l-173 -305h346zM432 48v608q-43 -75 -87 -152t-86 -152zM233 352l-173 305v-610z" />
    <glyph glyph-name="summation" unicode="&#x2211;" 
d="M456 5q0 -5 -5 -5h-411q-5 0 -5 5v694q0 5 5 5h411q5 0 5 -5v-694zM419 681h-346l173 -306zM419 24l-173 305l-173 -305h346zM432 48v608q-43 -75 -87 -152t-86 -152zM233 352l-173 305v-610z" />
    <glyph glyph-name="minus" unicode="&#x2212;" horiz-adv-x="602" 
d="M48 218q-5 0 -5 5v60q0 5 5 5h496q5 0 5 -5v-60q0 -5 -5 -5h-496z" />
    <glyph glyph-name="uni2215" unicode="&#x2215;" horiz-adv-x="617" 
d="M456 702q2 2 4 2h44q8 0 4 -8l-426 -694q-2 -2 -4 -2h-42q-8 0 -4 8z" />
    <glyph glyph-name="uni2219" unicode="&#x2219;" horiz-adv-x="843" 
 />
    <glyph glyph-name="radical" unicode="&#x221a;" horiz-adv-x="687" 
d="M161 431q-1 5 -6 5h-91q-5 0 -5 5v60q0 5 5 5h149q3 0 5 -5l117 -432q1 -4 5 -4t5 4l223 818q2 5 5 5h72q7 0 5 -5l-246 -882q-2 -5 -6 -5h-116q-4 0 -6 5z" />
    <glyph glyph-name="infinity" unicode="&#x221e;" horiz-adv-x="901" 
d="M320 192q-21 -16 -48.5 -28t-59.5 -12q-38 0 -71 14.5t-57 39.5t-38 58.5t-14 71.5q0 37 14 70t38 57.5t57 39t71 14.5q31 0 62 -11t54 -29l117 -101q31 26 58.5 50.5t57.5 50.5q23 18 55.5 29t61.5 11q38 0 71 -14.5t57.5 -39t38.5 -57.5t14 -70q0 -38 -14 -71.5
t-38.5 -58.5t-57.5 -39.5t-71 -14.5q-30 0 -58 11.5t-50 28.5q-21 16 -42 32.5t-41 32.5l-40 33zM678 447q-20 0 -38.5 -5t-30.5 -16l-117 -93q27 -23 58 -44.5t59 -41.5q34 -25 69 -25q24 0 44.5 9t35.5 24t24 36t9 45q0 23 -9 43t-24 35t-35.5 24t-44.5 9zM212 447
q-24 0 -44.5 -9t-35.5 -24t-23.5 -35t-8.5 -43q0 -24 8.5 -45t23.5 -36t35.5 -24t44.5 -9q20 0 36 6.5t29 17.5l121 88l-117 91h1q-12 10 -30.5 16t-39.5 6z" />
    <glyph glyph-name="integral" unicode="&#x222b;" 
d="M456 5q0 -5 -5 -5h-411q-5 0 -5 5v694q0 5 5 5h411q5 0 5 -5v-694zM419 681h-346l173 -306zM419 24l-173 305l-173 -305h346zM432 48v608q-43 -75 -87 -152t-86 -152zM233 352l-173 305v-610z" />
    <glyph glyph-name="approxequal" unicode="&#x2248;" horiz-adv-x="510" 
d="M477 437q0 -22 -8.5 -41.5t-23 -33.5t-34 -22.5t-41.5 -8.5q-32 0 -65 11.5t-66 25.5q-32 14 -59.5 23.5t-49.5 9.5q-14 0 -25.5 -10.5t-11.5 -24.5v-30q0 -5 -5 -5l-60 20q-5 0 -5 5v10q0 23 8.5 42.5t22.5 34t33.5 23t42.5 8.5q30 0 64.5 -12.5t66.5 -25.5
q29 -12 58.5 -22.5t50.5 -10.5q14 0 25.5 10t11.5 24v32q0 5 5 5l60 -20q5 0 5 -5v-12zM477 212q0 -22 -8.5 -41.5t-23 -33.5t-34 -22.5t-41.5 -8.5q-32 0 -65 11.5t-66 25.5q-32 14 -59.5 23.5t-49.5 9.5q-14 0 -25.5 -10.5t-11.5 -24.5v-30q0 -5 -5 -5l-60 20q-5 0 -5 5
v10q0 23 8.5 42.5t22.5 34t33.5 23t42.5 8.5q30 0 64.5 -12.5t66.5 -25.5q29 -12 58.5 -22.5t50.5 -10.5q14 0 25.5 10t11.5 24v32q0 5 5 5l60 -20q5 0 5 -5v-12z" />
    <glyph glyph-name="notequal" unicode="&#x2260;" horiz-adv-x="530" 
d="M120 98q2 2 1 5t-5 3h-78q-5 0 -5 5v60q0 5 5 5h130q5 0 8 5l96 141q2 4 0.5 6.5t-4.5 2.5h-230q-5 0 -5 5v60q0 5 5 5h284q3 0 5 3l68 99q1 3 5 3h59q2 0 3.5 -2.5t-0.5 -4.5l-60 -90q-2 -2 -0.5 -5t5.5 -3h75q5 0 5 -5v-60q0 -5 -5 -5h-128q-4 0 -6 -4l-96 -144
q-2 -2 -0.5 -4.5t4.5 -2.5h226q5 0 5 -5v-60q0 -5 -5 -5h-278q-4 0 -6 -4l-66 -99q-2 -3 -5 -3h-66q-2 0 -3.5 2.5t0.5 4.5z" />
    <glyph glyph-name="lessequal" unicode="&#x2264;" horiz-adv-x="506" 
d="M29 0q-5 0 -5 5v60q0 5 5 5h446q5 0 5 -5v-60q0 -5 -5 -5h-446zM90 449q-3 -1 -3 -3t3 -3l385 -175q5 -2 5 -7v-63q0 -6 -5 -4l-446 201q-5 2 -5 6v90q0 4 5 6l446 201q5 2 5 -4v-63q0 -5 -5 -7z" />
    <glyph glyph-name="greaterequal" unicode="&#x2265;" horiz-adv-x="506" 
d="M29 624q-5 2 -5 7v63q0 6 5 4l446 -201q5 -2 5 -6v-90q0 -4 -5 -6l-446 -201q-5 -2 -5 4v63q0 5 5 7l385 175q3 1 3 3t-3 3zM29 0q-5 0 -5 5v60q0 5 5 5h446q5 0 5 -5v-60q0 -5 -5 -5h-446z" />
    <glyph glyph-name="lozenge" unicode="&#x25ca;" 
d="M456 5q0 -5 -5 -5h-411q-5 0 -5 5v694q0 5 5 5h411q5 0 5 -5v-694zM419 681h-346l173 -306zM419 24l-173 305l-173 -305h346zM432 48v608q-43 -75 -87 -152t-86 -152zM233 352l-173 305v-610z" />
    <glyph glyph-name="commaaccent" unicode="&#xf6c3;" horiz-adv-x="246" 
d="M68 198q-5 0 -5 5v100q0 5 5 5h100q5 0 5 -5v-104q0 -54 -24.5 -82.5t-80.5 -28.5q-5 0 -5 5v40q0 5 5 5q45 0 45 55q0 5 -5 5h-40z" />
    <glyph glyph-name="apple" unicode="&#xf8ff;" horiz-adv-x="668" 
d="M480 702q0 -35 -7 -66t-36 -60q-18 -19 -40.5 -31.5t-54.5 -12.5q-1 0 -1 0.5t-2 0.5q0 32 9.5 59.5t32.5 53.5q20 20 45 35.5t54 20.5zM625 187q-24 -53 -46 -89t-41 -56q-39 -42 -88 -42q-20 0 -56 16q-19 8 -31 10.5t-22 2.5q-8 0 -22 -2.5t-32 -10.5
q-17 -8 -31.5 -12t-22.5 -4q-14 0 -28 4.5t-27 14.5q-33 24 -60 59.5t-45.5 76.5t-29 86t-10.5 88q0 39 13 77t37.5 68t59.5 48.5t79 18.5q16 0 32.5 -4.5t35.5 -11.5q36 -14 51 -14q8 0 20.5 3.5t31.5 10.5q20 7 36 11.5t29 4.5q24 0 45.5 -5t39.5 -13q35 -16 68 -52
q-35 -25 -60.5 -58.5t-25.5 -81.5t26.5 -86t73.5 -58z" />
    <glyph glyph-name="f_f" unicode="&#xfb00;" horiz-adv-x="662" 
d="M123 506q5 0 5 5v66q0 58 30.5 92.5t104.5 34.5h55q5 0 5 -5v-50q0 -5 -5 -5h-54q-32 0 -49 -17.5t-17 -49.5v-66q0 -5 5 -5h115q5 0 5 -5v-50q0 -5 -5 -5h-115q-5 0 -5 -5v-436q0 -5 -5 -5h-60q-5 0 -5 5v436q0 5 -5 5h-95q-5 0 -5 5v50q0 5 5 5h95zM449 506q5 0 5 5v66
q0 58 30.5 92.5t104.5 34.5h55q5 0 5 -5v-50q0 -5 -5 -5h-54q-32 0 -49 -17.5t-17 -49.5v-66q0 -5 5 -5h115q5 0 5 -5v-50q0 -5 -5 -5h-115q-5 0 -5 -5v-436q0 -5 -5 -5h-60q-5 0 -5 5v436q0 5 -5 5h-95q-5 0 -5 5v50q0 5 5 5h95z" />
    <glyph glyph-name="f_f_i" unicode="&#xfb03;" horiz-adv-x="898" 
d="M123 506q5 0 5 5v66q0 58 30.5 92.5t104.5 34.5h55q5 0 5 -5v-50q0 -5 -5 -5h-54q-32 0 -49 -17.5t-17 -49.5v-66q0 -5 5 -5h115q5 0 5 -5v-50q0 -5 -5 -5h-115q-5 0 -5 -5v-436q0 -5 -5 -5h-60q-5 0 -5 5v436q0 5 -5 5h-95q-5 0 -5 5v50q0 5 5 5h95zM449 506q5 0 5 5v66
q0 58 30.5 92.5t104.5 34.5h55q5 0 5 -5v-50q0 -5 -5 -5h-54q-32 0 -49 -17.5t-17 -49.5v-66q0 -5 5 -5h115q5 0 5 -5v-50q0 -5 -5 -5h-115q-5 0 -5 -5v-436q0 -5 -5 -5h-60q-5 0 -5 5v436q0 5 -5 5h-95q-5 0 -5 5v50q0 5 5 5h95zM800 506q5 0 5 -5v-496q0 -5 -5 -5h-60
q-5 0 -5 5v496q0 5 5 5h60zM810 704q5 0 5 -5v-80q0 -5 -5 -5h-80q-5 0 -5 5v80q0 5 5 5h80z" />
    <glyph glyph-name="f_f_l" unicode="&#xfb04;" horiz-adv-x="878" 
d="M123 506q5 0 5 5v66q0 58 30.5 92.5t104.5 34.5h55q5 0 5 -5v-50q0 -5 -5 -5h-54q-32 0 -49 -17.5t-17 -49.5v-66q0 -5 5 -5h115q5 0 5 -5v-50q0 -5 -5 -5h-115q-5 0 -5 -5v-436q0 -5 -5 -5h-60q-5 0 -5 5v436q0 5 -5 5h-95q-5 0 -5 5v50q0 5 5 5h95zM449 506q5 0 5 5v66
q0 58 30.5 92.5t104.5 34.5h55q5 0 5 -5v-50q0 -5 -5 -5h-54q-32 0 -49 -17.5t-17 -49.5v-66q0 -5 5 -5h115q5 0 5 -5v-50q0 -5 -5 -5h-115q-5 0 -5 -5v-436q0 -5 -5 -5h-60q-5 0 -5 5v436q0 5 -5 5h-95q-5 0 -5 5v50q0 5 5 5h95zM790 704q5 0 5 -5v-694q0 -5 -5 -5h-60
q-5 0 -5 5v694q0 5 5 5h60z" />
    <glyph glyph-name="longs_t" unicode="&#xfb05;" 
d="M456 5q0 -5 -5 -5h-411q-5 0 -5 5v694q0 5 5 5h411q5 0 5 -5v-694zM419 681h-346l173 -306zM419 24l-173 305l-173 -305h346zM432 48v608q-43 -75 -87 -152t-86 -152zM233 352l-173 305v-610z" />
    <glyph glyph-name="parenleft.001" 
d="M456 5q0 -5 -5 -5h-411q-5 0 -5 5v694q0 5 5 5h411q5 0 5 -5v-694zM419 681h-346l173 -306zM419 24l-173 305l-173 -305h346zM432 48v608q-43 -75 -87 -152t-86 -152zM233 352l-173 305v-610z" />
    <glyph glyph-name="parenright.001" 
d="M456 5q0 -5 -5 -5h-411q-5 0 -5 5v694q0 5 5 5h411q5 0 5 -5v-694zM419 681h-346l173 -306zM419 24l-173 305l-173 -305h346zM432 48v608q-43 -75 -87 -152t-86 -152zM233 352l-173 305v-610z" />
    <glyph glyph-name="registered.001" horiz-adv-x="781" 
d="M550 458q0 -42 -25 -75.5t-61 -49.5l88 -195q3 -7 -5 -7h-46q-4 0 -5 3l-85 192h-148v-190q0 -5 -5 -5h-40q-5 0 -5 5q0 82 -0.5 145.5t-0.5 110.5v80v54v59q0 5 5 5h203q27 0 51 -10.5t41.5 -28.5t27.5 -42t10 -51zM500 458q0 17 -6.5 32t-17.5 26t-25.5 17.5t-30.5 6.5
h-157v-163h157q16 0 30.5 6.5t25.5 17.5t17.5 25.5t6.5 31.5zM734 353q0 -73 -27.5 -137t-75 -112t-111.5 -76t-137 -28q-72 0 -136 28t-111.5 76t-75 112t-27.5 137q0 72 27.5 136t75 112t111.5 76t136 28q73 0 137 -28t111.5 -76t75 -112t27.5 -136zM704 353
q0 66 -25.5 124.5t-69 102.5t-102 69.5t-124.5 25.5t-124.5 -25.5t-102 -69.5t-68.5 -102.5t-25 -124.5t25 -125t68.5 -102.5t102 -69t124.5 -25.5t124.5 25.5t102 69t69 102.5t25.5 125z" />
    <glyph glyph-name="copyright.001" horiz-adv-x="781" 
d="M381 554q-42 0 -72 -16.5t-49 -44.5t-27.5 -64t-8.5 -75t8.5 -75t27.5 -64t49 -44.5t72 -16.5q38 0 64 9.5t51 41.5q2 2 3 4.5t4 2.5h44q7 0 5 -7q-18 -44 -64.5 -70.5t-106.5 -26.5q-53 0 -92.5 21.5t-65 56t-38 78.5t-12.5 90t12.5 90t38 78.5t65 56t92.5 21.5
q60 0 106.5 -26.5t64.5 -70.5q2 -7 -5 -7h-44q-3 0 -4 2.5t-3 4.5q-25 32 -51 41.5t-64 9.5zM734 353q0 -73 -27.5 -137t-75 -112t-111.5 -76t-137 -28q-72 0 -136 28t-111.5 76t-75 112t-27.5 137q0 72 27.5 136t75 112t111.5 76t136 28q73 0 137 -28t111.5 -76t75 -112
t27.5 -136zM704 353q0 66 -25.5 124.5t-69 102.5t-102 69.5t-124.5 25.5t-124.5 -25.5t-102 -69.5t-68.5 -102.5t-25 -124.5t25 -125t68.5 -102.5t102 -69t124.5 -25.5t124.5 25.5t102 69t69 102.5t25.5 125z" />
    <glyph glyph-name="zero.tnum" horiz-adv-x="620" 
d="M573 351q0 -78 -13.5 -144.5t-44.5 -114.5t-82.5 -75t-127.5 -27t-127.5 27t-83 75t-45 114.5t-13.5 144.5q0 79 13.5 145.5t45 115t83 75.5t127.5 27t127.5 -27t82.5 -75.5t44.5 -115t13.5 -145.5zM498 351q0 149 -43.5 226t-149.5 77q-53 0 -90 -19.5t-60 -57.5
t-33.5 -94.5t-10.5 -131.5q0 -74 10.5 -130t33.5 -94t60 -57.5t90 -19.5q106 0 149.5 77t43.5 224z" />
    <glyph glyph-name="two.tnum" horiz-adv-x="620" 
d="M92 511q0 51 17.5 89.5t47.5 63.5t70 37.5t85 12.5q54 0 96 -15.5t71 -42.5t44 -64t15 -80q0 -36 -11 -66.5t-28 -56t-37 -46t-37 -36.5l-252 -238q-3 -3 -1.5 -6t4.5 -3h357q5 0 5 -5v-50q0 -5 -5 -5h-457q-5 0 -5 5v55q0 2 1.5 3.5l3.5 3.5l296 284q10 10 26.5 27
t32 38t26.5 45.5t11 50.5q0 23 -9 48t-28 46t-48.5 34.5t-70.5 13.5q-30 0 -57 -10t-47.5 -28.5t-33 -45t-12.5 -59.5q0 -5 -5 -5h-60q-5 0 -5 5z" />
    <glyph glyph-name="three.tnum" horiz-adv-x="620" 
d="M79 511q0 52 17 90.5t46.5 63.5t69.5 37t86 12q49 0 89.5 -15.5t70 -42t45.5 -62.5t16 -77q0 -38 -14.5 -66t-32.5 -46.5t-35.5 -28t-23.5 -10.5q-4 -1 -4.5 -4.5t4.5 -5.5q12 -4 33 -16.5t41 -34t34.5 -51t14.5 -68.5q0 -45 -18 -81.5t-49.5 -62t-75 -39t-95.5 -13.5h-1
q-54 0 -95.5 14.5t-70 41.5t-43 64.5t-14.5 82.5q0 5 5 5h60q5 0 5 -5q0 -63 39 -103t114 -40h1q75 0 121.5 36t46.5 100q0 33 -13 59.5t-35.5 44.5t-53 28t-66.5 10h-47q-5 0 -5 5v50q0 5 5 5h47q68 0 110.5 35t42.5 94q0 27 -11 51.5t-31 43.5t-48.5 30.5t-62.5 11.5
q-31 0 -58 -9t-47.5 -26.5t-32 -44.5t-11.5 -63q0 -5 -5 -5h-60q-5 0 -5 5z" />
    <glyph glyph-name="four.tnum" horiz-adv-x="620" 
d="M33 225q0 5 3 10l295 464q3 5 8 5h70q5 0 5 -5v-464q0 -5 5 -5h118q5 0 5 -5v-50q0 -5 -5 -5h-118q-5 0 -5 -5v-160q0 -5 -5 -5h-60q-5 0 -5 5v160q0 5 -5 5h-301q-5 0 -5 5v50zM114 236q-4 -6 3 -6h222q5 0 5 5v345q0 5 -4 6t-6 -4z" />
    <glyph glyph-name="five.tnum" horiz-adv-x="620" 
d="M181 644q-2 0 -4.5 -0.5t-3.5 -5.5q-2 -17 -6.5 -50.5t-9.5 -66.5q-5 -40 -11 -83q-1 -5 3 -5.5t6 1.5q15 21 51.5 38t97.5 17q54 0 99 -18t77.5 -51t50 -78.5t17.5 -100.5q0 -118 -64 -184.5t-180 -66.5q-70 0 -116.5 21t-74.5 52t-39.5 66t-11.5 64q0 5 5 5h60
q5 0 5 -5q0 -21 9 -45.5t29.5 -46.5t53.5 -36.5t80 -14.5q38 0 70 13t55 37.5t36 60t13 80.5q0 41 -13 75.5t-36 59.5t-55 39t-70 14q-54 0 -94.5 -18.5t-68.5 -59.5q-3 -5 -8 -5h-57q-5 0 -5 5l45 348q1 5 8 5h366q5 0 5 -5v-50q0 -5 -5 -5h-309z" />
    <glyph glyph-name="six.tnum" horiz-adv-x="620" 
d="M219 474q-1 -2 1 -4.5t7 -0.5q13 6 36 13t54 7q51 0 94 -18.5t74.5 -51.5t49.5 -79.5t18 -101.5q0 -54 -17 -99.5t-49 -78.5t-78 -51.5t-105 -18.5t-104.5 18.5t-77.5 51.5t-48.5 78.5t-16.5 99.5q0 41 10.5 78.5t27.5 68.5l168 314q2 5 8 5h58q7 0 4 -6zM483 238
q0 87 -45 139t-134 52q-88 0 -132.5 -52t-44.5 -139t44.5 -137.5t132.5 -50.5q89 0 134 50.5t45 137.5z" />
    <glyph glyph-name="seven.tnum" horiz-adv-x="620" 
d="M530 657q0 -8 -0.5 -11t-2.5 -7l-243 -634q-2 -5 -6 -5h-65q-6 0 -4 5l241 634q2 5 -4 5h-362q-5 0 -5 5v50q0 5 5 5h441q5 0 5 -5v-42z" />
    <glyph glyph-name="eight.tnum" horiz-adv-x="620" 
d="M305 -10q-52 0 -95.5 13.5t-75 39t-49.5 62t-18 81.5q0 42 14.5 72.5t34.5 51t41 31.5t33 15q5 2 4.5 5.5t-4.5 4.5q-9 2 -27 11.5t-35.5 27.5t-30.5 46t-13 66q0 41 16 77t45.5 62.5t70 42t89.5 15.5t89.5 -15.5t70 -42t45.5 -62.5t16 -77q0 -38 -14.5 -66t-32.5 -46.5
t-35.5 -28t-23.5 -10.5q-4 -1 -4.5 -4.5t4.5 -5.5q12 -4 33 -16.5t41 -34t34.5 -51t14.5 -68.5q0 -45 -18 -81.5t-49.5 -62t-75 -39t-95.5 -13.5zM305 50q75 0 121.5 36t46.5 100q0 33 -13 59.5t-35.5 44.5t-53 28t-66.5 10t-66.5 -10t-53 -28t-35.5 -44.5t-13 -59.5
q0 -64 46.5 -100t121.5 -36zM152 517q0 -59 42.5 -94t110.5 -35t110.5 35t42.5 94q0 27 -11 51.5t-31 43.5t-48.5 30.5t-62.5 11.5q-35 0 -63 -11.5t-48 -30.5t-31 -43.5t-11 -51.5z" />
    <glyph glyph-name="nine.tnum" horiz-adv-x="620" 
d="M391 230q1 2 -1 4.5t-7 0.5q-13 -6 -36 -13t-54 -7q-51 0 -94 18.5t-74.5 51.5t-49.5 79t-18 102q0 54 17 99.5t49 78.5t78 51.5t105 18.5q58 0 104 -18.5t78 -51.5t48.5 -78.5t16.5 -99.5q0 -41 -10.5 -78.5t-27.5 -68.5l-168 -314q-3 -5 -8 -5h-58q-7 0 -4 6zM127 466
q0 -87 45 -139t134 -52q88 0 132.5 52t44.5 139t-44.5 137.5t-132.5 50.5q-89 0 -134 -50.5t-45 -137.5z" />
    <glyph glyph-name="registered.002" horiz-adv-x="781" 
d="M734 353q0 -73 -27.5 -137t-75 -112t-111.5 -76t-137 -28q-72 0 -136 28t-111.5 76t-75 112t-27.5 137q0 72 27.5 136t75 112t111.5 76t136 28q73 0 137 -28t111.5 -76t75 -112t27.5 -136zM704 353q0 66 -25.5 124.5t-69 102.5t-102 69.5t-124.5 25.5t-124.5 -25.5
t-102 -69.5t-68.5 -102.5t-25 -124.5t25 -125t68.5 -102.5t102 -69t124.5 -25.5t124.5 25.5t102 69t69 102.5t25.5 125zM423 323q-2 4 -4 4h-159q-3 0 -3 -4v-214q0 -3 -4 -3h-42q-3 0 -3 3v486q0 3 3 3h227q28 0 52 -11t41.5 -29.5t27.5 -43t10 -51.5q0 -47 -26.5 -83
t-68.5 -48q-6 -2 -3 -6q22 -52 48.5 -108.5t49.5 -108.5q0 -3 -3 -3h-41q-5 0 -5 3zM260 556q-3 0 -3 -3v-181q0 -3 3 -3h178q17 0 32 8t26 21t17.5 30t6.5 35t-6.5 35t-17.5 30t-26 20.5t-32 7.5h-178z" />
    <glyph glyph-name="copyright.002" horiz-adv-x="781" 
d="M734 353q0 -73 -27.5 -137t-75 -112t-111.5 -76t-137 -28q-72 0 -136 28t-111.5 76t-75 112t-27.5 137q0 72 27.5 136t75 112t111.5 75.5t136 27.5q73 0 137 -27.5t111.5 -75.5t75 -112t27.5 -136zM704 353q0 66 -25.5 124.5t-69 102t-102 69t-124.5 25.5t-124.5 -25.5
t-102 -69t-68.5 -102t-25 -124.5t25 -125t68.5 -102.5t102 -69t124.5 -25.5t124.5 25.5t102 69t69 102.5t25.5 125zM524 244q1 3 5 3h41q4 0 4 -3q-1 -14 -12.5 -38t-35.5 -47t-59.5 -40t-84.5 -17q-52 0 -93 18.5t-69 52.5t-43 80t-15 102q0 55 15 101.5t43 80.5t69 52.5
t93 18.5q49 0 84.5 -17t59.5 -40t35.5 -47t12.5 -38q0 -3 -4 -3h-41q-4 0 -5 3q-4 11 -14 28t-27 33t-42 27.5t-59 11.5q-82 0 -125.5 -55.5t-43.5 -155.5t43.5 -155.5t125.5 -55.5q34 0 59 11.5t42 27.5t27 33t14 28z" />
    <glyph glyph-name="one.tnum" horiz-adv-x="620" 
d="M85 0q-5 0 -5 5v50q0 5 5 5h191q5 0 5 5v406q0 14 -10.5 24.5t-24.5 10.5h-161q-5 0 -5 5v50q0 5 5 5h127q29 0 49 20t20 49v64q0 5 5 5h60q5 0 5 -5v-634q0 -5 5 -5h169q5 0 5 -5v-50q0 -5 -5 -5h-440z" />
    <glyph glyph-name="dollar.plf" 
d="M456 5q0 -5 -5 -5h-411q-5 0 -5 5v694q0 5 5 5h411q5 0 5 -5v-694zM419 681h-346l173 -306zM419 24l-173 305l-173 -305h346zM432 48v608q-43 -75 -87 -152t-86 -152zM233 352l-173 305v-610z" />
    <glyph glyph-name="cent.plf" 
d="M456 5q0 -5 -5 -5h-411q-5 0 -5 5v694q0 5 5 5h411q5 0 5 -5v-694zM419 681h-346l173 -306zM419 24l-173 305l-173 -305h346zM432 48v608q-43 -75 -87 -152t-86 -152zM233 352l-173 305v-610z" />
    <glyph glyph-name="sterling.plf" 
d="M456 5q0 -5 -5 -5h-411q-5 0 -5 5v694q0 5 5 5h411q5 0 5 -5v-694zM419 681h-346l173 -306zM419 24l-173 305l-173 -305h346zM432 48v608q-43 -75 -87 -152t-86 -152zM233 352l-173 305v-610z" />
    <glyph glyph-name="yen.plf" 
d="M456 5q0 -5 -5 -5h-411q-5 0 -5 5v694q0 5 5 5h411q5 0 5 -5v-694zM419 681h-346l173 -306zM419 24l-173 305l-173 -305h346zM432 48v608q-43 -75 -87 -152t-86 -152zM233 352l-173 305v-610z" />
    <glyph glyph-name="florin.plf" 
d="M456 5q0 -5 -5 -5h-411q-5 0 -5 5v694q0 5 5 5h411q5 0 5 -5v-694zM419 681h-346l173 -306zM419 24l-173 305l-173 -305h346zM432 48v608q-43 -75 -87 -152t-86 -152zM233 352l-173 305v-610z" />
    <glyph glyph-name="Euro.plf" 
d="M456 5q0 -5 -5 -5h-411q-5 0 -5 5v694q0 5 5 5h411q5 0 5 -5v-694zM419 681h-346l173 -306zM419 24l-173 305l-173 -305h346zM432 48v608q-43 -75 -87 -152t-86 -152zM233 352l-173 305v-610z" />
    <glyph glyph-name="currency.plf" 
d="M456 5q0 -5 -5 -5h-411q-5 0 -5 5v694q0 5 5 5h411q5 0 5 -5v-694zM419 681h-346l173 -306zM419 24l-173 305l-173 -305h346zM432 48v608q-43 -75 -87 -152t-86 -152zM233 352l-173 305v-610z" />
    <glyph glyph-name="numbersign.plf" 
d="M456 5q0 -5 -5 -5h-411q-5 0 -5 5v694q0 5 5 5h411q5 0 5 -5v-694zM419 681h-346l173 -306zM419 24l-173 305l-173 -305h346zM432 48v608q-43 -75 -87 -152t-86 -152zM233 352l-173 305v-610z" />
    <glyph glyph-name="grave.case" horiz-adv-x="246" 
d="M128 774q-4 0 -6.5 2.5l-4.5 4.5l-72 114q-2 3 0 5t5 2h67q8 0 10 -7l49 -114q3 -7 -5 -7h-43z" />
    <glyph glyph-name="dieresis.case" horiz-adv-x="246" 
d="M49 864q5 0 5 -5v-80q0 -5 -5 -5h-80q-5 0 -5 5v80q0 5 5 5h80zM268 864q5 0 5 -5v-80q0 -5 -5 -5h-80q-5 0 -5 5v80q0 5 5 5h80z" />
    <glyph glyph-name="macron.case" horiz-adv-x="246" 
d="M-5 774q-4 0 -4 5v40q0 5 4 5h246q5 0 5 -5v-40q0 -5 -5 -5h-246z" />
    <glyph glyph-name="acute.case" horiz-adv-x="246" 
d="M65 774q-3 0 -5 2t0 5l49 114q2 7 10 7h67q3 0 5 -2t0 -5l-72 -114l-4.5 -4.5t-6.5 -2.5h-43z" />
    <glyph glyph-name="circumflex.case" horiz-adv-x="246" 
d="M162 774q-4 0 -5 3l-34 62q-2 3 -5 3t-5 -3l-34 -62q-2 -3 -5 -3h-47q-3 0 -5 2t0 5l51 117q1 4 5 4h80q4 0 5 -4l51 -117q3 -7 -5 -7h-47z" />
    <glyph glyph-name="caron.case" horiz-adv-x="246" 
d="M209 901q8 0 5 -7l-51 -117q-1 -4 -5 -4h-80q-4 0 -5 4l-51 117q-2 3 0 5t5 2h47q3 0 5 -3l34 -62q2 -3 5 -3t5 3l34 62q1 3 5 3h47z" />
    <glyph glyph-name="breve.case" horiz-adv-x="246" 
d="M237 902q5 0 5 -5q0 -63 -34.5 -93t-89.5 -30q-54 0 -89 30t-35 93q0 5 5 5h42q5 0 5 -5q0 -11 3 -23.5t11 -23.5t22 -18.5t36 -7.5t36 7.5t21.5 18.5t10.5 23.5t3 23.5q0 5 5 5h43z" />
    <glyph glyph-name="dotaccent.case" horiz-adv-x="246" 
d="M53 759q-5 0 -5 5v132q0 5 5 5h129q5 0 5 -5v-132q0 -5 -5 -5h-129z" />
    <glyph glyph-name="ring.case" horiz-adv-x="246" 
d="M205 823q0 -36 -26 -61.5t-62 -25.5t-61.5 25.5t-25.5 61.5t25.5 62t61.5 26q18 0 34 -7t28 -19t19 -28t7 -34zM166 823q0 20 -14.5 34.5t-34.5 14.5q-21 0 -35.5 -14.5t-14.5 -34.5q0 -21 14.5 -35.5t35.5 -14.5q20 0 34.5 14.5t14.5 35.5z" />
    <glyph glyph-name="tilde.case" horiz-adv-x="246" 
d="M-33 792q0 13 5 28t16 28t28 21.5t41 8.5q22 0 38 -7t29.5 -16t26.5 -16t28 -7q3 0 8.5 2t11 6.5t9 12.5t3.5 20q0 5 5 5h48q5 0 5 -5v-14q0 -13 -5 -28t-16 -27.5t-28 -21t-41 -8.5q-20 0 -37 7t-31.5 16t-28 16t-25.5 7q-3 0 -8.5 -2t-11 -6.5t-9 -12.5t-3.5 -20
q0 -5 -5 -5h-48q-5 0 -5 5v13z" />
    <glyph glyph-name="hungarumlaut.case" horiz-adv-x="246" 
d="M-51 760q-4 0 -4 5l29 132q0 5 6 5h89q4 0 4 -5l-29 -132q0 -5 -6 -5h-89zM169 760q-4 0 -4 5l29 132q0 5 6 5h89q4 0 4 -5l-29 -132q0 -5 -6 -5h-89z" />
    <glyph glyph-name="caron.salt" horiz-adv-x="299" 
d="M234 704q8 0 5 -7l-51 -117q-1 -4 -5 -4h-80q-4 0 -5 4l-51 117q-2 3 0 5t5 2h47q3 0 5 -3l34 -62q2 -3 5 -3t5 3l34 62q1 3 5 3h47z" />
    <glyph glyph-name="commaaccent.salt" horiz-adv-x="246" 
d="M68 198q-5 0 -5 5v100q0 5 5 5h100q5 0 5 -5v-104q0 -54 -24.5 -82.5t-80.5 -28.5q-5 0 -5 5v40q0 5 5 5q45 0 45 55q0 5 -5 5h-40z" />
    <glyph glyph-name="_0127" horiz-adv-x="506" 
d="M456 5q0 -5 -5 -5h-411q-5 0 -5 5v694q0 5 5 5h411q5 0 5 -5v-694zM419 681h-346l173 -306zM419 24l-173 305l-173 -305h346zM432 48v608q-43 -75 -87 -152t-86 -152zM233 352l-173 305v-610z" />
    </font>
</defs>
</svg>
