<?xml version="1.0" standalone="no"?>
<!DOCTYPE svg PUBLIC "-//W3C//DTD SVG 1.1//EN" "http://www.w3.org/Graphics/SVG/1.1/DTD/svg11.dtd" >
<svg xmlns="http://www.w3.org/2000/svg" xmlns:xlink="http://www.w3.org/1999/xlink" version="1.1">
<metadata>
Created by FontForge 20160405 at Mon Jan 21 16:45:39 2019
 By www-data
Copyright 2015 The Cormorant Project Authors (github.com/CatharsisFonts/Cormorant)
</metadata>
<defs>
<font id="CormorantInfant-Regular" horiz-adv-x="702" >
  <font-face 
    font-family="Cormorant Infant"
    font-weight="400"
    font-stretch="normal"
    units-per-em="1000"
    panose-1="0 0 5 0 0 0 0 0 0 0"
    ascent="800"
    descent="-200"
    x-height="386"
    cap-height="625"
    bbox="-353.8 -282.167 1451.8 924.947"
    underline-thickness="50"
    underline-position="-150"
    unicode-range="U+0020-A729"
  />
<missing-glyph horiz-adv-x="501" 
d="M94 -275v1000h317v-1000h-317zM168 626h65v-38h-66v-32h166v32h-66v38h66v32h-165v-32zM167 426h166v34h-66v69h-100v-103zM200 460v35h33v-35h-33zM167 365h66v-36h-66v-34h100v70h66v33h-166v-33zM301 273h-134v-34h166v99h-32v-65zM233 160h34v24h34v-48h-101v80h-33
v-113h166v113h-100v-56zM167 -70h166v113h-166v-113zM200 -37v48h101v-48h-101zM167 -126h70l-70 -47v-33h166v33h-101l69 47h32v34h-166v-34z" />
    <glyph glyph-name="Aogonek_acutecomb.liga" unicode="&#x104;&#x301;" horiz-adv-x="704" 
d="M245 678q-4 0 -5 4.5t2 6.5q33 18 109 62q18 12 31.5 20t22.5 13q4 2 23.5 -4.5t33.5 -14.5t7 -9q-62 -15 -113.5 -33.5t-108.5 -43.5zM703 3.5q0 -5.5 -4 -5.5q-22 0 -54 2l-42 1q-54 0 -91 -36.5t-37 -93.5q0 -49 27.5 -82.5t80.5 -33.5q30 0 56 13h1q3 0 5.5 -3
t0.5 -5q-45 -35 -105 -35q-58 0 -91 29.5t-33 79.5q0 41 19 69.5t55 62.5q27 25 40 43t13 40q0 16 -9 35l-118 247h-186l-86 -204q-14 -34 -14 -56q0 -59 98 -59q5 0 5 -6t-5 -6q-18 0 -52 2q-38 2 -66 2q-26 0 -60 -2q-30 -2 -50 -2q-5 0 -5 6t5 6q28 0 47.5 10.5t37 37
t38.5 76.5l211 498q2 3 7 3t6 -3l236 -499q34 -73 58.5 -99.5t56.5 -26.5q4 0 4 -5.5zM240 352h167l-88 186z" />
    <glyph glyph-name="Eogonek_acutecomb.liga" unicode="&#x118;&#x301;" horiz-adv-x="537" 
d="M170 678q-4 0 -5 4.5t2 6.5q33 18 109 62q18 12 31.5 20t22.5 13q4 2 23.5 -4.5t33.5 -14.5t7 -9q-62 -15 -113.5 -33.5t-108.5 -43.5zM499 -222q3 0 5.5 -3t-0.5 -5q-52 -45 -108 -45q-54 0 -83 27t-29 72q0 86 112 176h-353q-2 0 -2 6t2 6q38 0 55.5 5t24 19.5
t6.5 44.5v463q0 30 -6.5 44t-24 19.5t-55.5 5.5q-2 0 -2 6t2 6h402q9 0 9 -9l2 -123q0 -3 -5 -3.5t-6 2.5q-3 53 -32 82.5t-77 29.5h-61q-35 0 -51.5 -5.5t-23 -19t-6.5 -40.5v-203h122q48 0 68.5 16t20.5 54q0 2 6 2t6 -2l-1 -81q0 -29 1 -44l1 -48q0 -2 -6 -2t-6 2
q0 44 -21.5 63t-71.5 19h-119v-230q0 -28 6 -41t22 -18t50 -5h80q48 0 80 34t43 94q0 2 4 2q3 0 5.5 -1t2.5 -3q-9 -63 -9 -132q0 -8 -3.5 -11.5t-12.5 -3.5h-47q-40 -37 -58 -70.5t-18 -72.5q0 -48 24 -75t69 -27q21 0 36 6t29 17h2z" />
    <glyph glyph-name="IJ_acutecomb.liga" unicode="&#x132;&#x301;" horiz-adv-x="690" 
d="M68 678q-4 0 -5 4.5t2 6.5q33 18 109 62q18 12 31.5 20t22.5 13q4 2 23.5 -4.5t33.5 -14.5t7 -9q-62 -15 -113.5 -33.5t-108.5 -43.5zM442 678q-4 0 -5 4.5t2 6.5q33 18 109 62q18 12 31.5 20t22.5 13q4 2 23.5 -4.5t33.5 -14.5t7 -9q-62 -15 -113.5 -33.5t-108.5 -43.5z
M200 305q6 -14 23.5 -19t56.5 -5q2 0 2 -6t-2 -6q-31 0 -49 1l-71 1l-67 -1q-19 -1 -51 -1q-2 0 -2 6t2 6q38 0 55.5 5t24 19.5t6.5 44.5v194q0 30 -6.5 44t-24 19.5t-55.5 5.5q-2 0 -2 6t2 6l51 -1q42 -2 67 -2q29 0 73 2l47 1q2 0 2 -6t-2 -6q-37 0 -55 -6t-24.5 -20.5
t-6.5 -44.5v-192q0 -31 6 -45zM659 619q0 -6 -3 -6q-32 0 -47.5 -6t-21 -20.5t-5.5 -44.5v-284q0 -86 -30 -147t-84 -92.5t-125 -31.5q-62 0 -113.5 22.5t-81 57t-29.5 68.5q0 17 9 26.5t25 9.5q22 0 30.5 -14t16.5 -45q8 -34 18.5 -56t39 -38t80.5 -16q92 0 135.5 52
t43.5 146v344q0 30 -7.5 44t-27.5 19.5t-63 5.5q-3 0 -3 6t3 6l58 -1q44 -2 71 -2t65 2l43 1q3 0 3 -6z" />
    <glyph glyph-name="Iogonek_acutecomb.liga" unicode="&#x12e;&#x301;" horiz-adv-x="332" 
d="M250.5 779.5q19.5 -6.5 33.5 -14.5t7 -9q-62 -15 -113.5 -33.5t-108.5 -43.5l-2 -1q-4 0 -5 4.5t2 6.5q33 18 109 62q18 12 31.5 20t22.5 13q4 2 23.5 -4.5zM229.5 607q-17.5 -6 -24 -20.5t-6.5 -44.5v-461q0 -30 6 -44.5t23.5 -19.5t55.5 -5q3 0 3 -6t-3 -6q-28 0 -44 1
l-65 1q-49 -65 -49 -140q0 -48 22.5 -77t61.5 -29q17 0 27 5t25 17h1q3 0 5.5 -3t0.5 -5q-25 -24 -47 -34.5t-49 -10.5q-48 0 -75 26.5t-27 71.5q0 88 88 179l-65 -1q-17 -1 -47 -1q-3 0 -3 6t3 6q38 0 55.5 5t24 19.5t6.5 44.5v463q0 30 -6.5 44t-24 19.5t-55.5 5.5
q-3 0 -3 6t3 6l49 -1q42 -2 69 -2q30 0 72 2l47 1q3 0 3 -6t-3 -6q-37 0 -54.5 -6z" />
    <glyph glyph-name="J_acutecomb.liga" unicode="J&#x301;" horiz-adv-x="320" 
d="M65 678q-4 0 -5.5 4.5t1.5 6.5q43 22 103 59q40 24 60 35q4 3 23.5 -3.5t34 -14.5t6.5 -9q-118 -30 -222 -78h-1zM189.5 -63.5q-13.5 -49.5 -44.5 -81t-89 -55.5l-1 -1q-3 0 -5 4.5t0 6.5q49 27 68.5 83t19.5 147v504q0 30 -6.5 44t-24.5 19.5t-56 5.5q-2 0 -2 6t2 6
l52 -1q42 -2 66 -2q26 0 64 2l44 1q2 0 2 -6t-2 -6q-33 0 -48 -6t-20.5 -20.5t-5.5 -44.5v-475q0 -81 -13.5 -130.5z" />
    <glyph glyph-name="uni01EA0301.liga" unicode="&#x1ea;&#x301;" horiz-adv-x="766" 
d="M285 678q-4 0 -5 4.5t2 6.5q33 18 109 62q18 12 31.5 20t22.5 13q4 2 23.5 -4.5t33.5 -14.5t7 -9q-62 -15 -113.5 -33.5t-108.5 -43.5zM384.5 -72q-16.5 -33 -16.5 -71q0 -48 24 -75t69 -27q21 0 36 6t29 17h2q3 0 5.5 -3t-0.5 -5q-52 -45 -108 -45q-54 0 -83 27t-29 72
q0 81 102 167q-24 -3 -49 -3q-93 0 -165.5 43.5t-112 118t-39.5 162.5q0 103 52 176.5t133.5 110.5t166.5 37q95 0 167 -44.5t110.5 -117.5t38.5 -155q0 -79 -36.5 -147.5t-100 -114.5t-141.5 -62q-38 -34 -54.5 -67zM160 175.5q35 -77.5 98 -122t143 -44.5q68 0 122.5 33
t86 97t31.5 152q0 94 -35 167t-98.5 114t-148.5 41q-110 0 -172 -71t-62 -195q0 -94 35 -171.5z" />
    <glyph glyph-name="aogonek_acutecomb.liga" unicode="&#x105;&#x301;" horiz-adv-x="490" 
d="M250 472q-3 0 -5.5 1.5t-1.5 2.5l52 240q1 4 21 9.5t32 5.5q9 0 8 -4l-102 -253q0 -2 -4 -2zM483 58q4 0 5.5 -4.5t-2.5 -5.5l-40 -19q-75 -40 -109 -83t-34 -95q0 -46 22.5 -71.5t66.5 -25.5q22 0 37 6t30 18h2q3 0 5.5 -3t-0.5 -5q-52 -45 -110 -45q-54 0 -82 25.5
t-28 70.5q0 44 29.5 88.5t84.5 83.5q-8 7 -14.5 29t-7.5 52q-37 -38 -75 -61t-83 -23q-61 0 -102.5 45t-41.5 126q0 72 34 126t85.5 83t103.5 29q56 0 97 -30q18 10 28 26q1 2 5 0.5t4 -3.5v-285q0 -34 8 -48.5t27 -14.5q13 0 37 8l16 7v-1h2zM277.5 41.5
q30.5 18.5 60.5 48.5v204q0 37 -32 61t-72 24q-59 0 -95.5 -52.5t-36.5 -136.5q0 -75 30.5 -121t81.5 -46q33 0 63.5 18.5z" />
    <glyph glyph-name="eogonek_acutecomb.liga" unicode="&#x119;&#x301;" horiz-adv-x="408" 
d="M197 472q-3 0 -5.5 1.5t-1.5 2.5l52 240q1 4 20.5 9.5t32.5 5.5q9 0 8 -4l-102 -253q0 -2 -4 -2zM371 -222q3 0 5.5 -3t-0.5 -5q-25 -24 -48 -34.5t-49 -10.5q-49 0 -75.5 26t-26.5 70q0 86 110 177q-29 -10 -63 -10q-59 0 -102 27t-64.5 70.5t-21.5 94.5q0 60 28.5 109
t77.5 77.5t109 28.5q54 0 84 -26.5t30 -72.5q0 -12 -2.5 -17.5t-9.5 -5.5l-246 -2q-5 -27 -5 -52q0 -87 42 -141.5t116 -54.5q57 0 103 33h1q3 0 5.5 -3.5t0.5 -6.5q-16 -14 -33 -24q-54 -44 -78.5 -85t-24.5 -86q0 -46 20 -71.5t58 -25.5q19 0 31 6t26 18h2zM148.5 351.5
q-27.5 -23.5 -38.5 -66.5l186 4q0 41 -21.5 63.5t-57.5 22.5q-41 0 -68.5 -23.5z" />
    <glyph glyph-name="ij_acutecomb.liga" unicode="&#x133;&#x301;" horiz-adv-x="526" 
d="M131 472q-3 0 -5.5 1.5t-1.5 2.5l52 240q1 4 20.5 9.5t32.5 5.5q9 0 8 -4l-102 -253q0 -2 -4 -2zM391 472q-3 0 -5.5 1.5t-1.5 2.5l52 240q1 4 21 9.5t32 5.5q9 0 8 -4l-102 -253q0 -2 -4 -2zM51 6q0 6 2 6q27 0 40.5 5.5t18.5 20t5 43.5v187q0 36 -7.5 52t-25.5 16
t-45 -14h-1q-4 0 -6 5t1 7l130 60l4 1q2 0 5 -2.5t3 -5.5q0 -7 -1 -40t-1 -78v-188q0 -30 5 -44t18 -19.5t40 -5.5q3 0 3 -6t-3 -6q-23 0 -37 1l-54 1l-54 -1q-14 -1 -38 -1q-2 0 -2 6zM435 347q-1 -33 -1 -78v-317q0 -68 -13.5 -111.5t-43.5 -72.5t-84 -50q-2 -1 -4.5 4.5
t-0.5 6.5q49 21 69 67t20 133v339q0 36 -7 52t-24 16q-18 0 -46 -14h-1q-5 0 -7 5t2 7l130 60l3 1q3 0 6 -2.5t3 -5.5q0 -7 -1 -40z" />
    <glyph glyph-name="iogonek_acutecomb.liga" unicode="&#x12f;&#x301;" horiz-adv-x="273" 
d="M131 472q-3 0 -5.5 1.5t-1.5 2.5l52 240q1 4 20.5 9.5t32.5 5.5q9 0 8 -4l-102 -253q0 -2 -4 -2zM240 -215q3 0 5.5 -3t0.5 -5q-25 -24 -47 -34.5t-49 -10.5q-48 0 -75 26.5t-27 71.5q0 85 81 172q-58 -2 -76 -2q-2 0 -2 6t2 6q27 0 40.5 5.5t18.5 20t5 43.5v187
q0 36 -7.5 52t-25.5 16t-45 -14h-1q-4 0 -6 5t1 7l130 60l4 1q2 0 5 -2.5t3 -5.5q0 -7 -1 -40t-1 -78v-188q0 -30 5 -44t18 -19.5t40 -5.5q3 0 3 -6t-3 -6q-23 0 -37 1l-52 1q-44 -61 -44 -133q0 -48 22.5 -77t61.5 -29q17 0 27 5t25 17h1z" />
    <glyph glyph-name="j_acutecomb.liga" unicode="j&#x301;" horiz-adv-x="257" 
d="M122 472q-3 0 -5.5 1.5t-1.5 2.5l52 240q1 4 21 9.5t32 5.5q9 0 8 -4l-102 -253q0 -2 -4 -2zM166 347q-1 -33 -1 -78v-317q0 -68 -13.5 -111.5t-43.5 -72.5t-84 -50q-2 -1 -4.5 4.5t-0.5 6.5q49 21 69 67t20 133v339q0 36 -7 52t-24 16q-18 0 -46 -14h-1q-5 0 -7 5t2 7
l130 60l3 1q3 0 6 -2.5t3 -5.5q0 -7 -1 -40z" />
    <glyph glyph-name="uni01EB0301.liga" unicode="&#x1eb;&#x301;" horiz-adv-x="479" 
d="M234 472q-3 0 -5.5 1.5t-1.5 2.5l52 240q1 4 21 9.5t32 5.5q9 0 8 -4l-102 -253q0 -2 -4 -2zM395 57.5q-48 -54.5 -122 -66.5q-31 -34 -44.5 -68t-13.5 -72q0 -46 21.5 -71.5t62.5 -25.5q22 0 36.5 6t31.5 18h1q3 0 5.5 -3t0.5 -5q-53 -45 -111 -45q-51 0 -78.5 25.5
t-27.5 70.5q0 82 93 167q-6 -1 -19 -1q-58 0 -102.5 28.5t-68.5 77t-24 105.5q0 65 31.5 110.5t81 68t100.5 22.5q59 0 103 -29t67.5 -76.5t23.5 -100.5q0 -81 -48 -135.5zM123 117q20 -51 56 -81t81 -30q55 0 85 39t30 120q0 62 -20.5 111t-56.5 76.5t-82 27.5
q-54 0 -83.5 -39t-29.5 -112q0 -61 20 -112z" />
    <glyph glyph-name="T_T.liga" unicode="TT" horiz-adv-x="1149" 
d="M1108 654q5 0 5 -4q-3 -27 -6 -87t-3 -97q0 -2 -5.5 -2t-6.5 2q-4 79 -32.5 110.5t-96.5 31.5q-45 0 -63.5 -4t-25.5 -17t-7 -45v-461q0 -31 7 -45t27 -19t63 -5q3 0 3 -6t-3 -6q-34 0 -54 1l-77 1l-75 -1q-20 -1 -55 -1q-2 0 -2 6t2 6q43 0 63 5.5t28 19.5t8 44v463
q0 30 -6.5 43t-24 17t-58.5 4q-62 0 -85.5 -8t-32 -35t-11.5 -99q0 -2 -6 -2t-6 2q1 71 -7 98.5t-33.5 35.5t-93.5 8q-38 0 -55.5 -4.5t-24 -18.5t-6.5 -43v-461q0 -30 6 -44.5t24 -19.5t56 -5q2 0 2 -6t-2 -6q-31 0 -49 1l-71 1l-74 -1q-20 -1 -56 -1q-2 0 -2 6t2 6
q43 0 63.5 5t28 19.5t7.5 44.5v463q0 31 -7.5 44t-26 16.5t-64.5 3.5q-62 0 -93.5 -31.5t-46.5 -110.5q0 -2 -5.5 -2t-5.5 2q4 28 9 89t5 92q0 5 6 5t6 -5q0 -22 53 -22q85 -3 201 -3q56 0 118 2l63 1q42 0 55.5 1t17.5 6t5 19q0 4 6 4t6 -4q-1 -14 1 -18.5t11.5 -5.5
t41.5 -2q81 -3 190 -3q59 0 125 2l68 1q36 0 53 5t22 20q2 4 7 4z" />
    <glyph glyph-name="T_h.liga" unicode="Th" horiz-adv-x="1028" 
d="M1009 6q0 -6 -3 -6q-23 0 -36 1l-55 1l-54 -1q-14 -1 -38 -1q-2 0 -2 6t2 6q27 0 40.5 5.5t18.5 19.5t5 44v159q0 59 -22.5 87.5t-69.5 28.5q-31 0 -63.5 -16.5t-57.5 -45.5v-213q0 -30 5 -44t18 -19.5t40 -5.5q3 0 3 -6t-3 -6q-23 0 -36 1l-55 1l-54 -1q-14 -1 -38 -1
q-2 0 -2 6t2 6q27 0 40.5 5.5t18.5 19.5t5 44v514q0 13 -14 13h-155q-45 0 -64 -4t-26 -17.5t-7 -44.5v-461q0 -31 7 -45t27 -19t63 -5q3 0 3 -6t-3 -6q-33 0 -53 1l-78 1l-75 -1q-20 -1 -55 -1q-2 0 -2 6t2 6q43 0 63 5t27.5 19.5t7.5 44.5v463q0 31 -7 44t-26 16.5
t-64 3.5q-63 0 -94.5 -32.5t-45.5 -109.5q0 -2 -5.5 -2t-5.5 2q4 36 9 94t5 87q0 5 5.5 5t5.5 -5q0 -22 54 -22q57 -2 201 -2t193 2q61 2 99.5 27t50.5 73q0 2 5 2q8 0 8 -3v-413q73 85 154 85q55 0 85.5 -31t30.5 -90v-194q0 -30 4.5 -44t17.5 -19.5t40 -5.5q3 0 3 -6z" />
    <glyph glyph-name="f_b.liga" unicode="fb" horiz-adv-x="821" 
d="M704 378q37 -21 59 -62.5t22 -101.5q0 -72 -31.5 -123.5t-82 -77.5t-106.5 -26q-74 0 -138 42l-74 -34h-2q-4 0 -5 4t2 6q31 22 44 41.5t13 56.5l1 530q-46 77 -121 77q-36 0 -61 -18t-40 -58q-26 -62 -26 -195v-64q46 1 128 10q3 0 5 -7t2 -17q0 -8 -3 -16.5t-7 -7.5
q-58 14 -125 16v-272q0 -31 7 -45t27 -19t64 -5q3 0 3 -6t-3 -6l-64 1q-21 1 -64 1l-56 -1q-14 -1 -40 -1q-3 0 -3 6t3 6q30 0 44 5.5t19.5 19.5t5.5 44v225q0 26 -5 36.5t-19.5 14t-48.5 3.5q-3 0 -3 6.5t3 6.5q41 0 55.5 9.5t15.5 35.5q6 150 50 223q26 44 65.5 64.5
t96.5 20.5q41 0 74.5 -10t56.5 -28q11 19 11 40q0 3 5.5 3t5.5 -3v-413q36 38 74.5 61t85.5 23q43 0 80 -21zM686.5 51q32.5 45 32.5 129q0 90 -35 138t-93 48q-61 0 -127 -68v-217q56 -75 132 -75q58 0 90.5 45z" />
    <glyph glyph-name="f_f.liga" unicode="ff" horiz-adv-x="600" 
d="M697.5 710.5q32.5 -15.5 32.5 -37.5q0 -15 -10.5 -23.5t-24.5 -8.5q-12 0 -21 6t-19 20q-15 21 -32.5 31.5t-43.5 10.5q-58 0 -92 -67t-34 -203v-64q46 1 128 10q3 0 5 -7t2 -17q0 -8 -3 -16.5t-7 -7.5q-58 14 -125 16v-272q0 -31 7 -45t27 -19t64 -5q3 0 3 -6t-3 -6
l-64 1q-21 1 -64 1l-56 -1q-14 -1 -40 -1q-3 0 -3 6t3 6q30 0 44 5.5t19.5 19.5t5.5 44v225q-1 25 -5 33.5t-18.5 11t-59.5 3.5q-34 2 -155 2v-275q0 -31 7 -45t27 -19t64 -5q3 0 3 -6t-3 -6l-64 1q-21 1 -64 1l-56 -1q-14 -1 -40 -1q-3 0 -3 6t3 6q30 0 44 5.5t19.5 19.5
t5.5 44v225q0 26 -5 36.5t-19.5 14t-48.5 3.5q-3 0 -3 6.5t3 6.5q41 0 55.5 9.5t15.5 35.5q7 134 68.5 203.5t166.5 69.5q72 0 128 -28q52 63 152 63q51 0 83.5 -15.5zM430 612q-26 29 -59.5 45.5t-69.5 16.5q-66 0 -104.5 -60t-38.5 -175v-64q122 0 164 1q32 1 47 5t21 15
q4 8 4 22q4 122 36 194z" />
    <glyph glyph-name="f_f_b.liga" unicode="ffb" horiz-adv-x="1116" 
d="M999 378q37 -21 59 -62.5t22 -101.5q0 -72 -31.5 -123.5t-82 -77.5t-106.5 -26q-74 0 -138 42l-74 -34h-2q-4 0 -5 4t2 6q31 22 44 41.5t13 56.5l1 530q-46 77 -121 77q-36 0 -61 -18t-40 -58q-26 -62 -26 -195v-64q46 1 128 10q3 0 5 -7t2 -17q0 -8 -3 -16.5t-7 -7.5
q-58 14 -125 16v-272q0 -31 7 -45t27 -19t64 -5q3 0 3 -6t-3 -6l-64 1q-21 1 -64 1l-56 -1q-14 -1 -40 -1q-3 0 -3 6t3 6q30 0 44 5.5t19.5 19.5t5.5 44v225q-1 25 -5 33.5t-18.5 11t-59.5 3.5q-34 2 -155 2v-275q0 -31 7 -45t27 -19t64 -5q3 0 3 -6t-3 -6l-64 1
q-21 1 -64 1l-56 -1q-14 -1 -40 -1q-3 0 -3 6t3 6q30 0 44 5.5t19.5 19.5t5.5 44v225q0 26 -5 36.5t-19.5 14t-48.5 3.5q-3 0 -3 6.5t3 6.5q41 0 55.5 9.5t15.5 35.5q7 134 68.5 203.5t166.5 69.5q72 0 126 -27q50 62 146 62q41 0 74.5 -10t56.5 -28q11 19 11 40q0 3 5.5 3
t5.5 -3v-413q36 38 74.5 61t85.5 23q43 0 80 -21zM429 612q-26 29 -59 45.5t-69 16.5q-66 0 -104.5 -60t-38.5 -175v-64q122 0 164 1q32 1 47 5t21 15q4 8 4 22q4 121 35 194zM981.5 51q32.5 45 32.5 129q0 90 -35 138t-93 48q-61 0 -127 -68v-217q56 -75 132 -75
q58 0 90.5 45z" />
    <glyph glyph-name="f_f_f.liga" unicode="fff" horiz-adv-x="896" 
d="M907.5 710.5q32.5 -15.5 32.5 -37.5q0 -15 -10.5 -23.5t-24.5 -8.5q-12 0 -21 6t-19 20q-15 21 -32.5 31.5t-43.5 10.5q-34 0 -59 -22q27 -17 42 -32l-30 -65q-19 35 -42 58q-37 -71 -37 -209v-58q15 4 20.5 12.5t6.5 24.5l21 -40q20 1 80 7q3 0 5 -7t2 -17
q0 -8 -3 -16.5t-7 -7.5q-39 10 -81 13l-16 -44q-1 25 -5.5 33.5t-22.5 11.5v-270q0 -31 7 -45t27 -19t64 -5q3 0 3 -6t-3 -6l-64 1q-21 1 -64 1q-35 0 -81 -2h-1h-9h-5h-1l-56 1q-19 1 -57 1l-55 -1q-15 -1 -42 -1q-2 0 -2 6t2 6q30 0 44.5 5.5t20 19.5t5.5 44v225
q-1 25 -5 33.5t-18.5 11t-59.5 3.5q-34 2 -155 2v-275q0 -31 7 -45t27 -19t64 -5q3 0 3 -6t-3 -6l-64 1q-21 1 -64 1l-56 -1q-14 -1 -40 -1q-3 0 -3 6t3 6q30 0 44 5.5t19.5 19.5t5.5 44v225q0 26 -5 36.5t-19.5 14t-48.5 3.5q-3 0 -3 6.5t3 6.5q41 0 55.5 9.5t15.5 35.5
q7 134 68.5 203.5t166.5 69.5q43 0 80 -10t62 -25q59 59 152 59q43 0 82 -18q45 29 114 29q51 0 83.5 -15.5zM676 668q-39 28 -81 28q-66 0 -104 -66t-38 -191v-64h114q20 4 28 13.5t9 29.5q6 178 72 250zM438 603q-27 33 -62.5 52t-74.5 19q-66 0 -104.5 -60t-38.5 -175
v-64q122 0 164 1q32 1 47 5t21 15q4 8 4 22q4 110 44 185zM606 306q0 23 -4 34t-15 15q-34 1 -134 1v-275q0 -30 6 -43.5t24.5 -19t59.5 -6.5q27 1 40 6.5t18 19.5t5 43v225z" />
    <glyph glyph-name="f_f_h.liga" unicode="ffh" horiz-adv-x="1112" 
d="M1092 6q0 -6 -2 -6q-23 0 -37 1l-54 1l-55 -1q-13 -1 -36 -1q-3 0 -3 6t3 6q27 0 40 5.5t17.5 19.5t4.5 44v159q0 59 -22.5 87.5t-68.5 28.5q-31 0 -63 -16.5t-58 -45.5v-213q0 -30 5 -44t18 -19.5t40 -5.5q2 0 2 -6t-2 -6q-23 0 -37 1l-54 1l-55 -1q-13 -1 -36 -1
q-3 0 -3 6t3 6q27 0 40 5.5t17.5 19.5t4.5 44v552q-46 77 -121 77q-65 0 -96 -63.5t-31 -207.5v-64q46 1 128 10q3 0 5 -7t2 -17q0 -8 -3 -16.5t-7 -7.5q-58 14 -125 16v-272q0 -31 7 -45t27 -19t64 -5q3 0 3 -6t-3 -6l-64 1q-21 1 -64 1l-56 -1q-14 -1 -40 -1q-3 0 -3 6
t3 6q30 0 44 5.5t19.5 19.5t5.5 44v225q-1 25 -5 33.5t-18.5 11t-59.5 3.5q-34 2 -155 2v-275q0 -31 7 -45t27 -19t64 -5q3 0 3 -6t-3 -6l-64 1q-21 1 -64 1l-56 -1q-14 -1 -40 -1q-3 0 -3 6t3 6q30 0 44 5.5t19.5 19.5t5.5 44v225q0 26 -5 36.5t-19.5 14t-48.5 3.5
q-3 0 -3 6.5t3 6.5q41 0 55.5 9.5t15.5 35.5q7 134 68.5 203.5t166.5 69.5q72 0 126 -27q50 62 146 62q40 0 73.5 -9.5t56.5 -27.5q10 20 10 39q0 3 6 3t6 -3v-417q38 44 75.5 64.5t78.5 20.5q55 0 85 -31t30 -90v-194q0 -30 5 -44t18 -19.5t40 -5.5q2 0 2 -6zM429 613
q-26 29 -59 45t-69 16q-66 0 -104.5 -60t-38.5 -175v-64q122 0 164 1q32 1 47 5t21 15q4 8 4 22q5 124 35 195z" />
    <glyph glyph-name="f_f_i.liga" unicode="ffi" horiz-adv-x="863" 
d="M493 642q-40 -67 -40 -203v-64q44 1 128 10q3 0 5 -7.5t2 -16.5t-4 -18.5t-6 -7.5q-65 19 -125 22v-276q0 -31 7 -45t27 -19t64 -5q3 0 3 -6t-3 -6l-64 1q-21 1 -64 1l-56 -1q-14 -1 -40 -1q-3 0 -3 6t3 6q30 0 44 5.5t19.5 19.5t5.5 44v225q-1 25 -5 33.5t-18.5 11
t-59.5 3.5q-34 2 -155 2v-275q0 -31 7 -45t27 -19t64 -5q3 0 3 -6t-3 -6l-64 1q-21 1 -64 1l-56 -1q-14 -1 -40 -1q-3 0 -3 6t3 6q30 0 44 5.5t19.5 19.5t5.5 44v225q0 26 -5 36.5t-19.5 14t-48.5 3.5q-3 0 -3 6.5t3 6.5q41 0 55.5 9.5t15.5 35.5q7 134 68.5 203.5
t166.5 69.5q76 0 134 -31q59 66 164 66q55 0 90.5 -22.5t35.5 -52.5q0 -15 -8 -23t-22 -8q-15 0 -24 9t-18 26q-16 26 -33.5 40t-53.5 14q-66 0 -106 -67zM434 608q-27 31 -61.5 48.5t-71.5 17.5q-66 0 -104.5 -60t-38.5 -175v-64q122 0 164 1q32 1 47 5t21 15q4 8 4 22
q4 116 40 190zM830 6q0 -6 -3 -6q-23 0 -37 1l-54 1l-54 -1q-14 -1 -37 -1q-3 0 -3 6t3 6q27 0 40 5.5t18 20t5 43.5v187q0 36 -7 52t-25 16q-15 0 -46 -14h-1q-5 0 -6.5 5t2.5 7l130 61q1 1 3 1q3 0 5.5 -3t2.5 -6q0 -7 -1 -40t-1 -78v-188q0 -29 5 -43.5t18 -20t40 -5.5
q3 0 3 -6z" />
    <glyph glyph-name="f_f_j.liga" unicode="ffj" horiz-adv-x="864" 
d="M494 642q-41 -67 -41 -203v-64q46 1 128 10q3 0 5 -7t2 -17q0 -8 -3 -16.5t-7 -7.5q-58 14 -125 16v-272q0 -31 7 -45t27 -19t64 -5q3 0 3 -6t-3 -6l-64 1q-21 1 -64 1l-56 -1q-14 -1 -40 -1q-3 0 -3 6t3 6q30 0 44 5.5t19.5 19.5t5.5 44v225q-1 25 -5 33.5t-18.5 11
t-59.5 3.5q-34 2 -155 2v-275q0 -31 7 -45t27 -19t64 -5q3 0 3 -6t-3 -6l-64 1q-21 1 -64 1l-56 -1q-14 -1 -40 -1q-3 0 -3 6t3 6q30 0 44 5.5t19.5 19.5t5.5 44v225q0 26 -5 36.5t-19.5 14t-48.5 3.5q-3 0 -3 6.5t3 6.5q41 0 55.5 9.5t15.5 35.5q7 134 68.5 203.5
t166.5 69.5q41 0 76 -9t59 -23q60 67 167 67q59 0 96.5 -22.5t37.5 -52.5q0 -15 -8.5 -23t-22.5 -8q-15 0 -24 8.5t-21 26.5q-15 25 -34 39.5t-56 14.5q-69 0 -110 -67zM434 607q-26 31 -60.5 49t-72.5 18q-66 0 -104.5 -60t-38.5 -175v-64q122 0 164 1q32 1 47 5t21 15
q4 8 4 22q4 116 40 189zM766 396q3 0 6 -3t3 -6q0 -7 -1.5 -40t-1.5 -78v-317q0 -68 -13 -110t-43 -69.5t-85 -48.5q-2 -1 -4.5 4.5t0.5 6.5q49 21 69 65t20 129v339q0 36 -7 52t-25 16q-15 0 -46 -14h-1q-5 0 -6.5 5t2.5 7l130 61q1 1 3 1z" />
    <glyph glyph-name="f_f_k.liga" unicode="ffk" horiz-adv-x="1104" 
d="M1098 6q0 -6 -3 -6q-22 0 -36 1l-54 1l-73 -1q-15 -1 -42 -1q-3 0 -3 6t3 6q50 0 50 19q0 7 -10 22l-122 167l-50 -39v-100q0 -30 5 -44t18 -19.5t40 -5.5q2 0 2 -6t-2 -6q-23 0 -37 1l-54 1l-55 -1q-13 -1 -36 -1q-3 0 -3 6t3 6q27 0 40 5.5t17.5 19.5t4.5 44v552
q-46 77 -122 77q-64 0 -95 -63.5t-31 -207.5v-64q46 1 128 10q3 0 5 -7t2 -17q0 -8 -3 -16.5t-7 -7.5q-58 14 -125 16v-272q0 -31 7 -45t27 -19t64 -5q3 0 3 -6t-3 -6l-64 1q-21 1 -64 1l-56 -1q-14 -1 -40 -1q-3 0 -3 6t3 6q30 0 44 5.5t19.5 19.5t5.5 44v225
q-1 25 -5 33.5t-18.5 11t-59.5 3.5q-34 2 -155 2v-275q0 -31 7 -45t27 -19t64 -5q3 0 3 -6t-3 -6l-64 1q-21 1 -64 1l-56 -1q-14 -1 -40 -1q-3 0 -3 6t3 6q30 0 44 5.5t19.5 19.5t5.5 44v225q0 26 -5 36.5t-19.5 14t-48.5 3.5q-3 0 -3 6.5t3 6.5q41 0 55.5 9.5t15.5 35.5
q7 134 68.5 203.5t166.5 69.5q72 0 126 -27q50 62 144 62q42 0 76 -9.5t56 -27.5q10 20 10 39q0 3 6 3t6 -3v-531l134 108q32 25 32 44q0 25 -57 25q-3 0 -3 6t3 6q27 0 41 -1l73 -1l66 1q14 1 37 1q2 0 2 -6t-2 -6q-38 0 -82 -18t-90 -54l-59 -46l128 -175q49 -69 114 -69
q3 0 3 -6zM429 613q-26 29 -59 45t-69 16q-66 0 -104.5 -60t-38.5 -175v-64q122 0 164 1q32 1 47 5t21 15q4 8 4 22q5 124 35 195z" />
    <glyph glyph-name="f_f_l.liga" unicode="ffl" horiz-adv-x="862" 
d="M837 6q0 -6 -3 -6q-23 0 -37 1l-55 1l-55 -1q-14 -1 -37 -1q-3 0 -3 6t3 6q27 0 40 5.5t17.5 19.5t4.5 44v549q-27 42 -58.5 61t-69.5 19q-63 0 -97 -63.5t-34 -207.5v-64q44 1 128 10q3 0 5 -8t2 -17t-4 -18t-6 -7q-65 19 -125 22v-276q0 -31 7 -45t27 -19t64 -5
q3 0 3 -6t-3 -6l-64 1q-21 1 -64 1l-56 -1q-14 -1 -40 -1q-3 0 -3 6t3 6q30 0 44 5.5t19.5 19.5t5.5 44v225q-1 25 -5 33.5t-18.5 11t-59.5 3.5q-34 2 -155 2v-275q0 -31 7 -45t27 -19t64 -5q3 0 3 -6t-3 -6l-64 1q-21 1 -64 1l-56 -1q-14 -1 -40 -1q-3 0 -3 6t3 6
q30 0 44 5.5t19.5 19.5t5.5 44v225q0 26 -5 36.5t-19.5 14t-48.5 3.5q-3 0 -3 6.5t3 6.5q41 0 55.5 9.5t15.5 35.5q7 134 68.5 203.5t166.5 69.5q69 0 127 -27q52 62 148 62q43 0 78.5 -10.5t59.5 -28.5q12 18 12 41q0 3 6 3t6 -3v-647q0 -30 5 -44t18 -19.5t40 -5.5
q3 0 3 -6zM430 612q-26 29 -59.5 45.5t-69.5 16.5q-66 0 -104.5 -60t-38.5 -175v-64q122 0 164 1q32 1 47 5t21 15q4 8 4 22q4 122 36 194z" />
    <glyph glyph-name="f_f_thorn.liga" unicode="ff&#xfe;" horiz-adv-x="1106" 
d="M993 377q35 -22 56 -64t21 -98q0 -75 -34 -126.5t-83.5 -76.5t-97.5 -25q-32 0 -56 5.5t-48 19.5v-206q0 -30 7 -44t27 -19.5t63 -5.5q3 0 3 -6t-3 -6q-34 0 -54 1l-73 1l-54 -1q-14 -1 -39 -1q-2 0 -2 6t2 6q28 0 41 5.5t18 19.5t5 44v841q-44 63 -113 63
q-64 0 -95 -63.5t-31 -207.5v-64q46 1 128 10q3 0 5 -7t2 -17q0 -8 -3 -16.5t-7 -7.5q-58 14 -125 16v-272q0 -31 7 -45t27 -19t64 -5q3 0 3 -6t-3 -6l-64 1q-21 1 -64 1l-56 -1q-14 -1 -40 -1q-3 0 -3 6t3 6q30 0 44 5.5t19.5 19.5t5.5 44v225q-1 25 -5 33.5t-18.5 11
t-59.5 3.5q-34 2 -155 2v-275q0 -31 7 -45t27 -19t64 -5q3 0 3 -6t-3 -6l-64 1q-21 1 -64 1l-56 -1q-14 -1 -40 -1q-3 0 -3 6t3 6q30 0 44 5.5t19.5 19.5t5.5 44v225q0 26 -5 36.5t-19.5 14t-48.5 3.5q-3 0 -3 6.5t3 6.5q41 0 55.5 9.5t15.5 35.5q7 134 68.5 203.5
t166.5 69.5q72 0 126 -27q50 62 144 62q78 0 126 -33q9 17 9 35q0 3 6 3t6 -3v-413q42 43 83 63.5t83 20.5q41 0 76 -22zM429 613q-26 29 -59 45t-69 16q-66 0 -104.5 -60t-38.5 -175v-64q122 0 164 1q32 1 47 5t21 15q4 8 4 22q5 124 35 195zM972 54.5q34 46.5 34 129.5
q0 84 -37.5 130.5t-94.5 46.5q-34 0 -63.5 -16.5t-59.5 -46.5v-229q26 -30 57.5 -45.5t75.5 -15.5q54 0 88 46.5z" />
    <glyph glyph-name="f_f_t.liga" unicode="fft" horiz-adv-x="918" 
d="M891 51q3 0 5 -4t-1 -6q-37 -29 -66.5 -41t-61.5 -12q-42 0 -68.5 19t-26.5 63v236q0 28 -9.5 37t-48 11t-161.5 2v-275q0 -31 7 -45t27 -19t64 -5q3 0 3 -6t-3 -6l-64 1q-21 1 -64 1l-56 -1q-14 -1 -40 -1q-3 0 -3 6t3 6q30 0 44 5.5t19.5 19.5t5.5 44v225
q-1 25 -5 33.5t-18.5 11t-59.5 3.5q-34 2 -155 2v-275q0 -31 7 -45t27 -19t64 -5q3 0 3 -6t-3 -6l-64 1q-21 1 -64 1l-56 -1q-14 -1 -40 -1q-3 0 -3 6t3 6q30 0 44 5.5t19.5 19.5t5.5 44v225q0 26 -5 36.5t-19.5 14t-48.5 3.5q-3 0 -3 6.5t3 6.5q41 0 55.5 9.5t15.5 35.5
q7 134 68.5 203.5t166.5 69.5q72 0 128 -28q52 63 152 63q51 0 83.5 -15.5t32.5 -37.5q0 -15 -10.5 -23.5t-24.5 -8.5q-12 0 -20.5 6.5t-20.5 21.5q-15 20 -32.5 30t-42.5 10q-58 0 -92 -67t-34 -203v-64q91 0 142 3q45 1 69 7.5t35 21.5t15 42q1 3 8 3t7 -3v-74
q50 1 139 10q3 0 5 -7t2 -17q0 -8 -3.5 -16.5t-6.5 -7.5q-57 14 -136 16v-249q0 -41 20.5 -61t58.5 -20q45 0 80 27q1 1 3 1zM430 612q-26 29 -59.5 45.5t-69.5 16.5q-66 0 -104.5 -60t-38.5 -175v-64q122 0 164 1q32 1 47 5t21 15q4 8 4 22q4 122 36 194z" />
    <glyph glyph-name="f_h.liga" unicode="fh" horiz-adv-x="817" 
d="M797 6q0 -6 -2 -6q-23 0 -37 1l-54 1l-55 -1q-13 -1 -36 -1q-3 0 -3 6t3 6q27 0 40 5.5t17.5 19.5t4.5 44v159q0 59 -22.5 87.5t-68.5 28.5q-31 0 -63 -16.5t-58 -45.5v-213q0 -30 5 -44t18 -19.5t40 -5.5q2 0 2 -6t-2 -6q-23 0 -37 1l-54 1l-55 -1q-13 -1 -36 -1
q-3 0 -3 6t3 6q27 0 40 5.5t17.5 19.5t4.5 44v552q-46 77 -121 77q-65 0 -96 -63.5t-31 -207.5v-64q46 1 128 10q3 0 5 -7t2 -17q0 -8 -3 -16.5t-7 -7.5q-58 14 -125 16v-272q0 -31 7 -45t27 -19t64 -5q3 0 3 -6t-3 -6l-64 1q-21 1 -64 1l-56 -1q-14 -1 -40 -1q-3 0 -3 6
t3 6q30 0 44 5.5t19.5 19.5t5.5 44v225q0 26 -5 36.5t-19.5 14t-48.5 3.5q-3 0 -3 6.5t3 6.5q41 0 55.5 9.5t15.5 35.5q5 159 56 233.5t156 74.5q40 0 73.5 -9.5t56.5 -27.5q10 20 10 39q0 3 6 3t6 -3v-417q38 44 75.5 64.5t78.5 20.5q55 0 85 -31t30 -90v-194q0 -30 5 -44
t18 -19.5t40 -5.5q2 0 2 -6z" />
    <glyph glyph-name="f_j.liga" unicode="fj" horiz-adv-x="569" 
d="M199 642q-41 -67 -41 -203v-64q46 1 128 10q3 0 5 -7t2 -17q0 -8 -3 -16.5t-7 -7.5q-58 14 -125 16v-272q0 -31 7 -45t27 -19t64 -5q3 0 3 -6t-3 -6l-64 1q-21 1 -64 1l-56 -1q-14 -1 -40 -1q-3 0 -3 6t3 6q30 0 44 5.5t19.5 19.5t5.5 44v225q0 26 -5 36.5t-19.5 14
t-48.5 3.5q-3 0 -3 6.5t3 6.5q41 0 55.5 9.5t15.5 35.5q6 160 69 234t173 74q59 0 96.5 -22.5t37.5 -52.5q0 -15 -8.5 -23t-22.5 -8q-15 0 -24 8.5t-21 26.5q-15 25 -34 39.5t-56 14.5q-69 0 -110 -67zM471 396q3 0 6 -3t3 -6q0 -7 -1.5 -40t-1.5 -78v-317q0 -68 -13 -110
t-43 -69.5t-85 -48.5q-2 -1 -4.5 4.5t0.5 6.5q49 21 69 65t20 129v339q0 36 -7 52t-25 16q-15 0 -46 -14h-1q-5 0 -6.5 5t2.5 7l130 61q1 1 3 1z" />
    <glyph glyph-name="f_k.liga" unicode="fk" horiz-adv-x="809" 
d="M803 6q0 -6 -3 -6q-22 0 -36 1l-54 1l-73 -1q-15 -1 -42 -1q-3 0 -3 6t3 6q50 0 50 19q0 7 -10 22l-122 167l-50 -39v-100q0 -30 5 -44t18 -19.5t40 -5.5q2 0 2 -6t-2 -6q-23 0 -37 1l-54 1l-55 -1q-13 -1 -36 -1q-3 0 -3 6t3 6q27 0 40 5.5t17.5 19.5t4.5 44v552
q-46 77 -122 77q-64 0 -95 -63.5t-31 -207.5v-64q46 1 128 10q3 0 5 -7t2 -17q0 -8 -3 -16.5t-7 -7.5q-58 14 -125 16v-272q0 -31 7 -45t27 -19t64 -5q3 0 3 -6t-3 -6l-64 1q-21 1 -64 1l-56 -1q-14 -1 -40 -1q-3 0 -3 6t3 6q30 0 44 5.5t19.5 19.5t5.5 44v225q0 26 -5 36.5
t-19.5 14t-48.5 3.5q-3 0 -3 6.5t3 6.5q41 0 55.5 9.5t15.5 35.5q5 159 56 233.5t154 74.5q42 0 76 -9.5t56 -27.5q10 20 10 39q0 3 6 3t6 -3v-531l134 108q32 25 32 44q0 25 -57 25q-3 0 -3 6t3 6q27 0 41 -1l73 -1l66 1q14 1 37 1q2 0 2 -6t-2 -6q-38 0 -82 -18t-90 -54
l-59 -46l128 -175q49 -69 114 -69q3 0 3 -6z" />
    <glyph glyph-name="f_thorn.liga" unicode="f&#xfe;" horiz-adv-x="811" 
d="M698 377q35 -22 56 -64t21 -98q0 -75 -34 -126.5t-83.5 -76.5t-97.5 -25q-32 0 -56 5.5t-48 19.5v-206q0 -30 7 -44t27 -19.5t63 -5.5q3 0 3 -6t-3 -6q-34 0 -54 1l-73 1l-54 -1q-14 -1 -39 -1q-2 0 -2 6t2 6q28 0 41 5.5t18 19.5t5 44v841q-44 63 -113 63
q-64 0 -95 -63.5t-31 -207.5v-64q46 1 128 10q3 0 5 -7t2 -17q0 -8 -3 -16.5t-7 -7.5q-58 14 -125 16v-272q0 -31 7 -45t27 -19t64 -5q3 0 3 -6t-3 -6l-64 1q-21 1 -64 1l-56 -1q-14 -1 -40 -1q-3 0 -3 6t3 6q30 0 44 5.5t19.5 19.5t5.5 44v225q0 26 -5 36.5t-19.5 14
t-48.5 3.5q-3 0 -3 6.5t3 6.5q41 0 55.5 9.5t15.5 35.5q5 159 56 233.5t154 74.5q78 0 126 -33q9 17 9 35q0 3 6 3t6 -3v-413q42 43 83 63.5t83 20.5q41 0 76 -22zM677 54.5q34 46.5 34 129.5q0 84 -37.5 130.5t-94.5 46.5q-34 0 -63.5 -16.5t-59.5 -46.5v-229
q26 -30 57.5 -45.5t75.5 -15.5q54 0 88 46.5z" />
    <glyph glyph-name="f_t.liga" unicode="ft" horiz-adv-x="623" 
d="M596 51q3 0 5 -4t-1 -6q-37 -29 -66.5 -41t-61.5 -12q-42 0 -68.5 19t-26.5 63v236q0 28 -9.5 37t-48 11t-161.5 2v-275q0 -31 7 -45t27 -19t64 -5q3 0 3 -6t-3 -6l-64 1q-21 1 -64 1l-56 -1q-14 -1 -40 -1q-3 0 -3 6t3 6q30 0 44 5.5t19.5 19.5t5.5 44v225q0 26 -5 36.5
t-19.5 14t-48.5 3.5q-3 0 -3 6.5t3 6.5q41 0 55.5 9.5t15.5 35.5q5 162 59.5 235t160.5 73q51 0 83.5 -15.5t32.5 -37.5q0 -15 -10.5 -23.5t-24.5 -8.5q-12 0 -20.5 6.5t-20.5 21.5q-15 20 -32.5 30t-42.5 10q-58 0 -92 -67t-34 -203v-64q91 0 142 3q45 1 69 7.5t35 21.5
t15 42q1 3 8 3t7 -3v-74q50 1 139 10q3 0 5 -7t2 -17q0 -8 -3.5 -16.5t-6.5 -7.5q-57 14 -136 16v-249q0 -41 20.5 -61t58.5 -20q45 0 80 27q1 1 3 1z" />
    <glyph glyph-name="fi.liga" unicode="fi" horiz-adv-x="568" 
d="M198 642q-40 -67 -40 -203v-64q44 1 128 10q3 0 5 -7.5t2 -16.5t-4 -18.5t-6 -7.5q-65 19 -125 22v-276q0 -31 7 -45t27 -19t64 -5q3 0 3 -6t-3 -6l-64 1q-21 1 -64 1l-56 -1q-14 -1 -40 -1q-3 0 -3 6t3 6q30 0 44 5.5t19.5 19.5t5.5 44v225q0 26 -5 36.5t-19.5 14
t-48.5 3.5q-3 0 -3 6.5t3 6.5q41 0 55.5 9.5t15.5 35.5q11 308 238 308q55 0 90.5 -22.5t35.5 -52.5q0 -15 -8 -23t-22 -8q-15 0 -24 9t-18 26q-16 26 -33.5 40t-53.5 14q-66 0 -106 -67zM535 6q0 -6 -3 -6q-23 0 -37 1l-54 1l-54 -1q-14 -1 -37 -1q-3 0 -3 6t3 6
q27 0 40 5.5t18 20t5 43.5v187q0 36 -7 52t-25 16q-15 0 -46 -14h-1q-5 0 -6.5 5t2.5 7l130 61q1 1 3 1q3 0 5.5 -3t2.5 -6q0 -7 -1 -40t-1 -78v-188q0 -29 5 -43.5t18 -20t40 -5.5q3 0 3 -6z" />
    <glyph glyph-name="fl.liga" unicode="fl" horiz-adv-x="567" 
d="M542 6q0 -6 -3 -6q-23 0 -37 1l-55 1l-55 -1q-14 -1 -37 -1q-3 0 -3 6t3 6q27 0 40 5.5t17.5 19.5t4.5 44v549q-27 42 -58.5 61t-69.5 19q-63 0 -97 -63.5t-34 -207.5v-64q44 1 128 10q3 0 5 -8t2 -17t-4 -18t-6 -7q-65 19 -125 22v-276q0 -31 7 -45t27 -19t64 -5
q3 0 3 -6t-3 -6l-64 1q-21 1 -64 1l-56 -1q-14 -1 -40 -1q-3 0 -3 6t3 6q30 0 44 5.5t19.5 19.5t5.5 44v225q0 26 -5 36.5t-19.5 14t-48.5 3.5q-3 0 -3 6.5t3 6.5q41 0 55.5 9.5t15.5 35.5q5 162 59 235t156 73q43 0 78.5 -10.5t59.5 -28.5q12 18 12 41q0 3 6 3t6 -3v-647
q0 -30 5 -44t18 -19.5t40 -5.5q3 0 3 -6z" />
    <glyph glyph-name="g_g.liga" unicode="gg" horiz-adv-x="932" 
d="M389 395.5q4 -1.5 4 -3.5v-462q0 -96 -52.5 -153.5t-146.5 -57.5q-60 0 -98 21.5t-38 53.5q0 17 9 25t21 8q14 0 23 -7.5t22 -24.5q19 -26 39 -40.5t60 -14.5q48 0 77 35t29 131v168q-37 -38 -75 -61t-83 -23q-61 0 -102.5 45t-41.5 126q0 72 34 126t85.5 83t103.5 29
q56 0 97 -30q18 10 28 26q1 2 5 0.5zM855 395.5q4 -1.5 4 -3.5v-462q0 -96 -52.5 -153.5t-146.5 -57.5q-60 0 -98 21.5t-38 53.5q0 17 9 25t21 8q14 0 23 -7.5t22 -24.5q19 -26 39 -40.5t60 -14.5q48 0 77 35t29 131v168q-37 -38 -75 -61t-83 -23q-61 0 -102.5 45t-41.5 126
q0 72 34 126t85.5 83t103.5 29q56 0 97 -30q18 10 28 26q1 2 5 0.5zM277.5 41.5q30.5 18.5 60.5 48.5v204q0 37 -32 61t-72 24q-59 0 -95.5 -52.5t-36.5 -136.5q0 -75 30.5 -121t81.5 -46q33 0 63.5 18.5zM743.5 41.5q30.5 18.5 60.5 48.5v204q0 37 -32 61t-72 24
q-59 0 -95.5 -52.5t-36.5 -136.5q0 -75 30.5 -121t81.5 -46q33 0 63.5 18.5z" />
    <glyph glyph-name="longs_b.liga" unicode="&#x17f;b" horiz-adv-x="809" 
d="M691.5 378q36.5 -21 58.5 -62.5t23 -101.5q-1 -72 -32.5 -123.5t-81.5 -77.5t-106 -26q-78 0 -138 42l-74 -34h-2q-4 0 -5.5 4t2.5 6q31 22 44 41.5t13 56.5l1 529q-41 78 -112 78q-63 0 -94 -63.5t-31 -207.5v-358q0 -31 7 -45t27 -19t65 -5q2 0 2 -6t-2 -6l-65 1
q-21 1 -63 1l-56 -1q-15 -1 -41 -1q-3 0 -3 6t3 6q30 0 44 5t19 19.5t5 44.5v337q0 308 208 308q78 0 123 -38q11 19 11 40q0 3 6 3t6 -3l-1 -412q37 38 75 60.5t85 22.5q43 0 79.5 -21zM674 51q32 45 32 129q0 90 -35 138t-93 48q-60 0 -126 -68v-218q56 -74 131 -74
q59 0 91 45z" />
    <glyph glyph-name="longs_h.liga" unicode="&#x17f;h" horiz-adv-x="804" 
d="M785 6q0 -6 -3 -6q-23 0 -36 1l-55 1l-54 -1q-14 -1 -37 -1q-2 0 -2 6t2 6q27 0 40 5.5t18 20t5 43.5v159q0 59 -22.5 87.5t-69.5 28.5q-32 0 -64 -16.5t-57 -45.5v-213q0 -29 5 -43.5t18 -20t40 -5.5q3 0 3 -6t-3 -6q-23 0 -36 1l-55 1l-54 -1q-14 -1 -37 -1q-2 0 -2 6
t2 6q27 0 40 5.5t18 20t5 43.5v551q-41 78 -112 78q-63 0 -94 -63.5t-31 -207.5v-358q0 -31 7 -45t27 -19t65 -5q2 0 2 -6t-2 -6l-65 1q-21 1 -63 1l-56 -1q-15 -1 -41 -1q-3 0 -3 6t3 6q30 0 44 5.5t19.5 19.5t5.5 44v337q0 308 207 308q79 0 122 -37q10 20 10 39
q0 3 5.5 3t5.5 -3v-417q39 44 76.5 64.5t78.5 20.5q55 0 84.5 -31t29.5 -90v-194q0 -29 5 -43.5t18 -20t40 -5.5q3 0 3 -6z" />
    <glyph glyph-name="longs_i.liga" unicode="&#x17f;i" horiz-adv-x="547" 
d="M28 6q0 6 3 6q30 0 44 5.5t19.5 19.5t5.5 44v337q0 159 56 233.5t159 74.5q54 0 85 -16t31 -40q0 -15 -9.5 -23t-24.5 -8t-23.5 7.5t-20.5 23.5q-14 20 -28 30.5t-39 10.5q-59 0 -93 -66.5t-34 -205.5v-358q0 -31 5.5 -45t23.5 -19t58 -5q3 0 3 -6t-3 -6l-60 1
q-19 1 -58 1l-56 -1q-15 -1 -41 -1q-3 0 -3 6zM319 6q0 6 2 6q27 0 40 5.5t18 20t5 43.5v187q0 36 -7 52t-25 16q-15 0 -46 -14h-1q-5 0 -6 5t3 7l130 61q1 1 3 1q3 0 5.5 -3t2.5 -6q0 -7 -1 -40t-1 -78v-188q0 -30 5 -44t18 -19.5t40 -5.5q3 0 3 -6t-3 -6q-24 0 -38 1
l-54 1l-54 -1q-14 -1 -37 -1q-2 0 -2 6z" />
    <glyph glyph-name="longs_j.liga" unicode="&#x17f;j" horiz-adv-x="529" 
d="M28 6q0 6 3 6q30 0 44 5.5t19.5 19.5t5.5 44v337q0 159 56 233.5t159 74.5q54 0 85 -16t31 -40q0 -15 -9.5 -23t-24.5 -8t-23.5 7.5t-20.5 23.5q-14 20 -28 30.5t-39 10.5q-59 0 -93 -66.5t-34 -205.5v-358q0 -31 5.5 -45t23.5 -19t58 -5q3 0 3 -6t-3 -6l-60 1
q-19 1 -58 1l-56 -1q-15 -1 -41 -1q-3 0 -3 6zM291.5 -271.5q-2.5 5.5 -0.5 6.5q49 21 69 64.5t20 129.5v339q0 36 -7 52t-24 16q-15 0 -46 -14h-1q-5 0 -6.5 5t2.5 7l130 61q1 1 3 1q3 0 5.5 -3t2.5 -6q0 -7 -1 -40t-1 -78v-317q0 -68 -13 -110t-43 -69.5t-85 -48.5
q-2 -1 -4.5 4.5z" />
    <glyph glyph-name="longs_k.liga" unicode="&#x17f;k" horiz-adv-x="796" 
d="M791 6q0 -6 -3 -6q-23 0 -37 1l-54 1l-71 -1q-16 -1 -43 -1q-3 0 -3 6t3 6q49 0 49 19q0 9 -9 22l-123 167l-50 -40v-99q0 -29 5 -43.5t18 -20t40 -5.5q3 0 3 -6t-3 -6q-23 0 -36 1l-55 1l-54 -1q-14 -1 -37 -1q-2 0 -2 6t2 6q27 0 40 5.5t18 20t5 43.5v551
q-41 78 -112 78q-63 0 -94 -63.5t-31 -207.5v-358q0 -31 7 -45t27 -19t65 -5q2 0 2 -6t-2 -6l-65 1q-21 1 -63 1l-56 -1q-15 -1 -41 -1q-3 0 -3 6t3 6q30 0 44 5.5t19.5 19.5t5.5 44v337q0 308 207 308q79 0 122 -37q10 20 10 39q0 3 5.5 3t5.5 -3v-531l134 108q32 25 32 44
q0 25 -57 25q-2 0 -2 6t2 6q27 0 42 -1l73 -1l66 1q14 1 37 1q2 0 2 -6t-2 -6q-38 0 -83 -18t-90 -54l-58 -46l127 -175q50 -69 115 -69q3 0 3 -6z" />
    <glyph glyph-name="longs_l.liga" unicode="&#x17f;l" horiz-adv-x="546" 
d="M520 6q0 -6 -3 -6q-23 0 -37 1l-55 1l-54 -1q-14 -1 -38 -1q-3 0 -3 6t3 6q27 0 40 5.5t18 20t5 43.5v547q-41 82 -114 82q-63 0 -94 -63.5t-31 -207.5v-358q0 -31 7 -45t27 -19t65 -5q2 0 2 -6t-2 -6l-65 1q-21 1 -63 1l-56 -1q-15 -1 -41 -1q-3 0 -3 6t3 6q30 0 44 5.5
t19.5 19.5t5.5 44v337q0 308 207 308q81 0 123 -39q12 18 12 41q0 3 6 3t6 -3v-647q0 -30 5 -44t18 -19.5t40 -5.5q3 0 3 -6z" />
    <glyph glyph-name="longs_thorn.liga" unicode="&#x17f;&#xfe;" horiz-adv-x="799" 
d="M686 377q35 -22 56 -64t21 -98q0 -75 -34 -126.5t-83.5 -76.5t-97.5 -25q-32 0 -56 5.5t-49 20.5v-207q0 -30 7 -44t27.5 -19.5t64.5 -5.5q2 0 2 -6t-2 -6q-36 0 -56 1l-72 1l-55 -1q-14 -1 -38 -1q-2 0 -2 6t2 6q27 0 40.5 5.5t18.5 19.5t5 44v842q-40 62 -103 62
t-94 -63.5t-31 -207.5v-358q0 -31 7 -45t27 -19t65 -5q2 0 2 -6t-2 -6l-65 1q-21 1 -63 1l-56 -1q-15 -1 -41 -1q-3 0 -3 6t3 6q30 0 44 5.5t19.5 19.5t5.5 44v337q0 308 207 308q73 0 116 -32q8 16 8 34q0 3 6 3t6 -3v-414q44 44 84.5 64.5t82.5 20.5q41 0 76 -22z
M665 54.5q34 46.5 34 129.5q0 84 -37 130.5t-94 46.5q-36 0 -65.5 -16.5t-59.5 -47.5v-227q27 -30 59 -46t76 -16q53 0 87 46.5z" />
    <glyph glyph-name="longs_longs.liga" unicode="&#x17f;&#x17f;" horiz-adv-x="538" 
d="M664.5 710.5q29.5 -15.5 29.5 -37.5q0 -15 -10.5 -23t-25.5 -8t-23.5 7t-19.5 23q-14 19 -26 28.5t-35 9.5q-54 0 -84 -65.5t-30 -205.5v-358q0 -31 5.5 -45t23 -19t56.5 -5q2 0 2 -6t-2 -6l-59 1q-19 1 -57 1l-56 -1q-15 -1 -41 -1q-3 0 -3 6t3 6q30 0 44 5.5t19.5 19.5
t5.5 44v337q0 125 32 198q-50 58 -113 58q-66 0 -104.5 -60t-38.5 -175v-358q0 -31 6.5 -45t25.5 -19t62 -5q2 0 2 -6t-2 -6l-63 1q-20 1 -60 1l-56 -1q-15 -1 -41 -1q-3 0 -3 6t3 6q30 0 44 5.5t19.5 19.5t5.5 44v337q0 132 63.5 202.5t169.5 70.5q61 0 111 -24
q50 59 145 59q46 0 75.5 -15.5z" />
    <glyph glyph-name="longs_longs_b.liga" unicode="&#x17f;&#x17f;b" horiz-adv-x="1094" 
d="M976.5 378q36.5 -21 58.5 -62.5t23 -101.5q-1 -72 -32.5 -123.5t-81.5 -77.5t-106 -26q-78 0 -138 42l-74 -34h-2q-4 0 -5.5 4t2.5 6q31 22 44 41.5t13 56.5l1 529q-41 78 -112 78q-63 0 -94 -63.5t-31 -207.5v-358q0 -31 7 -45t27 -19t65 -5q2 0 2 -6t-2 -6l-65 1
q-21 1 -63 1l-56 -1q-15 -1 -41 -1q-3 0 -3 6t3 6q30 0 44 5t19 19.5t5 44.5v337q0 119 32 194q-24 29 -53.5 45.5t-62.5 16.5q-66 0 -104.5 -60t-38.5 -175v-358q0 -31 6.5 -45t25.5 -19t62 -5q2 0 2 -6t-2 -6l-63 1q-20 1 -60 1l-56 -1q-15 -1 -41 -1q-3 0 -3 6t3 6
q30 0 44 5.5t19.5 19.5t5.5 44v337q0 132 63.5 202.5t169.5 70.5q63 0 115 -26q51 61 144 61q78 0 123 -38q11 19 11 40q0 3 6 3t6 -3l-1 -412q37 38 75 60.5t85 22.5q43 0 79.5 -21zM959 51q32 45 32 129q0 90 -35 138t-93 48q-60 0 -126 -68v-218q56 -74 131 -74
q59 0 91 45z" />
    <glyph glyph-name="longs_longs_h.liga" unicode="&#x17f;&#x17f;h" horiz-adv-x="1091" 
d="M1072 6q0 -6 -3 -6q-23 0 -36 1l-55 1l-54 -1q-14 -1 -37 -1q-2 0 -2 6t2 6q27 0 40 5.5t18 20t5 43.5v159q0 59 -22.5 87.5t-69.5 28.5q-32 0 -64 -16.5t-57 -45.5v-213q0 -29 5 -43.5t18 -20t40 -5.5q3 0 3 -6t-3 -6q-23 0 -36 1l-55 1l-54 -1q-14 -1 -37 -1q-2 0 -2 6
t2 6q27 0 40 5.5t18 20t5 43.5v551q-41 78 -112 78q-63 0 -94 -63.5t-31 -207.5v-358q0 -31 7 -45t27 -19t65 -5q2 0 2 -6t-2 -6l-65 1q-21 1 -63 1l-56 -1q-15 -1 -41 -1q-3 0 -3 6t3 6q30 0 44 5.5t19.5 19.5t5.5 44v337q0 119 30 192q-23 30 -53 47t-64 17
q-66 0 -104.5 -60t-38.5 -175v-358q0 -31 6.5 -45t25.5 -19t62 -5q2 0 2 -6t-2 -6l-63 1q-20 1 -60 1l-56 -1q-15 -1 -41 -1q-3 0 -3 6t3 6q30 0 44 5.5t19.5 19.5t5.5 44v337q0 132 63.5 202.5t169.5 70.5q67 0 116 -27q52 62 145 62q79 0 122 -37q10 20 10 39q0 3 5.5 3
t5.5 -3v-417q39 44 76.5 64.5t78.5 20.5q55 0 84.5 -31t29.5 -90v-194q0 -29 5 -43.5t18 -20t40 -5.5q3 0 3 -6z" />
    <glyph glyph-name="longs_longs_i.liga" unicode="&#x17f;&#x17f;i" horiz-adv-x="828" 
d="M474 644.5q-34 -66.5 -34 -205.5v-358q0 -31 5.5 -45t23.5 -19t58 -5q3 0 3 -6t-3 -6l-60 1q-19 1 -58 1l-56 -1q-15 -1 -41 -1q-3 0 -3 6t3 6q30 0 44 5.5t19.5 19.5t5.5 44v337q0 121 34 195q-50 61 -115 61q-66 0 -104.5 -60t-38.5 -175v-358q0 -31 6.5 -45t25.5 -19
t62 -5q2 0 2 -6t-2 -6l-63 1q-20 1 -60 1l-56 -1q-15 -1 -41 -1q-3 0 -3 6t3 6q30 0 44 5.5t19.5 19.5t5.5 44v337q0 132 63.5 202.5t169.5 70.5q63 0 115 -26q52 61 148 61q54 0 85 -16t31 -40q0 -15 -9.5 -23t-24.5 -8t-23.5 7.5t-20.5 23.5q-14 20 -28 30.5t-39 10.5
q-59 0 -93 -66.5zM788 6q0 -6 -3 -6q-24 0 -38 1l-54 1l-54 -1q-14 -1 -37 -1q-2 0 -2 6t2 6q27 0 40 5.5t18 20t5 43.5v187q0 36 -7 52t-25 16q-15 0 -46 -14h-1q-5 0 -6 5t3 7l130 61q1 1 3 1q3 0 5.5 -3t2.5 -6q0 -7 -1 -40t-1 -78v-188q0 -30 5 -44t18 -19.5t40 -5.5
q3 0 3 -6z" />
    <glyph glyph-name="longs_longs_j.liga" unicode="&#x17f;&#x17f;j" horiz-adv-x="810" 
d="M474 644.5q-34 -66.5 -34 -205.5v-358q0 -31 5.5 -45t23.5 -19t58 -5q3 0 3 -6t-3 -6l-60 1q-19 1 -58 1l-56 -1q-15 -1 -41 -1q-3 0 -3 6t3 6q30 0 44 5.5t19.5 19.5t5.5 44v337q0 121 34 195q-50 61 -115 61q-66 0 -104.5 -60t-38.5 -175v-358q0 -31 6.5 -45t25.5 -19
t62 -5q2 0 2 -6t-2 -6l-63 1q-20 1 -60 1l-56 -1q-15 -1 -41 -1q-3 0 -3 6t3 6q30 0 44 5.5t19.5 19.5t5.5 44v337q0 132 63.5 202.5t169.5 70.5q63 0 115 -26q52 61 148 61q54 0 85 -16t31 -40q0 -15 -9.5 -23t-24.5 -8t-23.5 7.5t-20.5 23.5q-14 20 -28 30.5t-39 10.5
q-59 0 -93 -66.5zM712 396q3 0 5.5 -3t2.5 -6q0 -7 -1 -40t-1 -78v-317q0 -68 -13 -110t-43 -69.5t-85 -48.5q-2 -1 -4.5 4.5t-0.5 6.5q49 21 69 64.5t20 129.5v339q0 36 -7 52t-24 16q-15 0 -46 -14h-1q-5 0 -6.5 5t2.5 7l130 61q1 1 3 1z" />
    <glyph glyph-name="longs_longs_k.liga" unicode="&#x17f;&#x17f;k" horiz-adv-x="1083" 
d="M1078 6q0 -6 -3 -6q-23 0 -37 1l-54 1l-71 -1q-16 -1 -43 -1q-3 0 -3 6t3 6q49 0 49 19q0 9 -9 22l-123 167l-50 -40v-99q0 -29 5 -43.5t18 -20t40 -5.5q3 0 3 -6t-3 -6q-23 0 -36 1l-55 1l-54 -1q-14 -1 -37 -1q-2 0 -2 6t2 6q27 0 40 5.5t18 20t5 43.5v551
q-41 78 -112 78q-63 0 -94 -63.5t-31 -207.5v-358q0 -31 7 -45t27 -19t65 -5q2 0 2 -6t-2 -6l-65 1q-21 1 -63 1l-56 -1q-15 -1 -41 -1q-3 0 -3 6t3 6q30 0 44 5.5t19.5 19.5t5.5 44v337q0 119 30 192q-23 30 -53 47t-64 17q-66 0 -104.5 -60t-38.5 -175v-358q0 -31 6.5 -45
t25.5 -19t62 -5q2 0 2 -6t-2 -6l-63 1q-20 1 -60 1l-56 -1q-15 -1 -41 -1q-3 0 -3 6t3 6q30 0 44 5.5t19.5 19.5t5.5 44v337q0 132 63.5 202.5t169.5 70.5q67 0 116 -27q52 62 145 62q79 0 122 -37q10 20 10 39q0 3 5.5 3t5.5 -3v-531l134 108q32 25 32 44q0 25 -57 25
q-2 0 -2 6t2 6q27 0 42 -1l73 -1l66 1q14 1 37 1q2 0 2 -6t-2 -6q-38 0 -83 -18t-90 -54l-58 -46l127 -175q50 -69 115 -69q3 0 3 -6z" />
    <glyph glyph-name="longs_longs_l.liga" unicode="&#x17f;&#x17f;l" horiz-adv-x="832" 
d="M807 6q0 -6 -3 -6q-23 0 -37 1l-55 1l-54 -1q-14 -1 -38 -1q-3 0 -3 6t3 6q27 0 40 5.5t18 20t5 43.5v547q-41 82 -114 82q-63 0 -94 -63.5t-31 -207.5v-358q0 -31 7 -45t27 -19t65 -5q2 0 2 -6t-2 -6l-65 1q-21 1 -63 1l-56 -1q-15 -1 -41 -1q-3 0 -3 6t3 6q30 0 44 5.5
t19.5 19.5t5.5 44v337q0 119 30 192q-23 30 -53 47t-64 17q-66 0 -104.5 -60t-38.5 -175v-358q0 -31 6.5 -45t25.5 -19t62 -5q2 0 2 -6t-2 -6l-63 1q-20 1 -60 1l-56 -1q-15 -1 -41 -1q-3 0 -3 6t3 6q30 0 44 5.5t19.5 19.5t5.5 44v337q0 132 63.5 202.5t169.5 70.5
q67 0 116 -27q52 62 145 62q81 0 123 -39q12 18 12 41q0 3 6 3t6 -3v-647q0 -30 5 -44t18 -19.5t40 -5.5q3 0 3 -6z" />
    <glyph glyph-name="longs_longs_thorn.liga" unicode="&#x17f;&#x17f;&#xfe;" horiz-adv-x="1086" 
d="M973 377q35 -22 56 -64t21 -98q0 -75 -34 -126.5t-83.5 -76.5t-97.5 -25q-32 0 -56 5.5t-49 20.5v-207q0 -30 7 -44t27.5 -19.5t64.5 -5.5q2 0 2 -6t-2 -6q-36 0 -56 1l-72 1l-55 -1q-14 -1 -38 -1q-2 0 -2 6t2 6q27 0 40.5 5.5t18.5 19.5t5 44v842q-40 62 -103 62
t-94 -63.5t-31 -207.5v-358q0 -31 7 -45t27 -19t65 -5q2 0 2 -6t-2 -6l-65 1q-21 1 -63 1l-56 -1q-15 -1 -41 -1q-3 0 -3 6t3 6q30 0 44 5.5t19.5 19.5t5.5 44v337q0 119 30 192q-23 30 -53 47t-64 17q-66 0 -104.5 -60t-38.5 -175v-358q0 -31 6.5 -45t25.5 -19t62 -5
q2 0 2 -6t-2 -6l-63 1q-20 1 -60 1l-56 -1q-15 -1 -41 -1q-3 0 -3 6t3 6q30 0 44 5.5t19.5 19.5t5.5 44v337q0 132 63.5 202.5t169.5 70.5q67 0 116 -27q52 62 145 62q73 0 116 -32q8 16 8 34q0 3 6 3t6 -3v-414q44 44 84.5 64.5t82.5 20.5q41 0 76 -22zM952 54.5
q34 46.5 34 129.5q0 84 -37 130.5t-94 46.5q-36 0 -65.5 -16.5t-59.5 -47.5v-227q27 -30 59 -46t76 -16q53 0 87 46.5z" />
    <glyph glyph-name=".notdef" horiz-adv-x="501" 
d="M94 -275v1000h317v-1000h-317zM168 626h65v-38h-66v-32h166v32h-66v38h66v32h-165v-32zM167 426h166v34h-66v69h-100v-103zM200 460v35h33v-35h-33zM167 365h66v-36h-66v-34h100v70h66v33h-166v-33zM301 273h-134v-34h166v99h-32v-65zM233 160h34v24h34v-48h-101v80h-33
v-113h166v113h-100v-56zM167 -70h166v113h-166v-113zM200 -37v48h101v-48h-101zM167 -126h70l-70 -47v-33h166v33h-101l69 47h32v34h-166v-34z" />
    <glyph glyph-name=".null" horiz-adv-x="0" 
 />
    <glyph glyph-name="nonmarkingreturn" horiz-adv-x="333" 
 />
    <glyph glyph-name="space" unicode=" " horiz-adv-x="234" 
 />
    <glyph glyph-name="exclam" unicode="!" horiz-adv-x="247" 
d="M92 626.5q15 2.5 32 2.5t32 -2.5t13 -6.5q-16 -86 -24 -184t-16 -247q0 -3 -7 -3q-8 0 -8 3q-5 136 -12.5 240t-23.5 191q-1 4 14 6.5zM87 1q-12 12 -12 31t12 30.5t32 11.5q21 0 32.5 -11t11.5 -31t-11.5 -31.5t-32.5 -11.5q-20 0 -32 12z" />
    <glyph glyph-name="quotedbl" unicode="&#x22;" horiz-adv-x="283" 
d="M43 608q-1 11 25 21.5t43 10.5q9 0 8 -4l-52 -270q-2 -2 -7 -3t-5 2zM185 608q-1 11 25 21.5t43 10.5q9 0 8 -4l-52 -270q-2 -2 -7 -3t-5 2z" />
    <glyph glyph-name="numbersign" unicode="#" horiz-adv-x="526" 
d="M466.5 308q1.5 -6 1.5 -13t-1.5 -13.5t-3.5 -6.5h-73l-29 -159h67q2 0 3.5 -6.5t1.5 -13.5t-1.5 -13.5t-3.5 -6.5h-74l-27 -155q0 -3 -9 -3q-8 0 -18 2.5t-9 4.5l27 151h-151l-27 -155q0 -3 -9 -3q-8 0 -18 2.5t-9 4.5l27 151h-68q-2 0 -3.5 6.5t-1.5 14.5q0 7 1 13t3 6
h76l28 159h-68q-2 0 -3.5 6.5t-1.5 14.5q0 7 1.5 12.5t2.5 5.5h76l30 168q0 5 18 1t17 -8l-28 -161h150l30 168q0 2 7 2q8 0 18.5 -3t9.5 -6l-28 -161h66q2 0 3.5 -6zM325 116l28 159h-150l-29 -159h151z" />
    <glyph glyph-name="dollar" unicode="$" horiz-adv-x="498" 
d="M393 46.5q-44 -46.5 -123 -56.5v-98q0 -7 -10 -7q-11 0 -11 7v96h-18q-77 0 -141 35q-5 3 -6.5 7t-2.5 12l-13 136q-1 4 4.5 5t6.5 -3q16 -71 58 -122.5t112 -53.5v285l-22 13q-48 29 -75.5 50t-46.5 53t-19 75q0 68 47.5 108t115.5 47v84q0 4 3 6t8 2q4 0 7 -2t3 -6v-83
h2q59 0 117 -24q15 -5 15 -17l7 -115q0 -4 -5 -4t-6 4q-8 49 -39.5 92t-90.5 48v-268q2 -2 16 -10q52 -31 81 -52t49.5 -53.5t20.5 -77.5q0 -66 -44 -112.5zM172 428.5q27 -32.5 77 -63.5v256q-52 -2 -78 -34.5t-26 -78.5q0 -47 27 -79.5zM344 36.5q29 27.5 29 82.5
q0 54 -27 89.5t-76 67.5v-271q45 4 74 31.5z" />
    <glyph glyph-name="percent" unicode="%" horiz-adv-x="574" 
d="M62 340.5q-35 37.5 -35 92.5q0 53 35 90t88 37q52 0 86 -37.5t34 -92.5q0 -54 -34 -90.5t-86 -36.5q-53 0 -88 37.5zM105 -6q-5 0 -14.5 5t-8.5 8l371 544l2 1q5 0 14 -6t8 -9l-371 -543h-1zM201 341.5q11 27.5 11 81.5q0 62 -17 94t-51 32t-46.5 -30t-12.5 -83
q0 -122 72 -122q33 0 44 27.5zM339 32.5q-35 37.5 -35 92.5q0 53 35 90.5t88 37.5q52 0 86 -38t34 -92t-34 -91t-86 -37q-53 0 -88 37.5zM478 34.5q11 27.5 11 81.5q0 125 -68 125q-33 0 -45.5 -29.5t-12.5 -82.5q0 -122 71 -122q33 0 44 27.5z" />
    <glyph glyph-name="ampersand" unicode="&#x26;" horiz-adv-x="697" 
d="M700.5 5.5q-0.5 -5.5 -3.5 -5.5h-108q-45 0 -137 72q-81 -84 -202 -84q-62 0 -103.5 21t-62 55t-20.5 73q0 57 35.5 99.5t102.5 91.5q-18 27 -29 50q-29 64 -29 109q0 43 21 79.5t59 58t86 21.5t82.5 -23t34.5 -76q0 -39 -20 -71t-49.5 -56t-78.5 -56q-2 -1 -17 -11
q70 -114 213 -223q35 61 35 135q0 36 -14.5 54t-56.5 18q-3 0 -3.5 6t3.5 6l209 1q4 0 4 -6t-4 -6q-34 0 -51 -6.5t-24 -17.5t-14 -35q-29 -99 -69 -160q59 -43 114 -71t93 -36q4 -1 3.5 -6.5zM254 365q55 41 84.5 79.5t29.5 86.5q0 44 -23.5 69t-63.5 25q-79 0 -79 -96
q0 -77 52 -164zM374 35q37 17 66 47q-6 4 -18 14q-60 46 -116 104t-95 116q-39 -32 -61 -66.5t-22 -77.5q0 -42 21.5 -77.5t60 -56t85.5 -20.5q42 0 79 17z" />
    <glyph glyph-name="quotesingle" unicode="'" horiz-adv-x="140" 
d="M43 608q-1 11 25 21.5t43 10.5q9 0 8 -4l-52 -270q-2 -2 -7 -3t-5 2z" />
    <glyph glyph-name="parenleft" unicode="(" horiz-adv-x="309" 
d="M120 559q55 113 154 166q2 1 4 -1.5t0 -4.5q-74 -70 -108.5 -173.5t-34.5 -241.5t34.5 -241.5t108.5 -173.5q2 -1 0 -4t-4 -2q-99 54 -154 166.5t-55 254.5t55 255z" />
    <glyph glyph-name="parenright" unicode=")" horiz-adv-x="309" 
d="M189 49q-55 -113 -154 -166q-2 -1 -4 1.5t0 4.5q74 70 108.5 173.5t34.5 241.5t-34.5 241.5t-108.5 173.5q-2 1 0 4t4 2q99 -54 154 -166.5t55 -254.5t-55 -255z" />
    <glyph glyph-name="asterisk" unicode="*" horiz-adv-x="448" 
d="M228 657q0 9 19.5 18t39.5 12t18 -2l-69 -156q-1 -3 -5.5 -3t-4.5 3zM82 552q-12 4 -12 42q0 17 3 30.5t6 10.5l128 -115q3 -1 1 -5.5t-4 -3.5zM251 503q-2 0 -3.5 4.5t0.5 5.5l123 38q9 3 23.5 -13t24 -34t3.5 -18zM124 379q-12 0 -29.5 5.5t-29 12t-7.5 8.5l148 86l2 1
q2 0 4.5 -3t1.5 -4l-77 -102q-3 -4 -13 -4zM233 481q-1 2 3 5.5t5 1.5l75 -106q5 -7 -6 -26t-25.5 -33.5t-15.5 -8.5z" />
    <glyph glyph-name="plus" unicode="+" horiz-adv-x="398" 
d="M367.5 203q1.5 -6 1.5 -13t-1.5 -13.5t-3.5 -6.5h-145v-145q0 -2 -7.5 -3.5t-15.5 -1.5q-17 0 -17 3v147h-145q-2 0 -3.5 6.5t-1.5 14.5q0 7 1.5 12.5t2.5 5.5h146v145q0 2 6.5 3.5t13.5 1.5t13.5 -1.5t6.5 -3.5v-145h145q2 0 3.5 -6z" />
    <glyph glyph-name="comma" unicode="," horiz-adv-x="222" 
d="M149 48.5q17 -22.5 17 -64.5q0 -40 -18 -74.5t-53 -68.5q-1 -1 -3 -1q-3 0 -5 3t0 5q49 50 49 118q0 28 -10 41q-9 -15 -31 -15q-18 0 -28.5 11t-10.5 28q0 40 46 40q30 0 47 -22.5z" />
    <glyph glyph-name="hyphen" unicode="-" horiz-adv-x="323" 
d="M28.5 172q-1.5 8 -1.5 16q0 19 3 19l261 47q2 1 3.5 -5.5t1.5 -14.5q0 -20 -5 -22l-259 -47q-2 -1 -3.5 7z" />
    <glyph glyph-name="period" unicode="." horiz-adv-x="197" 
d="M67 1q-12 12 -12 31t12 30.5t32 11.5q21 0 32.5 -11t11.5 -31t-11.5 -31.5t-32.5 -11.5q-20 0 -32 12z" />
    <glyph glyph-name="slash" unicode="/" horiz-adv-x="341" 
d="M44 -161.5q-19 5.5 -18 9.5l252 882q2 4 20.5 -1.5t16.5 -10.5l-251 -881q-1 -4 -20 1.5z" />
    <glyph glyph-name="zero" unicode="0" horiz-adv-x="501" 
d="M144.5 28q-46.5 41 -72 115t-25.5 170q0 95 26 168.5t72.5 114.5t107.5 41q59 0 104.5 -41t70.5 -115.5t25 -170.5q0 -95 -25.5 -168.5t-71.5 -114t-105 -40.5q-60 0 -106.5 41zM352.5 78.5q29.5 77.5 29.5 219.5q0 160 -39 243t-101 83q-60 0 -92.5 -82t-32.5 -222
q0 -147 39 -233t107 -86q60 0 89.5 77.5z" />
    <glyph glyph-name="one" unicode="1" horiz-adv-x="391" 
d="M69 6q0 6 2 6q47 0 70 5.5t32.5 19.5t9.5 44v412q0 53 -27 53q-25 0 -89 -48l-2 -1q-4 0 -6 5t2 7l167 123q5 3 7 3t4 -2t2 -4v-548q0 -30 8 -44.5t31 -19.5t72 -5q2 0 2 -6t-2 -6q-37 0 -58 1l-82 1l-81 -1q-22 -1 -60 -1q-2 0 -2 6z" />
    <glyph glyph-name="two" unicode="2" horiz-adv-x="448" 
d="M31.5 5q-3.5 5 0.5 8q38 48 58 71q73 89 115 147t71 119.5t29 117.5q0 59 -31 92.5t-87 33.5q-50 0 -85 -28.5t-52 -81.5q0 -1 -4 -1q-8 0 -7 4q14 71 61 110t116 39q72 0 113.5 -41.5t41.5 -106.5q0 -58 -32 -120t-74 -114t-104 -120q-9 -10 -31.5 -34.5t-33.5 -40.5
q-5 -7 4 -7q130 0 184 3.5t76 18t23 47.5q0 2 5.5 2t5.5 -2l-1 -110q0 -4 -2.5 -7.5t-6.5 -3.5h-344q-5 0 -8.5 5z" />
    <glyph glyph-name="three" unicode="3" horiz-adv-x="435" 
d="M349 287q38 -46 38 -112q0 -55 -24 -97.5t-67 -66t-97 -23.5q-93 0 -162 75l-1 2q0 4 4.5 6.5t6.5 -0.5q26 -28 62.5 -42t73.5 -14q68 0 101 42.5t33 110.5q0 156 -182 156q-1 0 -2.5 2.5t-1.5 5.5t1.5 5.5t2.5 2.5q88 0 125 35t37 97q0 60 -30 92.5t-84 32.5
q-42 0 -79.5 -20.5t-55.5 -59.5q0 -1 -2 -1q-3 0 -6.5 2t-2.5 4q23 54 68 84t105 30q71 0 111 -39.5t40 -98.5q0 -52 -31.5 -96.5t-85.5 -64.5q67 -4 105 -50z" />
    <glyph glyph-name="four" unicode="4" horiz-adv-x="469" 
d="M422 198q0 -21 -4 -21l-83 3v-99q0 -30 5 -44.5t20 -19.5t48 -5q2 0 2 -6t-2 -6q-26 0 -41 1l-63 1l-75 -1q-19 -1 -52 -1q-3 0 -3 6t3 6q47 0 66 4.5t25 18t6 46.5v101q-136 2 -252 2q-5 0 -7.5 3.5t0.5 7.5l304 435q2 2 6 2q10 0 10 -6v-410l83 3q4 0 4 -21zM274 215
v310l-209 -305q-4 -7 5 -7q88 0 204 2z" />
    <glyph glyph-name="five" unicode="5" horiz-adv-x="445" 
d="M346.5 326.5q50.5 -48.5 50.5 -138.5q0 -95 -55 -147.5t-140 -52.5q-47 0 -84 18.5t-69 56.5l-1 2q0 4 4 6.5t6 -0.5q24 -28 57.5 -42t71.5 -14q71 0 106 44.5t35 117.5q0 78 -39 123.5t-120 45.5q-22 0 -47.5 -3.5t-41.5 -9.5q-5 0 -8 3.5t-2 8.5l32 268q1 7 3 9.5
t10 2.5q135 0 179.5 1.5t58 6.5t21.5 21q0 2 4 2q3 0 5.5 -1.5t1.5 -3.5l-13 -66q-3 -11 -8.5 -14.5t-18.5 -3.5l-207 5q-13 0 -15 -14l-24 -199q55 16 109 16q88 0 138.5 -48.5z" />
    <glyph glyph-name="six" unicode="6" horiz-adv-x="490" 
d="M373.5 317q33.5 -23 51.5 -61t18 -82q0 -53 -25 -95.5t-69 -67t-99 -24.5q-94 0 -142 65.5t-48 174.5q0 99 38.5 191t110.5 152.5t169 65.5q3 0 4.5 -4.5t-2.5 -5.5q-81 -17 -138.5 -75t-86 -140t-28.5 -169q0 -100 37 -168t112 -68q51 0 76 37t25 103q0 75 -29.5 119.5
t-80.5 44.5q-47 0 -87 -40l-2 -1q-4 0 -7 3.5t-2 5.5q24 30 56.5 46t68.5 16q46 0 79.5 -23z" />
    <glyph glyph-name="seven" unicode="7" horiz-adv-x="429" 
d="M168 4.5q-4 -4.5 -12 -4.5h-44q-4 0 -7 3t-1 7l247 555q4 7 -5 7q-149 0 -206.5 -4t-75 -16.5t-28.5 -47.5q0 -3 -5 -3q-2 0 -4.5 1.5t-1.5 3.5l34 145q1 3 7 2.5t5 -3.5q-1 -4 -1 -10q0 -9 9.5 -12t38.5 -3h265q4 0 7.5 -5t1.5 -8l-215 -590q-5 -13 -9 -17.5z" />
    <glyph glyph-name="eight" unicode="8" horiz-adv-x="490" 
d="M414.5 271.5q36.5 -42.5 36.5 -110.5q0 -53 -27.5 -92.5t-74 -60.5t-103.5 -21q-61 0 -106 22.5t-69 61.5t-24 87q0 62 40.5 116t99.5 84q-41 30 -62.5 62t-21.5 77q0 43 23 74.5t60 48t76 16.5q42 0 75 -17t51.5 -46t18.5 -63q0 -45 -26 -84.5t-70 -71.5
q67 -40 103.5 -82.5zM179 594q-24 -25 -24 -63q0 -39 19 -68.5t46 -49.5t77 -50h1q50 56 50 135q0 58 -30.5 89.5t-76.5 31.5q-38 0 -62 -25zM361.5 39q33.5 34 33.5 95q0 46 -21 80t-50.5 56t-82.5 54q-8 5 -18.5 11.5t-22.5 14.5q-42 -28 -63.5 -72t-21.5 -97
q0 -76 43 -126t113 -50q57 0 90.5 34z" />
    <glyph glyph-name="nine" unicode="9" horiz-adv-x="489" 
d="M119 311q-35 23 -53.5 61.5t-18.5 84.5q0 53 25 93.5t69 63t99 22.5q94 0 142 -65t48 -174q0 -98 -38.5 -190.5t-111.5 -152.5t-170 -66q-3 -1 -4.5 4.5t2.5 6.5q82 16 139.5 74t86.5 139.5t29 168.5q0 100 -37 168.5t-112 68.5q-100 0 -100 -134q0 -78 33 -124t87 -46
q19 0 36.5 7.5t39.5 26.5q1 1 3 1q3 0 5.5 -3t1.5 -5q-42 -53 -117 -53q-49 0 -84 23z" />
    <glyph glyph-name="colon" unicode=":" horiz-adv-x="197" 
d="M67 282q-12 12 -12 31t12 30.5t32 11.5q21 0 32.5 -11t11.5 -31t-11.5 -31.5t-32.5 -11.5q-20 0 -32 12zM67 1q-12 12 -12 31t12 30.5t32 11.5q21 0 32.5 -11t11.5 -31t-11.5 -31.5t-32.5 -11.5q-20 0 -32 12z" />
    <glyph glyph-name="semicolon" unicode=";" horiz-adv-x="224" 
d="M69 282q-12 12 -12 31t12 30.5t32 11.5q21 0 32.5 -11t11.5 -31t-11.5 -31.5t-32.5 -11.5q-20 0 -32 12zM151 48.5q17 -22.5 17 -64.5q0 -40 -18 -74.5t-53 -68.5q-1 -1 -3 -1q-3 0 -5 3t0 5q49 50 49 118q0 28 -10 41q-9 -15 -31 -15q-18 0 -28.5 11t-10.5 28
q0 40 46 40q30 0 47 -22.5z" />
    <glyph glyph-name="less" unicode="&#x3c;" horiz-adv-x="407" 
d="M377 42q0 -20 -7 -17l-334 148q-5 3 -5 17q0 15 5 17l334 147q3 2 5 -3t2 -13q0 -20 -7 -24l-291 -124l291 -124q7 -3 7 -24z" />
    <glyph glyph-name="equal" unicode="=" horiz-adv-x="468" 
d="M30.5 246.5q-1.5 6.5 -1.5 14.5q0 7 1.5 12.5t2.5 5.5h401q2 0 3.5 -6t1.5 -13t-1.5 -13.5t-3.5 -6.5h-400q-2 0 -3.5 6.5zM30.5 106.5q-1.5 6.5 -1.5 14.5q0 7 1.5 12.5t2.5 5.5h401q2 0 3.5 -6t1.5 -13t-1.5 -13.5t-3.5 -6.5h-400q-2 0 -3.5 6.5z" />
    <glyph glyph-name="greater" unicode="&#x3e;" horiz-adv-x="407" 
d="M376 189q0 -14 -5 -17l-334 -147q-3 -1 -5 3.5t-2 12.5t2 15.5t5 8.5l291 124l-291 124q-3 1 -5 8.5t-2 15.5t2 13.5t5 3.5l334 -148q5 -2 5 -17z" />
    <glyph glyph-name="question" unicode="?" horiz-adv-x="329" 
d="M126.5 599.5q-8.5 -12.5 -10.5 -34.5q-4 -20 -12 -32t-27 -12q-16 0 -25 10.5t-9 23.5q0 29 35 49.5t84 20.5q59 0 97.5 -31t38.5 -89q0 -30 -11 -53.5t-24.5 -38t-41.5 -41.5q-35 -34 -49 -61.5t-14 -62.5q0 -22 6 -55q1 -3 -5 -4t-7 2q-11 26 -18.5 61.5t-7.5 57.5
q0 31 12.5 52t36.5 45q27 27 40.5 50t13.5 60q0 43 -19.5 69t-50.5 26q-24 0 -32.5 -12.5zM115 1q-12 12 -12 31t12 30.5t32 11.5q21 0 32.5 -11t11.5 -31t-11.5 -31.5t-32.5 -11.5q-20 0 -32 12z" />
    <glyph glyph-name="at" unicode="@" horiz-adv-x="719" 
d="M412 111q0 18 2 27l10 51q-35 -63 -77.5 -101.5t-80.5 -38.5q-23 0 -37 14.5t-14 45.5q0 13 1 20q8 53 41 106t77.5 86.5t83.5 33.5q14 0 26.5 -5t20.5 -16q15 13 18 28q2 2 8 2q10 0 10 -3l-41 -224q-4 -22 -4 -31q0 -35 37 -35q28 0 55 20t45 57.5t18 87.5
q0 64 -32 117.5t-88 85t-125 31.5q-76 0 -132.5 -37t-86.5 -99t-30 -135q0 -79 34.5 -139t97.5 -93t144 -33q48 0 84.5 10t81.5 36h1q2 0 4.5 -3.5t0.5 -4.5q-87 -69 -204 -69q-81 0 -146 32.5t-103 93.5t-38 144q0 91 45.5 164t120 114.5t158.5 41.5q74 0 131 -31t88 -83
t31 -114q0 -56 -25 -105t-66.5 -79t-89.5 -30q-55 0 -55 60zM349.5 116q30.5 27 55.5 69.5t34 84.5q1 5 1 15q0 21 -10.5 34t-31.5 13q-25 0 -52.5 -23.5t-49 -63t-28.5 -84.5q-3 -18 -3 -32q0 -40 28 -40q26 0 56.5 27z" />
    <glyph glyph-name="A" unicode="A" 
d="M703 6q0 -6 -4 -6q-19 0 -59 2t-58 2q-22 0 -56 -2q-32 -2 -49 -2q-4 0 -4 6t4 6q37 0 54 7t17 24q0 14 -13 43l-115 245h-189l-86 -204q-14 -34 -14 -56q0 -59 98 -59q5 0 5 -6t-5 -6q-18 0 -52 2q-38 2 -66 2q-26 0 -60 -2q-30 -2 -50 -2q-5 0 -5 6t5 6q28 0 47.5 10.5
t37 37t38.5 76.5l211 498q2 3 7 3t6 -3l236 -497q34 -74 58 -99.5t57 -25.5q4 0 4 -6zM240 352h170l-90 190z" />
    <glyph glyph-name="B" unicode="B" horiz-adv-x="558" 
d="M459.5 299.5q48.5 -46.5 48.5 -115.5q0 -53 -26 -96t-71.5 -67.5t-101.5 -24.5q-33 0 -72 3q-14 1 -33 2t-42 1l-68 -1q-18 -1 -51 -1q-2 0 -2 6t2 6q38 0 56 5.5t25 19.5t7 44v463q0 30 -6.5 44t-24.5 19.5t-55 5.5q-3 0 -3 6t3 6l49 -1q42 -2 68 -2q18 0 33.5 1t26.5 2
q31 3 58 3q84 0 126 -36.5t42 -95.5q0 -48 -31 -85.5t-85 -58.5q79 -6 127.5 -52.5zM219.5 609q-12.5 -4 -18.5 -19t-6 -48v-190l45 -1q73 0 108 37.5t35 99.5q0 56 -30.5 90.5t-94.5 34.5q-26 0 -38.5 -4zM402.5 51.5q35.5 37.5 35.5 107.5q0 76 -44.5 123t-122.5 48
q-32 1 -76 -2v-247q0 -26 7.5 -40t29 -20.5t62.5 -6.5q73 0 108.5 37.5z" />
    <glyph glyph-name="C" unicode="C" horiz-adv-x="669" 
d="M512 627q49 -9 78 -26q9 -4 11.5 -8.5t3.5 -15.5l11 -112q0 -3 -5 -3.5t-6 2.5q-22 77 -81.5 113.5t-147.5 36.5q-76 0 -133 -33.5t-88 -94.5t-31 -141q0 -93 38.5 -172t104 -125t141.5 -46q72 0 125 39.5t81 121.5q0 3 4 3q3 0 5.5 -1t2.5 -3l-14 -113
q-2 -12 -4.5 -15.5t-11.5 -7.5q-90 -38 -190 -38q-120 0 -200.5 48.5t-118.5 123.5t-38 158q0 92 51 165t135 113t180 40q48 0 97 -9z" />
    <glyph glyph-name="D" unicode="D" horiz-adv-x="691" 
d="M236 -1q-14 1 -35.5 2t-47.5 1l-68 -1q-18 -1 -50 -1q-2 0 -2 6t2 6q38 0 55.5 5t24 19.5t6.5 44.5v463q0 30 -6 44t-23.5 19.5t-55.5 5.5q-2 0 -2 6t2 6l50 -1q42 -2 67 -2q38 0 75 3q44 2 61 2q104 0 184 -40t124.5 -109t44.5 -155q0 -97 -45.5 -171.5t-123.5 -115
t-170 -40.5q-29 0 -67 3zM435 44.5q62 33.5 96.5 99t34.5 157.5q0 87 -33 158t-94 112t-141 41q-43 0 -66.5 -5t-34.5 -20t-11 -45v-450q0 -30 8.5 -47t32 -25.5t66.5 -8.5q80 0 142 33.5z" />
    <glyph glyph-name="E" unicode="E" horiz-adv-x="537" 
d="M479 151q3 0 5.5 -1t2.5 -3q-9 -63 -9 -132q0 -8 -3.5 -11.5t-12.5 -3.5h-419q-2 0 -2 6t2 6q38 0 55.5 5t24 19.5t6.5 44.5v463q0 30 -6.5 44t-24 19.5t-55.5 5.5q-2 0 -2 6t2 6h402q9 0 9 -9l2 -123q0 -3 -5 -3.5t-6 2.5q-3 53 -32 82.5t-77 29.5h-61q-35 0 -51.5 -5.5
t-23 -19t-6.5 -40.5v-203h122q48 0 68.5 16t20.5 54q0 2 6 2t6 -2l-1 -81q0 -29 1 -44l1 -48q0 -2 -6 -2t-6 2q0 44 -21.5 63t-71.5 19h-119v-230q0 -28 6 -41t22 -18t50 -5h80q48 0 80 34t43 94q0 2 4 2z" />
    <glyph glyph-name="F" unicode="F" horiz-adv-x="509" 
d="M456 493q0 -3 -5 -3.5t-6 2.5q-3 53 -32 82.5t-77 29.5h-61q-34 0 -51 -5t-23.5 -18t-6.5 -38v-219h101q53 0 75.5 16.5t22.5 53.5q0 2 6 2t6 -2l-1 -81q0 -29 1 -44l1 -48q0 -2 -6 -2t-6 2q0 44 -23.5 63t-78.5 19h-98v-218q0 -32 8.5 -46.5t33.5 -20.5t79 -6q3 0 3 -6
t-3 -6q-41 0 -64 1l-90 1l-68 -1q-18 -1 -51 -1q-2 0 -2 6t2 6q38 0 56 5t24.5 19.5t6.5 44.5v463q0 30 -6.5 44t-24 19.5t-55.5 5.5q-2 0 -2 6t2 6h402q9 0 9 -9z" />
    <glyph glyph-name="G" unicode="G" horiz-adv-x="714" 
d="M215 30q-81 42 -123.5 114t-42.5 161q0 97 49.5 172t136 117t195.5 42q49 0 93.5 -9.5t72.5 -26.5q8 -5 9.5 -8.5t2.5 -14.5l12 -112q0 -3 -5.5 -3.5t-6.5 2.5q-22 72 -79.5 111t-141.5 39q-126 0 -195 -73t-69 -200q0 -97 39.5 -173.5t109.5 -119.5t157 -43q51 0 79 9
t41 35t13 77q0 52 -6.5 72.5t-29 27.5t-77.5 7q-6 0 -6 8q0 3 1.5 5.5t3.5 2.5q78 -5 126 -5q47 0 98 3q2 0 3.5 -2.5t1.5 -4.5q0 -7 -5 -7q-24 1 -34 -6.5t-13 -30.5t-3 -80q0 -45 3.5 -64t3.5 -24q0 -6 -2 -8t-9 -4q-121 -28 -213 -28q-109 0 -190 42z" />
    <glyph glyph-name="H" unicode="H" horiz-adv-x="759" 
d="M725 6q0 -6 -3 -6q-31 0 -49 1l-69 1l-73 -1q-18 -1 -48 -1q-3 0 -3 6t3 6q39 0 57 5t24.5 19.5t6.5 44.5v234h-384v-234q0 -30 6.5 -44.5t24.5 -19.5t57 -5q2 0 2 -6t-2 -6q-31 0 -49 1l-72 1l-69 -1q-18 -1 -50 -1q-2 0 -2 6t2 6q38 0 56.5 5t25 19.5t6.5 44.5v463
q0 30 -6.5 44t-24.5 19.5t-56 5.5q-2 0 -2 6t2 6l51 -1q42 -2 67 -2q29 0 73 2l48 1q2 0 2 -6t-2 -6q-38 0 -56.5 -6t-25 -20.5t-6.5 -44.5v-206h384v206q0 30 -6.5 44.5t-24.5 20.5t-57 6q-3 0 -3 6t3 6l48 -1q44 -2 73 -2q27 0 69 2l49 1q3 0 3 -6t-3 -6q-38 0 -56 -5.5
t-24.5 -19.5t-6.5 -44v-463q0 -30 6.5 -44.5t24.5 -19.5t56 -5q3 0 3 -6z" />
    <glyph glyph-name="I" unicode="I" horiz-adv-x="332" 
d="M205 36.5q6 -14.5 23.5 -19.5t55.5 -5q3 0 3 -6t-3 -6q-30 0 -48 1l-71 1l-69 -1q-18 -1 -49 -1q-3 0 -3 6t3 6q38 0 55.5 5t24 19.5t6.5 44.5v463q0 30 -6.5 44t-24 19.5t-55.5 5.5q-3 0 -3 6t3 6l49 -1q42 -2 69 -2q30 0 72 2l47 1q3 0 3 -6t-3 -6q-37 0 -54.5 -6
t-24 -20.5t-6.5 -44.5v-461q0 -30 6 -44.5z" />
    <glyph glyph-name="J" unicode="J" horiz-adv-x="322" 
d="M282 619q0 -6 -2 -6q-33 0 -48 -6t-20.5 -20.5t-5.5 -44.5v-570q0 -99 -46 -157.5t-133 -58.5q-34 0 -53.5 11.5t-19.5 31.5q0 15 9 24t25 9q17 0 26 -7.5t19 -22.5q9 -14 16 -20t20 -6q36 0 53.5 41.5t17.5 133.5v593q0 30 -7 44t-27.5 19.5t-63.5 5.5q-2 0 -2 6t2 6
l58 -1q46 -2 72 -2t64 2l44 1q2 0 2 -6z" />
    <glyph glyph-name="K" unicode="K" horiz-adv-x="650" 
d="M644 6q0 -6 -3 -6h-112q-8 0 -28.5 -0.5t-57.5 51t-71 94.5l-153 193l-33 -32v-225q0 -30 6 -44.5t23.5 -19.5t55.5 -5q3 0 3 -6t-3 -6q-30 0 -48 1l-70 1l-68 -1q-18 -1 -50 -1q-2 0 -2 6t2 6q38 0 55.5 5t24 19.5t6.5 44.5v463q0 30 -6 44t-23.5 19.5t-55.5 5.5
q-2 0 -2 6t2 6l50 -1q42 -2 67 -2q29 0 71 2l47 1q3 0 3 -6t-3 -6q-37 0 -54.5 -6t-24 -20.5t-6.5 -44.5v-211l214 213q33 33 33 49q0 20 -59 20q-2 0 -2 6t2 6l43 -1q40 -2 73 -2t69 2l37 1q3 0 3 -6t-3 -6q-41 0 -87 -18t-86 -57l-158 -155l144 -184q73 -95 111.5 -134
t59.5 -46t61 -7q3 0 3 -6z" />
    <glyph glyph-name="L" unicode="L" horiz-adv-x="533" 
d="M185 85q0 -29 6 -42t22 -17.5t52 -4.5h109q57 0 91 35t45 97q0 3 5.5 2.5t5.5 -3.5q-9 -83 -9 -137q0 -8 -3 -11.5t-12 -3.5h-462q-2 0 -2 6t2 6q38 0 55.5 5t23.5 19.5t6 44.5v463q0 30 -6 44t-23.5 19.5t-55.5 5.5q-2 0 -2 6t2 6l49 -1q42 -2 68 -2q28 0 70 2l48 1
q3 0 3 -6t-3 -6q-37 0 -54.5 -5.5t-24 -20t-6.5 -44.5v-458z" />
    <glyph glyph-name="M" unicode="M" horiz-adv-x="836" 
d="M815 6q0 -6 -3 -6q-31 0 -49 1l-69 1l-64 -1q-16 -1 -45 -1q-2 0 -2 6t2 6q34 0 50.5 5.5t22 19.5t3.5 44l-18 455l-228 -529q-2 -4 -8 -4q-5 0 -9 4l-246 523l-9 -421q-1 -53 18 -75t67 -22q2 0 2 -6t-2 -6q-28 0 -43 1l-54 1l-52 -1q-14 -1 -40 -1q-2 0 -2 6t2 6
q42 0 60.5 22.5t19.5 74.5l9 464q-30 40 -82 40q-2 0 -2 6t2 6l37 -1q10 -1 28 -1t30.5 1t19.5 1q13 0 21.5 -9.5t24.5 -42.5l223 -470l218 497q11 25 30 25q5 0 14.5 -1t25.5 -1l47 1q11 1 33 1q3 0 3 -6t-3 -6q-50 0 -71.5 -14.5t-20.5 -54.5l20 -463q1 -31 7.5 -45
t23.5 -19t55 -5q3 0 3 -6z" />
    <glyph glyph-name="N" unicode="N" horiz-adv-x="727" 
d="M707 619q0 -6 -3 -6q-42 0 -61 -23t-19 -75v-527q0 -2 -5 -3t-7 1l-460 557l-9 10v-444q0 -52 18.5 -74.5t59.5 -22.5q3 0 3 -6t-3 -6q-25 0 -38 1l-50 1l-51 -1q-14 -1 -41 -1q-2 0 -2 6t2 6q43 0 61 22.5t18 74.5v468q-39 36 -79 36q-3 0 -3 6t3 6l37 -1q12 -1 33 -1
q22 0 36 1t22 1t11.5 -3.5t11.5 -15.5q12 -18 24 -33l385 -473v415q0 52 -17.5 75t-58.5 23q-2 0 -2 6t2 6l39 -1q30 -2 49 -2q18 0 50 2l41 1q3 0 3 -6z" />
    <glyph glyph-name="O" unicode="O" horiz-adv-x="766" 
d="M200.5 31.5q-72.5 43.5 -112 118t-39.5 162.5q0 103 52 176.5t133.5 110.5t166.5 37q95 0 167 -44.5t110.5 -117.5t38.5 -155q0 -91 -48 -167t-128.5 -120t-174.5 -44q-93 0 -165.5 43.5zM523.5 42q54.5 33 86 97t31.5 152q0 94 -35 167t-98.5 114t-148.5 41
q-110 0 -172 -71t-62 -195q0 -94 35 -171.5t98 -122t143 -44.5q68 0 122.5 33z" />
    <glyph glyph-name="P" unicode="P" horiz-adv-x="543" 
d="M200.5 38.5q8.5 -14.5 33 -20.5t77.5 -6q3 0 3 -6t-3 -6q-41 0 -64 1l-87 1l-67 -1q-19 -1 -51 -1q-2 0 -2 6t2 6q38 0 55.5 5t23.5 19.5t6 44.5v463q0 30 -6 44t-23.5 19.5t-55.5 5.5q-2 0 -2 6t2 6l50 -1q42 -2 67 -2t56 3q12 0 38 1.5t45 1.5q92 0 147.5 -41
t55.5 -125q0 -66 -32.5 -111t-83.5 -67t-105 -22q-29 0 -48 5q-3 0 -3 5q0 3 1.5 6t3.5 2q16 -4 36 -4q66 0 111.5 43t45.5 124q0 79 -43 124.5t-110 45.5q-36 0 -52 -4t-23 -18.5t-7 -48.5v-457q0 -32 8.5 -46.5z" />
    <glyph glyph-name="Q" unicode="Q" horiz-adv-x="766" 
d="M746 -161q2 0 3.5 -4.5t-0.5 -5.5q-51 -12 -85 -12q-69 0 -145.5 45.5t-132.5 126.5q-7 -1 -20 -1q-93 0 -165.5 43.5t-112 118t-39.5 162.5q0 103 52 176.5t133.5 110.5t166.5 37q95 0 167 -44.5t110.5 -117.5t38.5 -155q0 -74 -32.5 -139.5t-89.5 -111.5t-129 -66
q42 -72 111.5 -118.5t131.5 -46.5q18 0 36 2h1zM160 175.5q35 -77.5 98 -122t143 -44.5q68 0 122.5 33t86 97t31.5 152q0 94 -35 167t-98.5 114t-148.5 41q-110 0 -172 -71t-62 -195q0 -94 35 -171.5z" />
    <glyph glyph-name="R" unicode="R" horiz-adv-x="673" 
d="M685 6q0 -6 -2 -6h-129q-25 0 -93.5 85.5t-166.5 238.5q-24 -7 -54 -7q-19 0 -45 2v-238q0 -31 6 -45t23.5 -19t55.5 -5q3 0 3 -6t-3 -6q-31 0 -49 1l-69 1l-68 -1q-18 -1 -51 -1q-2 0 -2 6t2 6q38 0 56 5.5t25 19.5t7 44v463q0 30 -6.5 44t-24 19.5t-55.5 5.5q-3 0 -3 6
t3 6l49 -1q42 -2 68 -2q18 0 34 1t28 2q32 3 58 3q81 0 125 -33t44 -92q0 -48 -28 -90.5t-74 -67.5q85 -127 143 -198.5t103 -103t88 -31.5q2 0 2 -6zM254 340q69 0 99 29.5t30 98.5q0 145 -122 145q-27 0 -40.5 -4.5t-19.5 -19t-6 -47.5v-198q25 -4 59 -4z" />
    <glyph glyph-name="S" unicode="S" horiz-adv-x="491" 
d="M164 440q19 -29 46 -48.5t76 -49.5q52 -31 81 -52t49.5 -53.5t20.5 -77.5q0 -48 -24 -87t-70.5 -61.5t-111.5 -22.5q-77 0 -141 35q-5 3 -6.5 7t-2.5 12l-13 136q-1 4 4.5 5t6.5 -3q16 -72 59.5 -124t115.5 -52q50 0 84.5 27.5t34.5 87.5q0 45 -20 78t-48.5 54.5
t-77.5 50.5q-48 29 -75.5 50t-46.5 53t-19 75q0 50 26.5 85.5t69 53t90.5 17.5q59 0 117 -24q15 -5 15 -17l7 -115q0 -4 -5 -4t-6 4q-8 52 -43 96.5t-101 44.5q-56 0 -83.5 -32.5t-27.5 -80.5q0 -39 19 -68z" />
    <glyph glyph-name="T" unicode="T" horiz-adv-x="634" 
d="M94.5 575q-31.5 -32 -45.5 -109q0 -2 -5.5 -2t-5.5 2q4 36 9 94t5 87q0 5 5.5 5t5.5 -5q0 -22 54 -22q85 -3 201 -3q59 0 125 2l68 1q36 0 53.5 5t22.5 20q1 4 6 4t5 -4q-3 -29 -6 -88t-3 -96q0 -2 -6 -2t-6 2q-3 78 -32 109.5t-96 31.5q-45 0 -64 -4t-26 -17t-7 -44
v-461q0 -31 7 -45t27 -19t63 -5q3 0 3 -6t-3 -6q-33 0 -53 1l-78 1l-75 -1q-20 -1 -55 -1q-2 0 -2 6t2 6q43 0 63 5t27.5 19.5t7.5 44.5v463q0 31 -7 43.5t-26 16t-64 3.5q-63 0 -94.5 -32z" />
    <glyph glyph-name="U" unicode="U" horiz-adv-x="763" 
d="M729 6q0 -6 -3 -6l-79 1l-52 -1q-12 0 -15.5 3t-3.5 16v77q-63 -57 -120.5 -82.5t-124.5 -25.5q-63 0 -113.5 24t-79 69t-28.5 105v358q0 30 -6 44t-23.5 19.5t-55.5 5.5q-3 0 -3 6t3 6l49 -1q42 -2 67 -2q28 0 72 2l47 1q2 0 2 -6t-2 -6q-37 0 -55 -6t-24.5 -20.5
t-6.5 -44.5v-321q0 -100 49.5 -152.5t134.5 -52.5q57 0 108 22.5t110 75.5v428q0 30 -6 44.5t-23.5 20.5t-55.5 6q-3 0 -3 6t3 6l48 -1q44 -2 70 -2t68 2l49 1q3 0 3 -6t-3 -6q-38 0 -55.5 -5.5t-24 -19.5t-6.5 -44v-463q0 -30 6.5 -44.5t24 -19.5t55.5 -5q3 0 3 -6z" />
    <glyph glyph-name="V" unicode="V" horiz-adv-x="666" 
d="M672 619q0 -6 -3 -6q-34 0 -59 -18t-42 -61l-213 -533q-1 -4 -11 -4q-8 0 -11 4l-249 541q-17 39 -36 55t-49 16q-3 0 -3 6t3 6l38 -1q28 -2 45 -2q40 0 86 2l41 1q3 0 3 -6t-3 -6q-31 0 -46.5 -8t-15.5 -27q0 -12 9 -32l209 -458l180 451q8 21 8 33q0 21 -19 31t-59 10
q-3 0 -3 6t3 6l43 -1q34 -2 62 -2q21 0 47 2l42 1q3 0 3 -6z" />
    <glyph glyph-name="W" unicode="W" horiz-adv-x="920" 
d="M926 619q0 -6 -2 -6q-79 0 -101 -79l-156 -533q0 -4 -11 -4q-10 0 -11 4l-191 520l-156 -520q0 -4 -11 -4q-9 0 -12 4l-191 541q-13 39 -33 55t-52 16q-3 0 -3 6t3 6l38 -1q28 -2 45 -2q52 0 102 2q15 1 40 1q3 0 3 -6t-3 -6q-77 0 -77 -43q0 -9 5 -24l155 -437l154 516
q2 3 11 3q11 0 11 -3l192 -518l124 430q4 12 4 24q0 52 -94 52q-3 0 -3 6t3 6l50 -1q44 -2 76 -2q20 0 46 2l43 1q2 0 2 -6z" />
    <glyph glyph-name="X" unicode="X" horiz-adv-x="652" 
d="M637 6q0 -6 -2 -6q-26 0 -41 1l-55 1l-77 -1q-18 -1 -49 -1q-2 0 -2 6t2 6q27 0 39 4t12 13t-9 22l-152 230l-127 -179q-24 -34 -24 -55q0 -35 59 -35q3 0 3 -6t-3 -6q-30 0 -46 1l-69 1l-42 -1q-11 -1 -37 -1q-3 0 -3 6t3 6q69 0 136 91l141 193l-161 244
q-26 40 -51.5 56.5t-60.5 16.5q-2 0 -2 6t2 6l38 -1q26 -2 38 -2q34 0 82 2l52 1q3 0 3 -6t-3 -6q-26 0 -38.5 -4t-12.5 -14q0 -8 9 -22l148 -223l117 166q27 38 27 62q0 35 -56 35q-3 0 -3 6t3 6l45 -1q38 -2 69 -2q18 0 42 2l37 1q3 0 3 -6t-3 -6q-33 0 -69 -25t-72 -74
l-131 -179l167 -252q26 -39 53.5 -55t68.5 -16q2 0 2 -6z" />
    <glyph glyph-name="Y" unicode="Y" horiz-adv-x="609" 
d="M616 619q0 -6 -2 -6q-36 0 -73 -26.5t-66 -72.5l-134 -206v-227q0 -31 6 -45t23.5 -19t55.5 -5q3 0 3 -6t-3 -6q-31 0 -48 1l-70 1l-69 -1q-18 -1 -49 -1q-3 0 -3 6t3 6q38 0 55.5 5t24 19.5t6.5 44.5v211l-166 243q-28 44 -53 61t-58 17q-3 0 -3 6t3 6q12 0 36 -2l35 -1
q34 0 86 2l54 1q2 0 2 -6t-2 -6q-52 0 -52 -21q0 -11 10 -25l161 -236l122 187q22 35 22 59q0 36 -54 36q-2 0 -2 6t2 6l47 -1q38 -2 70 -2q17 0 41 2l37 1q2 0 2 -6z" />
    <glyph glyph-name="Z" unicode="Z" horiz-adv-x="595" 
d="M450 600q3 5 2.5 6.5t-7.5 1.5q-178 0 -243 -5.5t-91 -26.5t-47 -79q0 -2 -4 -2q-3 0 -6 1.5t-2 2.5l40 156q0 1 4 1q10 0 8 -3q-1 -3 -1 -8q0 -12 11.5 -16t46.5 -4h365q5 0 7.5 -5t-0.5 -8l-390 -585l-3 -6q0 -2 8 -2h255q67 0 102 28t46 88q1 2 6 2t5 -2l-14 -127
q0 -3 -2.5 -6.5t-6.5 -3.5q-149 2 -478 2q-5 0 -7 4.5t1 8.5z" />
    <glyph glyph-name="bracketleft" unicode="[" horiz-adv-x="274" 
d="M88 715q0 7 1.5 8.5t7.5 1.5h139q3 0 3 -6t-3 -6q-39 0 -57.5 -6t-25 -20.5t-6.5 -44.5v-676q0 -30 6.5 -44.5t25 -20.5t57.5 -6q3 0 3 -6t-3 -6h-139q-6 0 -7.5 2t-1.5 9v821z" />
    <glyph glyph-name="backslash" unicode="\" horiz-adv-x="341" 
d="M26 718q-2 5 16.5 10.5t20.5 1.5l252 -882q2 -4 -17 -9.5t-21 -1.5z" />
    <glyph glyph-name="bracketright" unicode="]" horiz-adv-x="274" 
d="M184.5 -115q-1.5 -2 -7.5 -2h-139q-3 0 -3 6t3 6q39 0 57.5 6t25 20.5t6.5 44.5v676q0 30 -6.5 44.5t-25 20.5t-57.5 6q-3 0 -3 6t3 6h139q6 0 7.5 -1.5t1.5 -8.5v-821q0 -7 -1.5 -9z" />
    <glyph glyph-name="asciicircum" unicode="^" horiz-adv-x="392" 
d="M333 379q0 -2 -4 -4t-5 0l-128 172l-128 -172q-1 -1 -3 -1t-5 2.5t-2 3.5l127 249q1 5 11 5t11 -5l126 -249v-1z" />
    <glyph glyph-name="underscore" unicode="_" horiz-adv-x="398" 
d="M30.5 -69.5q-1.5 6.5 -1.5 14.5q0 7 1 13t3 6h331q2 0 3.5 -6.5t1.5 -13.5t-1.5 -13.5t-3.5 -6.5h-330q-2 0 -3.5 6.5z" />
    <glyph glyph-name="grave" unicode="`" horiz-adv-x="213" 
d="M50 731q13 0 32.5 -5.5t20.5 -9.5l51 -240q2 -2 -3.5 -3.5t-6.5 1.5l-102 253q-1 4 8 4z" />
    <glyph glyph-name="a" unicode="a" horiz-adv-x="490" 
d="M483 58q4 0 5.5 -4.5t-2.5 -5.5l-116 -56q-2 -1 -5 -1q-9 0 -17.5 23.5t-9.5 59.5q-37 -38 -75 -61t-83 -23q-61 0 -102.5 45t-41.5 126q0 72 34 126t85.5 83t103.5 29q56 0 97 -30q18 10 28 26q1 2 5 0.5t4 -3.5v-285q0 -34 8 -48.5t27 -14.5q17 0 53 14h2zM277.5 41.5
q30.5 18.5 60.5 48.5v204q0 37 -32 61t-72 24q-59 0 -95.5 -52.5t-36.5 -136.5q0 -75 30.5 -121t81.5 -46q33 0 63.5 18.5z" />
    <glyph glyph-name="b" unicode="b" horiz-adv-x="510" 
d="M392 378q37 -21 59 -62.5t22 -101.5q0 -72 -31.5 -123.5t-82 -77.5t-106.5 -26q-77 0 -136 44l-76 -36h-2q-4 0 -5 4t2 6q32 22 45 41.5t13 56.5v494q0 36 -7.5 52t-25.5 16q-14 0 -45 -13h-2q-3 0 -4.5 5t1.5 6l125 61l5 1q2 0 5.5 -2.5t3.5 -5.5v-405q38 40 76 63.5
t86 23.5q43 0 80 -21zM374.5 51q32.5 45 32.5 129q0 90 -35 138t-93 48q-34 0 -65 -18.5t-64 -51.5v-164q0 -44 21.5 -72t52.5 -41t60 -13q58 0 90.5 45z" />
    <glyph glyph-name="c" unicode="c" horiz-adv-x="411" 
d="M122 16.5q-44 28.5 -65 73.5t-21 95q0 64 32 111.5t82.5 73t103.5 25.5q44 0 80.5 -17.5t36.5 -43.5q0 -13 -9.5 -22.5t-25.5 -9.5q-27 0 -44 33q-13 20 -28 30t-43 10q-56 0 -87.5 -43.5t-31.5 -116.5q0 -84 42 -138t126 -54q61 0 102 33h1q3 0 5.5 -3t0.5 -5
q-35 -31 -70.5 -45.5t-77.5 -14.5q-65 0 -109 28.5z" />
    <glyph glyph-name="d" unicode="d" horiz-adv-x="512" 
d="M506 57q4 0 5.5 -5t-1.5 -7l-110 -52q-6 -2 -8 -2q-13 0 -22 22t-10 61q-37 -39 -77.5 -63t-90.5 -24q-42 0 -77.5 24t-57 67.5t-21.5 99.5q0 71 35 121t88 75t105 25q53 0 96 -26v224q0 36 -7.5 52t-25.5 16q-13 0 -46 -14h-2q-4 0 -5.5 4.5t1.5 6.5l127 62q2 1 5 1
q2 0 5.5 -2.5t3.5 -5.5v-607q0 -36 8.5 -52t27.5 -16q29 0 52 14zM298 40.5q31 17.5 62 49.5v220q-24 33 -53 51t-70 18q-63 0 -99.5 -44.5t-36.5 -126.5q0 -55 17 -97t46.5 -65t66.5 -23q36 0 67 17.5z" />
    <glyph glyph-name="e" unicode="e" horiz-adv-x="408" 
d="M364 56q3 0 5.5 -3.5t0.5 -6.5q-68 -58 -146 -58q-59 0 -102 27t-64.5 70.5t-21.5 94.5q0 60 28.5 109t77.5 77.5t109 28.5q54 0 84 -26.5t30 -72.5q0 -12 -2.5 -17.5t-9.5 -5.5l-246 -2q-5 -27 -5 -52q0 -87 42 -141.5t116 -54.5q57 0 103 33h1zM148.5 351.5
q-27.5 -23.5 -38.5 -66.5l186 4q0 41 -21.5 63.5t-57.5 22.5q-41 0 -68.5 -23.5z" />
    <glyph glyph-name="f" unicode="f" horiz-adv-x="305" 
d="M402.5 710.5q32.5 -15.5 32.5 -37.5q0 -15 -10.5 -23.5t-24.5 -8.5q-12 0 -21 6t-19 20q-15 21 -32.5 31.5t-43.5 10.5q-58 0 -92 -67t-34 -203v-64q46 1 128 10q3 0 5 -7t2 -17q0 -8 -3 -16.5t-7 -7.5q-58 14 -125 16v-272q0 -31 7 -45t27 -19t64 -5q3 0 3 -6t-3 -6
l-64 1q-21 1 -64 1l-56 -1q-14 -1 -40 -1q-3 0 -3 6t3 6q30 0 44 5.5t19.5 19.5t5.5 44v225q0 26 -5 36.5t-19.5 14t-48.5 3.5q-3 0 -3 6.5t3 6.5q41 0 55.5 9.5t15.5 35.5q5 162 59.5 235t160.5 73q51 0 83.5 -15.5z" />
    <glyph glyph-name="g" unicode="g" horiz-adv-x="466" 
d="M389 395.5q4 -1.5 4 -3.5v-462q0 -96 -52.5 -153.5t-146.5 -57.5q-60 0 -98 21.5t-38 53.5q0 17 9 25t21 8q14 0 23 -7.5t22 -24.5q19 -26 39 -40.5t60 -14.5q48 0 77 35t29 131v168q-37 -38 -75 -61t-83 -23q-61 0 -102.5 45t-41.5 126q0 72 34 126t85.5 83t103.5 29
q56 0 97 -30q18 10 28 26q1 2 5 0.5zM277.5 41.5q30.5 18.5 60.5 48.5v204q0 37 -32 61t-72 24q-59 0 -95.5 -52.5t-36.5 -136.5q0 -75 30.5 -121t81.5 -46q33 0 63.5 18.5z" />
    <glyph glyph-name="h" unicode="h" horiz-adv-x="499" 
d="M480 6q0 -6 -3 -6q-23 0 -37 1l-54 1l-54 -1q-14 -1 -37 -1q-3 0 -3 6t3 6q27 0 40 5.5t18 20t5 43.5v159q0 59 -22.5 87.5t-69.5 28.5q-31 0 -63 -16.5t-58 -45.5v-213q0 -29 5 -43.5t18 -20t40 -5.5q3 0 3 -6t-3 -6q-23 0 -37 1l-54 1l-54 -1q-14 -1 -37 -1q-3 0 -3 6
t3 6q27 0 40 5.5t18 20t5 43.5v517q0 36 -7 52t-25 16q-15 0 -46 -14h-2q-3 0 -5 5t2 6l127 62h3q4 0 6.5 -2.5t2.5 -5.5v-406q38 44 75.5 64.5t78.5 20.5q55 0 85 -31t30 -90v-194q0 -29 5 -43.5t18 -20t40 -5.5q3 0 3 -6z" />
    <glyph glyph-name="i" unicode="i" horiz-adv-x="273" 
d="M104.5 523q-11.5 11 -11.5 31t11.5 31t32.5 11q20 0 31 -11t11 -31t-11 -31t-31 -11q-21 0 -32.5 11zM51 6q0 6 2 6q27 0 40.5 5.5t18.5 20t5 43.5v187q0 36 -7.5 52t-25.5 16t-45 -14h-1q-4 0 -6 5t1 7l130 60l4 1q2 0 5 -2.5t3 -5.5q0 -7 -1 -40t-1 -78v-188
q0 -30 5 -44t18 -19.5t40 -5.5q3 0 3 -6t-3 -6q-23 0 -37 1l-54 1l-54 -1q-14 -1 -38 -1q-2 0 -2 6z" />
    <glyph glyph-name="j" unicode="j" horiz-adv-x="257" 
d="M95.5 523q-11.5 11 -11.5 31t11.5 31t32.5 11q20 0 31 -11t11 -31t-11 -31t-31 -11q-21 0 -32.5 11zM166 347q-1 -33 -1 -78v-317q0 -68 -13.5 -111.5t-43.5 -72.5t-84 -50q-2 -1 -4.5 4.5t-0.5 6.5q49 21 69 67t20 133v339q0 36 -7 52t-24 16q-18 0 -46 -14h-1
q-5 0 -7 5t2 7l130 60l3 1q3 0 6 -2.5t3 -5.5q0 -7 -1 -40z" />
    <glyph glyph-name="k" unicode="k" horiz-adv-x="491" 
d="M486 6q0 -6 -3 -6q-23 0 -37 1l-54 1l-72 -1q-16 -1 -43 -1q-2 0 -2 6t2 6q50 0 50 19q0 9 -9 22l-123 167l-50 -39v-100q0 -29 5 -43.5t18 -20t40 -5.5q3 0 3 -6t-3 -6q-23 0 -37 1l-54 1l-54 -1q-14 -1 -37 -1q-3 0 -3 6t3 6q27 0 40 5.5t18 20t5 43.5v517q0 36 -7 52
t-25 16q-15 0 -46 -14h-2q-3 0 -5 5t2 6l125 61l5 1q3 0 6 -2.5t3 -5.5v-520l134 108q32 25 32 44q0 25 -57 25q-3 0 -3 6t3 6q27 0 41 -1l73 -1l67 1q13 1 36 1q3 0 3 -6t-3 -6q-37 0 -82 -18t-90 -54l-58 -46l127 -175q50 -69 115 -69q3 0 3 -6z" />
    <glyph glyph-name="l" unicode="l" horiz-adv-x="258" 
d="M37 6q0 6 3 6q27 0 40 5.5t18 20t5 43.5v517q0 36 -7 52t-25 16q-15 0 -46 -14h-2q-3 0 -4.5 5t1.5 6l128 61q2 1 5 1q2 0 5.5 -2.5t3.5 -5.5v-636q0 -29 4.5 -43t17.5 -20t40 -6q3 0 3 -6t-3 -6q-22 0 -36 1l-56 1l-54 -1q-14 -1 -38 -1q-3 0 -3 6z" />
    <glyph glyph-name="m" unicode="m" horiz-adv-x="763" 
d="M745 6q0 -6 -3 -6q-23 0 -37 1l-54 1l-54 -1q-14 -1 -37 -1q-3 0 -3 6t3 6q27 0 40 5.5t18 20t5 43.5v159q0 59 -21 87.5t-65 28.5q-30 0 -60.5 -16.5t-56.5 -46.5q1 -5 1 -16v-196q0 -30 5 -44t18 -19.5t40 -5.5q3 0 3 -6t-3 -6q-23 0 -37 1l-54 1l-55 -1q-13 -1 -36 -1
q-3 0 -3 6t3 6q27 0 40 5.5t17.5 19.5t4.5 44v159q0 59 -21 87.5t-64 28.5q-30 0 -60 -16t-55 -45v-214q0 -30 4.5 -44t17.5 -19.5t40 -5.5q3 0 3 -6t-3 -6q-23 0 -36 1l-54 1l-55 -1q-13 -1 -36 -1q-3 0 -3 6t3 6q27 0 40 5.5t17.5 19.5t4.5 44v198q0 34 -8 49t-27 15
q-16 0 -54 -15h-2q-4 0 -5.5 4.5t2.5 6.5l116 55q2 1 6 1q9 0 19 -23t10 -59v-1q36 44 72 64t75 20q45 0 73 -22t35 -66q37 45 74 66.5t77 21.5q53 0 81.5 -30.5t28.5 -90.5v-194q0 -30 4.5 -44t17.5 -19.5t40 -5.5q3 0 3 -6z" />
    <glyph glyph-name="n" unicode="n" horiz-adv-x="517" 
d="M498 6q0 -6 -3 -6q-23 0 -36 1l-54 1l-55 -1q-13 -1 -36 -1q-3 0 -3 6t3 6q27 0 40 5.5t17.5 19.5t4.5 44v162q0 59 -22.5 87t-69.5 28q-31 0 -62.5 -16.5t-57.5 -45.5v-215q0 -30 4.5 -44t17.5 -19.5t40 -5.5q3 0 3 -6t-3 -6q-23 0 -36 1l-54 1l-55 -1q-13 -1 -36 -1
q-3 0 -3 6t3 6q27 0 40 5.5t17.5 19.5t4.5 44v198q0 34 -8 49t-27 15q-16 0 -54 -15h-2q-4 0 -5.5 4.5t2.5 6.5l116 55q2 1 6 1q9 0 19 -23t10 -59q38 44 75.5 65t77.5 21q56 0 86 -31t30 -91v-196q0 -30 4.5 -44t17.5 -19.5t40 -5.5q3 0 3 -6z" />
    <glyph glyph-name="o" unicode="o" horiz-adv-x="479" 
d="M128.5 15.5q-44.5 28.5 -68.5 77t-24 105.5q0 65 31.5 110.5t81 68t100.5 22.5q59 0 103 -29t67.5 -76.5t23.5 -100.5q0 -62 -29 -108.5t-77.5 -72t-105.5 -25.5q-58 0 -102.5 28.5zM345 45q30 39 30 120q0 62 -20.5 111t-56.5 76.5t-82 27.5q-54 0 -83.5 -39t-29.5 -112
q0 -61 20 -112t56 -81t81 -30q55 0 85 39z" />
    <glyph glyph-name="p" unicode="p" horiz-adv-x="511" 
d="M395 377q35 -22 56 -64t21 -98q0 -75 -34 -126.5t-83.5 -76.5t-97.5 -25q-31 0 -55.5 6t-50.5 20v-207q0 -30 7.5 -44t28.5 -19.5t64 -5.5q2 0 2 -6t-2 -6q-34 0 -54 1l-73 1l-55 -1q-14 -1 -37 -1q-3 0 -3 6t3 6q27 0 40 5.5t18 19.5t5 44v470q0 36 -8 51.5t-28 15.5
q-22 0 -53 -14l-2 -1q-4 0 -5.5 5t1.5 7l111 53q2 1 7 1q14 0 23 -21t10 -60q85 86 168 86q41 0 76 -22zM374 54.5q34 46.5 34 129.5q0 84 -37 130.5t-94 46.5q-35 0 -65 -17t-61 -48v-225q27 -31 59 -47t77 -16q53 0 87 46.5z" />
    <glyph glyph-name="q" unicode="q" horiz-adv-x="488" 
d="M475 -269q0 -6 -2 -6q-25 0 -39 1l-54 1l-59 -1q-17 -1 -47 -1q-2 0 -2 6t2 6q34 0 50.5 5.5t22.5 19.5t6 44v266q-35 -38 -74 -61.5t-87 -23.5q-42 0 -78 22t-57 63.5t-21 98.5q0 79 32.5 130t82 74.5t103.5 23.5q67 0 132 -35l67 24l2 1q3 0 4 -4.5t-2 -5.5
q-24 -14 -36 -33.5t-12 -50.5v-489q0 -30 5 -44t18 -19.5t41 -5.5q2 0 2 -6zM290.5 38.5q30.5 18.5 62.5 50.5v180q0 51 -36.5 81t-93.5 30q-121 0 -121 -176q0 -87 34 -135.5t90 -48.5q34 0 64.5 18.5z" />
    <glyph glyph-name="r" unicode="r" horiz-adv-x="364" 
d="M317 383q20 -12 20 -29q0 -13 -8.5 -22t-24.5 -9q-9 0 -15.5 3.5t-15.5 10.5q-9 8 -17 12t-19 4q-13 0 -27.5 -10.5t-45.5 -46.5v-215q0 -30 7.5 -44t27.5 -19.5t62 -5.5q4 0 4 -6t-4 -6q-32 0 -51 1l-74 1l-55 -1q-13 -1 -36 -1q-3 0 -3 6t3 6q27 0 40 5.5t17.5 19.5
t4.5 44v198q0 34 -8 49t-27 15q-16 0 -54 -15h-2q-4 0 -5.5 4.5t2.5 6.5l116 55q2 1 6 1q9 0 19 -23t10 -59v-1q41 48 65 65.5t46 17.5t42 -12z" />
    <glyph glyph-name="s" unicode="s" horiz-adv-x="338" 
d="M123 269.5q23 -20.5 68 -43.5q35 -18 54.5 -31t33.5 -34t14 -51q0 -51 -38 -86t-103 -35q-53 0 -96 30q-6 4 -6 12l-2 78q0 3 5.5 3.5t6.5 -2.5q19 -50 49.5 -76t70.5 -26q31 0 48.5 14.5t17.5 43.5q0 28 -12.5 47.5t-30.5 31t-49 27.5q-33 16 -52.5 29t-33 34t-13.5 52
q0 54 40.5 82.5t95.5 28.5q40 0 73 -15q6 -2 7.5 -4.5t1.5 -6.5q0 -20 -1 -31l-1 -42q0 -2 -6 -2t-6 2q0 21 -16 39.5t-40 29.5t-48 11q-26 0 -40.5 -13.5t-14.5 -40.5q0 -35 23 -55.5z" />
    <glyph glyph-name="t" unicode="t" horiz-adv-x="338" 
d="M311 52q4 0 6 -4.5t-1 -6.5q-37 -29 -66.5 -41t-61.5 -12q-42 0 -69 19t-27 63v235q0 26 -3.5 37t-13.5 14.5t-34 3.5q-4 0 -4 6.5t4 6.5q40 1 65 21.5t29 54.5q0 3 8 3q7 0 7 -3v-74q50 1 139 10q2 0 4.5 -7.5t2.5 -16.5q0 -8 -3.5 -16.5t-7.5 -7.5q-55 14 -135 16v-249
q0 -41 20.5 -61t58.5 -20q46 0 80 28z" />
    <glyph glyph-name="u" unicode="u" horiz-adv-x="493" 
d="M487 57q4 0 5.5 -4.5t-2.5 -6.5l-117 -55l-4 -1q-10 0 -19 23t-9 60v4q-39 -44 -78 -64.5t-81 -20.5q-50 0 -78 31.5t-28 91.5v153q0 39 -7 56.5t-23 17.5q-14 0 -34 -10h-1q-4 0 -6 5.5t2 6.5l111 50l4 1q3 0 6.5 -2.5t3.5 -5.5v-239q0 -116 84 -116q32 0 65 16.5
t60 45.5v174q0 40 -6.5 57t-23.5 17q-14 0 -34 -10h-1q-4 0 -5.5 5.5t2.5 6.5l111 50l3 1q3 0 6.5 -2.5t3.5 -5.5v-280q0 -34 8 -49t27 -15q17 0 53 14h2z" />
    <glyph glyph-name="v" unicode="v" horiz-adv-x="434" 
d="M433 380q0 -6 -2 -6q-26 0 -43.5 -16t-33.5 -57l-125 -300q-2 -5 -11 -5t-11 5l-140 302q-20 43 -33.5 57t-33.5 14q-3 0 -3 6t3 6q20 0 31 -1l38 -1l65 1q15 1 40 1q3 0 3 -6t-3 -6q-60 0 -60 -24q0 -7 4 -15l122 -258l94 229q7 19 7 29q0 20 -19 29.5t-60 9.5
q-2 0 -2 6t2 6q27 0 41 -1l60 -1l35 1q10 1 33 1q2 0 2 -6z" />
    <glyph glyph-name="w" unicode="w" horiz-adv-x="669" 
d="M667 380q0 -6 -3 -6q-25 0 -43 -16t-33 -57l-113 -300q0 -4 -11 -4q-9 0 -12 4l-133 302l-105 -302q-1 -4 -11 -4q-9 0 -12 4l-124 302q-18 43 -32.5 57t-34.5 14q-3 0 -3 6t3 6q20 0 31 -1l38 -1l60 1q15 1 43 1q3 0 3 -6t-3 -6q-28 0 -43 -5.5t-15 -18.5q0 -7 4 -15
l104 -250l104 301q3 4 12 4q10 0 11 -4l135 -308l84 228q6 17 6 29q0 20 -18.5 29.5t-59.5 9.5q-2 0 -2 6t2 6q27 0 41 -1l60 -1l36 1q10 1 31 1q3 0 3 -6z" />
    <glyph glyph-name="x" unicode="x" horiz-adv-x="439" 
d="M429 6q0 -6 -2 -6l-32 1q-11 1 -32 1l-64 -1q-15 -1 -40 -1q-3 0 -3 6t3 6q18 0 25.5 2.5t7.5 9.5q0 9 -12 27l-76 115l-60 -86q-20 -30 -20 -44q0 -12 13.5 -18t43.5 -6q3 0 3 -6t-3 -6q-27 0 -40 1l-60 1l-36 -1q-10 -1 -32 -1q-2 0 -2 6t2 6q26 0 56.5 19t56.5 55
l68 95l-81 122q-24 37 -50 54t-47 17q-2 0 -2 6t2 6q21 0 31 -1l31 -1l64 1q14 1 39 1q2 0 2 -6t-2 -6q-17 0 -25 -2.5t-8 -9.5t13 -27l69 -104l51 75q21 31 21 45q0 12 -13.5 17.5t-44.5 5.5q-2 0 -2 6t2 6q27 0 41 -1l60 -1l36 1q10 1 32 1q2 0 2 -6t-2 -6
q-27 0 -56.5 -18.5t-56.5 -55.5l-61 -83l89 -134q25 -38 51.5 -54.5t47.5 -16.5q2 0 2 -6z" />
    <glyph glyph-name="y" unicode="y" horiz-adv-x="485" 
d="M405 392.5q3 -2.5 3 -5.5v-457q0 -95 -52 -153t-148 -58q-55 0 -93 22t-38 55q0 15 9 23t23 8q13 0 22 -7.5t21 -24.5q19 -26 39.5 -40.5t59.5 -14.5q46 0 73.5 36t27.5 130v171q-39 -44 -78.5 -64.5t-81.5 -20.5q-51 0 -78.5 31.5t-27.5 91.5v153q0 39 -7 56.5t-23 17.5
q-14 0 -34 -10h-1q-4 0 -6 5t2 7l111 50l4 1q3 0 6.5 -2.5t3.5 -5.5v-239q0 -59 21 -87t63 -28q32 0 65.5 16t60.5 45v174q0 39 -7 56.5t-23 17.5q-13 0 -33 -10h-1q-4 0 -6.5 5t1.5 7l111 50l5 1q3 0 6 -2.5z" />
    <glyph glyph-name="z" unicode="z" horiz-adv-x="405" 
d="M281 366q4 7 -5 7q-77 0 -120 -7t-67 -25.5t-36 -56.5q0 -2 -4 -2q-3 0 -5.5 1.5t-1.5 2.5l34 129q1 2 6.5 1.5t4.5 -2.5q-1 -3 -1 -8q0 -12 11 -16t38 -4h212q4 0 6.5 -4t1.5 -8l-236 -352q-4 -7 5 -7q98 0 139.5 6t60.5 25.5t34 67.5q1 2 6 2t5 -2l-2 -103
q0 -4 -2.5 -7.5t-6.5 -3.5h-309q-4 0 -6.5 4t-0.5 8z" />
    <glyph glyph-name="braceleft" unicode="{" horiz-adv-x="289" 
d="M29 304.5q0 6.5 3 6.5q48 6 63.5 64.5t15.5 153.5q0 86 11 126.5t40 55t88 14.5q4 0 4 -6t-4 -6q-36 0 -55.5 -27.5t-20.5 -78.5q-2 -122 -8 -172t-27.5 -78.5t-74.5 -51.5q52 -24 74 -53.5t28 -79.5t8 -171q1 -51 20.5 -78.5t55.5 -27.5q4 0 4 -6t-4 -6
q-60 0 -88.5 14.5t-39.5 55.5t-11 127q0 96 -15.5 154t-63.5 64q-3 0 -3 6.5z" />
    <glyph glyph-name="bar" unicode="|" horiz-adv-x="168" 
d="M66 731q0 7 20 7q19 0 19 -7v-885q0 -4 -6 -6t-13 -2q-8 0 -14 2t-6 6v885z" />
    <glyph glyph-name="braceright" unicode="}" horiz-adv-x="283" 
d="M187.5 234q-15.5 -58 -15.5 -154q0 -86 -11 -127t-39.5 -55.5t-88.5 -14.5q-4 0 -4 6t4 6q36 0 55.5 27.5t20.5 78.5q2 121 8 171t28 79.5t74 53.5q-53 23 -74.5 51.5t-27.5 78.5t-8 172q-1 51 -20.5 78.5t-55.5 27.5q-4 0 -4 6t4 6q59 0 88 -14.5t40 -55t11 -126.5
q0 -95 15.5 -153.5t63.5 -64.5q3 0 3 -6.5t-3 -6.5q-48 -6 -63.5 -64z" />
    <glyph glyph-name="asciitilde" unicode="~" horiz-adv-x="443" 
d="M356.5 207.5q15.5 9.5 32.5 28.5l2 1q2 0 4 -3t1 -5q-35 -45 -57.5 -60.5t-48.5 -15.5q-19 0 -36 4.5t-42 13.5q-26 9 -44 13.5t-38 4.5q-24 0 -36.5 -6.5t-23 -17t-15.5 -14.5h-1q-2 0 -4.5 2.5t-1.5 4.5q57 76 113 76q23 0 68 -17q27 -9 45.5 -14t38.5 -5
q28 0 43.5 9.5z" />
    <glyph glyph-name="uni00A0" unicode="&#xa0;" horiz-adv-x="234" 
 />
    <glyph glyph-name="exclamdown" unicode="&#xa1;" horiz-adv-x="247" 
d="M160 353q12 -12 12 -31t-12 -30.5t-32 -11.5q-21 0 -32.5 11t-11.5 31t11.5 31.5t32.5 11.5q20 0 32 -12zM155 -272.5q-15 -2.5 -32 -2.5t-32 2.5t-13 6.5q16 86 24 184t16 247q0 3 8 3q7 0 7 -3q5 -136 12.5 -240t23.5 -191q1 -4 -14 -6.5z" />
    <glyph glyph-name="cent" unicode="&#xa2;" horiz-adv-x="538" 
d="M487 143q2 0 4.5 -1.5t2.5 -2.5l-13 -106q-1 -8 -3 -11t-11 -7q-77 -27 -160 -27h-9v-90q0 -7 -11 -7t-11 7v91q-84 7 -138 45.5t-78 92.5t-24 109q0 63 31 115.5t86 86t123 40.5v83q0 4 3.5 6t7.5 2q5 0 8 -2t3 -6v-81h13q38 0 81.5 -8t70.5 -21q7 -3 9 -6t3 -11
l10 -103q0 -3 -5.5 -4t-6.5 3q-18 67 -63 100t-112 35v-462q6 -1 19 -1q126 0 165 138q0 3 5 3zM127 143q19 -52 57 -89t92 -48v458q-49 -3 -87 -31.5t-59.5 -76t-21.5 -105.5q0 -56 19 -108z" />
    <glyph glyph-name="sterling" unicode="&#xa3;" horiz-adv-x="503" 
d="M446.5 131.5q5.5 -0.5 5.5 -2.5q-9 -63 -9 -114q0 -8 -3.5 -11.5t-11.5 -3.5h-384q-2 0 -2 5.5t2 6.5q51 21 69.5 50.5t18.5 90.5q0 39 -5 70.5t-14 66.5h-60q-3 0 -5 3.5t-2 7.5q0 5 2 8t5 3h54q-18 63 -18 115q0 71 27 118t71.5 69t98.5 22q55 0 113 -22q15 -6 15 -17
l9 -108q0 -4 -5.5 -4t-6.5 4q-9 51 -44 91.5t-93 40.5q-64 0 -93 -47.5t-29 -116.5q0 -33 6 -61.5t13 -52.5t9 -31h142q4 0 6 -3t2 -8q0 -4 -2 -7.5t-6 -3.5h-136q13 -45 13 -90q0 -59 -18 -92t-52 -66h193q43 0 65 7.5t34 25.5t20 55q0 2 5.5 1.5z" />
    <glyph glyph-name="currency" unicode="&#xa4;" horiz-adv-x="414" 
d="M334 36l-48 55q-41 -26 -90 -26q-42 0 -74 21l-44 -50l-23 23l44 46q-18 19 -28 44.5t-10 52.5q0 54 39 91l-50 50l28 25l51 -54q38 21 82 21t78 -23l50 53l22 -22l-49 -50q37 -39 37 -92q0 -51 -36 -89l49 -49zM271 108.5q21 25.5 21 71.5q0 55 -28 96t-76 41
q-34 0 -53.5 -24t-19.5 -70q0 -55 25.5 -97.5t74.5 -42.5q35 0 56 25.5z" />
    <glyph glyph-name="yen" unicode="&#xa5;" horiz-adv-x="609" 
d="M616 619q0 -6 -2 -6q-36 0 -73 -26.5t-66 -72.5l-134 -206v-12h105q7 0 7 -11t-7 -11h-278q-3 0 -5 3.5t-2 7.5q0 5 2 8t5 3h105l-163 239q-29 44 -53.5 61t-57.5 17q-3 0 -3 6t3 6q12 0 36 -2l35 -1q34 0 86 2l54 1q2 0 2 -6t-2 -6q-52 0 -52 -21q0 -11 10 -25l161 -236
l122 187q22 35 22 59q0 36 -54 36q-2 0 -2 6t2 6l47 -1q38 -2 70 -2q17 0 41 2l37 1q2 0 2 -6zM453 213q0 -11 -7 -11h-105v-121q0 -31 6 -45t23.5 -19t55.5 -5q3 0 3 -6t-3 -6q-31 0 -48 1l-70 1l-69 -1q-18 -1 -49 -1q-3 0 -3 6t3 6q38 0 55.5 5t24 19.5t6.5 44.5v121
h-108q-3 0 -5 3.5t-2 7.5q0 5 2 8t5 3h278q7 0 7 -11z" />
    <glyph glyph-name="brokenbar" unicode="&#xa6;" horiz-adv-x="168" 
d="M66 731q0 7 20 7q19 0 19 -7v-371q0 -3 -6 -5t-13 -2q-8 0 -14 2t-6 5v371zM66 216q0 4 6 6t14 2q7 0 13 -2t6 -6v-370q0 -4 -6 -6t-13 -2q-8 0 -14 2t-6 6v370z" />
    <glyph glyph-name="section" unicode="&#xa7;" horiz-adv-x="441" 
d="M361 -56q0 -65 -45 -98.5t-107 -33.5q-52 0 -88 18q-11 7 -11 17l-8 98q0 3 6 3t6 -3q4 -22 23 -48t47.5 -44t60.5 -18q29 0 48 18t19 55q0 44 -27 73t-82 64q-43 28 -69 49t-44 53.5t-18 76.5q0 38 14 66.5t54 65.5q-37 37 -37 84q0 65 44.5 98.5t105.5 33.5
q52 0 87 -19q11 -5 11 -16l8 -99q0 -2 -5.5 -2t-6.5 2q-4 23 -22.5 49t-47 44t-60.5 18q-29 0 -47.5 -18t-18.5 -55q0 -44 26.5 -73t80.5 -64q42 -27 67.5 -49t43 -54t17.5 -76q0 -38 -14 -66t-52 -63q41 -38 41 -87zM139 182q18 -32 44 -53t69 -49q38 -24 59 -41
q27 33 27 86q0 44 -17.5 76t-43 53t-67.5 49q-40 26 -61 44q-16 -19 -22 -40.5t-6 -48.5q0 -44 18 -76z" />
    <glyph glyph-name="dieresis" unicode="&#xa8;" horiz-adv-x="322" 
d="M42.5 489q-11.5 11 -11.5 30t11.5 30t31.5 11t30.5 -10.5t10.5 -30.5q0 -19 -10.5 -30t-30.5 -11t-31.5 11zM217.5 489q-11.5 11 -11.5 30t11.5 30t31.5 11t31 -10.5t11 -30.5t-11 -30.5t-31 -10.5t-31.5 11z" />
    <glyph glyph-name="copyright" unicode="&#xa9;" horiz-adv-x="719" 
d="M230 -68.5q-68 33.5 -112 99.5t-44 159q0 89 45 159t119.5 109.5t159.5 39.5q75 0 131.5 -31t87.5 -83t31 -114q0 -61 -32.5 -114.5t-89 -85t-124.5 -31.5q-61 0 -101 22.5t-59 58t-19 75.5q0 51 25 89.5t65 59t82 20.5q36 0 65 -14t30 -36q0 -12 -8 -20.5t-20 -8.5
q-21 0 -36 26q-12 18 -24 27t-34 9q-44 0 -63 -32.5t-19 -93.5q0 -69 35.5 -112.5t113.5 -43.5q46 0 85.5 19.5t64 59t24.5 97.5q0 64 -32 117.5t-87.5 85t-122.5 31.5q-78 0 -134 -35t-84.5 -94.5t-28.5 -132.5q0 -91 42 -155.5t106 -96.5t129 -32q58 0 101.5 9t95.5 37
q2 1 4.5 -2t-0.5 -5q-54 -40 -108.5 -55t-120.5 -15q-71 0 -139 33.5z" />
    <glyph glyph-name="ordfeminine" unicode="&#xaa;" horiz-adv-x="278" 
d="M271 407q4 0 5.5 -3.5t-0.5 -5.5l-68 -32q-10 -5 -19 6t-11 35l-41 -22q-21 -12 -32.5 -16t-24.5 -4q-21 0 -33 11t-12 28q0 16 12 26.5t44 21.5l87 31v55q0 46 -12.5 60t-34.5 14q-19 0 -31.5 -14.5t-16.5 -36.5q-2 -11 -6.5 -17.5t-17.5 -6.5q-10 0 -17 6.5t-7 14.5
q0 15 21.5 32t51 28.5t50.5 11.5q26 0 42 -18t16 -54v-117q0 -23 5 -33t16 -10q8 0 33 9h1zM178 419v54l-70 -28q-16 -6 -21.5 -11.5t-5.5 -15.5q0 -12 7.5 -20t20.5 -8q11 0 25 6zM262.5 310q1.5 -4 1.5 -9t-1.5 -9.5t-3.5 -4.5h-224q-2 0 -3.5 4.5t-1.5 9.5t1 9t3 4h225
q2 0 3.5 -4z" />
    <glyph glyph-name="guillemotleft" unicode="&#xab;" horiz-adv-x="456" 
d="M59 189q-4 4 -4 12q0 7 4 11l177 149q0 1 2 1t4 -2.5t1 -3.5l-122 -155l122 -155q1 -2 -2.5 -5.5t-4.5 -0.5zM211 189q-4 4 -4 12q0 7 4 11l177 149q2 3 5.5 0t1.5 -5l-122 -155l122 -155v-1q0 -3 -2.5 -5t-4.5 0z" />
    <glyph glyph-name="logicalnot" unicode="&#xac;" horiz-adv-x="395" 
d="M364 77q0 -2 -6.5 -3.5t-14.5 -1.5q-7 0 -13 1t-6 3v152h-290q-2 0 -3.5 6.5t-1.5 14.5q0 7 1 13t3 6h331v-191z" />
    <glyph glyph-name="uni00AD" unicode="&#xad;" horiz-adv-x="323" 
d="M28.5 172q-1.5 8 -1.5 16q0 19 3 19l261 47q2 1 3.5 -5.5t1.5 -14.5q0 -20 -5 -22l-259 -47q-2 -1 -3.5 7z" />
    <glyph glyph-name="registered" unicode="&#xae;" horiz-adv-x="750" 
d="M543.5 688q64.5 -37 99.5 -99.5t35 -137.5q0 -86 -42 -158t-113.5 -113.5t-155.5 -41.5q-73 0 -140.5 34.5t-110 100.5t-42.5 155q0 85 44.5 153t118.5 106t158 38t148.5 -37zM524.5 197.5q55.5 31.5 85 89.5t29.5 135q0 79 -36 143t-99 100.5t-141 36.5t-134 -34
t-84 -90.5t-28 -123.5q0 -89 41 -154.5t105 -99.5t132 -34q74 0 129.5 31.5zM566 276q0 -4 -2 -4h-79q-10 0 -33.5 39.5t-66.5 123.5q-22 -6 -55 -4v-103q0 -21 3.5 -30t14 -12t33.5 -3q2 0 2 -5.5t-2 -5.5l-72 1l-71 -1q-2 0 -2 5.5t2 5.5q23 0 33 3t13.5 12t3.5 30v215
q0 28 -9 36t-41 8q-2 0 -2 6t2 6l71 -1q12 0 44 2q28 2 38 2q91 0 91 -66q0 -60 -55 -88q35 -69 54 -100t38 -48t45 -20q2 0 2 -4zM365 445q36 0 54 16t18 52q0 38 -16.5 57t-46.5 19q-19 0 -27.5 -2.5t-12.5 -12.5t-4 -33v-93q20 -3 35 -3z" />
    <glyph glyph-name="macron" unicode="&#xaf;" horiz-adv-x="345" 
d="M41 497q0 14 6 14h251q6 0 6 -14t-6 -14h-251q-6 0 -6 14z" />
    <glyph glyph-name="degree" unicode="&#xb0;" horiz-adv-x="332" 
d="M67.5 410q-38.5 37 -38.5 93q0 53 38.5 90t99.5 37t98.5 -37t37.5 -92t-37.5 -91.5t-98.5 -36.5t-99.5 37zM231.5 411.5q13.5 26.5 13.5 82.5q0 63 -20.5 94t-63.5 31t-58 -29t-15 -84q0 -57 19 -89t67 -32q44 0 57.5 26.5z" />
    <glyph glyph-name="plusminus" unicode="&#xb1;" horiz-adv-x="398" 
d="M30.5 239.5q-1.5 6.5 -1.5 14.5q0 7 1.5 12.5t2.5 5.5h146v146q0 4 20 4t20 -4v-146h145q2 0 3.5 -6t1.5 -13t-1.5 -13.5t-3.5 -6.5h-145v-145q0 -2 -6.5 -3.5t-14.5 -1.5q-7 0 -13 1t-6 3v146h-145q-2 0 -3.5 6.5zM367.5 31.5q1.5 -5.5 1.5 -12.5t-1.5 -12.5t-3.5 -5.5
h-330q-2 0 -3.5 6t-1.5 13q0 6 1 11.5t3 5.5h331q2 0 3.5 -5.5z" />
    <glyph glyph-name="uni00B2" unicode="&#xb2;" horiz-adv-x="251" 
d="M51 451.5q14 22.5 38 55.5q33 48 50 79.5t17 62.5q0 28 -13.5 43.5t-36.5 15.5q-24 0 -42 -16.5t-24 -41.5q0 -2 -4 -2q-3 0 -6 1.5t-2 3.5q11 35 33.5 55.5t62.5 20.5q39 0 59.5 -20t20.5 -51q0 -29 -20.5 -59t-59.5 -75q-26 -29 -40 -47t-20 -34q0 -3 3 -3q68 0 93 3
t34 13t17 38q0 2 3.5 2t3.5 -2l-1 -87q0 -2 -1 -3.5t-3 -1.5h-179q-2 0 -3 2t0 4q6 21 20 43.5z" />
    <glyph glyph-name="uni00B3" unicode="&#xb3;" horiz-adv-x="251" 
d="M217 495q0 -40 -27 -69.5t-75 -29.5q-38 0 -61 19t-31 50q-1 4 5 5.5t7 -2.5q6 -21 24.5 -37t48.5 -16q27 0 44 16t17 53t-21 59t-54 22q-3 0 -2.5 6t2.5 6q29 0 45.5 22.5t16.5 49.5q0 25 -14 41.5t-38 16.5q-22 0 -40 -16.5t-23 -40.5q-2 -2 -5 -2t-5.5 1.5t-1.5 3.5
q9 34 32 55t62 21q37 0 59 -20.5t22 -51.5q0 -28 -18 -50.5t-47 -33.5q78 -18 78 -78z" />
    <glyph glyph-name="acute" unicode="&#xb4;" horiz-adv-x="212" 
d="M65 472q-3 0 -5.5 1.5t-1.5 2.5l52 240q1 4 20.5 9.5t32.5 5.5q9 0 8 -4l-102 -253q0 -2 -4 -2z" />
    <glyph glyph-name="paragraph" unicode="&#xb6;" horiz-adv-x="639" 
d="M289.5 -180.5q-16.5 12.5 -16.5 30.5q0 15 8 24.5t23 9.5q17 0 24 -7t13 -21q8 -14 14.5 -20.5t22.5 -6.5q28 0 39.5 41t11.5 138v117q-36 -3 -79 -3q-76 0 -143 26t-110 85t-43 153q0 118 71.5 180t197.5 62q31 0 64 -3q12 0 37.5 -1.5t47.5 -1.5q20 0 58 2l52 1
q2 0 2 -6t-2 -6q-43 0 -66 -21t-23 -60l1 -477q0 -130 -38 -189t-124 -59q-26 0 -42.5 12.5z" />
    <glyph glyph-name="periodcentered" unicode="&#xb7;" horiz-adv-x="195" 
d="M65 169q-12 12 -12 31t12 30.5t32 11.5q21 0 32.5 -11t11.5 -31t-11.5 -31.5t-32.5 -11.5q-20 0 -32 12z" />
    <glyph glyph-name="cedilla" unicode="&#xb8;" horiz-adv-x="232" 
d="M101 -57q0 -14 8.5 -21.5t35.5 -23.5q25 -14 39.5 -32t14.5 -45q0 -37 -26.5 -66.5t-77.5 -29.5q-28 0 -46 10t-18 28q0 13 9 21.5t21 8.5q11 0 17 -5.5t12 -16.5q7 -13 14.5 -19.5t22.5 -6.5q34 0 34 38q0 26 -18.5 46.5t-67.5 46.5q-14 7 -14 13q0 4 5 17t25 64
q2 8 5 15t5 14l13 -1q-13 -42 -13 -55z" />
    <glyph glyph-name="uni00B9" unicode="&#xb9;" horiz-adv-x="262" 
d="M45 408q0 6 2 6q33 0 46.5 4t17.5 17.5t4 47.5v118q0 52 -2 66t-15 14t-58 -20h-1q-4 0 -6.5 5t1.5 6l115 55q1 1 3 1q3 0 5 -2.5t2 -5.5v-237q0 -34 4 -47.5t16.5 -17.5t43.5 -4q3 0 3 -6t-3 -6l-35 1q-30 2 -50 2q-21 0 -53 -2l-38 -1q-2 0 -2 6z" />
    <glyph glyph-name="ordmasculine" unicode="&#xba;" horiz-adv-x="315" 
d="M61 399.5q-35 40.5 -35 98.5q0 43 21 72.5t53 44.5t65 15q38 0 66.5 -19t44 -50t15.5 -66q0 -37 -19 -68.5t-50.5 -49.5t-68.5 -18q-57 0 -92 40.5zM225.5 401.5q21.5 27.5 21.5 75.5q0 58 -28.5 97.5t-72.5 39.5q-36 0 -56 -25.5t-20 -71.5q0 -58 28 -100.5t70 -42.5
q36 0 57.5 27.5zM33.5 291.5q-1.5 4.5 -1.5 9.5t1 9t3 4h243q2 0 3.5 -4t1.5 -9t-1.5 -9.5t-3.5 -4.5h-242q-2 0 -3.5 4.5z" />
    <glyph glyph-name="guillemotright" unicode="&#xbb;" horiz-adv-x="456" 
d="M245 212q5 -5 5 -11q0 -7 -5 -12l-177 -149q0 -1 -2 -1t-4 2.5t-1 4.5l122 154l-122 156q-1 2 2.5 5t4.5 0zM397 212q5 -5 5 -11q0 -7 -5 -12l-177 -149q0 -1 -2 -1t-4 2.5t-1 4.5l122 154l-122 156q-1 2 2.5 5t4.5 0z" />
    <glyph glyph-name="onequarter" unicode="&#xbc;" horiz-adv-x="600" 
d="M226 314.5q0 -5.5 -3 -5.5q-22 0 -35 1l-50 1l-53 -1q-14 -1 -38 -1q-2 0 -2 5.5t2 5.5q33 0 46.5 4t17.5 17.5t4 47.5v119q0 52 -2 66t-15 14q-8 0 -23 -6t-35 -15h-1q-4 0 -6.5 5t1.5 6l115 56h2q3 0 5.5 -2.5t2.5 -4.5v-238q0 -34 4 -47.5t16.5 -17.5t43.5 -4
q3 0 3 -5.5zM441 628q5 0 14 -4t8 -6l-280 -618q0 -1 -2 -1q-5 0 -14 4.5t-8 6.5l280 617q0 1 2 1zM528 90v-49q0 -14 2 -19.5t11 -8t31 -2.5q1 -2 1 -6t-1 -6l-61 1l-78 -1q-1 0 -1 6t1 6q25 0 35.5 2t14.5 8t4 20v51q-68 2 -125 2q-2 0 -4 2.5t0 3.5l157 223q2 2 5 2
t5.5 -1t2.5 -3v-208q12 0 44 2q3 0 3 -13q0 -14 -3 -14q-28 2 -44 2zM487 111v149l-91 -148q-3 -3 2 -3q41 0 89 2z" />
    <glyph glyph-name="onehalf" unicode="&#xbd;" horiz-adv-x="610" 
d="M45 314.5q0 5.5 2 5.5q33 0 46.5 4t17.5 17.5t4 47.5v119q0 52 -2 66t-15 14q-8 0 -23 -6t-35 -15h-1q-4 0 -6.5 5t1.5 6l115 56h2q3 0 5.5 -2.5t2.5 -4.5v-238q0 -34 4 -47.5t16.5 -17.5t43.5 -4q3 0 3 -5.5t-3 -5.5q-22 0 -35 1l-50 1l-53 -1q-14 -1 -38 -1
q-2 0 -2 5.5zM181 -1q-5 0 -14 4.5t-8 6.5l280 617q0 1 2 1q5 0 14 -4t8 -6l-280 -618q0 -1 -2 -1zM409 48q13 21 38 57q33 45 50.5 77.5t17.5 64.5q0 27 -13.5 42t-36.5 15q-24 0 -42 -15.5t-24 -40.5q0 -3 -4 -3q-3 0 -6 1.5t-2 3.5q11 35 33.5 55.5t62.5 20.5
q39 0 59.5 -20t20.5 -51q0 -29 -21 -60t-60 -74q-49 -55 -59 -80q0 -3 3 -3q68 0 93 2.5t34 12.5t17 38q0 2 3.5 2t3.5 -2l-1 -86q0 -5 -4 -5h-179q-4 0 -3 6q6 21 19 42z" />
    <glyph glyph-name="threequarters" unicode="&#xbe;" horiz-adv-x="589" 
d="M190 332q-27 -29 -75 -29q-38 0 -61 19t-31 50q-1 4 5 5t7 -3q6 -21 24.5 -37t48.5 -16q27 0 44 16t17 52q0 38 -21 60t-54 22q-3 0 -2.5 6t2.5 6q29 0 45.5 22.5t16.5 49.5q0 25 -14 41.5t-38 16.5q-22 0 -40 -16.5t-23 -39.5q-1 -3 -5 -3q-3 0 -5.5 1.5t-1.5 3.5
q9 34 32 55t62 21q37 0 59 -20t22 -52q0 -27 -18.5 -50t-46.5 -34q78 -16 78 -78q0 -40 -27 -69zM430 628q5 0 14 -4t8 -6l-280 -618q0 -1 -2 -1q-5 0 -14 4.5t-8 6.5l280 617q0 1 2 1zM517 90v-49q0 -14 2 -19.5t11 -8t31 -2.5q1 -2 1 -6t-1 -6l-61 1l-78 -1q-1 0 -1 6t1 6
q25 0 35.5 2t14.5 8t4 20v51q-68 2 -125 2q-2 0 -4 2.5t0 3.5l157 223q2 2 5 2t5.5 -1t2.5 -3v-208q12 0 44 2q3 0 3 -13q0 -14 -3 -14q-28 2 -44 2zM476 111v149l-91 -148q-3 -3 2 -3q41 0 89 2z" />
    <glyph glyph-name="questiondown" unicode="&#xbf;" horiz-adv-x="327" 
d="M212 349q12 -12 12 -31t-12 -30.5t-32 -11.5q-21 0 -32.5 11t-11.5 31t11.5 31.5t32.5 11.5q20 0 32 -12zM200.5 -249.5q8.5 12.5 10.5 34.5q4 20 12 32t27 12q16 0 25 -10.5t9 -23.5q0 -29 -35 -49.5t-84 -20.5q-59 0 -97.5 31t-38.5 89q0 30 11 53.5t24.5 38t41.5 41.5
q35 34 49 61.5t14 62.5q0 22 -6 55q-1 3 5 4t7 -2q11 -26 18.5 -61.5t7.5 -57.5q0 -31 -12.5 -52t-36.5 -45q-27 -27 -40.5 -50t-13.5 -60q0 -43 19.5 -69t50.5 -26q24 0 32.5 12.5z" />
    <glyph glyph-name="Agrave" unicode="&#xc0;" 
d="M224.5 765q14.5 8 34 14.5t23.5 4.5l29 -18q99 -59 133 -77q2 -1 2 -4t-2 -5t-4 -1q-113 50 -223 77q-7 1 7.5 9zM703 6q0 -6 -4 -6q-19 0 -59 2t-58 2q-22 0 -56 -2q-32 -2 -49 -2q-4 0 -4 6t4 6q37 0 54 7t17 24q0 14 -13 43l-115 245h-189l-86 -204q-14 -34 -14 -56
q0 -59 98 -59q5 0 5 -6t-5 -6q-18 0 -52 2q-38 2 -66 2q-26 0 -60 -2q-30 -2 -50 -2q-5 0 -5 6t5 6q28 0 47.5 10.5t37 37t38.5 76.5l211 498q2 3 7 3t6 -3l236 -497q34 -74 58 -99.5t57 -25.5q4 0 4 -6zM240 352h170l-90 190z" />
    <glyph glyph-name="Aacute" unicode="&#xc1;" 
d="M242 678q-4 0 -5 4.5t2 6.5q33 18 109 62q18 12 31.5 20t22.5 13q4 2 23.5 -4.5t33.5 -14.5t7 -9q-62 -15 -113.5 -33.5t-108.5 -43.5zM703 6q0 -6 -4 -6q-19 0 -59 2t-58 2q-22 0 -56 -2q-32 -2 -49 -2q-4 0 -4 6t4 6q37 0 54 7t17 24q0 14 -13 43l-115 245h-189
l-86 -204q-14 -34 -14 -56q0 -59 98 -59q5 0 5 -6t-5 -6q-18 0 -52 2q-38 2 -66 2q-26 0 -60 -2q-30 -2 -50 -2q-5 0 -5 6t5 6q28 0 47.5 10.5t37 37t38.5 76.5l211 498q2 3 7 3t6 -3l236 -497q34 -74 58 -99.5t57 -25.5q4 0 4 -6zM240 352h170l-90 190z" />
    <glyph glyph-name="Acircumflex" unicode="&#xc2;" 
d="M227 650.5q-3 3.5 -1 4.5l103 97q5 5 12 5q6 0 11 -5l102 -97q1 0 1 -2t-2.5 -4t-3.5 -1l-108 57l-109 -57q-2 -1 -5 2.5zM703 6q0 -6 -4 -6q-19 0 -59 2t-58 2q-22 0 -56 -2q-32 -2 -49 -2q-4 0 -4 6t4 6q37 0 54 7t17 24q0 14 -13 43l-115 245h-189l-86 -204
q-14 -34 -14 -56q0 -59 98 -59q5 0 5 -6t-5 -6q-18 0 -52 2q-38 2 -66 2q-26 0 -60 -2q-30 -2 -50 -2q-5 0 -5 6t5 6q28 0 47.5 10.5t37 37t38.5 76.5l211 498q2 3 7 3t6 -3l236 -497q34 -74 58 -99.5t57 -25.5q4 0 4 -6zM240 352h170l-90 190z" />
    <glyph glyph-name="Atilde" unicode="&#xc3;" 
d="M215 697q-3 0 -5.5 2.5t-0.5 4.5q16 24 39 43.5t46 19.5q17 0 50 -11q5 -1 28.5 -7.5t46.5 -6.5q17 0 27.5 7t21.5 20h2q3 0 5 -2.5t0 -4.5q-26 -37 -43 -49.5t-36 -12.5q-21 0 -61 12q-44 12 -69 12q-16 0 -25 -5t-15.5 -12t-9.5 -10h-1zM703 6q0 -6 -4 -6q-19 0 -59 2
t-58 2q-22 0 -56 -2q-32 -2 -49 -2q-4 0 -4 6t4 6q37 0 54 7t17 24q0 14 -13 43l-115 245h-189l-86 -204q-14 -34 -14 -56q0 -59 98 -59q5 0 5 -6t-5 -6q-18 0 -52 2q-38 2 -66 2q-26 0 -60 -2q-30 -2 -50 -2q-5 0 -5 6t5 6q28 0 47.5 10.5t37 37t38.5 76.5l211 498q2 3 7 3
t6 -3l236 -497q34 -74 58 -99.5t57 -25.5q4 0 4 -6zM240 352h170l-90 190z" />
    <glyph glyph-name="Adieresis" unicode="&#xc4;" 
d="M222.5 728q-11.5 11 -11.5 30t11.5 30t31.5 11t30.5 -10.5t10.5 -30.5q0 -19 -10.5 -30t-30.5 -11t-31.5 11zM397.5 728q-11.5 11 -11.5 30t11.5 30t31.5 11t31 -10.5t11 -30.5t-11 -30.5t-31 -10.5t-31.5 11zM703 6q0 -6 -4 -6q-19 0 -59 2t-58 2q-22 0 -56 -2
q-32 -2 -49 -2q-4 0 -4 6t4 6q37 0 54 7t17 24q0 14 -13 43l-115 245h-189l-86 -204q-14 -34 -14 -56q0 -59 98 -59q5 0 5 -6t-5 -6q-18 0 -52 2q-38 2 -66 2q-26 0 -60 -2q-30 -2 -50 -2q-5 0 -5 6t5 6q28 0 47.5 10.5t37 37t38.5 76.5l211 498q2 3 7 3t6 -3l236 -497
q34 -74 58 -99.5t57 -25.5q4 0 4 -6zM240 352h170l-90 190z" />
    <glyph glyph-name="Aring" unicode="&#xc5;" 
d="M272 688q-24 24 -24 56q0 36 30.5 56.5t67.5 20.5q36 0 62 -23t26 -56q0 -35 -30 -56.5t-68 -21.5q-40 0 -64 24zM301 799.5q-8 -11.5 -8 -35.5q0 -34 16 -61.5t42 -27.5q19 0 28 12t9 37q0 35 -18 61t-44 26q-17 0 -25 -11.5zM703 6q0 -6 -4 -6q-19 0 -59 2t-58 2
q-22 0 -56 -2q-32 -2 -49 -2q-4 0 -4 6t4 6q37 0 54 7t17 24q0 14 -13 43l-115 245h-189l-86 -204q-14 -34 -14 -56q0 -59 98 -59q5 0 5 -6t-5 -6q-18 0 -52 2q-38 2 -66 2q-26 0 -60 -2q-30 -2 -50 -2q-5 0 -5 6t5 6q28 0 47.5 10.5t37 37t38.5 76.5l211 498q2 3 7 3t6 -3
l236 -497q34 -74 58 -99.5t57 -25.5q4 0 4 -6zM240 352h170l-90 190z" />
    <glyph glyph-name="AE" unicode="&#xc6;" horiz-adv-x="874" 
d="M817 151q3 0 5.5 -1.5t2.5 -2.5q-9 -63 -9 -132q0 -8 -3.5 -11.5t-12.5 -3.5h-408q-2 0 -2 6t2 6q37 0 54.5 5t24 19.5t6.5 44.5v234h-172l-129 -189q-30 -43 -30 -71q0 -43 78 -43q5 0 5 -6t-5 -6q-18 0 -54 2q-40 2 -69 2q-24 0 -54 -2q-28 -2 -44 -2q-5 0 -5 6t5 6
q31 0 69 31t78 89l303 442q13 18 13 25q0 9 -16.5 11.5t-60.5 2.5q-2 0 -2 6t2 6h394q9 0 9 -9l2 -123q0 -3 -5.5 -3.5t-5.5 2.5q-2 47 -32.5 79.5t-74.5 32.5h-55q-34 0 -50.5 -5t-23 -17.5t-6.5 -38.5v-207h112q49 0 69.5 16t20.5 54q0 2 6 2t6 -2l-1 -81q0 -29 1 -44
l1 -48q0 -2 -6 -2t-6 2q0 44 -21.5 63t-71.5 19h-110v-230q0 -27 6 -40.5t22.5 -18.5t49.5 -5h73q43 0 77 36t44 92q0 2 4 2zM319 336h158v231z" />
    <glyph glyph-name="Ccedilla" unicode="&#xc7;" horiz-adv-x="669" 
d="M618 166q3 0 5.5 -1t2.5 -3l-14 -113q-2 -12 -4.5 -15.5t-11.5 -7.5q-90 -38 -190 -38h-20q-10 -30 -10 -45q0 -14 8.5 -21.5t35.5 -23.5q25 -14 39.5 -32t14.5 -45q0 -37 -26.5 -66.5t-77.5 -29.5q-28 0 -46 10t-18 28q0 13 9 21.5t21 8.5q11 0 17 -5.5t12 -16.5
q7 -13 14.5 -19.5t22.5 -6.5q34 0 34 38q0 26 -18.5 46.5t-67.5 46.5q-14 7 -14 13q0 4 5 17q13 33 31 83q-109 7 -181.5 56.5t-107 122t-34.5 150.5q0 92 51 165t135 113t180 40q48 0 97 -9t78 -26q9 -4 11.5 -8.5t3.5 -15.5l11 -112q0 -3 -5 -3.5t-6 2.5
q-22 77 -81.5 113.5t-147.5 36.5q-76 0 -133 -33.5t-88 -94.5t-31 -141q0 -93 38.5 -172t104 -125t141.5 -46q72 0 125 39.5t81 121.5q0 3 4 3z" />
    <glyph glyph-name="Egrave" unicode="&#xc8;" horiz-adv-x="537" 
d="M175.5 765q14.5 8 34 14.5t23.5 4.5l29 -18q99 -59 133 -77q2 -1 2 -4t-2 -5t-4 -1q-113 50 -223 77q-7 1 7.5 9zM479 151q3 0 5.5 -1t2.5 -3q-9 -63 -9 -132q0 -8 -3.5 -11.5t-12.5 -3.5h-419q-2 0 -2 6t2 6q38 0 55.5 5t24 19.5t6.5 44.5v463q0 30 -6.5 44t-24 19.5
t-55.5 5.5q-2 0 -2 6t2 6h402q9 0 9 -9l2 -123q0 -3 -5 -3.5t-6 2.5q-3 53 -32 82.5t-77 29.5h-61q-35 0 -51.5 -5.5t-23 -19t-6.5 -40.5v-203h122q48 0 68.5 16t20.5 54q0 2 6 2t6 -2l-1 -81q0 -29 1 -44l1 -48q0 -2 -6 -2t-6 2q0 44 -21.5 63t-71.5 19h-119v-230
q0 -28 6 -41t22 -18t50 -5h80q48 0 80 34t43 94q0 2 4 2z" />
    <glyph glyph-name="Eacute" unicode="&#xc9;" horiz-adv-x="537" 
d="M193 678q-4 0 -5 4.5t2 6.5q33 18 109 62q18 12 31.5 20t22.5 13q4 2 23.5 -4.5t33.5 -14.5t7 -9q-62 -15 -113.5 -33.5t-108.5 -43.5zM479 151q3 0 5.5 -1t2.5 -3q-9 -63 -9 -132q0 -8 -3.5 -11.5t-12.5 -3.5h-419q-2 0 -2 6t2 6q38 0 55.5 5t24 19.5t6.5 44.5v463
q0 30 -6.5 44t-24 19.5t-55.5 5.5q-2 0 -2 6t2 6h402q9 0 9 -9l2 -123q0 -3 -5 -3.5t-6 2.5q-3 53 -32 82.5t-77 29.5h-61q-35 0 -51.5 -5.5t-23 -19t-6.5 -40.5v-203h122q48 0 68.5 16t20.5 54q0 2 6 2t6 -2l-1 -81q0 -29 1 -44l1 -48q0 -2 -6 -2t-6 2q0 44 -21.5 63
t-71.5 19h-119v-230q0 -28 6 -41t22 -18t50 -5h80q48 0 80 34t43 94q0 2 4 2z" />
    <glyph glyph-name="Ecircumflex" unicode="&#xca;" horiz-adv-x="537" 
d="M179 687.5q-3 3.5 -1 4.5l103 98q5 5 12 5q6 0 11 -5l102 -98q1 0 1 -2t-2.5 -4t-3.5 -1l-108 58l-109 -58q-2 -1 -5 2.5zM479 151q3 0 5.5 -1t2.5 -3q-9 -63 -9 -132q0 -8 -3.5 -11.5t-12.5 -3.5h-419q-2 0 -2 6t2 6q38 0 55.5 5t24 19.5t6.5 44.5v463q0 30 -6.5 44
t-24 19.5t-55.5 5.5q-2 0 -2 6t2 6h402q9 0 9 -9l2 -123q0 -3 -5 -3.5t-6 2.5q-3 53 -32 82.5t-77 29.5h-61q-35 0 -51.5 -5.5t-23 -19t-6.5 -40.5v-203h122q48 0 68.5 16t20.5 54q0 2 6 2t6 -2l-1 -81q0 -29 1 -44l1 -48q0 -2 -6 -2t-6 2q0 44 -21.5 63t-71.5 19h-119v-230
q0 -28 6 -41t22 -18t50 -5h80q48 0 80 34t43 94q0 2 4 2z" />
    <glyph glyph-name="Edieresis" unicode="&#xcb;" horiz-adv-x="537" 
d="M173.5 728q-11.5 11 -11.5 30t11.5 30t31.5 11t30.5 -10.5t10.5 -30.5q0 -19 -10.5 -30t-30.5 -11t-31.5 11zM348.5 728q-11.5 11 -11.5 30t11.5 30t31.5 11t31 -10.5t11 -30.5t-11 -30.5t-31 -10.5t-31.5 11zM479 151q3 0 5.5 -1t2.5 -3q-9 -63 -9 -132q0 -8 -3.5 -11.5
t-12.5 -3.5h-419q-2 0 -2 6t2 6q38 0 55.5 5t24 19.5t6.5 44.5v463q0 30 -6.5 44t-24 19.5t-55.5 5.5q-2 0 -2 6t2 6h402q9 0 9 -9l2 -123q0 -3 -5 -3.5t-6 2.5q-3 53 -32 82.5t-77 29.5h-61q-35 0 -51.5 -5.5t-23 -19t-6.5 -40.5v-203h122q48 0 68.5 16t20.5 54q0 2 6 2
t6 -2l-1 -81q0 -29 1 -44l1 -48q0 -2 -6 -2t-6 2q0 44 -21.5 63t-71.5 19h-119v-230q0 -28 6 -41t22 -18t50 -5h80q48 0 80 34t43 94q0 2 4 2z" />
    <glyph glyph-name="Igrave" unicode="&#xcc;" horiz-adv-x="332" 
d="M42 756q-7 1 7.5 9t34 14.5t23.5 4.5l29 -18q99 -59 133 -77q2 -1 2 -4t-2 -5t-4 -1q-113 50 -223 77zM205 36.5q6 -14.5 23.5 -19.5t55.5 -5q3 0 3 -6t-3 -6q-30 0 -48 1l-71 1l-69 -1q-18 -1 -49 -1q-3 0 -3 6t3 6q38 0 55.5 5t24 19.5t6.5 44.5v463q0 30 -6.5 44
t-24 19.5t-55.5 5.5q-3 0 -3 6t3 6l49 -1q42 -2 69 -2q30 0 72 2l47 1q3 0 3 -6t-3 -6q-37 0 -54.5 -6t-24 -20.5t-6.5 -44.5v-461q0 -30 6 -44.5z" />
    <glyph glyph-name="Iacute" unicode="&#xcd;" horiz-adv-x="332" 
d="M67 678q-4 0 -5 4.5t2 6.5q33 18 109 62q18 12 31.5 20t22.5 13q4 2 23.5 -4.5t33.5 -14.5t7 -9q-62 -15 -113.5 -33.5t-108.5 -43.5zM205 36.5q6 -14.5 23.5 -19.5t55.5 -5q3 0 3 -6t-3 -6q-30 0 -48 1l-71 1l-69 -1q-18 -1 -49 -1q-3 0 -3 6t3 6q38 0 55.5 5t24 19.5
t6.5 44.5v463q0 30 -6.5 44t-24 19.5t-55.5 5.5q-3 0 -3 6t3 6l49 -1q42 -2 69 -2q30 0 72 2l47 1q3 0 3 -6t-3 -6q-37 0 -54.5 -6t-24 -20.5t-6.5 -44.5v-461q0 -30 6 -44.5z" />
    <glyph glyph-name="Icircumflex" unicode="&#xce;" horiz-adv-x="332" 
d="M155 790q5 5 12 5q6 0 11 -5l102 -98q1 0 1 -2t-2.5 -4t-3.5 -1l-108 58l-109 -58q-2 -1 -5 2.5t-1 4.5zM205 36.5q6 -14.5 23.5 -19.5t55.5 -5q3 0 3 -6t-3 -6q-30 0 -48 1l-71 1l-69 -1q-18 -1 -49 -1q-3 0 -3 6t3 6q38 0 55.5 5t24 19.5t6.5 44.5v463q0 30 -6.5 44
t-24 19.5t-55.5 5.5q-3 0 -3 6t3 6l49 -1q42 -2 69 -2q30 0 72 2l47 1q3 0 3 -6t-3 -6q-37 0 -54.5 -6t-24 -20.5t-6.5 -44.5v-461q0 -30 6 -44.5z" />
    <glyph glyph-name="Idieresis" unicode="&#xcf;" horiz-adv-x="332" 
d="M63.5 728q-11.5 11 -11.5 30t11.5 30t31.5 11t31 -11t11 -30t-11 -30t-31 -11t-31.5 11zM206.5 728q-11.5 11 -11.5 30t11.5 30t31.5 11t30.5 -10.5t10.5 -30.5q0 -19 -10.5 -30t-30.5 -11t-31.5 11zM205 36.5q6 -14.5 23.5 -19.5t55.5 -5q3 0 3 -6t-3 -6q-30 0 -48 1
l-71 1l-69 -1q-18 -1 -49 -1q-3 0 -3 6t3 6q38 0 55.5 5t24 19.5t6.5 44.5v463q0 30 -6.5 44t-24 19.5t-55.5 5.5q-3 0 -3 6t3 6l49 -1q42 -2 69 -2q30 0 72 2l47 1q3 0 3 -6t-3 -6q-37 0 -54.5 -6t-24 -20.5t-6.5 -44.5v-461q0 -30 6 -44.5z" />
    <glyph glyph-name="Eth" unicode="&#xd0;" horiz-adv-x="691" 
d="M473 587q80 -40 124.5 -109t44.5 -155q0 -97 -45.5 -171.5t-123.5 -115t-170 -40.5q-29 0 -67 3q-14 1 -35.5 2t-47.5 1l-68 -1q-18 -1 -50 -1q-2 0 -2 6t2 6q38 0 55.5 5t24 19.5t6.5 44.5v220h-68q-4 0 -4 10t4 10h68v223q0 30 -6 44t-23.5 19.5t-55.5 5.5q-2 0 -2 6
t2 6l50 -1q42 -2 67 -2q38 0 75 3q44 2 61 2q104 0 184 -40zM435 44.5q62 33.5 96.5 99t34.5 157.5q0 87 -33 158t-94 112t-141 41q-43 0 -66.5 -5t-34.5 -20t-11 -45v-221h136q4 0 4 -10t-4 -10h-136v-209q0 -30 8.5 -47t32 -25.5t66.5 -8.5q80 0 142 33.5z" />
    <glyph glyph-name="Ntilde" unicode="&#xd1;" horiz-adv-x="727" 
d="M250 697q-3 0 -5.5 2.5t-0.5 4.5q16 24 39 43.5t46 19.5q17 0 50 -11q5 -1 28.5 -7.5t46.5 -6.5q17 0 27.5 7t21.5 20h2q3 0 5 -2.5t0 -4.5q-26 -37 -43 -49.5t-36 -12.5q-21 0 -61 12q-44 12 -69 12q-16 0 -25 -5t-15.5 -12t-9.5 -10h-1zM707 619q0 -6 -3 -6
q-42 0 -61 -23t-19 -75v-527q0 -2 -5 -3t-7 1l-460 557l-9 10v-444q0 -52 18.5 -74.5t59.5 -22.5q3 0 3 -6t-3 -6q-25 0 -38 1l-50 1l-51 -1q-14 -1 -41 -1q-2 0 -2 6t2 6q43 0 61 22.5t18 74.5v468q-39 36 -79 36q-3 0 -3 6t3 6l37 -1q12 -1 33 -1q22 0 36 1t22 1
t11.5 -3.5t11.5 -15.5q12 -18 24 -33l385 -473v415q0 52 -17.5 75t-58.5 23q-2 0 -2 6t2 6l39 -1q30 -2 49 -2q18 0 50 2l41 1q3 0 3 -6z" />
    <glyph glyph-name="Ograve" unicode="&#xd2;" horiz-adv-x="766" 
d="M261 756q-7 1 7.5 9t34 14.5t23.5 4.5l29 -18q99 -59 133 -77q2 -1 2 -4t-2 -5t-4 -1q-113 50 -223 77zM200.5 31.5q-72.5 43.5 -112 118t-39.5 162.5q0 103 52 176.5t133.5 110.5t166.5 37q95 0 167 -44.5t110.5 -117.5t38.5 -155q0 -91 -48 -167t-128.5 -120
t-174.5 -44q-93 0 -165.5 43.5zM523.5 42q54.5 33 86 97t31.5 152q0 94 -35 167t-98.5 114t-148.5 41q-110 0 -172 -71t-62 -195q0 -94 35 -171.5t98 -122t143 -44.5q68 0 122.5 33z" />
    <glyph glyph-name="Oacute" unicode="&#xd3;" horiz-adv-x="766" 
d="M286 678q-4 0 -5 4.5t2 6.5q33 18 109 62q18 12 31.5 20t22.5 13q4 2 23.5 -4.5t33.5 -14.5t7 -9q-62 -15 -113.5 -33.5t-108.5 -43.5zM200.5 31.5q-72.5 43.5 -112 118t-39.5 162.5q0 103 52 176.5t133.5 110.5t166.5 37q95 0 167 -44.5t110.5 -117.5t38.5 -155
q0 -91 -48 -167t-128.5 -120t-174.5 -44q-93 0 -165.5 43.5zM523.5 42q54.5 33 86 97t31.5 152q0 94 -35 167t-98.5 114t-148.5 41q-110 0 -172 -71t-62 -195q0 -94 35 -171.5t98 -122t143 -44.5q68 0 122.5 33z" />
    <glyph glyph-name="Ocircumflex" unicode="&#xd4;" horiz-adv-x="766" 
d="M374 790q5 5 12 5q6 0 11 -5l102 -98q1 0 1 -2t-2.5 -4t-3.5 -1l-108 58l-109 -58q-2 -1 -5 2.5t-1 4.5zM200.5 31.5q-72.5 43.5 -112 118t-39.5 162.5q0 103 52 176.5t133.5 110.5t166.5 37q95 0 167 -44.5t110.5 -117.5t38.5 -155q0 -91 -48 -167t-128.5 -120
t-174.5 -44q-93 0 -165.5 43.5zM523.5 42q54.5 33 86 97t31.5 152q0 94 -35 167t-98.5 114t-148.5 41q-110 0 -172 -71t-62 -195q0 -94 35 -171.5t98 -122t143 -44.5q68 0 122.5 33z" />
    <glyph glyph-name="Otilde" unicode="&#xd5;" horiz-adv-x="766" 
d="M490.5 749q10.5 7 21.5 20h2q3 0 5 -2.5t0 -4.5q-26 -37 -43 -49.5t-36 -12.5q-21 0 -61 12q-44 12 -69 12q-16 0 -25 -5t-15.5 -12t-9.5 -10h-1q-3 0 -5.5 2.5t-0.5 4.5q16 24 39 43.5t46 19.5q17 0 50 -11q5 -1 28.5 -7.5t46.5 -6.5q17 0 27.5 7zM200.5 31.5
q-72.5 43.5 -112 118t-39.5 162.5q0 103 52 176.5t133.5 110.5t166.5 37q95 0 167 -44.5t110.5 -117.5t38.5 -155q0 -91 -48 -167t-128.5 -120t-174.5 -44q-93 0 -165.5 43.5zM523.5 42q54.5 33 86 97t31.5 152q0 94 -35 167t-98.5 114t-148.5 41q-110 0 -172 -71t-62 -195
q0 -94 35 -171.5t98 -122t143 -44.5q68 0 122.5 33z" />
    <glyph glyph-name="Odieresis" unicode="&#xd6;" horiz-adv-x="766" 
d="M266.5 728q-11.5 11 -11.5 30t11.5 30t31.5 11t30.5 -10.5t10.5 -30.5q0 -19 -10.5 -30t-30.5 -11t-31.5 11zM441.5 728q-11.5 11 -11.5 30t11.5 30t31.5 11t31 -10.5t11 -30.5t-11 -30.5t-31 -10.5t-31.5 11zM200.5 31.5q-72.5 43.5 -112 118t-39.5 162.5
q0 103 52 176.5t133.5 110.5t166.5 37q95 0 167 -44.5t110.5 -117.5t38.5 -155q0 -91 -48 -167t-128.5 -120t-174.5 -44q-93 0 -165.5 43.5zM523.5 42q54.5 33 86 97t31.5 152q0 94 -35 167t-98.5 114t-148.5 41q-110 0 -172 -71t-62 -195q0 -94 35 -171.5t98 -122
t143 -44.5q68 0 122.5 33z" />
    <glyph glyph-name="multiply" unicode="&#xd7;" horiz-adv-x="382" 
d="M322 88q3 -4 -11 -18t-18 -11l-102 102l-103 -102q-2 -4 -16.5 10.5t-12.5 16.5l104 104l-102 103q-4 2 10.5 16.5t16.5 11.5l103 -103l102 102q4 3 18 -11t11 -18l-102 -101z" />
    <glyph glyph-name="Oslash" unicode="&#xd8;" horiz-adv-x="771" 
d="M693 442q24 -60 24 -123q0 -91 -48 -167t-128.5 -120t-174.5 -44q-63 0 -117 20.5t-96 58.5l-73 -74l-2 -1q-4 0 -10 6.5t-3 9.5l73 74q-43 44 -66 103.5t-23 126.5q0 103 52 176.5t133.5 110.5t166.5 37q62 0 115 -19.5t94 -55.5l68 69l2 1q5 0 11 -6t3 -8l-69 -71
q44 -44 68 -104zM140.5 229.5q15.5 -55.5 44.5 -99.5l383 388q-37 46 -90.5 70.5t-118.5 24.5q-110 0 -172 -71t-62 -195q0 -62 15.5 -117.5zM523.5 42q54.5 33 86 97t31.5 152q0 61 -15.5 115t-44.5 96l-384 -390q37 -49 89.5 -76t114.5 -27q68 0 122.5 33z" />
    <glyph glyph-name="Ugrave" unicode="&#xd9;" horiz-adv-x="763" 
d="M268.5 765q14.5 8 34 14.5t23.5 4.5l29 -18q99 -59 133 -77q2 -1 2 -4t-2 -5t-4 -1q-113 50 -223 77q-7 1 7.5 9zM729 6q0 -6 -3 -6l-79 1l-52 -1q-12 0 -15.5 3t-3.5 16v77q-63 -57 -120.5 -82.5t-124.5 -25.5q-63 0 -113.5 24t-79 69t-28.5 105v358q0 30 -6 44
t-23.5 19.5t-55.5 5.5q-3 0 -3 6t3 6l49 -1q42 -2 67 -2q28 0 72 2l47 1q2 0 2 -6t-2 -6q-37 0 -55 -6t-24.5 -20.5t-6.5 -44.5v-321q0 -100 49.5 -152.5t134.5 -52.5q57 0 108 22.5t110 75.5v428q0 30 -6 44.5t-23.5 20.5t-55.5 6q-3 0 -3 6t3 6l48 -1q44 -2 70 -2t68 2
l49 1q3 0 3 -6t-3 -6q-38 0 -55.5 -5.5t-24 -19.5t-6.5 -44v-463q0 -30 6.5 -44.5t24 -19.5t55.5 -5q3 0 3 -6z" />
    <glyph glyph-name="Uacute" unicode="&#xda;" horiz-adv-x="763" 
d="M286 678q-4 0 -5 4.5t2 6.5q33 18 109 62q18 12 31.5 20t22.5 13q4 2 23.5 -4.5t33.5 -14.5t7 -9q-62 -15 -113.5 -33.5t-108.5 -43.5zM729 6q0 -6 -3 -6l-79 1l-52 -1q-12 0 -15.5 3t-3.5 16v77q-63 -57 -120.5 -82.5t-124.5 -25.5q-63 0 -113.5 24t-79 69t-28.5 105
v358q0 30 -6 44t-23.5 19.5t-55.5 5.5q-3 0 -3 6t3 6l49 -1q42 -2 67 -2q28 0 72 2l47 1q2 0 2 -6t-2 -6q-37 0 -55 -6t-24.5 -20.5t-6.5 -44.5v-321q0 -100 49.5 -152.5t134.5 -52.5q57 0 108 22.5t110 75.5v428q0 30 -6 44.5t-23.5 20.5t-55.5 6q-3 0 -3 6t3 6l48 -1
q44 -2 70 -2t68 2l49 1q3 0 3 -6t-3 -6q-38 0 -55.5 -5.5t-24 -19.5t-6.5 -44v-463q0 -30 6.5 -44.5t24 -19.5t55.5 -5q3 0 3 -6z" />
    <glyph glyph-name="Ucircumflex" unicode="&#xdb;" horiz-adv-x="763" 
d="M272 687.5q-3 3.5 -1 4.5l103 98q5 5 12 5q6 0 11 -5l102 -98q1 0 1 -2t-2.5 -4t-3.5 -1l-108 58l-109 -58q-2 -1 -5 2.5zM729 6q0 -6 -3 -6l-79 1l-52 -1q-12 0 -15.5 3t-3.5 16v77q-63 -57 -120.5 -82.5t-124.5 -25.5q-63 0 -113.5 24t-79 69t-28.5 105v358q0 30 -6 44
t-23.5 19.5t-55.5 5.5q-3 0 -3 6t3 6l49 -1q42 -2 67 -2q28 0 72 2l47 1q2 0 2 -6t-2 -6q-37 0 -55 -6t-24.5 -20.5t-6.5 -44.5v-321q0 -100 49.5 -152.5t134.5 -52.5q57 0 108 22.5t110 75.5v428q0 30 -6 44.5t-23.5 20.5t-55.5 6q-3 0 -3 6t3 6l48 -1q44 -2 70 -2t68 2
l49 1q3 0 3 -6t-3 -6q-38 0 -55.5 -5.5t-24 -19.5t-6.5 -44v-463q0 -30 6.5 -44.5t24 -19.5t55.5 -5q3 0 3 -6z" />
    <glyph glyph-name="Udieresis" unicode="&#xdc;" horiz-adv-x="763" 
d="M266.5 728q-11.5 11 -11.5 30t11.5 30t31.5 11t30.5 -10.5t10.5 -30.5q0 -19 -10.5 -30t-30.5 -11t-31.5 11zM441.5 728q-11.5 11 -11.5 30t11.5 30t31.5 11t31 -10.5t11 -30.5t-11 -30.5t-31 -10.5t-31.5 11zM729 6q0 -6 -3 -6l-79 1l-52 -1q-12 0 -15.5 3t-3.5 16v77
q-63 -57 -120.5 -82.5t-124.5 -25.5q-63 0 -113.5 24t-79 69t-28.5 105v358q0 30 -6 44t-23.5 19.5t-55.5 5.5q-3 0 -3 6t3 6l49 -1q42 -2 67 -2q28 0 72 2l47 1q2 0 2 -6t-2 -6q-37 0 -55 -6t-24.5 -20.5t-6.5 -44.5v-321q0 -100 49.5 -152.5t134.5 -52.5q57 0 108 22.5
t110 75.5v428q0 30 -6 44.5t-23.5 20.5t-55.5 6q-3 0 -3 6t3 6l48 -1q44 -2 70 -2t68 2l49 1q3 0 3 -6t-3 -6q-38 0 -55.5 -5.5t-24 -19.5t-6.5 -44v-463q0 -30 6.5 -44.5t24 -19.5t55.5 -5q3 0 3 -6z" />
    <glyph glyph-name="Yacute" unicode="&#xdd;" horiz-adv-x="609" 
d="M219 678q-4 0 -5 4.5t2 6.5q33 18 109 62q18 12 31.5 20t22.5 13q4 2 23.5 -4.5t33.5 -14.5t7 -9q-62 -15 -113.5 -33.5t-108.5 -43.5zM616 619q0 -6 -2 -6q-36 0 -73 -26.5t-66 -72.5l-134 -206v-227q0 -31 6 -45t23.5 -19t55.5 -5q3 0 3 -6t-3 -6q-31 0 -48 1l-70 1
l-69 -1q-18 -1 -49 -1q-3 0 -3 6t3 6q38 0 55.5 5t24 19.5t6.5 44.5v211l-166 243q-28 44 -53 61t-58 17q-3 0 -3 6t3 6q12 0 36 -2l35 -1q34 0 86 2l54 1q2 0 2 -6t-2 -6q-52 0 -52 -21q0 -11 10 -25l161 -236l122 187q22 35 22 59q0 36 -54 36q-2 0 -2 6t2 6l47 -1
q38 -2 70 -2q17 0 41 2l37 1q2 0 2 -6z" />
    <glyph glyph-name="Thorn" unicode="&#xde;" horiz-adv-x="538" 
d="M382 190.5q45 43.5 45 125.5q0 80 -46 124.5t-121 44.5q-34 0 -69 -8v-392q0 -32 8.5 -46.5t33 -20.5t77.5 -6q3 0 3 -6t-3 -6q-41 0 -64 1l-87 1l-66 -1q-18 -1 -50 -1q-2 0 -2 6t2 6q37 0 54 5t23 19.5t6 44.5v463q0 30 -6 44t-23 19.5t-54 5.5q-2 0 -2 6t2 6l50 -1
q40 -2 66 -2q35 0 87 2l64 1q3 0 3 -6t-3 -6q-53 0 -77.5 -6t-33 -21t-8.5 -47v-47q45 7 94 7q98 0 157 -40t59 -130q0 -65 -33 -109t-83 -65.5t-102 -21.5q-23 0 -50 5q-2 0 -2 5q0 3 1.5 6t3.5 2q24 -4 36 -4q65 0 110 43.5z" />
    <glyph glyph-name="germandbls" unicode="&#xdf;" horiz-adv-x="507" 
d="M266 19q-6 4 -6 12l-2 90q0 2 5.5 2.5t6.5 -1.5q18 -55 46 -84t61 -29q24 0 39.5 18.5t15.5 47.5q0 38 -21 69.5t-62 70.5q-43 43 -65 75.5t-22 73.5q0 30 11.5 53t33.5 53q25 33 38 59.5t13 63.5q0 46 -21 82t-69 36q-59 0 -90.5 -69.5t-31.5 -195.5v-365
q0 -30 4.5 -44.5t18 -19.5t41.5 -5q2 0 2 -6t-2 -6l-92 1l-98 -1q-3 0 -3 6t3 6q30 0 44 5t19 19.5t5 44.5l-1 367q0 133 54.5 205.5t152.5 72.5q63 0 93.5 -30t30.5 -68q0 -33 -15.5 -58.5t-45.5 -58.5q-27 -30 -40.5 -51.5t-13.5 -47.5q0 -33 21.5 -62.5t65.5 -74.5
q46 -47 69.5 -81t23.5 -73q0 -33 -17 -63.5t-48 -49.5t-70 -19q-44 0 -82 30z" />
    <glyph glyph-name="agrave" unicode="&#xe0;" horiz-adv-x="490" 
d="M160 727q-1 4 8 4q13 0 32.5 -5.5t20.5 -9.5l51 -240q2 -2 -3.5 -3.5t-6.5 1.5zM483 58q4 0 5.5 -4.5t-2.5 -5.5l-116 -56q-2 -1 -5 -1q-9 0 -17.5 23.5t-9.5 59.5q-37 -38 -75 -61t-83 -23q-61 0 -102.5 45t-41.5 126q0 72 34 126t85.5 83t103.5 29q56 0 97 -30
q18 10 28 26q1 2 5 0.5t4 -3.5v-285q0 -34 8 -48.5t27 -14.5q17 0 53 14h2zM277.5 41.5q30.5 18.5 60.5 48.5v204q0 37 -32 61t-72 24q-59 0 -95.5 -52.5t-36.5 -136.5q0 -75 30.5 -121t81.5 -46q33 0 63.5 18.5z" />
    <glyph glyph-name="aacute" unicode="&#xe1;" horiz-adv-x="490" 
d="M250 472q-3 0 -5.5 1.5t-1.5 2.5l52 240q1 4 21 9.5t32 5.5q9 0 8 -4l-102 -253q0 -2 -4 -2zM483 58q4 0 5.5 -4.5t-2.5 -5.5l-116 -56q-2 -1 -5 -1q-9 0 -17.5 23.5t-9.5 59.5q-37 -38 -75 -61t-83 -23q-61 0 -102.5 45t-41.5 126q0 72 34 126t85.5 83t103.5 29
q56 0 97 -30q18 10 28 26q1 2 5 0.5t4 -3.5v-285q0 -34 8 -48.5t27 -14.5q17 0 53 14h2zM277.5 41.5q30.5 18.5 60.5 48.5v204q0 37 -32 61t-72 24q-59 0 -95.5 -52.5t-36.5 -136.5q0 -75 30.5 -121t81.5 -46q33 0 63.5 18.5z" />
    <glyph glyph-name="acircumflex" unicode="&#xe2;" horiz-adv-x="490" 
d="M184 472q-3 0 -5.5 1.5t-1.5 2.5l68 249q1 5 11 5q11 0 12 -5l67 -249q2 -2 -3.5 -3.5t-6.5 1.5l-68 164l-69 -164q0 -2 -4 -2zM483 58q4 0 5.5 -4.5t-2.5 -5.5l-116 -56q-2 -1 -5 -1q-9 0 -17.5 23.5t-9.5 59.5q-37 -38 -75 -61t-83 -23q-61 0 -102.5 45t-41.5 126
q0 72 34 126t85.5 83t103.5 29q56 0 97 -30q18 10 28 26q1 2 5 0.5t4 -3.5v-285q0 -34 8 -48.5t27 -14.5q17 0 53 14h2zM277.5 41.5q30.5 18.5 60.5 48.5v204q0 37 -32 61t-72 24q-59 0 -95.5 -52.5t-36.5 -136.5q0 -75 30.5 -121t81.5 -46q33 0 63.5 18.5z" />
    <glyph glyph-name="atilde" unicode="&#xe3;" horiz-adv-x="490" 
d="M128 480q-3 0 -5 2.5t0 4.5q17 23 39.5 42t45.5 19q14 0 50 -10q46 -14 75 -14q17 0 27 7t22 20h1q3 0 5.5 -2.5t0.5 -4.5q-26 -36 -43 -49t-36 -13q-21 0 -61 12q-4 1 -25.5 7t-44.5 6q-15 0 -23.5 -5t-15 -12t-10.5 -10h-2zM483 58q4 0 5.5 -4.5t-2.5 -5.5l-116 -56
q-2 -1 -5 -1q-9 0 -17.5 23.5t-9.5 59.5q-37 -38 -75 -61t-83 -23q-61 0 -102.5 45t-41.5 126q0 72 34 126t85.5 83t103.5 29q56 0 97 -30q18 10 28 26q1 2 5 0.5t4 -3.5v-285q0 -34 8 -48.5t27 -14.5q17 0 53 14h2zM277.5 41.5q30.5 18.5 60.5 48.5v204q0 37 -32 61t-72 24
q-59 0 -95.5 -52.5t-36.5 -136.5q0 -75 30.5 -121t81.5 -46q33 0 63.5 18.5z" />
    <glyph glyph-name="adieresis" unicode="&#xe4;" horiz-adv-x="490" 
d="M137.5 489q-11.5 11 -11.5 30t11.5 30t31.5 11t30.5 -10.5t10.5 -30.5q0 -19 -10.5 -30t-30.5 -11t-31.5 11zM312.5 489q-11.5 11 -11.5 30t11.5 30t31.5 11t31 -10.5t11 -30.5t-11 -30.5t-31 -10.5t-31.5 11zM483 58q4 0 5.5 -4.5t-2.5 -5.5l-116 -56q-2 -1 -5 -1
q-9 0 -17.5 23.5t-9.5 59.5q-37 -38 -75 -61t-83 -23q-61 0 -102.5 45t-41.5 126q0 72 34 126t85.5 83t103.5 29q56 0 97 -30q18 10 28 26q1 2 5 0.5t4 -3.5v-285q0 -34 8 -48.5t27 -14.5q17 0 53 14h2zM277.5 41.5q30.5 18.5 60.5 48.5v204q0 37 -32 61t-72 24
q-59 0 -95.5 -52.5t-36.5 -136.5q0 -75 30.5 -121t81.5 -46q33 0 63.5 18.5z" />
    <glyph glyph-name="aring" unicode="&#xe5;" horiz-adv-x="490" 
d="M183 491.5q-24 23.5 -24 55.5q0 36 30.5 57t67.5 21q36 0 62 -23.5t26 -56.5q0 -35 -30 -56t-68 -21q-40 0 -64 23.5zM212 602.5q-8 -11.5 -8 -35.5q0 -34 16 -61.5t43 -27.5q36 0 36 49q0 36 -18 61.5t-44 25.5q-17 0 -25 -11.5zM483 58q4 0 5.5 -4.5t-2.5 -5.5
l-116 -56q-2 -1 -5 -1q-9 0 -17.5 23.5t-9.5 59.5q-37 -38 -75 -61t-83 -23q-61 0 -102.5 45t-41.5 126q0 72 34 126t85.5 83t103.5 29q56 0 97 -30q18 10 28 26q1 2 5 0.5t4 -3.5v-285q0 -34 8 -48.5t27 -14.5q17 0 53 14h2zM277.5 41.5q30.5 18.5 60.5 48.5v204
q0 37 -32 61t-72 24q-59 0 -95.5 -52.5t-36.5 -136.5q0 -75 30.5 -121t81.5 -46q33 0 63.5 18.5z" />
    <glyph glyph-name="ae" unicode="&#xe6;" horiz-adv-x="626" 
d="M584 54q3 0 6 -3.5t0 -6.5q-32 -30 -63.5 -43t-70.5 -13q-51 0 -90.5 24t-58.5 72q-34 -43 -69.5 -70t-80.5 -27q-51 0 -86 40t-35 109q0 91 38 149.5t91 84.5t100 26q29 0 58 -10t48 -32q26 21 56.5 31t60.5 10q49 0 76 -26.5t27 -72.5q0 -23 -12 -23l-220 -1
q-5 -28 -5 -57q0 -97 34.5 -147t95.5 -50q62 0 99 36h1zM248.5 40q26.5 20 54.5 56q-10 35 -10 74q0 76 31 130q-16 42 -37.5 60t-53.5 18q-34 0 -64 -23t-48.5 -70.5t-18.5 -117.5q0 -67 25 -107t65 -40q30 0 56.5 20zM395.5 351.5q-23.5 -23.5 -33.5 -66.5l159 4
q0 41 -18.5 63.5t-48.5 22.5q-35 0 -58.5 -23.5z" />
    <glyph glyph-name="ccedilla" unicode="&#xe7;" horiz-adv-x="411" 
d="M224 -12q-10 -30 -10 -45q0 -14 8.5 -21.5t35.5 -23.5q25 -14 39.5 -32t14.5 -45q0 -37 -26.5 -66.5t-77.5 -29.5q-28 0 -46 10t-18 28q0 13 9 21.5t21 8.5q11 0 17 -5.5t12 -16.5q7 -13 14.5 -19.5t22.5 -6.5q34 0 34 38q0 26 -18.5 46.5t-67.5 46.5q-14 7 -14 13
q0 4 5 17q13 33 31 83q-58 5 -97 34t-58 72t-19 90q0 64 32 111.5t82.5 73t103.5 25.5q44 0 80.5 -17.5t36.5 -43.5q0 -13 -9.5 -22.5t-25.5 -9.5q-27 0 -44 33q-13 20 -28 30t-43 10q-56 0 -87.5 -43.5t-31.5 -116.5q0 -84 42 -138t126 -54q61 0 102 33h1q3 0 5.5 -3
t0.5 -5q-35 -31 -70.5 -45.5t-77.5 -14.5h-7z" />
    <glyph glyph-name="egrave" unicode="&#xe8;" horiz-adv-x="408" 
d="M131 727q-1 4 8 4q13 0 32.5 -5.5t20.5 -9.5l51 -240q2 -2 -3.5 -3.5t-6.5 1.5zM364 56q3 0 5.5 -3.5t0.5 -6.5q-68 -58 -146 -58q-59 0 -102 27t-64.5 70.5t-21.5 94.5q0 60 28.5 109t77.5 77.5t109 28.5q54 0 84 -26.5t30 -72.5q0 -12 -2.5 -17.5t-9.5 -5.5l-246 -2
q-5 -27 -5 -52q0 -87 42 -141.5t116 -54.5q57 0 103 33h1zM148.5 351.5q-27.5 -23.5 -38.5 -66.5l186 4q0 41 -21.5 63.5t-57.5 22.5q-41 0 -68.5 -23.5z" />
    <glyph glyph-name="eacute" unicode="&#xe9;" horiz-adv-x="408" 
d="M221 472q-3 0 -5.5 1.5t-1.5 2.5l52 240q1 4 21 9.5t32 5.5q9 0 8 -4l-102 -253q0 -2 -4 -2zM364 56q3 0 5.5 -3.5t0.5 -6.5q-68 -58 -146 -58q-59 0 -102 27t-64.5 70.5t-21.5 94.5q0 60 28.5 109t77.5 77.5t109 28.5q54 0 84 -26.5t30 -72.5q0 -12 -2.5 -17.5
t-9.5 -5.5l-246 -2q-5 -27 -5 -52q0 -87 42 -141.5t116 -54.5q57 0 103 33h1zM148.5 351.5q-27.5 -23.5 -38.5 -66.5l186 4q0 41 -21.5 63.5t-57.5 22.5q-41 0 -68.5 -23.5z" />
    <glyph glyph-name="ecircumflex" unicode="&#xea;" horiz-adv-x="408" 
d="M155 472q-3 0 -5.5 1.5t-1.5 2.5l68 249q1 5 11 5q11 0 12 -5l67 -249q2 -2 -3.5 -3.5t-6.5 1.5l-68 164l-69 -164q0 -2 -4 -2zM364 56q3 0 5.5 -3.5t0.5 -6.5q-68 -58 -146 -58q-59 0 -102 27t-64.5 70.5t-21.5 94.5q0 60 28.5 109t77.5 77.5t109 28.5q54 0 84 -26.5
t30 -72.5q0 -12 -2.5 -17.5t-9.5 -5.5l-246 -2q-5 -27 -5 -52q0 -87 42 -141.5t116 -54.5q57 0 103 33h1zM148.5 351.5q-27.5 -23.5 -38.5 -66.5l186 4q0 41 -21.5 63.5t-57.5 22.5q-41 0 -68.5 -23.5z" />
    <glyph glyph-name="edieresis" unicode="&#xeb;" horiz-adv-x="408" 
d="M108.5 489q-11.5 11 -11.5 30t11.5 30t31.5 11t30.5 -10.5t10.5 -30.5q0 -19 -10.5 -30t-30.5 -11t-31.5 11zM283.5 489q-11.5 11 -11.5 30t11.5 30t31.5 11t31 -10.5t11 -30.5t-11 -30.5t-31 -10.5t-31.5 11zM364 56q3 0 5.5 -3.5t0.5 -6.5q-68 -58 -146 -58
q-59 0 -102 27t-64.5 70.5t-21.5 94.5q0 60 28.5 109t77.5 77.5t109 28.5q54 0 84 -26.5t30 -72.5q0 -12 -2.5 -17.5t-9.5 -5.5l-246 -2q-5 -27 -5 -52q0 -87 42 -141.5t116 -54.5q57 0 103 33h1zM148.5 351.5q-27.5 -23.5 -38.5 -66.5l186 4q0 41 -21.5 63.5t-57.5 22.5
q-41 0 -68.5 -23.5z" />
    <glyph glyph-name="igrave" unicode="&#xec;" horiz-adv-x="273" 
d="M49 731q13 0 32.5 -5.5t20.5 -9.5l51 -240q2 -2 -3.5 -3.5t-6.5 1.5l-102 253q-1 4 8 4zM51 6q0 6 2 6q27 0 40.5 5.5t18.5 20t5 43.5v187q0 36 -7.5 52t-25.5 16t-45 -14h-1q-4 0 -6 5t1 7l130 60l4 1q2 0 5 -2.5t3 -5.5q0 -7 -1 -40t-1 -78v-188q0 -30 5 -44t18 -19.5
t40 -5.5q3 0 3 -6t-3 -6q-23 0 -37 1l-54 1l-54 -1q-14 -1 -38 -1q-2 0 -2 6z" />
    <glyph glyph-name="iacute" unicode="&#xed;" horiz-adv-x="273" 
d="M131 472q-3 0 -5.5 1.5t-1.5 2.5l52 240q1 4 20.5 9.5t32.5 5.5q9 0 8 -4l-102 -253q0 -2 -4 -2zM51 6q0 6 2 6q27 0 40.5 5.5t18.5 20t5 43.5v187q0 36 -7.5 52t-25.5 16t-45 -14h-1q-4 0 -6 5t1 7l130 60l4 1q2 0 5 -2.5t3 -5.5q0 -7 -1 -40t-1 -78v-188q0 -30 5 -44
t18 -19.5t40 -5.5q3 0 3 -6t-3 -6q-23 0 -37 1l-54 1l-54 -1q-14 -1 -38 -1q-2 0 -2 6z" />
    <glyph glyph-name="icircumflex" unicode="&#xee;" horiz-adv-x="273" 
d="M212.5 472.5q-5.5 -1.5 -6.5 1.5l-68 164l-69 -164q0 -2 -4 -2q-3 0 -5.5 1.5t-1.5 2.5l68 249q1 5 11 5q11 0 12 -5l67 -249q2 -2 -3.5 -3.5zM51 6q0 6 2 6q27 0 40.5 5.5t18.5 20t5 43.5v187q0 36 -7.5 52t-25.5 16t-45 -14h-1q-4 0 -6 5t1 7l130 60l4 1q2 0 5 -2.5
t3 -5.5q0 -7 -1 -40t-1 -78v-188q0 -30 5 -44t18 -19.5t40 -5.5q3 0 3 -6t-3 -6q-23 0 -37 1l-54 1l-54 -1q-14 -1 -38 -1q-2 0 -2 6z" />
    <glyph glyph-name="idieresis" unicode="&#xef;" horiz-adv-x="273" 
d="M34.5 489q-11.5 11 -11.5 30t11.5 30t31.5 11t31 -11t11 -30t-11 -30t-31 -11t-31.5 11zM177.5 489q-11.5 11 -11.5 30t11.5 30t31.5 11t30.5 -10.5t10.5 -30.5q0 -19 -10.5 -30t-30.5 -11t-31.5 11zM51 6q0 6 2 6q27 0 40.5 5.5t18.5 20t5 43.5v187q0 36 -7.5 52
t-25.5 16t-45 -14h-1q-4 0 -6 5t1 7l130 60l4 1q2 0 5 -2.5t3 -5.5q0 -7 -1 -40t-1 -78v-188q0 -30 5 -44t18 -19.5t40 -5.5q3 0 3 -6t-3 -6q-23 0 -37 1l-54 1l-54 -1q-14 -1 -38 -1q-2 0 -2 6z" />
    <glyph glyph-name="eth" unicode="&#xf0;" horiz-adv-x="470" 
d="M403 405q35 -89 35 -178q0 -121 -60.5 -180.5t-154.5 -59.5q-57 0 -100.5 27t-67 73t-23.5 99q0 69 32 117t80 72t97 24q58 0 103 -33q-27 94 -85 181l-134 -63h-1q-5 0 -8 9.5t1 11.5l129 61q-69 95 -156 150q-2 2 -2 3q0 2 2.5 4.5t5.5 1.5q106 -48 192 -139l103 49h1
q5 0 8.5 -9.5t-1.5 -11.5l-96 -45q65 -75 100 -164zM339 48q31 42 31 143q0 55 -11 112q-20 37 -54 57t-76 20q-57 0 -93.5 -43.5t-36.5 -121.5q0 -57 19 -104.5t53.5 -76t79.5 -28.5q57 0 88 42z" />
    <glyph glyph-name="ntilde" unicode="&#xf1;" horiz-adv-x="517" 
d="M143 480q-3 0 -5 2.5t0 4.5q17 23 39.5 42t45.5 19q14 0 50 -10q46 -14 75 -14q17 0 27 7t22 20h1q3 0 5.5 -2.5t0.5 -4.5q-26 -36 -43 -49t-36 -13q-21 0 -61 12q-4 1 -25.5 7t-44.5 6q-15 0 -23.5 -5t-15 -12t-10.5 -10h-2zM498 6q0 -6 -3 -6q-23 0 -36 1l-54 1l-55 -1
q-13 -1 -36 -1q-3 0 -3 6t3 6q27 0 40 5.5t17.5 19.5t4.5 44v162q0 59 -22.5 87t-69.5 28q-31 0 -62.5 -16.5t-57.5 -45.5v-215q0 -30 4.5 -44t17.5 -19.5t40 -5.5q3 0 3 -6t-3 -6q-23 0 -36 1l-54 1l-55 -1q-13 -1 -36 -1q-3 0 -3 6t3 6q27 0 40 5.5t17.5 19.5t4.5 44v198
q0 34 -8 49t-27 15q-16 0 -54 -15h-2q-4 0 -5.5 4.5t2.5 6.5l116 55q2 1 6 1q9 0 19 -23t10 -59q38 44 75.5 65t77.5 21q56 0 86 -31t30 -91v-196q0 -30 4.5 -44t17.5 -19.5t40 -5.5q3 0 3 -6z" />
    <glyph glyph-name="ograve" unicode="&#xf2;" horiz-adv-x="479" 
d="M152 731q13 0 32.5 -5.5t20.5 -9.5l51 -240q2 -2 -3.5 -3.5t-6.5 1.5l-102 253q-1 4 8 4zM128.5 15.5q-44.5 28.5 -68.5 77t-24 105.5q0 65 31.5 110.5t81 68t100.5 22.5q59 0 103 -29t67.5 -76.5t23.5 -100.5q0 -62 -29 -108.5t-77.5 -72t-105.5 -25.5
q-58 0 -102.5 28.5zM345 45q30 39 30 120q0 62 -20.5 111t-56.5 76.5t-82 27.5q-54 0 -83.5 -39t-29.5 -112q0 -61 20 -112t56 -81t81 -30q55 0 85 39z" />
    <glyph glyph-name="oacute" unicode="&#xf3;" horiz-adv-x="479" 
d="M234 472q-3 0 -5.5 1.5t-1.5 2.5l52 240q1 4 21 9.5t32 5.5q9 0 8 -4l-102 -253q0 -2 -4 -2zM128.5 15.5q-44.5 28.5 -68.5 77t-24 105.5q0 65 31.5 110.5t81 68t100.5 22.5q59 0 103 -29t67.5 -76.5t23.5 -100.5q0 -62 -29 -108.5t-77.5 -72t-105.5 -25.5
q-58 0 -102.5 28.5zM345 45q30 39 30 120q0 62 -20.5 111t-56.5 76.5t-82 27.5q-54 0 -83.5 -39t-29.5 -112q0 -61 20 -112t56 -81t81 -30q55 0 85 39z" />
    <glyph glyph-name="ocircumflex" unicode="&#xf4;" horiz-adv-x="479" 
d="M315.5 472.5q-5.5 -1.5 -6.5 1.5l-68 164l-69 -164q0 -2 -4 -2q-3 0 -5.5 1.5t-1.5 2.5l68 249q1 5 11 5q11 0 12 -5l67 -249q2 -2 -3.5 -3.5zM128.5 15.5q-44.5 28.5 -68.5 77t-24 105.5q0 65 31.5 110.5t81 68t100.5 22.5q59 0 103 -29t67.5 -76.5t23.5 -100.5
q0 -62 -29 -108.5t-77.5 -72t-105.5 -25.5q-58 0 -102.5 28.5zM345 45q30 39 30 120q0 62 -20.5 111t-56.5 76.5t-82 27.5q-54 0 -83.5 -39t-29.5 -112q0 -61 20 -112t56 -81t81 -30q55 0 85 39z" />
    <glyph glyph-name="otilde" unicode="&#xf5;" horiz-adv-x="479" 
d="M344 531q10 7 22 20h1q3 0 5.5 -2.5t0.5 -4.5q-26 -36 -43 -49t-36 -13q-21 0 -61 12q-4 1 -25.5 7t-44.5 6q-15 0 -23.5 -5t-15 -12t-10.5 -10h-2q-3 0 -5 2.5t0 4.5q17 23 39.5 42t45.5 19q14 0 50 -10q46 -14 75 -14q17 0 27 7zM128.5 15.5q-44.5 28.5 -68.5 77
t-24 105.5q0 65 31.5 110.5t81 68t100.5 22.5q59 0 103 -29t67.5 -76.5t23.5 -100.5q0 -62 -29 -108.5t-77.5 -72t-105.5 -25.5q-58 0 -102.5 28.5zM345 45q30 39 30 120q0 62 -20.5 111t-56.5 76.5t-82 27.5q-54 0 -83.5 -39t-29.5 -112q0 -61 20 -112t56 -81t81 -30
q55 0 85 39z" />
    <glyph glyph-name="odieresis" unicode="&#xf6;" horiz-adv-x="479" 
d="M121.5 489q-11.5 11 -11.5 30t11.5 30t31.5 11t30.5 -10.5t10.5 -30.5q0 -19 -10.5 -30t-30.5 -11t-31.5 11zM296.5 489q-11.5 11 -11.5 30t11.5 30t31.5 11t31 -10.5t11 -30.5t-11 -30.5t-31 -10.5t-31.5 11zM128.5 15.5q-44.5 28.5 -68.5 77t-24 105.5q0 65 31.5 110.5
t81 68t100.5 22.5q59 0 103 -29t67.5 -76.5t23.5 -100.5q0 -62 -29 -108.5t-77.5 -72t-105.5 -25.5q-58 0 -102.5 28.5zM345 45q30 39 30 120q0 62 -20.5 111t-56.5 76.5t-82 27.5q-54 0 -83.5 -39t-29.5 -112q0 -61 20 -112t56 -81t81 -30q55 0 85 39z" />
    <glyph glyph-name="divide" unicode="&#xf7;" horiz-adv-x="398" 
d="M166 322.5q-12 11.5 -12 31.5q0 19 12 30t32 11t31 -10.5t11 -30.5t-11 -31.5t-31 -11.5t-32 11.5zM30.5 176.5q-1.5 6.5 -1.5 14.5q0 7 1.5 12.5t2.5 5.5h331q2 0 3.5 -6t1.5 -13t-1.5 -13.5t-3.5 -6.5h-330q-2 0 -3.5 6.5zM166 0.5q-12 11.5 -12 31.5q0 19 12 30.5
t32 11.5t31 -11t11 -31t-11 -31.5t-31 -11.5t-32 11.5z" />
    <glyph glyph-name="oslash" unicode="&#xf8;" horiz-adv-x="477" 
d="M429 270.5q14 -37.5 14 -77.5q0 -62 -29 -108.5t-77.5 -72t-105.5 -25.5q-77 0 -130 51l-50 -52l-2 -1q-4 0 -10 6.5t-3 9.5l50 52q-24 29 -37 66.5t-13 78.5q0 65 31.5 110.5t81 68t100.5 22.5q76 0 127 -48l46 48h2q4 0 10 -5.5t3 -8.5l-47 -48q25 -29 39 -66.5z
M131 99l206 212q-22 33 -53 51t-68 18q-54 0 -83.5 -39t-29.5 -112q0 -74 28 -130zM345 45q30 39 30 120q0 73 -28 127l-206 -213q22 -35 52 -54t67 -19q55 0 85 39z" />
    <glyph glyph-name="ugrave" unicode="&#xf9;" horiz-adv-x="493" 
d="M142 727q-1 4 8 4q13 0 32.5 -5.5t20.5 -9.5l51 -240q2 -2 -3.5 -3.5t-6.5 1.5zM487 57q4 0 5.5 -4.5t-2.5 -6.5l-117 -55l-4 -1q-10 0 -19 23t-9 60v4q-39 -44 -78 -64.5t-81 -20.5q-50 0 -78 31.5t-28 91.5v153q0 39 -7 56.5t-23 17.5q-14 0 -34 -10h-1q-4 0 -6 5.5
t2 6.5l111 50l4 1q3 0 6.5 -2.5t3.5 -5.5v-239q0 -116 84 -116q32 0 65 16.5t60 45.5v174q0 40 -6.5 57t-23.5 17q-14 0 -34 -10h-1q-4 0 -5.5 5.5t2.5 6.5l111 50l3 1q3 0 6.5 -2.5t3.5 -5.5v-280q0 -34 8 -49t27 -15q17 0 53 14h2z" />
    <glyph glyph-name="uacute" unicode="&#xfa;" horiz-adv-x="493" 
d="M232 472q-3 0 -5.5 1.5t-1.5 2.5l52 240q1 4 21 9.5t32 5.5q9 0 8 -4l-102 -253q0 -2 -4 -2zM487 57q4 0 5.5 -4.5t-2.5 -6.5l-117 -55l-4 -1q-10 0 -19 23t-9 60v4q-39 -44 -78 -64.5t-81 -20.5q-50 0 -78 31.5t-28 91.5v153q0 39 -7 56.5t-23 17.5q-14 0 -34 -10h-1
q-4 0 -6 5.5t2 6.5l111 50l4 1q3 0 6.5 -2.5t3.5 -5.5v-239q0 -116 84 -116q32 0 65 16.5t60 45.5v174q0 40 -6.5 57t-23.5 17q-14 0 -34 -10h-1q-4 0 -5.5 5.5t2.5 6.5l111 50l3 1q3 0 6.5 -2.5t3.5 -5.5v-280q0 -34 8 -49t27 -15q17 0 53 14h2z" />
    <glyph glyph-name="ucircumflex" unicode="&#xfb;" horiz-adv-x="493" 
d="M166 472q-3 0 -5.5 1.5t-1.5 2.5l68 249q1 5 11 5q11 0 12 -5l67 -249q2 -2 -3.5 -3.5t-6.5 1.5l-68 164l-69 -164q0 -2 -4 -2zM487 57q4 0 5.5 -4.5t-2.5 -6.5l-117 -55l-4 -1q-10 0 -19 23t-9 60v4q-39 -44 -78 -64.5t-81 -20.5q-50 0 -78 31.5t-28 91.5v153
q0 39 -7 56.5t-23 17.5q-14 0 -34 -10h-1q-4 0 -6 5.5t2 6.5l111 50l4 1q3 0 6.5 -2.5t3.5 -5.5v-239q0 -116 84 -116q32 0 65 16.5t60 45.5v174q0 40 -6.5 57t-23.5 17q-14 0 -34 -10h-1q-4 0 -5.5 5.5t2.5 6.5l111 50l3 1q3 0 6.5 -2.5t3.5 -5.5v-280q0 -34 8 -49t27 -15
q17 0 53 14h2z" />
    <glyph glyph-name="udieresis" unicode="&#xfc;" horiz-adv-x="493" 
d="M119.5 489q-11.5 11 -11.5 30t11.5 30t31.5 11t30.5 -10.5t10.5 -30.5q0 -19 -10.5 -30t-30.5 -11t-31.5 11zM294.5 489q-11.5 11 -11.5 30t11.5 30t31.5 11t31 -10.5t11 -30.5t-11 -30.5t-31 -10.5t-31.5 11zM487 57q4 0 5.5 -4.5t-2.5 -6.5l-117 -55l-4 -1
q-10 0 -19 23t-9 60v4q-39 -44 -78 -64.5t-81 -20.5q-50 0 -78 31.5t-28 91.5v153q0 39 -7 56.5t-23 17.5q-14 0 -34 -10h-1q-4 0 -6 5.5t2 6.5l111 50l4 1q3 0 6.5 -2.5t3.5 -5.5v-239q0 -116 84 -116q32 0 65 16.5t60 45.5v174q0 40 -6.5 57t-23.5 17q-14 0 -34 -10h-1
q-4 0 -5.5 5.5t2.5 6.5l111 50l3 1q3 0 6.5 -2.5t3.5 -5.5v-280q0 -34 8 -49t27 -15q17 0 53 14h2z" />
    <glyph glyph-name="yacute" unicode="&#xfd;" horiz-adv-x="485" 
d="M250 472q-3 0 -5.5 1.5t-1.5 2.5l52 240q1 4 21 9.5t32 5.5q9 0 8 -4l-102 -253q0 -2 -4 -2zM405 392.5q3 -2.5 3 -5.5v-457q0 -95 -52 -153t-148 -58q-55 0 -93 22t-38 55q0 15 9 23t23 8q13 0 22 -7.5t21 -24.5q19 -26 39.5 -40.5t59.5 -14.5q46 0 73.5 36t27.5 130
v171q-39 -44 -78.5 -64.5t-81.5 -20.5q-51 0 -78.5 31.5t-27.5 91.5v153q0 39 -7 56.5t-23 17.5q-14 0 -34 -10h-1q-4 0 -6 5t2 7l111 50l4 1q3 0 6.5 -2.5t3.5 -5.5v-239q0 -59 21 -87t63 -28q32 0 65.5 16t60.5 45v174q0 39 -7 56.5t-23 17.5q-13 0 -33 -10h-1
q-4 0 -6.5 5t1.5 7l111 50l5 1q3 0 6 -2.5z" />
    <glyph glyph-name="thorn" unicode="&#xfe;" horiz-adv-x="491" 
d="M378 377q35 -22 56 -64t21 -98q0 -75 -34 -126.5t-83.5 -76.5t-97.5 -25q-32 0 -56.5 6t-50.5 20v-207q0 -30 8 -44t28.5 -19.5t63.5 -5.5q3 0 3 -6t-3 -6q-34 0 -54 1l-73 1l-54 -1q-14 -1 -38 -1q-2 0 -2 6t2 6q27 0 40.5 5.5t18.5 19.5t5 44v792q0 36 -7.5 52
t-25.5 16q-15 0 -45 -14h-2q-4 0 -5.5 4.5t1.5 6.5l126 61l4 1q3 0 6 -2.5t3 -5.5v-405q43 45 84.5 66t84.5 21q41 0 76 -22zM357 54.5q34 46.5 34 129.5q0 84 -37.5 130.5t-94.5 46.5q-36 0 -65.5 -17t-60.5 -49v-223q28 -31 59.5 -47.5t76.5 -16.5q54 0 88 46.5z" />
    <glyph glyph-name="ydieresis" unicode="&#xff;" horiz-adv-x="485" 
d="M137.5 489q-11.5 11 -11.5 30t11.5 30t31.5 11t30.5 -10.5t10.5 -30.5q0 -19 -10.5 -30t-30.5 -11t-31.5 11zM312.5 489q-11.5 11 -11.5 30t11.5 30t31.5 11t31 -10.5t11 -30.5t-11 -30.5t-31 -10.5t-31.5 11zM405 392.5q3 -2.5 3 -5.5v-457q0 -95 -52 -153t-148 -58
q-55 0 -93 22t-38 55q0 15 9 23t23 8q13 0 22 -7.5t21 -24.5q19 -26 39.5 -40.5t59.5 -14.5q46 0 73.5 36t27.5 130v171q-39 -44 -78.5 -64.5t-81.5 -20.5q-51 0 -78.5 31.5t-27.5 91.5v153q0 39 -7 56.5t-23 17.5q-14 0 -34 -10h-1q-4 0 -6 5t2 7l111 50l4 1q3 0 6.5 -2.5
t3.5 -5.5v-239q0 -59 21 -87t63 -28q32 0 65.5 16t60.5 45v174q0 39 -7 56.5t-23 17.5q-13 0 -33 -10h-1q-4 0 -6.5 5t1.5 7l111 50l5 1q3 0 6 -2.5z" />
    <glyph glyph-name="Amacron" unicode="&#x100;" 
d="M209 736q0 14 6 14h251q6 0 6 -14t-6 -14h-251q-6 0 -6 14zM703 6q0 -6 -4 -6q-19 0 -59 2t-58 2q-22 0 -56 -2q-32 -2 -49 -2q-4 0 -4 6t4 6q37 0 54 7t17 24q0 14 -13 43l-115 245h-189l-86 -204q-14 -34 -14 -56q0 -59 98 -59q5 0 5 -6t-5 -6q-18 0 -52 2q-38 2 -66 2
q-26 0 -60 -2q-30 -2 -50 -2q-5 0 -5 6t5 6q28 0 47.5 10.5t37 37t38.5 76.5l211 498q2 3 7 3t6 -3l236 -497q34 -74 58 -99.5t57 -25.5q4 0 4 -6zM240 352h170l-90 190z" />
    <glyph glyph-name="amacron" unicode="&#x101;" horiz-adv-x="490" 
d="M124 497q0 14 6 14h251q6 0 6 -14t-6 -14h-251q-6 0 -6 14zM483 58q4 0 5.5 -4.5t-2.5 -5.5l-116 -56q-2 -1 -5 -1q-9 0 -17.5 23.5t-9.5 59.5q-37 -38 -75 -61t-83 -23q-61 0 -102.5 45t-41.5 126q0 72 34 126t85.5 83t103.5 29q56 0 97 -30q18 10 28 26q1 2 5 0.5
t4 -3.5v-285q0 -34 8 -48.5t27 -14.5q17 0 53 14h2zM277.5 41.5q30.5 18.5 60.5 48.5v204q0 37 -32 61t-72 24q-59 0 -95.5 -52.5t-36.5 -136.5q0 -75 30.5 -121t81.5 -46q33 0 63.5 18.5z" />
    <glyph glyph-name="Abreve" unicode="&#x102;" 
d="M272.5 718q-26.5 28 -34.5 79q-1 4 4 4.5t7 -1.5q7 -27 33.5 -47t58.5 -20q31 0 57.5 20t33.5 47q0 2 4 2q3 0 5.5 -1.5t1.5 -3.5q-8 -52 -34 -79.5t-68 -27.5t-68.5 28zM703 6q0 -6 -4 -6q-19 0 -59 2t-58 2q-22 0 -56 -2q-32 -2 -49 -2q-4 0 -4 6t4 6q37 0 54 7t17 24
q0 14 -13 43l-115 245h-189l-86 -204q-14 -34 -14 -56q0 -59 98 -59q5 0 5 -6t-5 -6q-18 0 -52 2q-38 2 -66 2q-26 0 -60 -2q-30 -2 -50 -2q-5 0 -5 6t5 6q28 0 47.5 10.5t37 37t38.5 76.5l211 498q2 3 7 3t6 -3l236 -497q34 -74 58 -99.5t57 -25.5q4 0 4 -6zM240 352h170
l-90 190z" />
    <glyph glyph-name="abreve" unicode="&#x103;" horiz-adv-x="490" 
d="M179.5 511.5q-26.5 38.5 -26.5 111.5q0 4 5.5 5t5.5 -2q0 -44 26 -73.5t66 -29.5q38 0 64.5 30t26.5 73q0 2 3 2t5.5 -1.5t2.5 -3.5q0 -74 -26 -112t-76 -38t-76.5 38.5zM483 58q4 0 5.5 -4.5t-2.5 -5.5l-116 -56q-2 -1 -5 -1q-9 0 -17.5 23.5t-9.5 59.5q-37 -38 -75 -61
t-83 -23q-61 0 -102.5 45t-41.5 126q0 72 34 126t85.5 83t103.5 29q56 0 97 -30q18 10 28 26q1 2 5 0.5t4 -3.5v-285q0 -34 8 -48.5t27 -14.5q17 0 53 14h2zM277.5 41.5q30.5 18.5 60.5 48.5v204q0 37 -32 61t-72 24q-59 0 -95.5 -52.5t-36.5 -136.5q0 -75 30.5 -121
t81.5 -46q33 0 63.5 18.5z" />
    <glyph glyph-name="Aogonek" unicode="&#x104;" horiz-adv-x="704" 
d="M703 3.5q0 -5.5 -4 -5.5q-22 0 -54 2l-42 1q-54 0 -91 -36.5t-37 -93.5q0 -49 27.5 -82.5t80.5 -33.5q30 0 56 13h1q3 0 5.5 -3t0.5 -5q-45 -35 -105 -35q-58 0 -91 29.5t-33 79.5q0 41 19 69.5t55 62.5q27 25 40 43t13 40q0 16 -9 35l-118 247h-186l-86 -204
q-14 -34 -14 -56q0 -59 98 -59q5 0 5 -6t-5 -6q-18 0 -52 2q-38 2 -66 2q-26 0 -60 -2q-30 -2 -50 -2q-5 0 -5 6t5 6q28 0 47.5 10.5t37 37t38.5 76.5l211 498q2 3 7 3t6 -3l236 -499q34 -73 58.5 -99.5t56.5 -26.5q4 0 4 -5.5zM240 352h167l-88 186z" />
    <glyph glyph-name="aogonek" unicode="&#x105;" horiz-adv-x="490" 
d="M483 58q4 0 5.5 -4.5t-2.5 -5.5l-40 -19q-75 -40 -109 -83t-34 -95q0 -46 22.5 -71.5t66.5 -25.5q22 0 37 6t30 18h2q3 0 5.5 -3t-0.5 -5q-52 -45 -110 -45q-54 0 -82 25.5t-28 70.5q0 44 29.5 88.5t84.5 83.5q-8 7 -14.5 29t-7.5 52q-37 -38 -75 -61t-83 -23
q-61 0 -102.5 45t-41.5 126q0 72 34 126t85.5 83t103.5 29q56 0 97 -30q18 10 28 26q1 2 5 0.5t4 -3.5v-285q0 -34 8 -48.5t27 -14.5q13 0 37 8l16 7v-1h2zM277.5 41.5q30.5 18.5 60.5 48.5v204q0 37 -32 61t-72 24q-59 0 -95.5 -52.5t-36.5 -136.5q0 -75 30.5 -121
t81.5 -46q33 0 63.5 18.5z" />
    <glyph glyph-name="Cacute" unicode="&#x106;" horiz-adv-x="669" 
d="M280 678q-4 0 -5 4.5t2 6.5q33 18 109 62q18 12 31.5 20t22.5 13q4 2 23.5 -4.5t33.5 -14.5t7 -9q-62 -15 -113.5 -33.5t-108.5 -43.5zM512 627q49 -9 78 -26q9 -4 11.5 -8.5t3.5 -15.5l11 -112q0 -3 -5 -3.5t-6 2.5q-22 77 -81.5 113.5t-147.5 36.5q-76 0 -133 -33.5
t-88 -94.5t-31 -141q0 -93 38.5 -172t104 -125t141.5 -46q72 0 125 39.5t81 121.5q0 3 4 3q3 0 5.5 -1t2.5 -3l-14 -113q-2 -12 -4.5 -15.5t-11.5 -7.5q-90 -38 -190 -38q-120 0 -200.5 48.5t-118.5 123.5t-38 158q0 92 51 165t135 113t180 40q48 0 97 -9z" />
    <glyph glyph-name="cacute" unicode="&#x107;" horiz-adv-x="411" 
d="M219 472q-3 0 -5.5 1.5t-1.5 2.5l52 240q1 4 20.5 9.5t32.5 5.5q9 0 8 -4l-102 -253q0 -2 -4 -2zM122 16.5q-44 28.5 -65 73.5t-21 95q0 64 32 111.5t82.5 73t103.5 25.5q44 0 80.5 -17.5t36.5 -43.5q0 -13 -9.5 -22.5t-25.5 -9.5q-27 0 -44 33q-13 20 -28 30t-43 10
q-56 0 -87.5 -43.5t-31.5 -116.5q0 -84 42 -138t126 -54q61 0 102 33h1q3 0 5.5 -3t0.5 -5q-35 -31 -70.5 -45.5t-77.5 -14.5q-65 0 -109 28.5z" />
    <glyph glyph-name="Ccircumflex" unicode="&#x108;" horiz-adv-x="669" 
d="M368 790q5 5 12 5q6 0 11 -5l102 -98q1 0 1 -2t-2.5 -4t-3.5 -1l-108 58l-109 -58q-2 -1 -5 2.5t-1 4.5zM512 627q49 -9 78 -26q9 -4 11.5 -8.5t3.5 -15.5l11 -112q0 -3 -5 -3.5t-6 2.5q-22 77 -81.5 113.5t-147.5 36.5q-76 0 -133 -33.5t-88 -94.5t-31 -141
q0 -93 38.5 -172t104 -125t141.5 -46q72 0 125 39.5t81 121.5q0 3 4 3q3 0 5.5 -1t2.5 -3l-14 -113q-2 -12 -4.5 -15.5t-11.5 -7.5q-90 -38 -190 -38q-120 0 -200.5 48.5t-118.5 123.5t-38 158q0 92 51 165t135 113t180 40q48 0 97 -9z" />
    <glyph glyph-name="ccircumflex" unicode="&#x109;" horiz-adv-x="411" 
d="M300.5 472.5q-5.5 -1.5 -6.5 1.5l-68 164l-69 -164q0 -2 -4 -2q-3 0 -5.5 1.5t-1.5 2.5l68 249q1 5 11 5q11 0 12 -5l67 -249q2 -2 -3.5 -3.5zM122 16.5q-44 28.5 -65 73.5t-21 95q0 64 32 111.5t82.5 73t103.5 25.5q44 0 80.5 -17.5t36.5 -43.5q0 -13 -9.5 -22.5
t-25.5 -9.5q-27 0 -44 33q-13 20 -28 30t-43 10q-56 0 -87.5 -43.5t-31.5 -116.5q0 -84 42 -138t126 -54q61 0 102 33h1q3 0 5.5 -3t0.5 -5q-35 -31 -70.5 -45.5t-77.5 -14.5q-65 0 -109 28.5z" />
    <glyph glyph-name="Cdotaccent" unicode="&#x10a;" horiz-adv-x="669" 
d="M346.5 724.5q-11.5 11.5 -11.5 31.5t11.5 31t32.5 11q20 0 31 -11t11 -31t-11 -31.5t-31 -11.5q-21 0 -32.5 11.5zM512 627q49 -9 78 -26q9 -4 11.5 -8.5t3.5 -15.5l11 -112q0 -3 -5 -3.5t-6 2.5q-22 77 -81.5 113.5t-147.5 36.5q-76 0 -133 -33.5t-88 -94.5t-31 -141
q0 -93 38.5 -172t104 -125t141.5 -46q72 0 125 39.5t81 121.5q0 3 4 3q3 0 5.5 -1t2.5 -3l-14 -113q-2 -12 -4.5 -15.5t-11.5 -7.5q-90 -38 -190 -38q-120 0 -200.5 48.5t-118.5 123.5t-38 158q0 92 51 165t135 113t180 40q48 0 97 -9z" />
    <glyph glyph-name="cdotaccent" unicode="&#x10b;" horiz-adv-x="411" 
d="M192.5 523q-11.5 11 -11.5 31t11.5 31t32.5 11q20 0 31 -11t11 -31t-11 -31t-31 -11q-21 0 -32.5 11zM122 16.5q-44 28.5 -65 73.5t-21 95q0 64 32 111.5t82.5 73t103.5 25.5q44 0 80.5 -17.5t36.5 -43.5q0 -13 -9.5 -22.5t-25.5 -9.5q-27 0 -44 33q-13 20 -28 30t-43 10
q-56 0 -87.5 -43.5t-31.5 -116.5q0 -84 42 -138t126 -54q61 0 102 33h1q3 0 5.5 -3t0.5 -5q-35 -31 -70.5 -45.5t-77.5 -14.5q-65 0 -109 28.5z" />
    <glyph glyph-name="Ccaron" unicode="&#x10c;" horiz-adv-x="669" 
d="M264 784q-1 0 -1 0.5v0.5q0 2 2.5 4.5t4.5 1.5l109 -57l108 57h1q3 0 5 -3t-1 -4l-102 -97q-4 -4 -11 -4q-8 0 -12 4zM512 627q49 -9 78 -26q9 -4 11.5 -8.5t3.5 -15.5l11 -112q0 -3 -5 -3.5t-6 2.5q-22 77 -81.5 113.5t-147.5 36.5q-76 0 -133 -33.5t-88 -94.5t-31 -141
q0 -93 38.5 -172t104 -125t141.5 -46q72 0 125 39.5t81 121.5q0 3 4 3q3 0 5.5 -1t2.5 -3l-14 -113q-2 -12 -4.5 -15.5t-11.5 -7.5q-90 -38 -190 -38q-120 0 -200.5 48.5t-118.5 123.5t-38 158q0 92 51 165t135 113t180 40q48 0 97 -9z" />
    <glyph glyph-name="ccaron" unicode="&#x10d;" horiz-adv-x="411" 
d="M149.5 730q5.5 1 6.5 -1l69 -165l68 165q1 2 6 1t4 -4l-67 -249q-2 -5 -11 -5t-12 5l-68 249q-1 3 4.5 4zM122 16.5q-44 28.5 -65 73.5t-21 95q0 64 32 111.5t82.5 73t103.5 25.5q44 0 80.5 -17.5t36.5 -43.5q0 -13 -9.5 -22.5t-25.5 -9.5q-27 0 -44 33q-13 20 -28 30
t-43 10q-56 0 -87.5 -43.5t-31.5 -116.5q0 -84 42 -138t126 -54q61 0 102 33h1q3 0 5.5 -3t0.5 -5q-35 -31 -70.5 -45.5t-77.5 -14.5q-65 0 -109 28.5z" />
    <glyph glyph-name="Dcaron" unicode="&#x10e;" horiz-adv-x="691" 
d="M203 784q-1 0 -1 0.5v0.5q0 2 2.5 4.5t4.5 1.5l109 -57l108 57h1q3 0 5 -3t-1 -4l-102 -97q-4 -4 -11 -4q-8 0 -12 4zM236 -1q-14 1 -35.5 2t-47.5 1l-68 -1q-18 -1 -50 -1q-2 0 -2 6t2 6q38 0 55.5 5t24 19.5t6.5 44.5v463q0 30 -6 44t-23.5 19.5t-55.5 5.5q-2 0 -2 6
t2 6l50 -1q42 -2 67 -2q38 0 75 3q44 2 61 2q104 0 184 -40t124.5 -109t44.5 -155q0 -97 -45.5 -171.5t-123.5 -115t-170 -40.5q-29 0 -67 3zM435 44.5q62 33.5 96.5 99t34.5 157.5q0 87 -33 158t-94 112t-141 41q-43 0 -66.5 -5t-34.5 -20t-11 -45v-450q0 -30 8.5 -47
t32 -25.5t66.5 -8.5q80 0 142 33.5z" />
    <glyph glyph-name="dcaron" unicode="&#x10f;" horiz-adv-x="512" 
d="M502.5 721q13.5 -6 26 -15t11.5 -14l-32 -243q0 -2 -5.5 -1.5t-5.5 2.5l-8 272q0 5 13.5 -1zM506 57q4 0 5.5 -5t-1.5 -7l-110 -52q-6 -2 -8 -2q-13 0 -22 22t-10 61q-37 -39 -77.5 -63t-90.5 -24q-42 0 -77.5 24t-57 67.5t-21.5 99.5q0 71 35 121t88 75t105 25
q53 0 96 -26v224q0 36 -7.5 52t-25.5 16q-13 0 -46 -14h-2q-4 0 -5.5 4.5t1.5 6.5l127 62q2 1 5 1q2 0 5.5 -2.5t3.5 -5.5v-607q0 -36 8.5 -52t27.5 -16q29 0 52 14zM298 40.5q31 17.5 62 49.5v220q-24 33 -53 51t-70 18q-63 0 -99.5 -44.5t-36.5 -126.5q0 -55 17 -97
t46.5 -65t66.5 -23q36 0 67 17.5z" />
    <glyph glyph-name="Dcroat" unicode="&#x110;" horiz-adv-x="691" 
d="M473 587q80 -40 124.5 -109t44.5 -155q0 -97 -45.5 -171.5t-123.5 -115t-170 -40.5q-29 0 -67 3q-14 1 -35.5 2t-47.5 1l-68 -1q-18 -1 -50 -1q-2 0 -2 6t2 6q38 0 55.5 5t24 19.5t6.5 44.5v220h-68q-4 0 -4 10t4 10h68v223q0 30 -6 44t-23.5 19.5t-55.5 5.5q-2 0 -2 6
t2 6l50 -1q42 -2 67 -2q38 0 75 3q44 2 61 2q104 0 184 -40zM435 44.5q62 33.5 96.5 99t34.5 157.5q0 87 -33 158t-94 112t-141 41q-43 0 -66.5 -5t-34.5 -20t-11 -45v-221h136q4 0 4 -10t-4 -10h-136v-209q0 -30 8.5 -47t32 -25.5t66.5 -8.5q80 0 142 33.5z" />
    <glyph glyph-name="dcroat" unicode="&#x111;" horiz-adv-x="513" 
d="M506 57q4 0 5.5 -5t-1.5 -7l-110 -52q-6 -2 -8 -2q-13 0 -22 22t-10 61q-37 -39 -77.5 -63t-90.5 -24q-42 0 -77.5 24t-57 67.5t-21.5 99.5q0 71 35 121t88 75t105 25q53 0 96 -26v129h-169q-2 0 -3.5 3t-1.5 7t1.5 7t3.5 3h169v75q0 36 -7.5 52t-25.5 16q-13 0 -46 -14
h-2q-4 0 -5.5 4.5t1.5 6.5l127 62q2 1 5 1q2 0 5.5 -2.5t3.5 -5.5v-195h66q5 0 5 -10t-5 -10h-66v-392q0 -36 8.5 -52t27.5 -16q29 0 52 14zM298 40.5q31 17.5 62 49.5v220q-24 33 -53 51t-70 18q-63 0 -99.5 -44.5t-36.5 -126.5q0 -55 17 -97t46.5 -65t66.5 -23
q36 0 67 17.5z" />
    <glyph glyph-name="Emacron" unicode="&#x112;" horiz-adv-x="537" 
d="M160 736q0 14 6 14h251q6 0 6 -14t-6 -14h-251q-6 0 -6 14zM479 151q3 0 5.5 -1t2.5 -3q-9 -63 -9 -132q0 -8 -3.5 -11.5t-12.5 -3.5h-419q-2 0 -2 6t2 6q38 0 55.5 5t24 19.5t6.5 44.5v463q0 30 -6.5 44t-24 19.5t-55.5 5.5q-2 0 -2 6t2 6h402q9 0 9 -9l2 -123
q0 -3 -5 -3.5t-6 2.5q-3 53 -32 82.5t-77 29.5h-61q-35 0 -51.5 -5.5t-23 -19t-6.5 -40.5v-203h122q48 0 68.5 16t20.5 54q0 2 6 2t6 -2l-1 -81q0 -29 1 -44l1 -48q0 -2 -6 -2t-6 2q0 44 -21.5 63t-71.5 19h-119v-230q0 -28 6 -41t22 -18t50 -5h80q48 0 80 34t43 94q0 2 4 2
z" />
    <glyph glyph-name="emacron" unicode="&#x113;" horiz-adv-x="408" 
d="M95 497q0 14 6 14h251q6 0 6 -14t-6 -14h-251q-6 0 -6 14zM364 56q3 0 5.5 -3.5t0.5 -6.5q-68 -58 -146 -58q-59 0 -102 27t-64.5 70.5t-21.5 94.5q0 60 28.5 109t77.5 77.5t109 28.5q54 0 84 -26.5t30 -72.5q0 -12 -2.5 -17.5t-9.5 -5.5l-246 -2q-5 -27 -5 -52
q0 -87 42 -141.5t116 -54.5q57 0 103 33h1zM148.5 351.5q-27.5 -23.5 -38.5 -66.5l186 4q0 41 -21.5 63.5t-57.5 22.5q-41 0 -68.5 -23.5z" />
    <glyph glyph-name="Ebreve" unicode="&#x114;" horiz-adv-x="537" 
d="M223.5 718q-26.5 28 -34.5 79q-1 4 4 4.5t7 -1.5q7 -27 33.5 -47t58.5 -20q31 0 57.5 20t33.5 47q0 2 4 2q3 0 5.5 -1.5t1.5 -3.5q-8 -52 -34 -79.5t-68 -27.5t-68.5 28zM479 151q3 0 5.5 -1t2.5 -3q-9 -63 -9 -132q0 -8 -3.5 -11.5t-12.5 -3.5h-419q-2 0 -2 6t2 6
q38 0 55.5 5t24 19.5t6.5 44.5v463q0 30 -6.5 44t-24 19.5t-55.5 5.5q-2 0 -2 6t2 6h402q9 0 9 -9l2 -123q0 -3 -5 -3.5t-6 2.5q-3 53 -32 82.5t-77 29.5h-61q-35 0 -51.5 -5.5t-23 -19t-6.5 -40.5v-203h122q48 0 68.5 16t20.5 54q0 2 6 2t6 -2l-1 -81q0 -29 1 -44l1 -48
q0 -2 -6 -2t-6 2q0 44 -21.5 63t-71.5 19h-119v-230q0 -28 6 -41t22 -18t50 -5h80q48 0 80 34t43 94q0 2 4 2z" />
    <glyph glyph-name="ebreve" unicode="&#x115;" horiz-adv-x="408" 
d="M150.5 511.5q-26.5 38.5 -26.5 111.5q0 4 5.5 5t5.5 -2q0 -44 26 -73.5t66 -29.5q38 0 64.5 30t26.5 73q0 2 3 2t5.5 -1.5t2.5 -3.5q0 -74 -26 -112t-76 -38t-76.5 38.5zM364 56q3 0 5.5 -3.5t0.5 -6.5q-68 -58 -146 -58q-59 0 -102 27t-64.5 70.5t-21.5 94.5
q0 60 28.5 109t77.5 77.5t109 28.5q54 0 84 -26.5t30 -72.5q0 -12 -2.5 -17.5t-9.5 -5.5l-246 -2q-5 -27 -5 -52q0 -87 42 -141.5t116 -54.5q57 0 103 33h1zM148.5 351.5q-27.5 -23.5 -38.5 -66.5l186 4q0 41 -21.5 63.5t-57.5 22.5q-41 0 -68.5 -23.5z" />
    <glyph glyph-name="Edotaccent" unicode="&#x116;" horiz-adv-x="537" 
d="M259.5 724.5q-11.5 11.5 -11.5 31.5t11.5 31t32.5 11q20 0 31 -11t11 -31t-11 -31.5t-31 -11.5q-21 0 -32.5 11.5zM479 151q3 0 5.5 -1t2.5 -3q-9 -63 -9 -132q0 -8 -3.5 -11.5t-12.5 -3.5h-419q-2 0 -2 6t2 6q38 0 55.5 5t24 19.5t6.5 44.5v463q0 30 -6.5 44t-24 19.5
t-55.5 5.5q-2 0 -2 6t2 6h402q9 0 9 -9l2 -123q0 -3 -5 -3.5t-6 2.5q-3 53 -32 82.5t-77 29.5h-61q-35 0 -51.5 -5.5t-23 -19t-6.5 -40.5v-203h122q48 0 68.5 16t20.5 54q0 2 6 2t6 -2l-1 -81q0 -29 1 -44l1 -48q0 -2 -6 -2t-6 2q0 44 -21.5 63t-71.5 19h-119v-230
q0 -28 6 -41t22 -18t50 -5h80q48 0 80 34t43 94q0 2 4 2z" />
    <glyph glyph-name="edotaccent" unicode="&#x117;" horiz-adv-x="408" 
d="M194.5 523q-11.5 11 -11.5 31t11.5 31t32.5 11q20 0 31 -11t11 -31t-11 -31t-31 -11q-21 0 -32.5 11zM364 56q3 0 5.5 -3.5t0.5 -6.5q-68 -58 -146 -58q-59 0 -102 27t-64.5 70.5t-21.5 94.5q0 60 28.5 109t77.5 77.5t109 28.5q54 0 84 -26.5t30 -72.5q0 -12 -2.5 -17.5
t-9.5 -5.5l-246 -2q-5 -27 -5 -52q0 -87 42 -141.5t116 -54.5q57 0 103 33h1zM148.5 351.5q-27.5 -23.5 -38.5 -66.5l186 4q0 41 -21.5 63.5t-57.5 22.5q-41 0 -68.5 -23.5z" />
    <glyph glyph-name="Eogonek" unicode="&#x118;" horiz-adv-x="537" 
d="M499 -222q3 0 5.5 -3t-0.5 -5q-52 -45 -108 -45q-54 0 -83 27t-29 72q0 86 112 176h-353q-2 0 -2 6t2 6q38 0 55.5 5t24 19.5t6.5 44.5v463q0 30 -6.5 44t-24 19.5t-55.5 5.5q-2 0 -2 6t2 6h402q9 0 9 -9l2 -123q0 -3 -5 -3.5t-6 2.5q-3 53 -32 82.5t-77 29.5h-61
q-35 0 -51.5 -5.5t-23 -19t-6.5 -40.5v-203h122q48 0 68.5 16t20.5 54q0 2 6 2t6 -2l-1 -81q0 -29 1 -44l1 -48q0 -2 -6 -2t-6 2q0 44 -21.5 63t-71.5 19h-119v-230q0 -28 6 -41t22 -18t50 -5h80q48 0 80 34t43 94q0 2 4 2q3 0 5.5 -1t2.5 -3q-9 -63 -9 -132
q0 -8 -3.5 -11.5t-12.5 -3.5h-47q-40 -37 -58 -70.5t-18 -72.5q0 -48 24 -75t69 -27q21 0 36 6t29 17h2z" />
    <glyph glyph-name="eogonek" unicode="&#x119;" horiz-adv-x="408" 
d="M371 -222q3 0 5.5 -3t-0.5 -5q-25 -24 -48 -34.5t-49 -10.5q-49 0 -75.5 26t-26.5 70q0 86 110 177q-29 -10 -63 -10q-59 0 -102 27t-64.5 70.5t-21.5 94.5q0 60 28.5 109t77.5 77.5t109 28.5q54 0 84 -26.5t30 -72.5q0 -12 -2.5 -17.5t-9.5 -5.5l-246 -2q-5 -27 -5 -52
q0 -87 42 -141.5t116 -54.5q57 0 103 33h1q3 0 5.5 -3.5t0.5 -6.5q-16 -14 -33 -24q-54 -44 -78.5 -85t-24.5 -86q0 -46 20 -71.5t58 -25.5q19 0 31 6t26 18h2zM148.5 351.5q-27.5 -23.5 -38.5 -66.5l186 4q0 41 -21.5 63.5t-57.5 22.5q-41 0 -68.5 -23.5z" />
    <glyph glyph-name="Ecaron" unicode="&#x11a;" horiz-adv-x="537" 
d="M176 784.5v0.5q0 2 2.5 4.5t4.5 1.5l109 -57l108 57h1q3 0 5 -3t-1 -4l-102 -97q-4 -4 -11 -4q-8 0 -12 4l-103 97q-1 0 -1 0.5zM479 151q3 0 5.5 -1t2.5 -3q-9 -63 -9 -132q0 -8 -3.5 -11.5t-12.5 -3.5h-419q-2 0 -2 6t2 6q38 0 55.5 5t24 19.5t6.5 44.5v463
q0 30 -6.5 44t-24 19.5t-55.5 5.5q-2 0 -2 6t2 6h402q9 0 9 -9l2 -123q0 -3 -5 -3.5t-6 2.5q-3 53 -32 82.5t-77 29.5h-61q-35 0 -51.5 -5.5t-23 -19t-6.5 -40.5v-203h122q48 0 68.5 16t20.5 54q0 2 6 2t6 -2l-1 -81q0 -29 1 -44l1 -48q0 -2 -6 -2t-6 2q0 44 -21.5 63
t-71.5 19h-119v-230q0 -28 6 -41t22 -18t50 -5h80q48 0 80 34t43 94q0 2 4 2z" />
    <glyph glyph-name="ecaron" unicode="&#x11b;" horiz-adv-x="408" 
d="M147 726q-1 3 4.5 4t6.5 -1l69 -165l68 165q1 2 6 1t4 -4l-67 -249q-2 -5 -11 -5t-12 5zM364 56q3 0 5.5 -3.5t0.5 -6.5q-68 -58 -146 -58q-59 0 -102 27t-64.5 70.5t-21.5 94.5q0 60 28.5 109t77.5 77.5t109 28.5q54 0 84 -26.5t30 -72.5q0 -12 -2.5 -17.5t-9.5 -5.5
l-246 -2q-5 -27 -5 -52q0 -87 42 -141.5t116 -54.5q57 0 103 33h1zM148.5 351.5q-27.5 -23.5 -38.5 -66.5l186 4q0 41 -21.5 63.5t-57.5 22.5q-41 0 -68.5 -23.5z" />
    <glyph glyph-name="Gcircumflex" unicode="&#x11c;" horiz-adv-x="714" 
d="M383 790q5 5 12 5q6 0 11 -5l102 -98q1 0 1 -2t-2.5 -4t-3.5 -1l-108 58l-109 -58q-2 -1 -5 2.5t-1 4.5zM215 30q-81 42 -123.5 114t-42.5 161q0 97 49.5 172t136 117t195.5 42q49 0 93.5 -9.5t72.5 -26.5q8 -5 9.5 -8.5t2.5 -14.5l12 -112q0 -3 -5.5 -3.5t-6.5 2.5
q-22 72 -79.5 111t-141.5 39q-126 0 -195 -73t-69 -200q0 -97 39.5 -173.5t109.5 -119.5t157 -43q51 0 79 9t41 35t13 77q0 52 -6.5 72.5t-29 27.5t-77.5 7q-6 0 -6 8q0 3 1.5 5.5t3.5 2.5q78 -5 126 -5q47 0 98 3q2 0 3.5 -2.5t1.5 -4.5q0 -7 -5 -7q-24 1 -34 -6.5
t-13 -30.5t-3 -80q0 -45 3.5 -64t3.5 -24q0 -6 -2 -8t-9 -4q-121 -28 -213 -28q-109 0 -190 42z" />
    <glyph glyph-name="gcircumflex" unicode="&#x11d;" horiz-adv-x="466" 
d="M161 472q-3 0 -5.5 1.5t-1.5 2.5l68 249q1 5 11 5q11 0 12 -5l67 -249q2 -2 -3.5 -3.5t-6.5 1.5l-68 164l-69 -164q0 -2 -4 -2zM389 395.5q4 -1.5 4 -3.5v-462q0 -96 -52.5 -153.5t-146.5 -57.5q-60 0 -98 21.5t-38 53.5q0 17 9 25t21 8q14 0 23 -7.5t22 -24.5
q19 -26 39 -40.5t60 -14.5q48 0 77 35t29 131v168q-37 -38 -75 -61t-83 -23q-61 0 -102.5 45t-41.5 126q0 72 34 126t85.5 83t103.5 29q56 0 97 -30q18 10 28 26q1 2 5 0.5zM277.5 41.5q30.5 18.5 60.5 48.5v204q0 37 -32 61t-72 24q-59 0 -95.5 -52.5t-36.5 -136.5
q0 -75 30.5 -121t81.5 -46q33 0 63.5 18.5z" />
    <glyph glyph-name="Gbreve" unicode="&#x11e;" horiz-adv-x="714" 
d="M325.5 718q-26.5 28 -34.5 79q-1 4 4 4.5t7 -1.5q7 -27 33.5 -47t58.5 -20q31 0 57.5 20t33.5 47q0 2 4 2q3 0 5.5 -1.5t1.5 -3.5q-8 -52 -34 -79.5t-68 -27.5t-68.5 28zM215 30q-81 42 -123.5 114t-42.5 161q0 97 49.5 172t136 117t195.5 42q49 0 93.5 -9.5t72.5 -26.5
q8 -5 9.5 -8.5t2.5 -14.5l12 -112q0 -3 -5.5 -3.5t-6.5 2.5q-22 72 -79.5 111t-141.5 39q-126 0 -195 -73t-69 -200q0 -97 39.5 -173.5t109.5 -119.5t157 -43q51 0 79 9t41 35t13 77q0 52 -6.5 72.5t-29 27.5t-77.5 7q-6 0 -6 8q0 3 1.5 5.5t3.5 2.5q78 -5 126 -5q47 0 98 3
q2 0 3.5 -2.5t1.5 -4.5q0 -7 -5 -7q-24 1 -34 -6.5t-13 -30.5t-3 -80q0 -45 3.5 -64t3.5 -24q0 -6 -2 -8t-9 -4q-121 -28 -213 -28q-109 0 -190 42z" />
    <glyph glyph-name="gbreve" unicode="&#x11f;" horiz-adv-x="466" 
d="M156.5 511.5q-26.5 38.5 -26.5 111.5q0 4 5.5 5t5.5 -2q0 -44 26 -73.5t66 -29.5q38 0 64.5 30t26.5 73q0 2 3 2t5.5 -1.5t2.5 -3.5q0 -74 -26 -112t-76 -38t-76.5 38.5zM389 395.5q4 -1.5 4 -3.5v-462q0 -96 -52.5 -153.5t-146.5 -57.5q-60 0 -98 21.5t-38 53.5
q0 17 9 25t21 8q14 0 23 -7.5t22 -24.5q19 -26 39 -40.5t60 -14.5q48 0 77 35t29 131v168q-37 -38 -75 -61t-83 -23q-61 0 -102.5 45t-41.5 126q0 72 34 126t85.5 83t103.5 29q56 0 97 -30q18 10 28 26q1 2 5 0.5zM277.5 41.5q30.5 18.5 60.5 48.5v204q0 37 -32 61t-72 24
q-59 0 -95.5 -52.5t-36.5 -136.5q0 -75 30.5 -121t81.5 -46q33 0 63.5 18.5z" />
    <glyph glyph-name="Gdotaccent" unicode="&#x120;" horiz-adv-x="714" 
d="M361.5 724.5q-11.5 11.5 -11.5 31.5t11.5 31t32.5 11q20 0 31 -11t11 -31t-11 -31.5t-31 -11.5q-21 0 -32.5 11.5zM215 30q-81 42 -123.5 114t-42.5 161q0 97 49.5 172t136 117t195.5 42q49 0 93.5 -9.5t72.5 -26.5q8 -5 9.5 -8.5t2.5 -14.5l12 -112q0 -3 -5.5 -3.5
t-6.5 2.5q-22 72 -79.5 111t-141.5 39q-126 0 -195 -73t-69 -200q0 -97 39.5 -173.5t109.5 -119.5t157 -43q51 0 79 9t41 35t13 77q0 52 -6.5 72.5t-29 27.5t-77.5 7q-6 0 -6 8q0 3 1.5 5.5t3.5 2.5q78 -5 126 -5q47 0 98 3q2 0 3.5 -2.5t1.5 -4.5q0 -7 -5 -7
q-24 1 -34 -6.5t-13 -30.5t-3 -80q0 -45 3.5 -64t3.5 -24q0 -6 -2 -8t-9 -4q-121 -28 -213 -28q-109 0 -190 42z" />
    <glyph glyph-name="gdotaccent" unicode="&#x121;" horiz-adv-x="466" 
d="M200.5 523q-11.5 11 -11.5 31t11.5 31t32.5 11q20 0 31 -11t11 -31t-11 -31t-31 -11q-21 0 -32.5 11zM389 395.5q4 -1.5 4 -3.5v-462q0 -96 -52.5 -153.5t-146.5 -57.5q-60 0 -98 21.5t-38 53.5q0 17 9 25t21 8q14 0 23 -7.5t22 -24.5q19 -26 39 -40.5t60 -14.5
q48 0 77 35t29 131v168q-37 -38 -75 -61t-83 -23q-61 0 -102.5 45t-41.5 126q0 72 34 126t85.5 83t103.5 29q56 0 97 -30q18 10 28 26q1 2 5 0.5zM277.5 41.5q30.5 18.5 60.5 48.5v204q0 37 -32 61t-72 24q-59 0 -95.5 -52.5t-36.5 -136.5q0 -75 30.5 -121t81.5 -46
q33 0 63.5 18.5z" />
    <glyph glyph-name="Gcommaaccent" unicode="&#x122;" horiz-adv-x="714" 
d="M675.5 244.5q1.5 -2.5 1.5 -4.5q0 -7 -5 -7q-24 1 -34 -6.5t-13 -30.5t-3 -80q0 -45 3.5 -64t3.5 -24q0 -6 -2 -8t-9 -4q-121 -28 -213 -28q-109 0 -190 42t-123.5 114t-42.5 161q0 97 49.5 172t136 117t195.5 42q49 0 93.5 -9.5t72.5 -26.5q8 -5 9.5 -8.5t2.5 -14.5
l12 -112q0 -3 -5.5 -3.5t-6.5 2.5q-22 72 -79.5 111t-141.5 39q-126 0 -195 -73t-69 -200q0 -97 39.5 -173.5t109.5 -119.5t157 -43q51 0 79 9t41 35t13 77q0 52 -6.5 72.5t-29 27.5t-77.5 7q-6 0 -6 8q0 3 1.5 5.5t3.5 2.5q78 -5 126 -5q47 0 98 3q2 0 3.5 -2.5z
M453.5 -104q14.5 -19 14.5 -54q0 -33 -15.5 -61.5t-45.5 -55.5q-1 -1 -3 -1q-3 0 -5 3.5t0 5.5q44 38 44 89q0 20 -6 29q-7 -15 -30 -15q-18 0 -28.5 11t-10.5 28q0 40 43 40q28 0 42.5 -19z" />
    <glyph glyph-name="gcommaaccent" unicode="&#x123;" horiz-adv-x="466" 
d="M211.5 548q-14.5 19 -14.5 54q0 33 15.5 61.5t45.5 55.5q1 1 3 1q3 0 5 -3.5t0 -5.5q-44 -38 -44 -89q0 -20 6 -29q8 15 30 15q18 0 28.5 -11t10.5 -28q0 -40 -43 -40q-28 0 -42.5 19zM389 395.5q4 -1.5 4 -3.5v-462q0 -96 -52.5 -153.5t-146.5 -57.5q-60 0 -98 21.5
t-38 53.5q0 17 9 25t21 8q14 0 23 -7.5t22 -24.5q19 -26 39 -40.5t60 -14.5q48 0 77 35t29 131v168q-37 -38 -75 -61t-83 -23q-61 0 -102.5 45t-41.5 126q0 72 34 126t85.5 83t103.5 29q56 0 97 -30q18 10 28 26q1 2 5 0.5zM277.5 41.5q30.5 18.5 60.5 48.5v204q0 37 -32 61
t-72 24q-59 0 -95.5 -52.5t-36.5 -136.5q0 -75 30.5 -121t81.5 -46q33 0 63.5 18.5z" />
    <glyph glyph-name="Hcircumflex" unicode="&#x124;" horiz-adv-x="759" 
d="M267 687.5q-3 3.5 -1 4.5l103 98q5 5 12 5q6 0 11 -5l102 -98q1 0 1 -2t-2.5 -4t-3.5 -1l-108 58l-109 -58q-2 -1 -5 2.5zM725 6q0 -6 -3 -6q-31 0 -49 1l-69 1l-73 -1q-18 -1 -48 -1q-3 0 -3 6t3 6q39 0 57 5t24.5 19.5t6.5 44.5v234h-384v-234q0 -30 6.5 -44.5
t24.5 -19.5t57 -5q2 0 2 -6t-2 -6q-31 0 -49 1l-72 1l-69 -1q-18 -1 -50 -1q-2 0 -2 6t2 6q38 0 56.5 5t25 19.5t6.5 44.5v463q0 30 -6.5 44t-24.5 19.5t-56 5.5q-2 0 -2 6t2 6l51 -1q42 -2 67 -2q29 0 73 2l48 1q2 0 2 -6t-2 -6q-38 0 -56.5 -6t-25 -20.5t-6.5 -44.5v-206
h384v206q0 30 -6.5 44.5t-24.5 20.5t-57 6q-3 0 -3 6t3 6l48 -1q44 -2 73 -2q27 0 69 2l49 1q3 0 3 -6t-3 -6q-38 0 -56 -5.5t-24.5 -19.5t-6.5 -44v-463q0 -30 6.5 -44.5t24.5 -19.5t56 -5q3 0 3 -6z" />
    <glyph glyph-name="hcircumflex" unicode="&#x125;" horiz-adv-x="499" 
d="M12 722.5q-3 3.5 -1 4.5l103 98q5 5 12 5q6 0 11 -5l102 -98q1 0 1 -2t-2.5 -4t-3.5 -1l-108 58l-109 -58q-2 -1 -5 2.5zM480 6q0 -6 -3 -6q-23 0 -37 1l-54 1l-54 -1q-14 -1 -37 -1q-3 0 -3 6t3 6q27 0 40 5.5t18 20t5 43.5v159q0 59 -22.5 87.5t-69.5 28.5
q-31 0 -63 -16.5t-58 -45.5v-213q0 -29 5 -43.5t18 -20t40 -5.5q3 0 3 -6t-3 -6q-23 0 -37 1l-54 1l-54 -1q-14 -1 -37 -1q-3 0 -3 6t3 6q27 0 40 5.5t18 20t5 43.5v517q0 36 -7 52t-25 16q-15 0 -46 -14h-2q-3 0 -5 5t2 6l127 62h3q4 0 6.5 -2.5t2.5 -5.5v-406
q38 44 75.5 64.5t78.5 20.5q55 0 85 -31t30 -90v-194q0 -29 5 -43.5t18 -20t40 -5.5q3 0 3 -6z" />
    <glyph glyph-name="Hbar" unicode="&#x126;" horiz-adv-x="759" 
d="M725 6q0 -6 -3 -6q-31 0 -49 1l-69 1l-73 -1q-18 -1 -48 -1q-3 0 -3 6t3 6q39 0 57 5t24.5 19.5t6.5 44.5v140h-384v-140q0 -30 6.5 -44.5t24.5 -19.5t57 -5q2 0 2 -6t-2 -6q-31 0 -49 1l-72 1l-69 -1q-18 -1 -50 -1q-2 0 -2 6t2 6q38 0 56.5 5t25 19.5t6.5 44.5v463
q0 30 -6.5 44t-24.5 19.5t-56 5.5q-2 0 -2 6t2 6l51 -1q42 -2 67 -2q29 0 73 2l48 1q2 0 2 -6t-2 -6q-38 0 -56.5 -6t-25 -20.5t-6.5 -44.5v-113h384v113q0 30 -6.5 44.5t-24.5 20.5t-57 6q-3 0 -3 6t3 6l48 -1q44 -2 73 -2q27 0 69 2l49 1q3 0 3 -6t-3 -6q-38 0 -56 -5.5
t-24.5 -19.5t-6.5 -44v-463q0 -30 6.5 -44.5t24.5 -19.5t56 -5q3 0 3 -6zM187 242h384v166h-384v-166z" />
    <glyph glyph-name="hbar" unicode="&#x127;" horiz-adv-x="499" 
d="M480 6q0 -6 -3 -6q-23 0 -37 1l-54 1l-54 -1q-14 -1 -37 -1q-3 0 -3 6t3 6q27 0 40 5.5t18 20t5 43.5v159q0 59 -22.5 87.5t-69.5 28.5q-31 0 -63 -16.5t-58 -45.5v-213q0 -29 5 -43.5t18 -20t40 -5.5q3 0 3 -6t-3 -6q-23 0 -37 1l-54 1l-54 -1q-14 -1 -37 -1q-3 0 -3 6
t3 6q27 0 40 5.5t18 20t5 43.5v421h-77q-2 0 -3.5 3t-1.5 7t1.5 7t3.5 3h77v76q0 36 -7 52t-25 16q-15 0 -46 -14h-2q-3 0 -5 5t2 6l127 62h3q4 0 6.5 -2.5t2.5 -5.5v-195h159q2 0 3.5 -3t1.5 -7t-1.5 -7t-3.5 -3h-159v-191q38 44 75.5 64.5t78.5 20.5q55 0 85 -31t30 -90
v-194q0 -29 5 -43.5t18 -20t40 -5.5q3 0 3 -6z" />
    <glyph glyph-name="Itilde" unicode="&#x128;" horiz-adv-x="332" 
d="M39 697q-2 0 -4.5 2.5t-1.5 4.5q16 24 39 43.5t46 19.5q18 0 51 -11q46 -14 74 -14q18 0 28 6.5t22 20.5h1q3 0 5 -2.5t1 -4.5q-27 -37 -43.5 -49.5t-35.5 -12.5q-22 0 -62 12q-42 12 -69 12q-16 0 -25 -5t-15.5 -12t-9.5 -10h-1zM205 36.5q6 -14.5 23.5 -19.5t55.5 -5
q3 0 3 -6t-3 -6q-30 0 -48 1l-71 1l-69 -1q-18 -1 -49 -1q-3 0 -3 6t3 6q38 0 55.5 5t24 19.5t6.5 44.5v463q0 30 -6.5 44t-24 19.5t-55.5 5.5q-3 0 -3 6t3 6l49 -1q42 -2 69 -2q30 0 72 2l47 1q3 0 3 -6t-3 -6q-37 0 -54.5 -6t-24 -20.5t-6.5 -44.5v-461q0 -30 6 -44.5z
" />
    <glyph glyph-name="itilde" unicode="&#x129;" horiz-adv-x="273" 
d="M218.5 531q10.5 7 21.5 20h1q3 0 5.5 -2.5t0.5 -4.5q-26 -36 -43 -49t-35 -13q-14 0 -40 12q-2 1 -16 7t-29 6q-16 0 -25.5 -5.5t-16 -12.5t-8.5 -9h-1q-2 0 -4.5 2.5t-1.5 4.5q47 61 85 61q9 0 33 -10q28 -14 46 -14q17 0 27.5 7zM51 6q0 6 2 6q27 0 40.5 5.5t18.5 20
t5 43.5v187q0 36 -7.5 52t-25.5 16t-45 -14h-1q-4 0 -6 5t1 7l130 60l4 1q2 0 5 -2.5t3 -5.5q0 -7 -1 -40t-1 -78v-188q0 -30 5 -44t18 -19.5t40 -5.5q3 0 3 -6t-3 -6q-23 0 -37 1l-54 1l-54 -1q-14 -1 -38 -1q-2 0 -2 6z" />
    <glyph glyph-name="Imacron" unicode="&#x12a;" horiz-adv-x="332" 
d="M34 736q0 14 6 14h251q6 0 6 -14t-6 -14h-251q-6 0 -6 14zM205 36.5q6 -14.5 23.5 -19.5t55.5 -5q3 0 3 -6t-3 -6q-30 0 -48 1l-71 1l-69 -1q-18 -1 -49 -1q-3 0 -3 6t3 6q38 0 55.5 5t24 19.5t6.5 44.5v463q0 30 -6.5 44t-24 19.5t-55.5 5.5q-3 0 -3 6t3 6l49 -1
q42 -2 69 -2q30 0 72 2l47 1q3 0 3 -6t-3 -6q-37 0 -54.5 -6t-24 -20.5t-6.5 -44.5v-461q0 -30 6 -44.5z" />
    <glyph glyph-name="imacron" unicode="&#x12b;" horiz-adv-x="273" 
d="M5 497q0 14 6 14h251q6 0 6 -14t-6 -14h-251q-6 0 -6 14zM51 6q0 6 2 6q27 0 40.5 5.5t18.5 20t5 43.5v187q0 36 -7.5 52t-25.5 16t-45 -14h-1q-4 0 -6 5t1 7l130 60l4 1q2 0 5 -2.5t3 -5.5q0 -7 -1 -40t-1 -78v-188q0 -30 5 -44t18 -19.5t40 -5.5q3 0 3 -6t-3 -6
q-23 0 -37 1l-54 1l-54 -1q-14 -1 -38 -1q-2 0 -2 6z" />
    <glyph glyph-name="Ibreve" unicode="&#x12c;" horiz-adv-x="332" 
d="M97.5 718q-26.5 28 -34.5 79q-1 4 4 4.5t7 -1.5q7 -27 33.5 -47t58.5 -20q31 0 57.5 20t33.5 47q0 2 4 2q3 0 5.5 -1.5t1.5 -3.5q-8 -52 -34 -79.5t-68 -27.5t-68.5 28zM205 36.5q6 -14.5 23.5 -19.5t55.5 -5q3 0 3 -6t-3 -6q-30 0 -48 1l-71 1l-69 -1q-18 -1 -49 -1
q-3 0 -3 6t3 6q38 0 55.5 5t24 19.5t6.5 44.5v463q0 30 -6.5 44t-24 19.5t-55.5 5.5q-3 0 -3 6t3 6l49 -1q42 -2 69 -2q30 0 72 2l47 1q3 0 3 -6t-3 -6q-37 0 -54.5 -6t-24 -20.5t-6.5 -44.5v-461q0 -30 6 -44.5z" />
    <glyph glyph-name="ibreve" unicode="&#x12d;" horiz-adv-x="273" 
d="M39.5 628q5.5 1 5.5 -2q0 -44 26 -73.5t66 -29.5q38 0 64.5 30t26.5 73q0 2 3 2t5.5 -1.5t2.5 -3.5q0 -74 -26 -112t-76 -38t-76.5 38.5t-26.5 111.5q0 4 5.5 5zM51 6q0 6 2 6q27 0 40.5 5.5t18.5 20t5 43.5v187q0 36 -7.5 52t-25.5 16t-45 -14h-1q-4 0 -6 5t1 7l130 60
l4 1q2 0 5 -2.5t3 -5.5q0 -7 -1 -40t-1 -78v-188q0 -30 5 -44t18 -19.5t40 -5.5q3 0 3 -6t-3 -6q-23 0 -37 1l-54 1l-54 -1q-14 -1 -38 -1q-2 0 -2 6z" />
    <glyph glyph-name="Iogonek" unicode="&#x12e;" horiz-adv-x="332" 
d="M287 6q0 -6 -3 -6q-28 0 -44 1l-65 1q-49 -65 -49 -140q0 -48 22.5 -77t61.5 -29q17 0 27 5t25 17h1q3 0 5.5 -3t0.5 -5q-25 -24 -47 -34.5t-49 -10.5q-48 0 -75 26.5t-27 71.5q0 88 88 179l-65 -1q-17 -1 -47 -1q-3 0 -3 6t3 6q38 0 55.5 5t24 19.5t6.5 44.5v463
q0 30 -6.5 44t-24 19.5t-55.5 5.5q-3 0 -3 6t3 6l49 -1q42 -2 69 -2q30 0 72 2l47 1q3 0 3 -6t-3 -6q-37 0 -54.5 -6t-24 -20.5t-6.5 -44.5v-461q0 -30 6 -44.5t23.5 -19.5t55.5 -5q3 0 3 -6z" />
    <glyph glyph-name="iogonek" unicode="&#x12f;" horiz-adv-x="273" 
d="M104.5 523q-11.5 11 -11.5 31t11.5 31t32.5 11q20 0 31 -11t11 -31t-11 -31t-31 -11q-21 0 -32.5 11zM240 -215q3 0 5.5 -3t0.5 -5q-25 -24 -47 -34.5t-49 -10.5q-48 0 -75 26.5t-27 71.5q0 85 81 172q-58 -2 -76 -2q-2 0 -2 6t2 6q27 0 40.5 5.5t18.5 20t5 43.5v187
q0 36 -7.5 52t-25.5 16t-45 -14h-1q-4 0 -6 5t1 7l130 60l4 1q2 0 5 -2.5t3 -5.5q0 -7 -1 -40t-1 -78v-188q0 -30 5 -44t18 -19.5t40 -5.5q3 0 3 -6t-3 -6q-23 0 -37 1l-52 1q-44 -61 -44 -133q0 -48 22.5 -77t61.5 -29q17 0 27 5t25 17h1z" />
    <glyph glyph-name="Idotaccent" unicode="&#x130;" horiz-adv-x="332" 
d="M133.5 724.5q-11.5 11.5 -11.5 31.5t11.5 31t32.5 11q20 0 31 -11t11 -31t-11 -31.5t-31 -11.5q-21 0 -32.5 11.5zM205 36.5q6 -14.5 23.5 -19.5t55.5 -5q3 0 3 -6t-3 -6q-30 0 -48 1l-71 1l-69 -1q-18 -1 -49 -1q-3 0 -3 6t3 6q38 0 55.5 5t24 19.5t6.5 44.5v463
q0 30 -6.5 44t-24 19.5t-55.5 5.5q-3 0 -3 6t3 6l49 -1q42 -2 69 -2q30 0 72 2l47 1q3 0 3 -6t-3 -6q-37 0 -54.5 -6t-24 -20.5t-6.5 -44.5v-461q0 -30 6 -44.5z" />
    <glyph glyph-name="dotlessi" unicode="&#x131;" horiz-adv-x="273" 
d="M51 6q0 6 2 6q27 0 40.5 5.5t18.5 20t5 43.5v187q0 36 -7.5 52t-25.5 16t-45 -14h-1q-4 0 -6 5t1 7l130 60l4 1q2 0 5 -2.5t3 -5.5q0 -7 -1 -40t-1 -78v-188q0 -30 5 -44t18 -19.5t40 -5.5q3 0 3 -6t-3 -6q-23 0 -37 1l-54 1l-54 -1q-14 -1 -38 -1q-2 0 -2 6z" />
    <glyph glyph-name="IJ" unicode="&#x132;" horiz-adv-x="690" 
d="M200 305q6 -14 23.5 -19t56.5 -5q2 0 2 -6t-2 -6q-31 0 -49 1l-71 1l-67 -1q-19 -1 -51 -1q-2 0 -2 6t2 6q38 0 55.5 5t24 19.5t6.5 44.5v194q0 30 -6.5 44t-24 19.5t-55.5 5.5q-2 0 -2 6t2 6l51 -1q42 -2 67 -2q29 0 73 2l47 1q2 0 2 -6t-2 -6q-37 0 -55 -6t-24.5 -20.5
t-6.5 -44.5v-192q0 -31 6 -45zM659 619q0 -6 -3 -6q-32 0 -47.5 -6t-21 -20.5t-5.5 -44.5v-284q0 -86 -30 -147t-84 -92.5t-125 -31.5q-62 0 -113.5 22.5t-81 57t-29.5 68.5q0 17 9 26.5t25 9.5q22 0 30.5 -14t16.5 -45q8 -34 18.5 -56t39 -38t80.5 -16q92 0 135.5 52
t43.5 146v344q0 30 -7.5 44t-27.5 19.5t-63 5.5q-3 0 -3 6t3 6l58 -1q44 -2 71 -2t65 2l43 1q3 0 3 -6z" />
    <glyph glyph-name="ij" unicode="&#x133;" horiz-adv-x="526" 
d="M104.5 523q-11.5 11 -11.5 31t11.5 31t32.5 11q20 0 31 -11t11 -31t-11 -31t-31 -11q-21 0 -32.5 11zM364.5 523q-11.5 11 -11.5 31t11.5 31t32.5 11q20 0 31 -11t11 -31t-11 -31t-31 -11q-21 0 -32.5 11zM51 6q0 6 2 6q27 0 40.5 5.5t18.5 20t5 43.5v187q0 36 -7.5 52
t-25.5 16t-45 -14h-1q-4 0 -6 5t1 7l130 60l4 1q2 0 5 -2.5t3 -5.5q0 -7 -1 -40t-1 -78v-188q0 -30 5 -44t18 -19.5t40 -5.5q3 0 3 -6t-3 -6q-23 0 -37 1l-54 1l-54 -1q-14 -1 -38 -1q-2 0 -2 6zM435 347q-1 -33 -1 -78v-317q0 -68 -13.5 -111.5t-43.5 -72.5t-84 -50
q-2 -1 -4.5 4.5t-0.5 6.5q49 21 69 67t20 133v339q0 36 -7 52t-24 16q-18 0 -46 -14h-1q-5 0 -7 5t2 7l130 60l3 1q3 0 6 -2.5t3 -5.5q0 -7 -1 -40z" />
    <glyph glyph-name="Jcircumflex" unicode="&#x134;" horiz-adv-x="322" 
d="M152 799q5 5 12 5q6 0 11 -5l102 -98q1 0 1 -2t-2.5 -4t-3.5 -1l-108 58l-109 -58q-2 -1 -5 2.5t-1 4.5zM282 619q0 -6 -2 -6q-33 0 -48 -6t-20.5 -20.5t-5.5 -44.5v-570q0 -99 -46 -157.5t-133 -58.5q-34 0 -53.5 11.5t-19.5 31.5q0 15 9 24t25 9q17 0 26 -7.5t19 -22.5
q9 -14 16 -20t20 -6q36 0 53.5 41.5t17.5 133.5v593q0 30 -7 44t-27.5 19.5t-63.5 5.5q-2 0 -2 6t2 6l58 -1q46 -2 72 -2t64 2l44 1q2 0 2 -6z" />
    <glyph glyph-name="jcircumflex" unicode="&#x135;" horiz-adv-x="257" 
d="M203.5 472.5q-5.5 -1.5 -6.5 1.5l-68 164l-69 -164q0 -2 -4 -2q-3 0 -5.5 1.5t-1.5 2.5l68 249q1 5 11 5q11 0 12 -5l67 -249q2 -2 -3.5 -3.5zM166 347q-1 -33 -1 -78v-317q0 -68 -13.5 -111.5t-43.5 -72.5t-84 -50q-2 -1 -4.5 4.5t-0.5 6.5q49 21 69 67t20 133v339
q0 36 -7 52t-24 16q-18 0 -46 -14h-1q-5 0 -7 5t2 7l130 60l3 1q3 0 6 -2.5t3 -5.5q0 -7 -1 -40z" />
    <glyph glyph-name="Kcommaaccent" unicode="&#x136;" horiz-adv-x="650" 
d="M644 6q0 -6 -3 -6h-112q-8 0 -28.5 -0.5t-57.5 51t-71 94.5l-153 193l-33 -32v-225q0 -30 6 -44.5t23.5 -19.5t55.5 -5q3 0 3 -6t-3 -6q-30 0 -48 1l-70 1l-68 -1q-18 -1 -50 -1q-2 0 -2 6t2 6q38 0 55.5 5t24 19.5t6.5 44.5v463q0 30 -6 44t-23.5 19.5t-55.5 5.5
q-2 0 -2 6t2 6l50 -1q42 -2 67 -2q29 0 71 2l47 1q3 0 3 -6t-3 -6q-37 0 -54.5 -6t-24 -20.5t-6.5 -44.5v-211l214 213q33 33 33 49q0 20 -59 20q-2 0 -2 6t2 6l43 -1q40 -2 73 -2t69 2l37 1q3 0 3 -6t-3 -6q-41 0 -87 -18t-86 -57l-158 -155l144 -184q73 -95 111.5 -134
t59.5 -46t61 -7q3 0 3 -6zM379.5 -104q14.5 -19 14.5 -54q0 -33 -15.5 -61.5t-45.5 -55.5q-1 -1 -3 -1q-3 0 -5 3.5t0 5.5q44 38 44 89q0 20 -6 29q-7 -15 -30 -15q-18 0 -28.5 11t-10.5 28q0 40 43 40q28 0 42.5 -19z" />
    <glyph glyph-name="kcommaaccent" unicode="&#x137;" horiz-adv-x="491" 
d="M486 6q0 -6 -3 -6q-23 0 -37 1l-54 1l-72 -1q-16 -1 -43 -1q-2 0 -2 6t2 6q50 0 50 19q0 9 -9 22l-123 167l-50 -39v-100q0 -29 5 -43.5t18 -20t40 -5.5q3 0 3 -6t-3 -6q-23 0 -37 1l-54 1l-54 -1q-14 -1 -37 -1q-3 0 -3 6t3 6q27 0 40 5.5t18 20t5 43.5v517q0 36 -7 52
t-25 16q-15 0 -46 -14h-2q-3 0 -5 5t2 6l125 61l5 1q3 0 6 -2.5t3 -5.5v-520l134 108q32 25 32 44q0 25 -57 25q-3 0 -3 6t3 6q27 0 41 -1l73 -1l67 1q13 1 36 1q3 0 3 -6t-3 -6q-37 0 -82 -18t-90 -54l-58 -46l127 -175q50 -69 115 -69q3 0 3 -6zM282.5 -104
q14.5 -19 14.5 -54q0 -33 -15.5 -61.5t-45.5 -55.5q-1 -1 -3 -1q-3 0 -5 3.5t0 5.5q44 38 44 89q0 20 -6 29q-7 -15 -30 -15q-18 0 -28.5 11t-10.5 28q0 40 43 40q28 0 42.5 -19z" />
    <glyph glyph-name="kgreenlandic" unicode="&#x138;" horiz-adv-x="509" 
d="M503 6q0 -6 -2 -6q-24 0 -38 1l-54 1l-71 -1q-16 -1 -43 -1q-3 0 -3 6t3 6q49 0 49 19q0 9 -9 22l-122 168l-50 -40v-100q0 -30 5 -44t18 -19.5t40 -5.5q3 0 3 -6t-3 -6q-24 0 -38 1l-54 1l-54 -1q-14 -1 -37 -1q-2 0 -2 6t2 6q27 0 40 5.5t18 20t5 43.5v198q0 34 -8 49
t-27 15q-16 0 -54 -15h-2q-4 0 -5.5 4.5t2.5 6.5l116 55l6 1q9 0 19 -23t10 -59v-116l134 108q32 25 32 44q0 25 -57 25q-3 0 -3 6t3 6q27 0 41 -1l73 -1l66 1q14 1 37 1q2 0 2 -6t-2 -6q-38 0 -83 -18t-90 -54l-58 -46l127 -175q50 -69 116 -69q2 0 2 -6z" />
    <glyph glyph-name="Lacute" unicode="&#x139;" horiz-adv-x="533" 
d="M59 678q-4 0 -5 4.5t2 6.5q33 18 109 62q18 12 31.5 20t22.5 13q4 2 23.5 -4.5t33.5 -14.5t7 -9q-62 -15 -113.5 -33.5t-108.5 -43.5zM185 85q0 -29 6 -42t22 -17.5t52 -4.5h109q57 0 91 35t45 97q0 3 5.5 2.5t5.5 -3.5q-9 -83 -9 -137q0 -8 -3 -11.5t-12 -3.5h-462
q-2 0 -2 6t2 6q38 0 55.5 5t23.5 19.5t6 44.5v463q0 30 -6 44t-23.5 19.5t-55.5 5.5q-2 0 -2 6t2 6l49 -1q42 -2 68 -2q28 0 70 2l48 1q3 0 3 -6t-3 -6q-37 0 -54.5 -5.5t-24 -20t-6.5 -44.5v-458z" />
    <glyph glyph-name="lacute" unicode="&#x13a;" horiz-adv-x="258" 
d="M27 727q-4 0 -5 4.5t2 6.5q33 18 109 62q18 12 31.5 20t22.5 13q4 2 23.5 -4.5t33.5 -14.5t7 -9q-62 -15 -113.5 -33.5t-108.5 -43.5zM37 6q0 6 3 6q27 0 40 5.5t18 20t5 43.5v517q0 36 -7 52t-25 16q-15 0 -46 -14h-2q-3 0 -4.5 5t1.5 6l128 61q2 1 5 1q2 0 5.5 -2.5
t3.5 -5.5v-636q0 -29 4.5 -43t17.5 -20t40 -6q3 0 3 -6t-3 -6q-22 0 -36 1l-56 1l-54 -1q-14 -1 -38 -1q-3 0 -3 6z" />
    <glyph glyph-name="Lcommaaccent" unicode="&#x13b;" horiz-adv-x="533" 
d="M515.5 155.5q5.5 -0.5 5.5 -3.5q-9 -83 -9 -137q0 -8 -3 -11.5t-12 -3.5h-462q-2 0 -2 6t2 6q38 0 55.5 5t23.5 19.5t6 44.5v463q0 30 -6 44t-23.5 19.5t-55.5 5.5q-2 0 -2 6t2 6l49 -1q42 -2 68 -2q28 0 70 2l48 1q3 0 3 -6t-3 -6q-37 0 -54.5 -5.5t-24 -20t-6.5 -44.5
v-458q0 -29 6 -42t22 -17.5t52 -4.5h109q57 0 91 35t45 97q0 3 5.5 2.5zM332.5 -104q14.5 -19 14.5 -54q0 -33 -15.5 -61.5t-45.5 -55.5q-1 -1 -3 -1q-3 0 -5 3.5t0 5.5q44 38 44 89q0 20 -6 29q-7 -15 -30 -15q-18 0 -28.5 11t-10.5 28q0 40 43 40q28 0 42.5 -19z" />
    <glyph glyph-name="lcommaaccent" unicode="&#x13c;" horiz-adv-x="258" 
d="M227 6q0 -6 -3 -6q-22 0 -36 1l-56 1l-54 -1q-14 -1 -38 -1q-3 0 -3 6t3 6q27 0 40 5.5t18 20t5 43.5v517q0 36 -7 52t-25 16q-15 0 -46 -14h-2q-3 0 -4.5 5t1.5 6l128 61q2 1 5 1q2 0 5.5 -2.5t3.5 -5.5v-636q0 -29 4.5 -43t17.5 -20t40 -6q3 0 3 -6zM167.5 -104
q14.5 -19 14.5 -54q0 -33 -15.5 -61.5t-45.5 -55.5q-1 -1 -3 -1q-3 0 -5 3.5t0 5.5q44 38 44 89q0 20 -6 29q-7 -15 -30 -15q-18 0 -28.5 11t-10.5 28q0 40 43 40q28 0 42.5 -19z" />
    <glyph glyph-name="Lcaron" unicode="&#x13d;" horiz-adv-x="533" 
d="M366.5 624q13.5 -6 26 -15t11.5 -14l-32 -243q0 -2 -5.5 -1.5t-5.5 2.5l-8 272q0 5 13.5 -1zM185 85q0 -29 6 -42t22 -17.5t52 -4.5h109q57 0 91 35t45 97q0 3 5.5 2.5t5.5 -3.5q-9 -83 -9 -137q0 -8 -3 -11.5t-12 -3.5h-462q-2 0 -2 6t2 6q38 0 55.5 5t23.5 19.5t6 44.5
v463q0 30 -6 44t-23.5 19.5t-55.5 5.5q-2 0 -2 6t2 6l49 -1q42 -2 68 -2q28 0 70 2l48 1q3 0 3 -6t-3 -6q-37 0 -54.5 -5.5t-24 -20t-6.5 -44.5v-458z" />
    <glyph glyph-name="lcaron" unicode="&#x13e;" horiz-adv-x="258" 
d="M244.5 724q13.5 -6 26 -15t11.5 -14l-32 -243q0 -2 -5.5 -1.5t-5.5 2.5l-8 272q0 5 13.5 -1zM37 6q0 6 3 6q27 0 40 5.5t18 20t5 43.5v517q0 36 -7 52t-25 16q-15 0 -46 -14h-2q-3 0 -4.5 5t1.5 6l128 61q2 1 5 1q2 0 5.5 -2.5t3.5 -5.5v-636q0 -29 4.5 -43t17.5 -20
t40 -6q3 0 3 -6t-3 -6q-22 0 -36 1l-56 1l-54 -1q-14 -1 -38 -1q-3 0 -3 6z" />
    <glyph glyph-name="Ldot" unicode="&#x13f;" horiz-adv-x="533" 
d="M185 85q0 -29 6 -42t22 -17.5t52 -4.5h109q57 0 91 35t45 97q0 3 5.5 2.5t5.5 -3.5q-9 -83 -9 -137q0 -8 -3 -11.5t-12 -3.5h-462q-2 0 -2 6t2 6q38 0 55.5 5t23.5 19.5t6 44.5v463q0 30 -6 44t-23.5 19.5t-55.5 5.5q-2 0 -2 6t2 6l49 -1q42 -2 68 -2q28 0 70 2l48 1
q3 0 3 -6t-3 -6q-37 0 -54.5 -5.5t-24 -20t-6.5 -44.5v-458zM396 290q-12 12 -12 31t12 30.5t32 11.5q21 0 32.5 -11t11.5 -31t-11.5 -31.5t-32.5 -11.5q-20 0 -32 12z" />
    <glyph glyph-name="ldot" unicode="&#x140;" horiz-adv-x="257" 
d="M37 6q0 6 3 6q27 0 40 5.5t18 20t5 43.5v517q0 36 -7 52t-25 16q-15 0 -46 -14h-2q-3 0 -4.5 5t1.5 6l128 61q2 1 5 1q2 0 5.5 -2.5t3.5 -5.5v-636q0 -29 4.5 -43t17.5 -20t40 -6q3 0 3 -6t-3 -6q-22 0 -36 1l-56 1l-54 -1q-14 -1 -38 -1q-3 0 -3 6zM224 304
q-12 12 -12 31t12 30.5t32 11.5q21 0 32.5 -11t11.5 -31t-11.5 -31.5t-32.5 -11.5q-20 0 -32 12z" />
    <glyph glyph-name="Lslash" unicode="&#x141;" horiz-adv-x="524" 
d="M515.5 155.5q5.5 -0.5 5.5 -3.5q-9 -83 -9 -137q0 -8 -3 -11.5t-12 -3.5h-462q-2 0 -2 6t2 6q38 0 55.5 5t23.5 19.5t6 44.5v183l-51 -29h-1q-4 0 -8.5 8.5t-1.5 9.5l62 36v255q0 30 -6 44t-23.5 19.5t-55.5 5.5q-2 0 -2 6t2 6l49 -1q42 -2 68 -2q28 0 70 2l48 1
q3 0 3 -6t-3 -6q-37 0 -54.5 -5.5t-24 -20t-6.5 -44.5v-217l107 61h1q3 0 7.5 -8.5t0.5 -9.5l-116 -67v-217q0 -29 6 -42t22 -17.5t52 -4.5h109q57 0 91 35t45 97q0 3 5.5 2.5z" />
    <glyph glyph-name="lslash" unicode="&#x142;" horiz-adv-x="262" 
d="M224 413q5 0 9.5 -9t-0.5 -11l-67 -39v-273q0 -29 4.5 -43t17.5 -20t40 -6q3 0 3 -6t-3 -6q-22 0 -36 1l-56 1l-54 -1q-14 -1 -38 -1q-3 0 -3 6t3 6q27 0 40 5.5t18 20t5 43.5v238l-57 -33h-1q-4 0 -9 9t-1 10l68 40v253q0 36 -7 52t-25 16q-15 0 -46 -14h-2q-3 0 -4.5 5
t1.5 6l128 61q2 1 5 1t6 -2.5t3 -5.5v-337l57 33h1z" />
    <glyph glyph-name="Nacute" unicode="&#x143;" horiz-adv-x="727" 
d="M277 678q-4 0 -5 4.5t2 6.5q33 18 109 62q18 12 31.5 20t22.5 13q4 2 23.5 -4.5t33.5 -14.5t7 -9q-62 -15 -113.5 -33.5t-108.5 -43.5zM707 619q0 -6 -3 -6q-42 0 -61 -23t-19 -75v-527q0 -2 -5 -3t-7 1l-460 557l-9 10v-444q0 -52 18.5 -74.5t59.5 -22.5q3 0 3 -6t-3 -6
q-25 0 -38 1l-50 1l-51 -1q-14 -1 -41 -1q-2 0 -2 6t2 6q43 0 61 22.5t18 74.5v468q-39 36 -79 36q-3 0 -3 6t3 6l37 -1q12 -1 33 -1q22 0 36 1t22 1t11.5 -3.5t11.5 -15.5q12 -18 24 -33l385 -473v415q0 52 -17.5 75t-58.5 23q-2 0 -2 6t2 6l39 -1q30 -2 49 -2q18 0 50 2
l41 1q3 0 3 -6z" />
    <glyph glyph-name="nacute" unicode="&#x144;" horiz-adv-x="517" 
d="M265 472q-3 0 -5.5 1.5t-1.5 2.5l52 240q1 4 21 9.5t32 5.5q9 0 8 -4l-102 -253q0 -2 -4 -2zM498 6q0 -6 -3 -6q-23 0 -36 1l-54 1l-55 -1q-13 -1 -36 -1q-3 0 -3 6t3 6q27 0 40 5.5t17.5 19.5t4.5 44v162q0 59 -22.5 87t-69.5 28q-31 0 -62.5 -16.5t-57.5 -45.5v-215
q0 -30 4.5 -44t17.5 -19.5t40 -5.5q3 0 3 -6t-3 -6q-23 0 -36 1l-54 1l-55 -1q-13 -1 -36 -1q-3 0 -3 6t3 6q27 0 40 5.5t17.5 19.5t4.5 44v198q0 34 -8 49t-27 15q-16 0 -54 -15h-2q-4 0 -5.5 4.5t2.5 6.5l116 55q2 1 6 1q9 0 19 -23t10 -59q38 44 75.5 65t77.5 21
q56 0 86 -31t30 -91v-196q0 -30 4.5 -44t17.5 -19.5t40 -5.5q3 0 3 -6z" />
    <glyph glyph-name="Ncommaaccent" unicode="&#x145;" horiz-adv-x="727" 
d="M707 619q0 -6 -3 -6q-42 0 -61 -23t-19 -75v-527q0 -2 -5 -3t-7 1l-460 557l-9 10v-444q0 -52 18.5 -74.5t59.5 -22.5q3 0 3 -6t-3 -6q-25 0 -38 1l-50 1l-51 -1q-14 -1 -41 -1q-2 0 -2 6t2 6q43 0 61 22.5t18 74.5v468q-39 36 -79 36q-3 0 -3 6t3 6l37 -1q12 -1 33 -1
q22 0 36 1t22 1t11.5 -3.5t11.5 -15.5q12 -18 24 -33l385 -473v415q0 52 -17.5 75t-58.5 23q-2 0 -2 6t2 6l39 -1q30 -2 49 -2q18 0 50 2l41 1q3 0 3 -6zM409.5 -104q14.5 -19 14.5 -54q0 -33 -15.5 -61.5t-45.5 -55.5q-1 -1 -3 -1q-3 0 -5 3.5t0 5.5q44 38 44 89
q0 20 -6 29q-7 -15 -30 -15q-18 0 -28.5 11t-10.5 28q0 40 43 40q28 0 42.5 -19z" />
    <glyph glyph-name="ncommaaccent" unicode="&#x146;" horiz-adv-x="517" 
d="M498 6q0 -6 -3 -6q-23 0 -36 1l-54 1l-55 -1q-13 -1 -36 -1q-3 0 -3 6t3 6q27 0 40 5.5t17.5 19.5t4.5 44v162q0 59 -22.5 87t-69.5 28q-31 0 -62.5 -16.5t-57.5 -45.5v-215q0 -30 4.5 -44t17.5 -19.5t40 -5.5q3 0 3 -6t-3 -6q-23 0 -36 1l-54 1l-55 -1q-13 -1 -36 -1
q-3 0 -3 6t3 6q27 0 40 5.5t17.5 19.5t4.5 44v198q0 34 -8 49t-27 15q-16 0 -54 -15h-2q-4 0 -5.5 4.5t2.5 6.5l116 55q2 1 6 1q9 0 19 -23t10 -59q38 44 75.5 65t77.5 21q56 0 86 -31t30 -91v-196q0 -30 4.5 -44t17.5 -19.5t40 -5.5q3 0 3 -6zM293.5 -104
q14.5 -19 14.5 -54q0 -33 -15.5 -61.5t-45.5 -55.5q-1 -1 -3 -1q-3 0 -5 3.5t0 5.5q44 38 44 89q0 20 -6 29q-7 -15 -30 -15q-18 0 -28.5 11t-10.5 28q0 40 43 40q28 0 42.5 -19z" />
    <glyph glyph-name="Ncaron" unicode="&#x147;" horiz-adv-x="727" 
d="M260 784.5v0.5q0 2 2.5 4.5t4.5 1.5l109 -57l108 57h1q3 0 5 -3t-1 -4l-102 -97q-4 -4 -11 -4q-8 0 -12 4l-103 97q-1 0 -1 0.5zM707 619q0 -6 -3 -6q-42 0 -61 -23t-19 -75v-527q0 -2 -5 -3t-7 1l-460 557l-9 10v-444q0 -52 18.5 -74.5t59.5 -22.5q3 0 3 -6t-3 -6
q-25 0 -38 1l-50 1l-51 -1q-14 -1 -41 -1q-2 0 -2 6t2 6q43 0 61 22.5t18 74.5v468q-39 36 -79 36q-3 0 -3 6t3 6l37 -1q12 -1 33 -1q22 0 36 1t22 1t11.5 -3.5t11.5 -15.5q12 -18 24 -33l385 -473v415q0 52 -17.5 75t-58.5 23q-2 0 -2 6t2 6l39 -1q30 -2 49 -2q18 0 50 2
l41 1q3 0 3 -6z" />
    <glyph glyph-name="ncaron" unicode="&#x148;" horiz-adv-x="517" 
d="M191 726q-1 3 4.5 4t6.5 -1l69 -165l68 165q1 2 6 1t4 -4l-67 -249q-2 -5 -11 -5t-12 5zM498 6q0 -6 -3 -6q-23 0 -36 1l-54 1l-55 -1q-13 -1 -36 -1q-3 0 -3 6t3 6q27 0 40 5.5t17.5 19.5t4.5 44v162q0 59 -22.5 87t-69.5 28q-31 0 -62.5 -16.5t-57.5 -45.5v-215
q0 -30 4.5 -44t17.5 -19.5t40 -5.5q3 0 3 -6t-3 -6q-23 0 -36 1l-54 1l-55 -1q-13 -1 -36 -1q-3 0 -3 6t3 6q27 0 40 5.5t17.5 19.5t4.5 44v198q0 34 -8 49t-27 15q-16 0 -54 -15h-2q-4 0 -5.5 4.5t2.5 6.5l116 55q2 1 6 1q9 0 19 -23t10 -59q38 44 75.5 65t77.5 21
q56 0 86 -31t30 -91v-196q0 -30 4.5 -44t17.5 -19.5t40 -5.5q3 0 3 -6z" />
    <glyph glyph-name="napostrophe" unicode="&#x149;" horiz-adv-x="517" 
d="M33.5 572q-10.5 11 -10.5 28q0 40 46 40q30 0 47 -22.5t17 -64.5q0 -40 -18 -74.5t-53 -68.5q-1 -1 -3 -1q-3 0 -5 3t0 5q49 50 49 118q0 28 -10 41q-9 -15 -31 -15q-18 0 -28.5 11zM498 6q0 -6 -3 -6q-23 0 -36 1l-54 1l-55 -1q-13 -1 -36 -1q-3 0 -3 6t3 6q27 0 40 5.5
t17.5 19.5t4.5 44v162q0 59 -22.5 87t-69.5 28q-31 0 -62.5 -16.5t-57.5 -45.5v-215q0 -30 4.5 -44t17.5 -19.5t40 -5.5q3 0 3 -6t-3 -6q-23 0 -36 1l-54 1l-55 -1q-13 -1 -36 -1q-3 0 -3 6t3 6q27 0 40 5.5t17.5 19.5t4.5 44v198q0 34 -8 49t-27 15q-16 0 -54 -15h-2
q-4 0 -5.5 4.5t2.5 6.5l116 55q2 1 6 1q9 0 19 -23t10 -59q38 44 75.5 65t77.5 21q56 0 86 -31t30 -91v-196q0 -30 4.5 -44t17.5 -19.5t40 -5.5q3 0 3 -6z" />
    <glyph glyph-name="Eng" unicode="&#x14a;" horiz-adv-x="727" 
d="M707 619q0 -6 -3 -6q-42 0 -61 -23t-19 -75v-527q0 -87 -32.5 -133t-94.5 -46q-37 0 -59.5 16.5t-22.5 40.5q0 17 8.5 26.5t23.5 9.5q17 0 24 -9t13 -27q6 -19 13.5 -28t24.5 -9q38 0 59 43t21 114v12l-450 545l-9 10v-444q0 -52 18.5 -74.5t59.5 -22.5q3 0 3 -6t-3 -6
q-25 0 -38 1l-50 1l-51 -1q-14 -1 -41 -1q-2 0 -2 6t2 6q43 0 61.5 22.5t18.5 74.5v467q-41 37 -80 37q-3 0 -3 6t3 6l37 -1q12 -1 33 -1q22 0 36 1t22 1t11.5 -3.5t11.5 -15.5q12 -18 24 -33l386 -474v416q0 52 -18 75t-59 23q-2 0 -2 6t2 6l39 -1q30 -2 49 -2q18 0 50 2
l41 1q3 0 3 -6z" />
    <glyph glyph-name="eng" unicode="&#x14b;" horiz-adv-x="504" 
d="M402 368q30 -31 30 -91v-325q0 -68 -13 -110t-43 -69.5t-85 -48.5q-2 -1 -4.5 4.5t0.5 6.5q49 21 68.5 64.5t19.5 129.5v314q0 59 -22.5 87t-69.5 28q-31 0 -62.5 -16.5t-57.5 -45.5v-215q0 -30 5 -44t18 -19.5t40 -5.5q3 0 3 -6t-3 -6q-24 0 -38 1l-54 1l-54 -1
q-14 -1 -37 -1q-2 0 -2 6t2 6q27 0 40 5.5t18 20t5 43.5v198q0 34 -8 49t-27 15q-16 0 -54 -15h-2q-4 0 -5.5 4.5t2.5 6.5l116 55l6 1q9 0 19 -23t10 -58q38 43 75.5 64t78.5 21q55 0 85 -31z" />
    <glyph glyph-name="Omacron" unicode="&#x14c;" horiz-adv-x="766" 
d="M253 736q0 14 6 14h251q6 0 6 -14t-6 -14h-251q-6 0 -6 14zM200.5 31.5q-72.5 43.5 -112 118t-39.5 162.5q0 103 52 176.5t133.5 110.5t166.5 37q95 0 167 -44.5t110.5 -117.5t38.5 -155q0 -91 -48 -167t-128.5 -120t-174.5 -44q-93 0 -165.5 43.5zM523.5 42
q54.5 33 86 97t31.5 152q0 94 -35 167t-98.5 114t-148.5 41q-110 0 -172 -71t-62 -195q0 -94 35 -171.5t98 -122t143 -44.5q68 0 122.5 33z" />
    <glyph glyph-name="omacron" unicode="&#x14d;" horiz-adv-x="479" 
d="M108 497q0 14 6 14h251q6 0 6 -14t-6 -14h-251q-6 0 -6 14zM128.5 15.5q-44.5 28.5 -68.5 77t-24 105.5q0 65 31.5 110.5t81 68t100.5 22.5q59 0 103 -29t67.5 -76.5t23.5 -100.5q0 -62 -29 -108.5t-77.5 -72t-105.5 -25.5q-58 0 -102.5 28.5zM345 45q30 39 30 120
q0 62 -20.5 111t-56.5 76.5t-82 27.5q-54 0 -83.5 -39t-29.5 -112q0 -61 20 -112t56 -81t81 -30q55 0 85 39z" />
    <glyph glyph-name="Obreve" unicode="&#x14e;" horiz-adv-x="766" 
d="M316.5 718q-26.5 28 -34.5 79q-1 4 4 4.5t7 -1.5q7 -27 33.5 -47t58.5 -20q31 0 57.5 20t33.5 47q0 2 4 2q3 0 5.5 -1.5t1.5 -3.5q-8 -52 -34 -79.5t-68 -27.5t-68.5 28zM200.5 31.5q-72.5 43.5 -112 118t-39.5 162.5q0 103 52 176.5t133.5 110.5t166.5 37
q95 0 167 -44.5t110.5 -117.5t38.5 -155q0 -91 -48 -167t-128.5 -120t-174.5 -44q-93 0 -165.5 43.5zM523.5 42q54.5 33 86 97t31.5 152q0 94 -35 167t-98.5 114t-148.5 41q-110 0 -172 -71t-62 -195q0 -94 35 -171.5t98 -122t143 -44.5q68 0 122.5 33z" />
    <glyph glyph-name="obreve" unicode="&#x14f;" horiz-adv-x="479" 
d="M142.5 628q5.5 1 5.5 -2q0 -44 26 -73.5t66 -29.5q38 0 64.5 30t26.5 73q0 2 3 2t5.5 -1.5t2.5 -3.5q0 -74 -26 -112t-76 -38t-76.5 38.5t-26.5 111.5q0 4 5.5 5zM128.5 15.5q-44.5 28.5 -68.5 77t-24 105.5q0 65 31.5 110.5t81 68t100.5 22.5q59 0 103 -29t67.5 -76.5
t23.5 -100.5q0 -62 -29 -108.5t-77.5 -72t-105.5 -25.5q-58 0 -102.5 28.5zM345 45q30 39 30 120q0 62 -20.5 111t-56.5 76.5t-82 27.5q-54 0 -83.5 -39t-29.5 -112q0 -61 20 -112t56 -81t81 -30q55 0 85 39z" />
    <glyph glyph-name="Ohungarumlaut" unicode="&#x150;" horiz-adv-x="766" 
d="M278 676q-3 0 -4.5 4.5t0.5 6.5q48 45 90 95q3 4 22.5 -1t34.5 -12.5t8 -10.5q-41 -17 -75 -35.5t-74 -45.5zM402 676q-3 0 -4.5 4.5t0.5 6.5q48 45 90 95q3 4 22 -1t33.5 -12.5t7.5 -10.5q-66 -27 -147 -81zM200.5 31.5q-72.5 43.5 -112 118t-39.5 162.5q0 103 52 176.5
t133.5 110.5t166.5 37q95 0 167 -44.5t110.5 -117.5t38.5 -155q0 -91 -48 -167t-128.5 -120t-174.5 -44q-93 0 -165.5 43.5zM523.5 42q54.5 33 86 97t31.5 152q0 94 -35 167t-98.5 114t-148.5 41q-110 0 -172 -71t-62 -195q0 -94 35 -171.5t98 -122t143 -44.5q68 0 122.5 33
z" />
    <glyph glyph-name="ohungarumlaut" unicode="&#x151;" horiz-adv-x="479" 
d="M146 458q-4 0 -5 4.5t1 6.5q22 22 50 57q7 8 18 21.5t20 22.5q4 3 24.5 -1.5t37 -11.5t9.5 -9q-39 -15 -74.5 -36.5t-78.5 -52.5zM268 458q-4 0 -5 4.5t1 6.5q22 22 50 57q7 8 18 21.5t20 22.5q4 3 24.5 -1.5t37 -11.5t8.5 -9q-38 -15 -73.5 -37t-78.5 -52zM128.5 15.5
q-44.5 28.5 -68.5 77t-24 105.5q0 65 31.5 110.5t81 68t100.5 22.5q59 0 103 -29t67.5 -76.5t23.5 -100.5q0 -62 -29 -108.5t-77.5 -72t-105.5 -25.5q-58 0 -102.5 28.5zM345 45q30 39 30 120q0 62 -20.5 111t-56.5 76.5t-82 27.5q-54 0 -83.5 -39t-29.5 -112q0 -61 20 -112
t56 -81t81 -30q55 0 85 39z" />
    <glyph glyph-name="OE" unicode="&#x152;" horiz-adv-x="914" 
d="M858.5 150.5q5.5 -0.5 5.5 -3.5q-9 -79 -9 -132q0 -8 -3 -11.5t-12 -3.5h-298q-22 0 -70 -2q-50 -2 -74 -2q-101 0 -180.5 40t-124 110t-44.5 155q0 97 46.5 171t125 114.5t172.5 40.5q43 0 68 -1l79 -1h282q10 0 10 -9l2 -123q0 -3 -6 -3.5t-6 2.5q-2 47 -32 79.5
t-75 32.5h-64q-35 0 -51.5 -5t-22.5 -17.5t-6 -38.5v-207h122q49 0 69.5 16t20.5 54q0 2 5.5 2t5.5 -2l-1 -81q0 -29 1 -44l1 -48q0 -2 -5.5 -2t-5.5 2q0 44 -21.5 63t-72.5 19h-119v-230q0 -27 6 -40.5t22.5 -18.5t49.5 -5h83q43 0 77 36t44 91q0 3 5.5 2.5zM506 534
q0 29 -8.5 45.5t-30.5 24.5t-64 8q-81 0 -144 -33.5t-98.5 -99t-35.5 -156.5q0 -88 33.5 -159t95 -112t143.5 -41q43 0 66 5t33 20.5t10 45.5v452z" />
    <glyph glyph-name="oe" unicode="&#x153;" horiz-adv-x="685" 
d="M648 56q3 0 6 -3.5t0 -6.5q-64 -58 -136 -58q-57 0 -97 22t-63 61q-25 -40 -64.5 -62t-85.5 -22q-53 0 -95 29t-65 77t-23 105q0 65 30.5 110.5t77 68t94.5 22.5q52 0 90 -25.5t58 -70.5q29 43 73.5 67.5t97.5 24.5q50 0 77.5 -26.5t27.5 -72.5q0 -12 -2.5 -17.5
t-9.5 -5.5h-48l-189 -2q-7 -27 -7 -64q0 -85 43 -134.5t114 -49.5q57 0 95 33h1zM307.5 48q26.5 43 26.5 122q0 95 -38.5 152.5t-101.5 57.5q-48 0 -76 -39.5t-28 -113.5q0 -60 19 -111t52 -81t74 -30q46 0 72.5 43zM445.5 351q-27.5 -24 -39.5 -66l175 4q0 41 -19 63.5
t-50 22.5q-39 0 -66.5 -24z" />
    <glyph glyph-name="Racute" unicode="&#x154;" horiz-adv-x="673" 
d="M158 678q-4 0 -5 4.5t2 6.5q33 18 109 62q18 12 31.5 20t22.5 13q4 2 23.5 -4.5t33.5 -14.5t7 -9q-62 -15 -113.5 -33.5t-108.5 -43.5zM685 6q0 -6 -2 -6h-129q-25 0 -93.5 85.5t-166.5 238.5q-24 -7 -54 -7q-19 0 -45 2v-238q0 -31 6 -45t23.5 -19t55.5 -5q3 0 3 -6
t-3 -6q-31 0 -49 1l-69 1l-68 -1q-18 -1 -51 -1q-2 0 -2 6t2 6q38 0 56 5.5t25 19.5t7 44v463q0 30 -6.5 44t-24 19.5t-55.5 5.5q-3 0 -3 6t3 6l49 -1q42 -2 68 -2q18 0 34 1t28 2q32 3 58 3q81 0 125 -33t44 -92q0 -48 -28 -90.5t-74 -67.5q85 -127 143 -198.5t103 -103
t88 -31.5q2 0 2 -6zM254 340q69 0 99 29.5t30 98.5q0 145 -122 145q-27 0 -40.5 -4.5t-19.5 -19t-6 -47.5v-198q25 -4 59 -4z" />
    <glyph glyph-name="racute" unicode="&#x155;" horiz-adv-x="364" 
d="M179 472q-3 0 -5.5 1.5t-1.5 2.5l52 240q1 4 21 9.5t32 5.5q9 0 8 -4l-102 -253q0 -2 -4 -2zM317 383q20 -12 20 -29q0 -13 -8.5 -22t-24.5 -9q-9 0 -15.5 3.5t-15.5 10.5q-9 8 -17 12t-19 4q-13 0 -27.5 -10.5t-45.5 -46.5v-215q0 -30 7.5 -44t27.5 -19.5t62 -5.5
q4 0 4 -6t-4 -6q-32 0 -51 1l-74 1l-55 -1q-13 -1 -36 -1q-3 0 -3 6t3 6q27 0 40 5.5t17.5 19.5t4.5 44v198q0 34 -8 49t-27 15q-16 0 -54 -15h-2q-4 0 -5.5 4.5t2.5 6.5l116 55q2 1 6 1q9 0 19 -23t10 -59v-1q41 48 65 65.5t46 17.5t42 -12z" />
    <glyph glyph-name="Rcommaaccent" unicode="&#x156;" horiz-adv-x="673" 
d="M685 6q0 -6 -2 -6h-129q-25 0 -93.5 85.5t-166.5 238.5q-24 -7 -54 -7q-19 0 -45 2v-238q0 -31 6 -45t23.5 -19t55.5 -5q3 0 3 -6t-3 -6q-31 0 -49 1l-69 1l-68 -1q-18 -1 -51 -1q-2 0 -2 6t2 6q38 0 56 5.5t25 19.5t7 44v463q0 30 -6.5 44t-24 19.5t-55.5 5.5q-3 0 -3 6
t3 6l49 -1q42 -2 68 -2q18 0 34 1t28 2q32 3 58 3q81 0 125 -33t44 -92q0 -48 -28 -90.5t-74 -67.5q85 -127 143 -198.5t103 -103t88 -31.5q2 0 2 -6zM254 340q69 0 99 29.5t30 98.5q0 145 -122 145q-27 0 -40.5 -4.5t-19.5 -19t-6 -47.5v-198q25 -4 59 -4zM376.5 -104
q14.5 -19 14.5 -54q0 -33 -15.5 -61.5t-45.5 -55.5q-1 -1 -3 -1q-3 0 -5 3.5t0 5.5q44 38 44 89q0 20 -6 29q-7 -15 -30 -15q-18 0 -28.5 11t-10.5 28q0 40 43 40q28 0 42.5 -19z" />
    <glyph glyph-name="rcommaaccent" unicode="&#x157;" horiz-adv-x="364" 
d="M317 383q20 -12 20 -29q0 -13 -8.5 -22t-24.5 -9q-9 0 -15.5 3.5t-15.5 10.5q-9 8 -17 12t-19 4q-13 0 -27.5 -10.5t-45.5 -46.5v-215q0 -30 7.5 -44t27.5 -19.5t62 -5.5q4 0 4 -6t-4 -6q-32 0 -51 1l-74 1l-55 -1q-13 -1 -36 -1q-3 0 -3 6t3 6q27 0 40 5.5t17.5 19.5
t4.5 44v198q0 34 -8 49t-27 15q-16 0 -54 -15h-2q-4 0 -5.5 4.5t2.5 6.5l116 55q2 1 6 1q9 0 19 -23t10 -59v-1q41 48 65 65.5t46 17.5t42 -12zM189.5 -104q14.5 -19 14.5 -54q0 -33 -15.5 -61.5t-45.5 -55.5q-1 -1 -3 -1q-3 0 -5 3.5t0 5.5q44 38 44 89q0 20 -6 29
q-7 -15 -30 -15q-18 0 -28.5 11t-10.5 28q0 40 43 40q28 0 42.5 -19z" />
    <glyph glyph-name="Rcaron" unicode="&#x158;" horiz-adv-x="673" 
d="M141 784.5v0.5q0 2 2.5 4.5t4.5 1.5l109 -57l108 57h1q3 0 5 -3t-1 -4l-102 -97q-4 -4 -11 -4q-8 0 -12 4l-103 97q-1 0 -1 0.5zM685 6q0 -6 -2 -6h-129q-25 0 -93.5 85.5t-166.5 238.5q-24 -7 -54 -7q-19 0 -45 2v-238q0 -31 6 -45t23.5 -19t55.5 -5q3 0 3 -6t-3 -6
q-31 0 -49 1l-69 1l-68 -1q-18 -1 -51 -1q-2 0 -2 6t2 6q38 0 56 5.5t25 19.5t7 44v463q0 30 -6.5 44t-24 19.5t-55.5 5.5q-3 0 -3 6t3 6l49 -1q42 -2 68 -2q18 0 34 1t28 2q32 3 58 3q81 0 125 -33t44 -92q0 -48 -28 -90.5t-74 -67.5q85 -127 143 -198.5t103 -103t88 -31.5
q2 0 2 -6zM254 340q69 0 99 29.5t30 98.5q0 145 -122 145q-27 0 -40.5 -4.5t-19.5 -19t-6 -47.5v-198q25 -4 59 -4z" />
    <glyph glyph-name="rcaron" unicode="&#x159;" horiz-adv-x="364" 
d="M105 726q-1 3 4.5 4t6.5 -1l69 -165l68 165q1 2 6 1t4 -4l-67 -249q-2 -5 -11 -5t-12 5zM317 383q20 -12 20 -29q0 -13 -8.5 -22t-24.5 -9q-9 0 -15.5 3.5t-15.5 10.5q-9 8 -17 12t-19 4q-13 0 -27.5 -10.5t-45.5 -46.5v-215q0 -30 7.5 -44t27.5 -19.5t62 -5.5q4 0 4 -6
t-4 -6q-32 0 -51 1l-74 1l-55 -1q-13 -1 -36 -1q-3 0 -3 6t3 6q27 0 40 5.5t17.5 19.5t4.5 44v198q0 34 -8 49t-27 15q-16 0 -54 -15h-2q-4 0 -5.5 4.5t2.5 6.5l116 55q2 1 6 1q9 0 19 -23t10 -59v-1q41 48 65 65.5t46 17.5t42 -12z" />
    <glyph glyph-name="Sacute" unicode="&#x15a;" horiz-adv-x="491" 
d="M156 678q-4 0 -5 4.5t2 6.5q33 18 109 62q18 12 31.5 20t22.5 13q4 2 23.5 -4.5t33.5 -14.5t7 -9q-62 -15 -113.5 -33.5t-108.5 -43.5zM164 440q19 -29 46 -48.5t76 -49.5q52 -31 81 -52t49.5 -53.5t20.5 -77.5q0 -48 -24 -87t-70.5 -61.5t-111.5 -22.5q-77 0 -141 35
q-5 3 -6.5 7t-2.5 12l-13 136q-1 4 4.5 5t6.5 -3q16 -72 59.5 -124t115.5 -52q50 0 84.5 27.5t34.5 87.5q0 45 -20 78t-48.5 54.5t-77.5 50.5q-48 29 -75.5 50t-46.5 53t-19 75q0 50 26.5 85.5t69 53t90.5 17.5q59 0 117 -24q15 -5 15 -17l7 -115q0 -4 -5 -4t-6 4
q-8 52 -43 96.5t-101 44.5q-56 0 -83.5 -32.5t-27.5 -80.5q0 -39 19 -68z" />
    <glyph glyph-name="sacute" unicode="&#x15b;" horiz-adv-x="338" 
d="M166 472q-3 0 -5.5 1.5t-1.5 2.5l52 240q1 4 21 9.5t32 5.5q9 0 8 -4l-102 -253q0 -2 -4 -2zM123 269.5q23 -20.5 68 -43.5q35 -18 54.5 -31t33.5 -34t14 -51q0 -51 -38 -86t-103 -35q-53 0 -96 30q-6 4 -6 12l-2 78q0 3 5.5 3.5t6.5 -2.5q19 -50 49.5 -76t70.5 -26
q31 0 48.5 14.5t17.5 43.5q0 28 -12.5 47.5t-30.5 31t-49 27.5q-33 16 -52.5 29t-33 34t-13.5 52q0 54 40.5 82.5t95.5 28.5q40 0 73 -15q6 -2 7.5 -4.5t1.5 -6.5q0 -20 -1 -31l-1 -42q0 -2 -6 -2t-6 2q0 21 -16 39.5t-40 29.5t-48 11q-26 0 -40.5 -13.5t-14.5 -40.5
q0 -35 23 -55.5z" />
    <glyph glyph-name="Scircumflex" unicode="&#x15c;" horiz-adv-x="491" 
d="M244 790q5 5 12 5q6 0 11 -5l102 -98q1 0 1 -2t-2.5 -4t-3.5 -1l-108 58l-109 -58q-2 -1 -5 2.5t-1 4.5zM164 440q19 -29 46 -48.5t76 -49.5q52 -31 81 -52t49.5 -53.5t20.5 -77.5q0 -48 -24 -87t-70.5 -61.5t-111.5 -22.5q-77 0 -141 35q-5 3 -6.5 7t-2.5 12l-13 136
q-1 4 4.5 5t6.5 -3q16 -72 59.5 -124t115.5 -52q50 0 84.5 27.5t34.5 87.5q0 45 -20 78t-48.5 54.5t-77.5 50.5q-48 29 -75.5 50t-46.5 53t-19 75q0 50 26.5 85.5t69 53t90.5 17.5q59 0 117 -24q15 -5 15 -17l7 -115q0 -4 -5 -4t-6 4q-8 52 -43 96.5t-101 44.5
q-56 0 -83.5 -32.5t-27.5 -80.5q0 -39 19 -68z" />
    <glyph glyph-name="scircumflex" unicode="&#x15d;" horiz-adv-x="338" 
d="M247.5 472.5q-5.5 -1.5 -6.5 1.5l-68 164l-69 -164q0 -2 -4 -2q-3 0 -5.5 1.5t-1.5 2.5l68 249q1 5 11 5q11 0 12 -5l67 -249q2 -2 -3.5 -3.5zM123 269.5q23 -20.5 68 -43.5q35 -18 54.5 -31t33.5 -34t14 -51q0 -51 -38 -86t-103 -35q-53 0 -96 30q-6 4 -6 12l-2 78
q0 3 5.5 3.5t6.5 -2.5q19 -50 49.5 -76t70.5 -26q31 0 48.5 14.5t17.5 43.5q0 28 -12.5 47.5t-30.5 31t-49 27.5q-33 16 -52.5 29t-33 34t-13.5 52q0 54 40.5 82.5t95.5 28.5q40 0 73 -15q6 -2 7.5 -4.5t1.5 -6.5q0 -20 -1 -31l-1 -42q0 -2 -6 -2t-6 2q0 21 -16 39.5
t-40 29.5t-48 11q-26 0 -40.5 -13.5t-14.5 -40.5q0 -35 23 -55.5z" />
    <glyph glyph-name="Scedilla" unicode="&#x15e;" horiz-adv-x="491" 
d="M390.5 44q-46.5 -47 -130.5 -55q-10 -30 -10 -46q0 -14 8.5 -21.5t35.5 -23.5q25 -14 39.5 -32t14.5 -45q0 -37 -26.5 -66.5t-77.5 -29.5q-28 0 -46 10t-18 28q0 13 9 21.5t21 8.5q11 0 17 -5.5t12 -16.5q7 -13 14.5 -19.5t22.5 -6.5q34 0 34 38q0 26 -18.5 46.5
t-67.5 46.5q-14 7 -14 13q0 4 5 17q13 31 31 82h-15q-77 0 -141 35q-5 3 -6.5 7t-2.5 12l-13 136q-1 4 4.5 5t6.5 -3q16 -72 59.5 -124t115.5 -52q50 0 84.5 27.5t34.5 87.5q0 45 -20 78t-48.5 54.5t-77.5 50.5q-48 29 -75.5 50t-46.5 53t-19 75q0 50 26.5 85.5t69 53
t90.5 17.5q59 0 117 -24q15 -5 15 -17l7 -115q0 -4 -5 -4t-6 4q-8 52 -43 96.5t-101 44.5q-56 0 -83.5 -32.5t-27.5 -80.5q0 -39 19 -68t46 -48.5t76 -49.5q52 -31 81 -52t49.5 -53.5t20.5 -77.5q0 -68 -46.5 -115z" />
    <glyph glyph-name="scedilla" unicode="&#x15f;" horiz-adv-x="338" 
d="M260.5 29q-32.5 -34 -90.5 -39q-10 -31 -10 -47q0 -14 8.5 -21.5t35.5 -23.5q25 -14 39.5 -32t14.5 -45q0 -37 -26.5 -66.5t-77.5 -29.5q-28 0 -46 10t-18 28q0 13 9 21.5t21 8.5q11 0 17 -5.5t12 -16.5q7 -13 14.5 -19.5t22.5 -6.5q34 0 34 38q0 26 -18.5 46.5
t-67.5 46.5q-14 7 -14 13q0 4 5 17q13 33 31 83h-4q-53 0 -96 30q-6 4 -6 12l-2 78q0 3 5.5 3.5t6.5 -2.5q19 -50 49.5 -76t70.5 -26q31 0 48.5 14.5t17.5 43.5q0 28 -12.5 47.5t-30.5 31t-49 27.5q-33 16 -52.5 29t-33 34t-13.5 52q0 54 40.5 82.5t95.5 28.5q40 0 73 -15
q6 -2 7.5 -4.5t1.5 -6.5q0 -20 -1 -31l-1 -42q0 -2 -6 -2t-6 2q0 21 -16 39.5t-40 29.5t-48 11q-26 0 -40.5 -13.5t-14.5 -40.5q0 -35 23 -55.5t68 -43.5q35 -18 54.5 -31t33.5 -34t14 -51q0 -47 -32.5 -81z" />
    <glyph glyph-name="Scaron" unicode="&#x160;" horiz-adv-x="491" 
d="M140 784q-1 0 -1 0.5v0.5q0 2 2.5 4.5t4.5 1.5l109 -57l108 57h1q3 0 5 -3t-1 -4l-102 -97q-4 -4 -11 -4q-8 0 -12 4zM164 440q19 -29 46 -48.5t76 -49.5q52 -31 81 -52t49.5 -53.5t20.5 -77.5q0 -48 -24 -87t-70.5 -61.5t-111.5 -22.5q-77 0 -141 35q-5 3 -6.5 7
t-2.5 12l-13 136q-1 4 4.5 5t6.5 -3q16 -72 59.5 -124t115.5 -52q50 0 84.5 27.5t34.5 87.5q0 45 -20 78t-48.5 54.5t-77.5 50.5q-48 29 -75.5 50t-46.5 53t-19 75q0 50 26.5 85.5t69 53t90.5 17.5q59 0 117 -24q15 -5 15 -17l7 -115q0 -4 -5 -4t-6 4q-8 52 -43 96.5
t-101 44.5q-56 0 -83.5 -32.5t-27.5 -80.5q0 -39 19 -68z" />
    <glyph glyph-name="scaron" unicode="&#x161;" horiz-adv-x="338" 
d="M96.5 730q5.5 1 6.5 -1l69 -165l68 165q1 2 6 1t4 -4l-67 -249q-2 -5 -11 -5t-12 5l-68 249q-1 3 4.5 4zM123 269.5q23 -20.5 68 -43.5q35 -18 54.5 -31t33.5 -34t14 -51q0 -51 -38 -86t-103 -35q-53 0 -96 30q-6 4 -6 12l-2 78q0 3 5.5 3.5t6.5 -2.5q19 -50 49.5 -76
t70.5 -26q31 0 48.5 14.5t17.5 43.5q0 28 -12.5 47.5t-30.5 31t-49 27.5q-33 16 -52.5 29t-33 34t-13.5 52q0 54 40.5 82.5t95.5 28.5q40 0 73 -15q6 -2 7.5 -4.5t1.5 -6.5q0 -20 -1 -31l-1 -42q0 -2 -6 -2t-6 2q0 21 -16 39.5t-40 29.5t-48 11q-26 0 -40.5 -13.5
t-14.5 -40.5q0 -35 23 -55.5z" />
    <glyph glyph-name="uni0162" unicode="&#x162;" horiz-adv-x="634" 
d="M593 654q5 0 5 -4q-3 -29 -6 -88t-3 -96q0 -2 -6 -2t-6 2q-3 78 -32 109.5t-96 31.5q-45 0 -64 -4t-26 -17t-7 -44v-461q0 -31 7 -45t27 -19t63 -5q3 0 3 -6t-3 -6q-32 0 -51 1l-75 1q-13 -42 -13 -56q0 -16 9 -25.5t32 -22.5q25 -14 39.5 -32t14.5 -45
q0 -37 -26.5 -66.5t-77.5 -29.5q-28 0 -46 10t-18 28q0 13 9 21.5t21 8.5q11 0 17 -5.5t12 -16.5q7 -13 14.5 -19.5t22.5 -6.5q34 0 34 38q0 26 -18.5 46.5t-67.5 46.5q-14 7 -14 13q0 4 5 17l37 96l-70 -1q-18 -1 -51 -1q-2 0 -2 6t2 6q43 0 63 5t27.5 19.5t7.5 44.5v463
q0 31 -7 43.5t-26 16t-64 3.5q-63 0 -94.5 -32t-45.5 -109q0 -2 -5.5 -2t-5.5 2q4 36 9 94t5 87q0 5 5.5 5t5.5 -5q0 -22 54 -22q85 -3 201 -3q59 0 125 2l68 1q36 0 53.5 5t22.5 20q1 4 6 4z" />
    <glyph glyph-name="uni0163" unicode="&#x163;" horiz-adv-x="338" 
d="M311 52q4 0 6 -4.5t-1 -6.5q-37 -29 -66.5 -41t-61.5 -12h-1q-10 -35 -10 -45q0 -14 8.5 -21.5t35.5 -23.5q25 -14 39.5 -32t14.5 -45q0 -37 -26.5 -66.5t-77.5 -29.5q-28 0 -46 10t-18 28q0 13 9 21.5t21 8.5q11 0 17 -5.5t12 -16.5q7 -13 14.5 -19.5t22.5 -6.5
q34 0 34 38q0 26 -18.5 46.5t-67.5 46.5q-14 7 -14 13q0 4 5 17q13 33 31 83q-36 3 -58.5 22t-22.5 59v235q0 26 -3.5 37t-13.5 14.5t-34 3.5q-4 0 -4 6.5t4 6.5q40 1 65 21.5t29 54.5q0 3 8 3q7 0 7 -3v-74q50 1 139 10q2 0 4.5 -7.5t2.5 -16.5q0 -8 -3.5 -16.5t-7.5 -7.5
q-55 14 -135 16v-249q0 -41 20.5 -61t58.5 -20q46 0 80 28z" />
    <glyph glyph-name="Tcaron" unicode="&#x164;" horiz-adv-x="634" 
d="M202 784q-1 0 -1 0.5v0.5q0 2 2.5 4.5t4.5 1.5l109 -57l108 57h1q3 0 5 -3t-1 -4l-102 -97q-4 -4 -11 -4q-8 0 -12 4zM94.5 575q-31.5 -32 -45.5 -109q0 -2 -5.5 -2t-5.5 2q4 36 9 94t5 87q0 5 5.5 5t5.5 -5q0 -22 54 -22q85 -3 201 -3q59 0 125 2l68 1q36 0 53.5 5
t22.5 20q1 4 6 4t5 -4q-3 -29 -6 -88t-3 -96q0 -2 -6 -2t-6 2q-3 78 -32 109.5t-96 31.5q-45 0 -64 -4t-26 -17t-7 -44v-461q0 -31 7 -45t27 -19t63 -5q3 0 3 -6t-3 -6q-33 0 -53 1l-78 1l-75 -1q-20 -1 -55 -1q-2 0 -2 6t2 6q43 0 63 5t27.5 19.5t7.5 44.5v463
q0 31 -7 43.5t-26 16t-64 3.5q-63 0 -94.5 -32z" />
    <glyph glyph-name="tcaron" unicode="&#x165;" horiz-adv-x="338" 
d="M209.5 431.5q-5.5 0.5 -5.5 2.5l-8 272q0 5 13.5 -1t26 -15t11.5 -14l-32 -243q0 -2 -5.5 -1.5zM311 52q4 0 6 -4.5t-1 -6.5q-37 -29 -66.5 -41t-61.5 -12q-42 0 -69 19t-27 63v235q0 26 -3.5 37t-13.5 14.5t-34 3.5q-4 0 -4 6.5t4 6.5q40 1 65 21.5t29 54.5q0 3 8 3
q7 0 7 -3v-74q50 1 139 10q2 0 4.5 -7.5t2.5 -16.5q0 -8 -3.5 -16.5t-7.5 -7.5q-55 14 -135 16v-249q0 -41 20.5 -61t58.5 -20q46 0 80 28z" />
    <glyph glyph-name="Tbar" unicode="&#x166;" horiz-adv-x="632" 
d="M593 654q5 0 5 -4q-3 -29 -6 -88t-3 -96q0 -2 -6 -2t-6 2q-3 78 -32 109.5t-96 31.5q-45 0 -64 -4t-26 -17t-7 -44v-209h100q2 0 3.5 -3t1.5 -7q0 -11 -5 -11h-100v-231q0 -31 7 -45t27 -19t63 -5q3 0 3 -6t-3 -6q-33 0 -53 1l-78 1l-75 -1q-20 -1 -55 -1q-2 0 -2 6t2 6
q43 0 63 5t27.5 19.5t7.5 44.5v231h-99q-4 0 -4 11q0 10 4 10h99v211q0 31 -7 43.5t-26 16t-64 3.5q-63 0 -94.5 -32t-45.5 -109q0 -2 -5.5 -2t-5.5 2q4 36 9 94t5 87q0 5 5.5 5t5.5 -5q0 -22 54 -22q85 -3 201 -3q59 0 125 2l68 1q36 0 53.5 5t22.5 20q1 4 6 4z" />
    <glyph glyph-name="tbar" unicode="&#x167;" horiz-adv-x="339" 
d="M311 52q4 0 6 -4.5t-1 -6.5q-37 -29 -66.5 -41t-61.5 -12q-42 0 -69 19t-27 63v136h-41q-2 0 -3 3.5t-1 7.5t1.5 7t2.5 3h41v78q0 26 -3.5 37t-13.5 14.5t-34 3.5q-4 0 -4 6.5t4 6.5q40 1 65 21.5t29 54.5q0 3 8 3q7 0 7 -3v-74q50 1 139 10q2 0 4.5 -7.5t2.5 -16.5
q0 -8 -3.5 -16.5t-7.5 -7.5q-55 14 -135 16v-126h130q4 0 4 -10q0 -11 -4 -11h-130v-102q0 -41 20.5 -61t58.5 -20q46 0 80 28z" />
    <glyph glyph-name="Utilde" unicode="&#x168;" horiz-adv-x="763" 
d="M259 697q-3 0 -5.5 2.5t-0.5 4.5q16 24 39 43.5t46 19.5q17 0 50 -11q5 -1 28.5 -7.5t46.5 -6.5q17 0 27.5 7t21.5 20h2q3 0 5 -2.5t0 -4.5q-26 -37 -43 -49.5t-36 -12.5q-21 0 -61 12q-44 12 -69 12q-16 0 -25 -5t-15.5 -12t-9.5 -10h-1zM729 6q0 -6 -3 -6l-79 1l-52 -1
q-12 0 -15.5 3t-3.5 16v77q-63 -57 -120.5 -82.5t-124.5 -25.5q-63 0 -113.5 24t-79 69t-28.5 105v358q0 30 -6 44t-23.5 19.5t-55.5 5.5q-3 0 -3 6t3 6l49 -1q42 -2 67 -2q28 0 72 2l47 1q2 0 2 -6t-2 -6q-37 0 -55 -6t-24.5 -20.5t-6.5 -44.5v-321q0 -100 49.5 -152.5
t134.5 -52.5q57 0 108 22.5t110 75.5v428q0 30 -6 44.5t-23.5 20.5t-55.5 6q-3 0 -3 6t3 6l48 -1q44 -2 70 -2t68 2l49 1q3 0 3 -6t-3 -6q-38 0 -55.5 -5.5t-24 -19.5t-6.5 -44v-463q0 -30 6.5 -44.5t24 -19.5t55.5 -5q3 0 3 -6z" />
    <glyph glyph-name="utilde" unicode="&#x169;" horiz-adv-x="493" 
d="M110 480q-3 0 -5 2.5t0 4.5q17 23 39.5 42t45.5 19q14 0 50 -10q46 -14 75 -14q17 0 27 7t22 20h1q3 0 5.5 -2.5t0.5 -4.5q-26 -36 -43 -49t-36 -13q-21 0 -61 12q-4 1 -25.5 7t-44.5 6q-15 0 -23.5 -5t-15 -12t-10.5 -10h-2zM487 57q4 0 5.5 -4.5t-2.5 -6.5l-117 -55
l-4 -1q-10 0 -19 23t-9 60v4q-39 -44 -78 -64.5t-81 -20.5q-50 0 -78 31.5t-28 91.5v153q0 39 -7 56.5t-23 17.5q-14 0 -34 -10h-1q-4 0 -6 5.5t2 6.5l111 50l4 1q3 0 6.5 -2.5t3.5 -5.5v-239q0 -116 84 -116q32 0 65 16.5t60 45.5v174q0 40 -6.5 57t-23.5 17q-14 0 -34 -10
h-1q-4 0 -5.5 5.5t2.5 6.5l111 50l3 1q3 0 6.5 -2.5t3.5 -5.5v-280q0 -34 8 -49t27 -15q17 0 53 14h2z" />
    <glyph glyph-name="Umacron" unicode="&#x16a;" horiz-adv-x="763" 
d="M253 736q0 14 6 14h251q6 0 6 -14t-6 -14h-251q-6 0 -6 14zM729 6q0 -6 -3 -6l-79 1l-52 -1q-12 0 -15.5 3t-3.5 16v77q-63 -57 -120.5 -82.5t-124.5 -25.5q-63 0 -113.5 24t-79 69t-28.5 105v358q0 30 -6 44t-23.5 19.5t-55.5 5.5q-3 0 -3 6t3 6l49 -1q42 -2 67 -2
q28 0 72 2l47 1q2 0 2 -6t-2 -6q-37 0 -55 -6t-24.5 -20.5t-6.5 -44.5v-321q0 -100 49.5 -152.5t134.5 -52.5q57 0 108 22.5t110 75.5v428q0 30 -6 44.5t-23.5 20.5t-55.5 6q-3 0 -3 6t3 6l48 -1q44 -2 70 -2t68 2l49 1q3 0 3 -6t-3 -6q-38 0 -55.5 -5.5t-24 -19.5t-6.5 -44
v-463q0 -30 6.5 -44.5t24 -19.5t55.5 -5q3 0 3 -6z" />
    <glyph glyph-name="umacron" unicode="&#x16b;" horiz-adv-x="493" 
d="M106 497q0 14 6 14h251q6 0 6 -14t-6 -14h-251q-6 0 -6 14zM487 57q4 0 5.5 -4.5t-2.5 -6.5l-117 -55l-4 -1q-10 0 -19 23t-9 60v4q-39 -44 -78 -64.5t-81 -20.5q-50 0 -78 31.5t-28 91.5v153q0 39 -7 56.5t-23 17.5q-14 0 -34 -10h-1q-4 0 -6 5.5t2 6.5l111 50l4 1
q3 0 6.5 -2.5t3.5 -5.5v-239q0 -116 84 -116q32 0 65 16.5t60 45.5v174q0 40 -6.5 57t-23.5 17q-14 0 -34 -10h-1q-4 0 -5.5 5.5t2.5 6.5l111 50l3 1q3 0 6.5 -2.5t3.5 -5.5v-280q0 -34 8 -49t27 -15q17 0 53 14h2z" />
    <glyph glyph-name="Ubreve" unicode="&#x16c;" horiz-adv-x="763" 
d="M316.5 718q-26.5 28 -34.5 79q-1 4 4 4.5t7 -1.5q7 -27 33.5 -47t58.5 -20q31 0 57.5 20t33.5 47q0 2 4 2q3 0 5.5 -1.5t1.5 -3.5q-8 -52 -34 -79.5t-68 -27.5t-68.5 28zM729 6q0 -6 -3 -6l-79 1l-52 -1q-12 0 -15.5 3t-3.5 16v77q-63 -57 -120.5 -82.5t-124.5 -25.5
q-63 0 -113.5 24t-79 69t-28.5 105v358q0 30 -6 44t-23.5 19.5t-55.5 5.5q-3 0 -3 6t3 6l49 -1q42 -2 67 -2q28 0 72 2l47 1q2 0 2 -6t-2 -6q-37 0 -55 -6t-24.5 -20.5t-6.5 -44.5v-321q0 -100 49.5 -152.5t134.5 -52.5q57 0 108 22.5t110 75.5v428q0 30 -6 44.5t-23.5 20.5
t-55.5 6q-3 0 -3 6t3 6l48 -1q44 -2 70 -2t68 2l49 1q3 0 3 -6t-3 -6q-38 0 -55.5 -5.5t-24 -19.5t-6.5 -44v-463q0 -30 6.5 -44.5t24 -19.5t55.5 -5q3 0 3 -6z" />
    <glyph glyph-name="ubreve" unicode="&#x16d;" horiz-adv-x="493" 
d="M161.5 511.5q-26.5 38.5 -26.5 111.5q0 4 5.5 5t5.5 -2q0 -44 26 -73.5t66 -29.5q38 0 64.5 30t26.5 73q0 2 3 2t5.5 -1.5t2.5 -3.5q0 -74 -26 -112t-76 -38t-76.5 38.5zM487 57q4 0 5.5 -4.5t-2.5 -6.5l-117 -55l-4 -1q-10 0 -19 23t-9 60v4q-39 -44 -78 -64.5
t-81 -20.5q-50 0 -78 31.5t-28 91.5v153q0 39 -7 56.5t-23 17.5q-14 0 -34 -10h-1q-4 0 -6 5.5t2 6.5l111 50l4 1q3 0 6.5 -2.5t3.5 -5.5v-239q0 -116 84 -116q32 0 65 16.5t60 45.5v174q0 40 -6.5 57t-23.5 17q-14 0 -34 -10h-1q-4 0 -5.5 5.5t2.5 6.5l111 50l3 1
q3 0 6.5 -2.5t3.5 -5.5v-280q0 -34 8 -49t27 -15q17 0 53 14h2z" />
    <glyph glyph-name="Uring" unicode="&#x16e;" horiz-adv-x="763" 
d="M311 700.5q-24 23.5 -24 55.5q0 36 30.5 57t67.5 21q36 0 62 -23.5t26 -56.5q0 -35 -30 -56t-68 -21q-40 0 -64 23.5zM340 811.5q-8 -11.5 -8 -35.5q0 -34 16 -61.5t43 -27.5q36 0 36 49q0 36 -18 61.5t-44 25.5q-17 0 -25 -11.5zM729 6q0 -6 -3 -6l-79 1l-52 -1
q-12 0 -15.5 3t-3.5 16v77q-63 -57 -120.5 -82.5t-124.5 -25.5q-63 0 -113.5 24t-79 69t-28.5 105v358q0 30 -6 44t-23.5 19.5t-55.5 5.5q-3 0 -3 6t3 6l49 -1q42 -2 67 -2q28 0 72 2l47 1q2 0 2 -6t-2 -6q-37 0 -55 -6t-24.5 -20.5t-6.5 -44.5v-321q0 -100 49.5 -152.5
t134.5 -52.5q57 0 108 22.5t110 75.5v428q0 30 -6 44.5t-23.5 20.5t-55.5 6q-3 0 -3 6t3 6l48 -1q44 -2 70 -2t68 2l49 1q3 0 3 -6t-3 -6q-38 0 -55.5 -5.5t-24 -19.5t-6.5 -44v-463q0 -30 6.5 -44.5t24 -19.5t55.5 -5q3 0 3 -6z" />
    <glyph glyph-name="uring" unicode="&#x16f;" horiz-adv-x="493" 
d="M165 491.5q-24 23.5 -24 55.5q0 36 30.5 57t67.5 21q36 0 62 -23.5t26 -56.5q0 -35 -30 -56t-68 -21q-40 0 -64 23.5zM194 602.5q-8 -11.5 -8 -35.5q0 -34 16 -61.5t43 -27.5q36 0 36 49q0 36 -18 61.5t-44 25.5q-17 0 -25 -11.5zM487 57q4 0 5.5 -4.5t-2.5 -6.5
l-117 -55l-4 -1q-10 0 -19 23t-9 60v4q-39 -44 -78 -64.5t-81 -20.5q-50 0 -78 31.5t-28 91.5v153q0 39 -7 56.5t-23 17.5q-14 0 -34 -10h-1q-4 0 -6 5.5t2 6.5l111 50l4 1q3 0 6.5 -2.5t3.5 -5.5v-239q0 -116 84 -116q32 0 65 16.5t60 45.5v174q0 40 -6.5 57t-23.5 17
q-14 0 -34 -10h-1q-4 0 -5.5 5.5t2.5 6.5l111 50l3 1q3 0 6.5 -2.5t3.5 -5.5v-280q0 -34 8 -49t27 -15q17 0 53 14h2z" />
    <glyph glyph-name="Uhungarumlaut" unicode="&#x170;" horiz-adv-x="763" 
d="M279 676q-3 0 -4.5 4.5t0.5 6.5q48 45 90 95q3 4 22.5 -1t34.5 -12.5t8 -10.5q-41 -17 -75 -35.5t-74 -45.5zM489 782q3 4 22 -1t33.5 -12.5t7.5 -10.5q-66 -27 -147 -81l-2 -1q-3 0 -4.5 4.5t0.5 6.5q48 45 90 95zM729 6q0 -6 -3 -6l-79 1l-52 -1q-12 0 -15.5 3t-3.5 16
v77q-63 -57 -120.5 -82.5t-124.5 -25.5q-63 0 -113.5 24t-79 69t-28.5 105v358q0 30 -6 44t-23.5 19.5t-55.5 5.5q-3 0 -3 6t3 6l49 -1q42 -2 67 -2q28 0 72 2l47 1q2 0 2 -6t-2 -6q-37 0 -55 -6t-24.5 -20.5t-6.5 -44.5v-321q0 -100 49.5 -152.5t134.5 -52.5q57 0 108 22.5
t110 75.5v428q0 30 -6 44.5t-23.5 20.5t-55.5 6q-3 0 -3 6t3 6l48 -1q44 -2 70 -2t68 2l49 1q3 0 3 -6t-3 -6q-38 0 -55.5 -5.5t-24 -19.5t-6.5 -44v-463q0 -30 6.5 -44.5t24 -19.5t55.5 -5q3 0 3 -6z" />
    <glyph glyph-name="uhungarumlaut" unicode="&#x171;" horiz-adv-x="493" 
d="M144 458q-4 0 -5 4.5t1 6.5q22 22 50 57q7 8 18 21.5t20 22.5q4 3 24.5 -1.5t37 -11.5t9.5 -9q-39 -15 -74.5 -36.5t-78.5 -52.5zM312 526q7 8 18 21.5t20 22.5q4 3 24.5 -1.5t37 -11.5t8.5 -9q-38 -15 -73.5 -37t-78.5 -52l-2 -1q-4 0 -5 4.5t1 6.5q22 22 50 57zM487 57
q4 0 5.5 -4.5t-2.5 -6.5l-117 -55l-4 -1q-10 0 -19 23t-9 60v4q-39 -44 -78 -64.5t-81 -20.5q-50 0 -78 31.5t-28 91.5v153q0 39 -7 56.5t-23 17.5q-14 0 -34 -10h-1q-4 0 -6 5.5t2 6.5l111 50l4 1q3 0 6.5 -2.5t3.5 -5.5v-239q0 -116 84 -116q32 0 65 16.5t60 45.5v174
q0 40 -6.5 57t-23.5 17q-14 0 -34 -10h-1q-4 0 -5.5 5.5t2.5 6.5l111 50l3 1q3 0 6.5 -2.5t3.5 -5.5v-280q0 -34 8 -49t27 -15q17 0 53 14h2z" />
    <glyph glyph-name="Uogonek" unicode="&#x172;" horiz-adv-x="758" 
d="M724 6q0 -6 -3 -6l-98 1q-51 0 -82.5 -38t-31.5 -101q0 -52 25 -79.5t72 -27.5q21 0 35 5.5t30 17.5h1q3 0 5.5 -3t0.5 -5q-27 -24 -53.5 -34.5t-55.5 -10.5q-57 0 -89.5 27.5t-32.5 75.5q0 43 17.5 71t51.5 62q29 28 42.5 49t13.5 49v38q-63 -58 -120.5 -83.5
t-124.5 -25.5q-62 0 -111.5 24t-77.5 69t-28 105v358q0 30 -6 44t-23.5 19.5t-55.5 5.5q-3 0 -3 6t3 6l49 -1q42 -2 67 -2q28 0 72 2l47 1q2 0 2 -6t-2 -6q-37 0 -55 -6t-24.5 -20.5t-6.5 -44.5v-321q0 -100 48.5 -152.5t131.5 -52.5q56 0 107.5 22.5t110.5 75.5v428
q0 30 -6.5 44.5t-24 20.5t-55.5 6q-2 0 -2 6t2 6l48 -1q44 -2 70 -2t68 2l49 1q3 0 3 -6t-3 -6q-38 0 -55.5 -5.5t-24 -19.5t-6.5 -44v-463q0 -30 6 -44.5t24 -19.5t56 -5q3 0 3 -6z" />
    <glyph glyph-name="uogonek" unicode="&#x173;" horiz-adv-x="493" 
d="M492 53q2 -5 -2 -7l-57 -27q-65 -38 -95.5 -78.5t-30.5 -89.5q0 -46 22.5 -71.5t66.5 -25.5q22 0 37 6t30 18h2q3 0 5.5 -3t-0.5 -5q-52 -45 -110 -45q-54 0 -82 25.5t-28 70.5q0 44 29.5 88t83.5 83q-9 7 -15.5 28.5t-6.5 52.5v4q-39 -44 -78 -64.5t-81 -20.5
q-50 0 -78 31.5t-28 91.5v153q0 39 -7 56.5t-23 17.5q-14 0 -34 -10h-1q-4 0 -6 5.5t2 6.5l111 50l4 1q3 0 6.5 -2.5t3.5 -5.5v-239q0 -116 84 -116q32 0 65 16.5t60 45.5v174q0 40 -6.5 57t-23.5 17q-14 0 -34 -10h-1q-4 0 -5.5 5.5t2.5 6.5l111 50l3 1q3 0 6.5 -2.5
t3.5 -5.5v-280q0 -34 8 -49t27 -15q13 0 29 6l24 10l1 -2q4 1 6 -4z" />
    <glyph glyph-name="Wcircumflex" unicode="&#x174;" horiz-adv-x="920" 
d="M357 650.5q-3 3.5 -1 4.5l103 97q5 5 12 5q6 0 11 -5l102 -97q1 0 1 -2t-2.5 -4t-3.5 -1l-108 57l-109 -57q-2 -1 -5 2.5zM926 619q0 -6 -2 -6q-79 0 -101 -79l-156 -533q0 -4 -11 -4q-10 0 -11 4l-191 520l-156 -520q0 -4 -11 -4q-9 0 -12 4l-191 541q-13 39 -33 55
t-52 16q-3 0 -3 6t3 6l38 -1q28 -2 45 -2q52 0 102 2q15 1 40 1q3 0 3 -6t-3 -6q-77 0 -77 -43q0 -9 5 -24l155 -437l154 516q2 3 11 3q11 0 11 -3l192 -518l124 430q4 12 4 24q0 52 -94 52q-3 0 -3 6t3 6l50 -1q44 -2 76 -2q20 0 46 2l43 1q2 0 2 -6z" />
    <glyph glyph-name="wcircumflex" unicode="&#x175;" horiz-adv-x="669" 
d="M266 472q-3 0 -5.5 1.5t-1.5 2.5l68 249q1 5 11 5q11 0 12 -5l67 -249q2 -2 -3.5 -3.5t-6.5 1.5l-68 164l-69 -164q0 -2 -4 -2zM667 380q0 -6 -3 -6q-25 0 -43 -16t-33 -57l-113 -300q0 -4 -11 -4q-9 0 -12 4l-133 302l-105 -302q-1 -4 -11 -4q-9 0 -12 4l-124 302
q-18 43 -32.5 57t-34.5 14q-3 0 -3 6t3 6q20 0 31 -1l38 -1l60 1q15 1 43 1q3 0 3 -6t-3 -6q-28 0 -43 -5.5t-15 -18.5q0 -7 4 -15l104 -250l104 301q3 4 12 4q10 0 11 -4l135 -308l84 228q6 17 6 29q0 20 -18.5 29.5t-59.5 9.5q-2 0 -2 6t2 6q27 0 41 -1l60 -1l36 1
q10 1 31 1q3 0 3 -6z" />
    <glyph glyph-name="Ycircumflex" unicode="&#x176;" horiz-adv-x="609" 
d="M205 687.5q-3 3.5 -1 4.5l103 98q5 5 12 5q6 0 11 -5l102 -98q1 0 1 -2t-2.5 -4t-3.5 -1l-108 58l-109 -58q-2 -1 -5 2.5zM616 619q0 -6 -2 -6q-36 0 -73 -26.5t-66 -72.5l-134 -206v-227q0 -31 6 -45t23.5 -19t55.5 -5q3 0 3 -6t-3 -6q-31 0 -48 1l-70 1l-69 -1
q-18 -1 -49 -1q-3 0 -3 6t3 6q38 0 55.5 5t24 19.5t6.5 44.5v211l-166 243q-28 44 -53 61t-58 17q-3 0 -3 6t3 6q12 0 36 -2l35 -1q34 0 86 2l54 1q2 0 2 -6t-2 -6q-52 0 -52 -21q0 -11 10 -25l161 -236l122 187q22 35 22 59q0 36 -54 36q-2 0 -2 6t2 6l47 -1q38 -2 70 -2
q17 0 41 2l37 1q2 0 2 -6z" />
    <glyph glyph-name="ycircumflex" unicode="&#x177;" horiz-adv-x="485" 
d="M184 472q-3 0 -5.5 1.5t-1.5 2.5l68 249q1 5 11 5q11 0 12 -5l67 -249q2 -2 -3.5 -3.5t-6.5 1.5l-68 164l-69 -164q0 -2 -4 -2zM405 392.5q3 -2.5 3 -5.5v-457q0 -95 -52 -153t-148 -58q-55 0 -93 22t-38 55q0 15 9 23t23 8q13 0 22 -7.5t21 -24.5q19 -26 39.5 -40.5
t59.5 -14.5q46 0 73.5 36t27.5 130v171q-39 -44 -78.5 -64.5t-81.5 -20.5q-51 0 -78.5 31.5t-27.5 91.5v153q0 39 -7 56.5t-23 17.5q-14 0 -34 -10h-1q-4 0 -6 5t2 7l111 50l4 1q3 0 6.5 -2.5t3.5 -5.5v-239q0 -59 21 -87t63 -28q32 0 65.5 16t60.5 45v174q0 39 -7 56.5
t-23 17.5q-13 0 -33 -10h-1q-4 0 -6.5 5t1.5 7l111 50l5 1q3 0 6 -2.5z" />
    <glyph glyph-name="Ydieresis" unicode="&#x178;" horiz-adv-x="609" 
d="M199.5 728q-11.5 11 -11.5 30t11.5 30t31.5 11t30.5 -10.5t10.5 -30.5q0 -19 -10.5 -30t-30.5 -11t-31.5 11zM374.5 728q-11.5 11 -11.5 30t11.5 30t31.5 11t31 -10.5t11 -30.5t-11 -30.5t-31 -10.5t-31.5 11zM616 619q0 -6 -2 -6q-36 0 -73 -26.5t-66 -72.5l-134 -206
v-227q0 -31 6 -45t23.5 -19t55.5 -5q3 0 3 -6t-3 -6q-31 0 -48 1l-70 1l-69 -1q-18 -1 -49 -1q-3 0 -3 6t3 6q38 0 55.5 5t24 19.5t6.5 44.5v211l-166 243q-28 44 -53 61t-58 17q-3 0 -3 6t3 6q12 0 36 -2l35 -1q34 0 86 2l54 1q2 0 2 -6t-2 -6q-52 0 -52 -21q0 -11 10 -25
l161 -236l122 187q22 35 22 59q0 36 -54 36q-2 0 -2 6t2 6l47 -1q38 -2 70 -2q17 0 41 2l37 1q2 0 2 -6z" />
    <glyph glyph-name="Zacute" unicode="&#x179;" horiz-adv-x="595" 
d="M214 678q-4 0 -5 4.5t2 6.5q33 18 109 62q18 12 31.5 20t22.5 13q4 2 23.5 -4.5t33.5 -14.5t7 -9q-62 -15 -113.5 -33.5t-108.5 -43.5zM450 600q3 5 2.5 6.5t-7.5 1.5q-178 0 -243 -5.5t-91 -26.5t-47 -79q0 -2 -4 -2q-3 0 -6 1.5t-2 2.5l40 156q0 1 4 1q10 0 8 -3
q-1 -3 -1 -8q0 -12 11.5 -16t46.5 -4h365q5 0 7.5 -5t-0.5 -8l-390 -585l-3 -6q0 -2 8 -2h255q67 0 102 28t46 88q1 2 6 2t5 -2l-14 -127q0 -3 -2.5 -6.5t-6.5 -3.5q-149 2 -478 2q-5 0 -7 4.5t1 8.5z" />
    </font>
</defs>
</svg>
