<?xml version="1.0" standalone="no"?>
<!DOCTYPE svg PUBLIC "-//W3C//DTD SVG 1.1//EN" "http://www.w3.org/Graphics/SVG/1.1/DTD/svg11.dtd" >
<svg xmlns="http://www.w3.org/2000/svg" xmlns:xlink="http://www.w3.org/1999/xlink" version="1.1">
<metadata>
Created by FontForge 20160405 at Mon Jan 21 17:37:39 2019
 By www-data
Copyright 2015 The Cormorant Project Authors (github.com/CatharsisFonts/Cormorant)
</metadata>
<defs>
<font id="CormorantInfant-MediumItalic" horiz-adv-x="652" >
  <font-face 
    font-family="Cormorant Infant Medium"
    font-weight="500"
    font-style="italic"
    font-stretch="normal"
    units-per-em="1000"
    panose-1="0 0 6 0 0 0 0 0 0 0"
    ascent="800"
    descent="-200"
    x-height="395"
    cap-height="625"
    bbox="-333 -281 1278.06 909.9"
    underline-thickness="50"
    underline-position="-150"
    slope="-10"
    unicode-range="U+000D-FB06"
  />
<missing-glyph horiz-adv-x="450" 
d="M1 -275l177 1000h285l-176 -1000h-286zM214 556h150l6 32h-60l6 38h61l5 32h-148l-6 -32h57l-5 -38h-60zM192 426h150l5 34h-60l12 69h-90zM227 460l6 35h30l-7 -35h-29zM168 295h90l12 70h60l6 33h-149l-6 -33h59l-6 -36h-60zM159 239h149l17 99h-29l-12 -65h-119z
M135 103h149l20 113h-90l-10 -56h30l5 24h30l-8 -48h-91l14 80h-30zM104 -70h150l20 113h-150zM139 -37l8 48h92l-9 -48h-91zM81 -206h148l6 33h-91l70 47h29l6 34h-148l-6 -34h63l-71 -47z" />
    <glyph glyph-name="f_f.liga" unicode="ff" horiz-adv-x="518" 
d="M634 710.5q21 -15.5 18 -38.5q-3 -16 -14 -24.5t-25 -8.5q-19 0 -26.5 9.5t-13.5 28.5q-6 17 -11.5 24.5t-18.5 7.5q-36 0 -62.5 -67t-46.5 -203l-9 -62q30 1 67 5l33 2q7 0 7 -8t-11 -21.5t-21 -13.5q-6 0 -13 1t-15 2q-17 3 -51 7l-54 -372q-14 -97 -33 -151.5
t-47 -78.5t-71 -24q-37 0 -56 14t-16 34q1 15 12.5 24t27.5 9q18 0 25 -9t12 -27q4 -14 8 -20t14 -6q12 0 19.5 15.5t16.5 59t22 134.5l51 353v3l-1 -3q1 7 1 17q0 16 -9 21t-34 7q-31 2 -141 4l-55 -376q-14 -97 -33 -151.5t-47 -78.5t-71 -24q-37 0 -56 14t-16 34
q1 15 12.5 24t27.5 9q18 0 25 -9t12 -27q4 -14 8 -20t14 -6q12 0 19.5 15.5t16.5 59t22 134.5l51 353q2 20 2 26q0 18 -11 23t-45 5q-3 0 -3 5q0 3 1.5 6t2.5 3q35 0 50 9.5t19 34.5q26 129 82.5 190t142.5 61q47 0 94 -20q23 42 57 59.5t85 17.5q38 0 59 -15.5zM171 375
q106 0 137 1q28 2 42 11t18 29v2q16 99 36 165q-15 32 -39 50.5t-51 18.5q-97 0 -134 -213z" />
    <glyph glyph-name="fi" unicode="fi" horiz-adv-x="470" 
d="M441 77q4 0 6 -3.5t0 -5.5q-34 -40 -61 -58.5t-54 -18.5q-20 0 -29 11.5t-9 36.5q0 17 5 50l37 202q3 14 3 24q0 20 -14 29t-48.5 12t-108.5 3l-55 -380q-14 -97 -33 -151.5t-47 -78.5t-71 -24q-37 0 -56 14t-16 34q1 15 12.5 24t27.5 9q18 0 25 -9t12 -27q4 -14 8 -20
t14 -6q12 0 19.5 15.5t16.5 59t22 134.5l51 353q2 20 2 26q0 18 -11 23t-45 5q-3 0 -3 5q0 3 1.5 6t2.5 3q35 0 50 9.5t19 34.5q30 167 89.5 237.5t146.5 70.5q49 0 75.5 -19.5t22.5 -46.5q-3 -16 -13 -24.5t-24 -8.5q-17 0 -25.5 9.5t-17.5 30.5q-8 20 -17.5 31t-28.5 11
q-49 0 -86 -68.5t-56 -201.5l-9 -61q80 1 176 6q44 2 52 2q7 0 10 -2t3 -8q0 -1 -4 -25q-3 -10 -10 -53l-37 -209q-3 -16 -3 -27q0 -28 17 -28q23 0 63 42q1 1 3 1z" />
    <glyph glyph-name="fl" unicode="fl" horiz-adv-x="500" 
d="M379 89q-3 -15 -3 -25q0 -30 19 -30q10 0 25 11t37 32q2 2 3 2q3 0 5.5 -3.5t-0.5 -6.5q-34 -40 -61 -59t-53 -19q-39 0 -39 48q0 20 6 50l101 541q-13 34 -37 56.5t-54 22.5q-107 0 -148 -270l-9 -62l55 4q10 1 21.5 2t23.5 1q7 0 7 -8t-12 -22t-22 -13q-42 8 -77 10
l-54 -372q-14 -97 -33 -151.5t-47 -78.5t-71 -24q-37 0 -56 14t-16 34q1 15 12.5 24t27.5 9q18 0 25 -9t12 -27q4 -14 8 -20t14 -6q12 0 19.5 15.5t16.5 59t22 134.5l51 353q2 20 2 26q0 18 -11 23t-45 5q-3 0 -3 5q0 3 1.5 6t2.5 3q35 0 50 9.5t19 34.5q28 165 85 236.5
t153 71.5q65 0 104 -28q26 17 32 46q1 3 7 2.5t5 -3.5z" />
    <glyph glyph-name="f_f_i.liga" unicode="ffi" horiz-adv-x="724" 
d="M695 77q4 0 6 -3.5t0 -5.5q-34 -40 -61 -58.5t-54 -18.5q-20 0 -29 11.5t-9 36.5q0 17 5 50l37 202q3 14 3 24q0 20 -14 29t-48.5 12t-108.5 3l-55 -380q-14 -97 -33 -151.5t-47 -78.5t-71 -24q-37 0 -56 14t-16 34q1 15 12.5 24t27.5 9q18 0 25 -9t12 -27q4 -14 8 -20
t14 -6q12 0 19.5 15.5t16.5 59t22 134.5l51 353v3l-1 -3q1 7 1 17q0 16 -9 21t-34 7q-31 2 -141 4l-55 -376q-14 -97 -33 -151.5t-47 -78.5t-71 -24q-37 0 -56 14t-16 34q1 15 12.5 24t27.5 9q18 0 25 -9t12 -27q4 -14 8 -20t14 -6q12 0 19.5 15.5t16.5 59t22 134.5l51 353
q2 20 2 26q0 18 -11 23t-45 5q-3 0 -3 5q0 3 1.5 6t2.5 3q35 0 50 9.5t19 34.5q26 129 82.5 190t142.5 61q59 0 108 -27q59 84 157 84q49 0 75.5 -19.5t22.5 -46.5q-3 -16 -13 -24.5t-24 -8.5q-17 0 -25.5 9.5t-17.5 30.5q-8 20 -17.5 31t-28.5 11q-49 0 -86 -68.5
t-56 -201.5l-9 -61q80 1 176 6q44 2 52 2q7 0 10 -2t3 -8q0 -1 -4 -25q-3 -10 -10 -53l-37 -209q-3 -16 -3 -27q0 -28 17 -28q23 0 63 42q1 1 3 1zM171 375q106 0 137 1q28 2 42 11t18 29v2q17 92 42 153q-15 37 -40.5 59t-55.5 22q-97 0 -134 -213z" />
    <glyph glyph-name="f_f_l.liga" unicode="ffl" horiz-adv-x="754" 
d="M633 89q-3 -15 -3 -25q0 -30 19 -30q10 0 25 11t37 32q2 2 3 2q3 0 5.5 -3.5t-0.5 -6.5q-34 -40 -61 -59t-53 -19q-39 0 -39 48q0 20 6 50l101 541q-13 34 -37 56.5t-54 22.5q-107 0 -148 -270l-9 -62l55 4q10 1 21.5 2t23.5 1q7 0 7 -8t-12 -22t-22 -13q-42 8 -77 10
l-54 -372q-14 -97 -33 -151.5t-47 -78.5t-71 -24q-37 0 -56 14t-16 34q1 15 12.5 24t27.5 9q18 0 25 -9t12 -27q4 -14 8 -20t14 -6q12 0 19.5 15.5t16.5 59t22 134.5l51 353v3l-1 -3q1 7 1 17q0 16 -9 21t-34 7q-31 2 -141 4l-55 -376q-14 -97 -33 -151.5t-47 -78.5t-71 -24
q-37 0 -56 14t-16 34q1 15 12.5 24t27.5 9q18 0 25 -9t12 -27q4 -14 8 -20t14 -6q12 0 19.5 15.5t16.5 59t22 134.5l51 353q2 20 2 26q0 18 -11 23t-45 5q-3 0 -3 5q0 3 1.5 6t2.5 3q35 0 50 9.5t19 34.5q26 129 82.5 190t142.5 61q56 0 106 -26q30 43 69.5 63t91.5 20
q65 0 104 -28q26 17 32 46q1 3 7 2.5t5 -3.5zM171 375q106 0 137 1q28 2 42 11t18 29v2q17 98 41 155q-16 37 -41 58t-54 21q-97 0 -134 -213z" />
    <glyph glyph-name="Aogonek_acutecomb.liga" unicode="&#x104;&#x301;" horiz-adv-x="602" 
d="M336 678q-4 0 -5 4.5t2 6.5q33 18 65.5 40t41.5 28l43 30q5 3 28 -4t40.5 -16t8.5 -11q-62 -15 -113.5 -33.5t-108.5 -43.5zM570 6q0 -6 -4 -6l-77 1q-40 0 -73.5 -21t-53 -57t-19.5 -79q0 -38 21 -60.5t60 -22.5q18 0 28 4t21 12h1q2 0 4 -3t0 -5q-26 -23 -48.5 -33.5
t-49.5 -10.5q-44 0 -70.5 21.5t-26.5 62.5q0 7 2 21q5 38 23 64.5t53 64.5q31 32 46 55t15 52q0 6 -2 18l-39 235h-147l-101 -188q-31 -56 -31 -82q0 -21 16.5 -29t50.5 -8q4 0 3.5 -6t-4.5 -6q-12 0 -48 2q-40 2 -62 2q-21 0 -49 -2t-43 -2q-4 0 -4 6t4 6q30 0 66 27.5
t69 87.5l281 508q2 3 7 3q9 0 11 -5l94 -542q5 -33 13 -49.5t21.5 -23t37.5 -6.5q4 0 4 -6zM247 342h130l-31 184z" />
    <glyph glyph-name="Eogonek_acutecomb.liga" unicode="&#x118;&#x301;" horiz-adv-x="520" 
d="M284 678q-4 0 -5 4.5t2 6.5q33 18 65.5 40t41.5 28l43 30q5 3 28 -4t40.5 -16t8.5 -11q-62 -15 -113.5 -33.5t-108.5 -43.5zM516 616l-8 -54l-12 -73q0 -3 -5 -3q-2 0 -4.5 1.5t-2.5 2.5q4 53 -21 85.5t-71 32.5h-62q-31 0 -45.5 -5t-21.5 -18t-12 -42l-36 -206h132
q41 0 62 16t28 56q0 3 6 3q2 0 4.5 -1.5t1.5 -3.5q-3 -22 -9 -46q-4 -15 -7 -36l-5 -31q-3 -31 -10 -65q-1 -4 -7 -3.5t-5 4.5q3 15 3 27q0 30 -17 43.5t-52 13.5h-129l-41 -229q-3 -18 -3 -30q0 -21 12.5 -28.5t46.5 -7.5h83q44 0 86 36.5t68 96.5q2 3 7.5 2t3.5 -4
q-18 -58 -32 -135q-2 -9 -5 -12t-11 -3h-41q-44 -46 -68.5 -88t-24.5 -85q0 -31 15.5 -49.5t43.5 -18.5q16 0 28 6t27 18l1 1q3 0 5.5 -4t0.5 -6q-28 -26 -52.5 -37.5t-50.5 -11.5q-38 0 -59 21.5t-21 56.5q0 6 2 22q7 40 41.5 83t92.5 92h-349q-2 0 -2 6t2 6q31 0 46 5
t22.5 19t13.5 45l81 463q4 17 4 33q0 21 -13 28.5t-47 7.5q-3 0 -3 6t3 6h386q8 0 6 -9z" />
    <glyph glyph-name="IJ_acutecomb.liga" unicode="&#x132;&#x301;" horiz-adv-x="619" 
d="M127 678q-4 0 -5 4.5t2 6.5q33 18 65.5 40t41.5 28l43 30q5 3 28 -4t40.5 -16t8.5 -11q-62 -15 -113.5 -33.5t-108.5 -43.5zM478 678q-4 0 -5 4.5t2 6.5q33 18 65.5 40t41.5 28l43 30q5 3 28 -4t40.5 -16t8.5 -11q-62 -15 -113.5 -33.5t-108.5 -43.5zM46 275q0 6 4 6
q33 0 48.5 5t23 19t12.5 45l34 194q4 17 4 33q0 21 -13.5 28.5t-50.5 7.5q-4 0 -4 6t4 6l48 -1q40 -2 63 -2q27 0 67 2l43 1q5 0 5 -6t-5 -6q-32 0 -48.5 -6t-24 -20t-13.5 -45l-34 -192q-4 -26 -4 -33q0 -22 13.5 -29t50.5 -7q4 0 4 -6t-4 -6q-28 0 -44 1l-66 1l-64 -1
q-16 -1 -45 -1q-4 0 -4 6zM181 7q-43 20 -67 51.5t-24 65.5q0 24 12 39t33 15q25 0 31.5 -16t8.5 -51q2 -48 21.5 -77.5t81.5 -29.5q75 0 118.5 50.5t59.5 145.5l61 344q3 18 3 30q0 24 -15 31.5t-59 7.5q-3 0 -3 6t3 6l53 -1q42 -2 67 -2t61 2l40 1q4 0 4 -6t-4 -6
q-29 0 -43 -6t-21 -20.5t-12 -44.5l-49 -284q-23 -129 -93.5 -200t-168.5 -71q-56 0 -99 20z" />
    <glyph glyph-name="Iogonek_acutecomb.liga" unicode="&#x12e;&#x301;" horiz-adv-x="317" 
d="M354 783q23 -7 40.5 -16t8.5 -11q-62 -15 -113.5 -33.5t-108.5 -43.5l-2 -1q-4 0 -5 4.5t2 6.5q33 18 65.5 40t41.5 28l43 30q5 3 28 -4zM340 619q0 -6 -3 -6q-30 0 -45 -6t-22.5 -20.5t-13.5 -44.5l-82 -461q-4 -26 -4 -32q0 -22 13.5 -29.5t48.5 -7.5q2 0 2 -6t-2 -6
q-24 0 -38 1l-57 1q-52 -72 -61 -147q-3 -15 -3 -29q0 -30 12.5 -47.5t35.5 -17.5q26 0 48 22h1q4 0 7 -3.5t0 -5.5q-27 -26 -49.5 -37.5t-47.5 -11.5q-33 0 -51.5 21t-18.5 56q0 46 29 95t82 105l-57 -1q-15 -1 -42 -1q-3 0 -3 6t3 6q31 0 45.5 5t22 19t12.5 45l82 463
q4 26 4 32q0 22 -13.5 29.5t-47.5 7.5q-3 0 -3 6t3 6l43 -1q38 -2 60 -2q29 0 67 2l40 1q3 0 3 -6z" />
    <glyph glyph-name="J_acutecomb.liga" unicode="J&#x301;" horiz-adv-x="292" 
d="M125 678q-4 0 -5.5 4.5t1.5 6.5q46 25 98 62q47 31 53 35q5 3 27.5 -4t40 -16t8.5 -10q-118 -30 -222 -78h-1zM-23 -193q-3 0 -5 4.5t1 6.5q45 27 71 81t42 141l89 504q3 18 3 31q0 23 -13 30.5t-48 7.5q-2 0 -2 6t2 6l43 -1q38 -2 61 -2q28 0 66 2l41 1q3 0 3 -6t-3 -6
q-31 0 -46 -6t-22.5 -20.5t-12.5 -44.5l-84 -475q-15 -78 -37 -126.5t-56.5 -79t-91.5 -54.5h-1z" />
    <glyph glyph-name="uni01EA0301.liga" unicode="&#x1ea;&#x301;" 
d="M350 678q-4 0 -5 4.5t2 6.5q33 18 65.5 40t41.5 28l43 30q5 3 28 -4t40.5 -16t8.5 -11q-62 -15 -113.5 -33.5t-108.5 -43.5zM532.5 603.5q51.5 -32.5 78.5 -89t27 -128.5q0 -38 -7 -73q-20 -115 -91 -198t-166 -113q-45 -46 -70 -88.5t-25 -86.5q0 -31 15.5 -49.5
t43.5 -18.5q16 0 28 6t27 18l1 1q3 0 5.5 -4t0.5 -6q-28 -26 -52.5 -37.5t-50.5 -11.5q-38 0 -59 21.5t-21 56.5q0 45 34 91.5t97 100.5q-31 -7 -65 -7q-70 0 -120.5 32.5t-76.5 89.5t-26 130q0 36 6 73q16 93 66.5 166.5t123 115t154.5 41.5q71 0 122.5 -32.5zM559 358
q0 73 -22.5 130.5t-65.5 90.5t-101 33q-83 0 -142.5 -66t-80.5 -180q-9 -48 -9 -93q0 -73 22 -132t64.5 -93t101.5 -34q82 0 141.5 65t81.5 181q10 49 10 98z" />
    <glyph glyph-name="aogonek_acutecomb.liga" unicode="&#x105;&#x301;" horiz-adv-x="439" 
d="M384.5 726q22.5 5 39.5 5q13 0 12 -4l-153 -254q-1 -3 -6.5 -1t-3.5 4l87 240q2 5 24.5 10zM414 78q3 0 5 -3.5t0 -5.5l-25 -24q-71 -70 -100.5 -108t-38.5 -84q-2 -8 -2 -23q0 -29 14.5 -47.5t43.5 -18.5q17 0 28.5 6.5t26.5 19.5h1q3 0 5.5 -3.5t0.5 -5.5
q-28 -30 -52 -43t-51 -13q-38 0 -59.5 23t-21.5 58q0 40 35 88t94 98q-4 -1 -11 -1q-20 0 -29.5 12t-9.5 38q0 16 5 48l14 88q-43 -87 -98.5 -138.5t-107.5 -51.5q-30 0 -46.5 18.5t-16.5 56.5q0 9 2 29q10 69 53.5 141.5t102.5 119.5t111 47q20 0 38.5 -7t29.5 -20
q19 16 26 35q2 2 4 2q3 0 6 -1.5t2 -2.5l-58 -316q-3 -15 -3 -27q0 -28 17 -28q21 0 62 43q1 1 3 1zM307 296q0 29 -15 46t-43 17q-34 0 -68 -27.5t-59 -75.5t-34 -108q-4 -32 -4 -42q0 -62 42 -62q34 0 71.5 35t67 88t39.5 102q3 14 3 27z" />
    <glyph glyph-name="eogonek_acutecomb.liga" unicode="&#x119;&#x301;" horiz-adv-x="351" 
d="M310.5 726q22.5 5 39.5 5q13 0 12 -4l-153 -254q-1 -3 -6.5 -1t-3.5 4l87 240q2 5 24.5 10zM317 386.5q19 -12.5 19 -33.5q0 -47 -68.5 -85.5t-165.5 -55.5q-4 -24 -4 -52q0 -61 26.5 -98t77.5 -37q45 0 83 23q1 1 13 10h1h1q3 0 5.5 -3t0.5 -6q-7 -6 -21 -16
q-72 -62 -103 -102.5t-38 -79.5q-3 -14 -3 -25q0 -28 14 -45t42 -17t57 25l2 1q3 0 5 -3.5t0 -5.5q-49 -56 -104 -56q-35 0 -57 20t-22 54q0 14 2 22q8 38 40.5 79.5t102.5 98.5q-32 -11 -66 -11q-66 0 -99 41t-33 106q0 22 5 50q10 52 43.5 101.5t83.5 81t106 31.5
q35 0 54 -12.5zM259 337q0 17 -12.5 26t-30.5 9q-41 0 -70 -40.5t-42 -105.5q138 26 153 98q2 10 2 13z" />
    <glyph glyph-name="ij_acutecomb.liga" unicode="&#x133;&#x301;" horiz-adv-x="440" 
d="M140.5 472q-5.5 2 -3.5 4l87 240q2 5 24.5 10t39.5 5q13 0 12 -4l-153 -254q-1 -3 -6.5 -1zM458.5 726q22.5 5 39.5 5q13 0 12 -4l-153 -254q-1 -3 -6.5 -1t-3.5 4l87 240q2 5 24.5 10zM407 392.5q6 -1.5 6 -4.5q0 -5 -6 -28q-9 -40 -10 -48l-70 -382q-17 -98 -71 -154.5
t-139 -56.5q-46 0 -75 19t-29 47q0 7 1 10q3 19 13.5 28.5t24.5 9.5t20.5 -8.5t13.5 -27.5q10 -28 24 -42.5t47 -14.5q35 0 62 36t44 130l50 287q-36 -97 -83.5 -151.5t-100.5 -54.5q-67 0 -67 76q0 19 7 56l36 178q3 15 3 25q0 30 -19 30q-10 0 -25 -11t-36 -32
q-2 -2 -4 -2q-3 0 -5 3.5t1 6.5q34 40 60 59t52 19q40 0 40 -49q0 -20 -6 -49l-32 -159q-6 -30 -6 -51q0 -55 40 -55q30 0 62 37t61.5 108.5t49.5 169.5l6 33q1 6 10 10t25 4q19 0 25 -1.5z" />
    <glyph glyph-name="iogonek_acutecomb.liga" unicode="&#x12f;&#x301;" horiz-adv-x="249" 
d="M199.5 725.5q23.5 5.5 38.5 5.5q11 0 10 -4l-108 -253q-1 -3 -6 -1.5t-4 3.5l45 240q1 4 24.5 9.5zM219 78q3 0 5 -3.5t0 -5.5l-25 -24q-71 -70 -100.5 -108t-38.5 -84q-2 -8 -2 -24q0 -29 14 -47t43 -18q15 0 25.5 5.5t23.5 15.5l2 1q3 0 5 -4t0 -6q-26 -26 -48.5 -38.5
t-47.5 -12.5q-37 0 -59 23t-22 56q0 77 129 188q-4 -1 -12 -1q-20 0 -29.5 12t-9.5 37q0 17 5 49l38 208q3 15 3 25q0 31 -19 31q-11 0 -28 -11.5t-37 -32.5q-1 -1 -3 -1q-3 0 -5.5 3.5t0.5 5.5q34 40 63 59t55 19q20 0 29 -11.5t9 -36.5q0 -15 -5 -45l-38 -213
q-3 -15 -3 -26q0 -29 18 -29q10 0 25 11t37 32q1 1 3 1z" />
    <glyph glyph-name="j_acutecomb.liga" unicode="j&#x301;" horiz-adv-x="242" 
d="M153.5 472q-5.5 2 -3.5 4l87 240q2 5 24.5 10t39.5 5q13 0 12 -4l-153 -254q-1 -3 -6.5 -1zM-77 -261q-19 14 -16 34q3 16 13.5 24.5t24.5 8.5q17 0 23 -9t10 -27q4 -15 8 -21.5t13 -6.5q13 0 22.5 18t18.5 58.5t24 125.5l61 353q3 15 3 25q0 31 -19 31q-24 0 -66 -44
q-1 -1 -3 -1q-3 0 -5 3.5t0 5.5q35 41 63.5 59.5t55.5 18.5q20 0 29 -11.5t9 -36.5q0 -15 -5 -45l-58 -334q-16 -95 -35 -147t-46 -74t-70 -22q-36 0 -55 14z" />
    <glyph glyph-name="uni01EB0301.liga" unicode="&#x1eb;&#x301;" horiz-adv-x="401" 
d="M344.5 726q22.5 5 39.5 5q13 0 12 -4l-153 -254q-1 -3 -6.5 -1t-3.5 4l87 240q2 5 24.5 10zM343.5 357.5q34.5 -41.5 34.5 -109.5q0 -26 -6 -55q-14 -71 -55 -121.5t-94 -71.5q-44 -46 -68.5 -88t-24.5 -85q0 -31 15.5 -49.5t43.5 -18.5q16 0 28 6t27 18l1 1q3 0 5.5 -4
t0.5 -6q-28 -26 -52.5 -37.5t-50.5 -11.5q-38 0 -59 21.5t-21 56.5q0 43 33 89t92 98q-17 -4 -38 -4q-62 0 -95.5 42.5t-33.5 110.5q0 22 5 54q11 59 42.5 106t76.5 73.5t95 26.5q64 0 98.5 -41.5zM308 212q0 68 -24.5 115.5t-69.5 47.5q-38 0 -69 -37t-43 -102
q-7 -38 -7 -67q0 -67 25.5 -112.5t69.5 -45.5q39 0 69.5 37t42.5 101q6 32 6 63z" />
    <glyph glyph-name="T_T.liga" unicode="TT" horiz-adv-x="1028" 
d="M131 6q0 6 2 6q35 0 52.5 5t26 19.5t13.5 44.5l82 463q4 24 4 30q0 19 -11.5 25.5t-40.5 6.5h-20q-54 0 -92.5 -37.5t-59.5 -110.5q-1 -3 -8 -1.5t-3 3.5q8 25 23 88t22 99q1 3 7 2.5t5 -3.5q-3 -21 39 -21q77 -3 184 -3q66 0 136 2l32 1q29 0 41.5 1.5t18 7t9.5 18.5
q0 2 5 2q8 0 7 -4q-4 -16 6.5 -20.5t39.5 -4.5q73 -3 177 -3q54 0 114 2l63 1q30 0 45 5t21 20q1 3 6.5 2.5t4.5 -4.5q-8 -27 -22.5 -93.5t-18.5 -94.5q-1 -3 -6.5 -2.5t-4.5 4.5q4 21 4 44q0 100 -101 100h-16q-35 0 -47 -12.5t-19 -51.5l-82 -461q-4 -26 -4 -32
q0 -22 15.5 -29.5t57.5 -7.5q2 0 2 -6t-2 -6q-30 0 -47 1l-70 1l-66 -1q-18 -1 -50 -1q-2 0 -2 6t2 6q35 0 52.5 5t26 19.5t14.5 44.5l81 463q4 24 4 30q0 19 -11 25.5t-39 6.5h-16q-57 0 -82 -9t-38.5 -38t-27.5 -99q0 -2 -5 -2q-8 0 -8 3q9 54 9 84q0 27 -9.5 40t-31 17
t-64.5 4h-15q-25 0 -37 -5.5t-18 -18.5t-11 -40l-83 -461q-3 -18 -3 -31q0 -23 15 -30.5t58 -7.5q2 0 2 -6t-2 -6q-30 0 -47 1l-70 1l-66 -1q-18 -1 -50 -1q-2 0 -2 6z" />
    <glyph glyph-name="T_h.liga" unicode="Th" horiz-adv-x="933" 
d="M910 79q3 0 5 -3.5t0 -6.5q-34 -40 -61 -59t-53 -19q-20 0 -29 11.5t-9 36.5q0 20 6 50l29 159q5 24 5 50q0 56 -39 56q-31 0 -64.5 -39.5t-63 -115.5t-48.5 -180l-2 -10q-2 -8 -12 -12.5t-28 -4.5q-26 0 -26 7l4 20q9 43 11 55l96 522v3q0 7 -8 7h-182
q-34 0 -45.5 -12.5t-18.5 -51.5l-81 -461q-3 -18 -3 -31q0 -23 15 -30.5t57 -7.5q2 0 2 -6t-2 -6q-30 0 -47 1l-70 1l-67 -1q-17 -1 -48 -1q-3 0 -3 6t3 6q35 0 52.5 5t26 19.5t13.5 44.5l81 463q4 24 4 31q0 18 -10.5 24.5t-37.5 6.5h-21q-55 0 -94.5 -37.5t-59.5 -110.5
q0 -2 -4 -2q-3 0 -6 1.5t-2 2.5q9 27 24 90.5t21 96.5q1 3 7 2.5t5 -3.5q-3 -21 39 -21q74 -3 183 -3q113 0 178 4q61 2 103 25.5t67 75.5q0 2 5 2q3 0 6 -1.5t2 -2.5l-96 -531q36 97 83 151t100 54q33 0 49.5 -19t16.5 -59q0 -29 -5 -54l-33 -178q-3 -16 -3 -27
q0 -28 18 -28q19 0 62 43q2 2 3 2z" />
    <glyph glyph-name="f_b.liga" unicode="fb" horiz-adv-x="701" 
d="M662 370q22 -29 22 -77q0 -22 -4 -42q-16 -81 -61.5 -141t-102.5 -91.5t-106 -31.5q-47 0 -75 20.5t-28 54.5q0 6 2 18l106 560q-14 31 -37 50t-50 19q-107 0 -148 -270l-9 -62l55 4q10 1 21.5 2t23.5 1q7 0 7 -8t-12 -22t-22 -13q-42 8 -77 10l-54 -372
q-14 -97 -33 -151.5t-47 -78.5t-71 -24q-37 0 -56 14t-16 34q1 15 12.5 24t27.5 9q18 0 25 -9t12 -27q4 -14 8 -20t14 -6q12 0 19.5 15.5t16.5 59t22 134.5l51 353q2 20 2 26q0 18 -11 23t-45 5q-3 0 -3 5q0 3 1.5 6t2.5 3q35 0 50 9.5t19 34.5q28 165 85 236.5t153 71.5
q59 0 101 -25q24 16 29 43q0 3 5 3q3 0 5.5 -1.5t1.5 -2.5l-95 -519q34 77 89 126t114 49q38 0 60 -29zM610 270q0 36 -13.5 56.5t-41.5 20.5q-39 0 -75 -31.5t-63.5 -87.5t-40.5 -129l-1 -3q-1 -5 -1 -14q0 -31 21 -50t55 -19q32 0 63.5 25t56 72t35.5 110q5 23 5 50z" />
    <glyph glyph-name="f_f_b.liga" unicode="ffb" horiz-adv-x="955" 
d="M916 370q22 -29 22 -77q0 -22 -4 -42q-16 -81 -61.5 -141t-102.5 -91.5t-106 -31.5q-47 0 -75 20.5t-28 54.5q0 6 2 18l106 560q-14 31 -37 50t-50 19q-107 0 -148 -270l-9 -62l55 4q10 1 21.5 2t23.5 1q7 0 7 -8t-12 -22t-22 -13q-42 8 -77 10l-54 -372
q-14 -97 -33 -151.5t-47 -78.5t-71 -24q-37 0 -56 14t-16 34q1 15 12.5 24t27.5 9q18 0 25 -9t12 -27q4 -14 8 -20t14 -6q12 0 19.5 15.5t16.5 59t22 134.5l51 353v3l-1 -3q1 7 1 17q0 16 -9 21t-34 7q-31 2 -141 4l-55 -376q-14 -97 -33 -151.5t-47 -78.5t-71 -24
q-37 0 -56 14t-16 34q1 15 12.5 24t27.5 9q18 0 25 -9t12 -27q4 -14 8 -20t14 -6q12 0 19.5 15.5t16.5 59t22 134.5l51 353q2 20 2 26q0 18 -11 23t-45 5q-3 0 -3 5q0 3 1.5 6t2.5 3q35 0 50 9.5t19 34.5q26 129 82.5 190t142.5 61q56 0 106 -26q30 43 69.5 63t91.5 20
q59 0 101 -25q24 16 29 43q0 3 5 3q3 0 5.5 -1.5t1.5 -2.5l-95 -519q34 77 89 126t114 49q38 0 60 -29zM171 375q106 0 137 1q28 2 42 11t18 29v2q17 98 41 155q-16 37 -41 58t-54 21q-97 0 -134 -213zM864 270q0 36 -13.5 56.5t-41.5 20.5q-39 0 -75 -31.5t-63.5 -87.5
t-40.5 -129l-1 -3q-1 -5 -1 -14q0 -31 21 -50t55 -19q32 0 63.5 25t56 72t35.5 110q5 23 5 50z" />
    <glyph glyph-name="f_f_f.liga" unicode="fff" horiz-adv-x="771" 
d="M814 710.5q21 -15.5 18 -38.5q-3 -16 -14 -24.5t-25 -8.5q-19 0 -26.5 9.5t-13.5 28.5q-6 17 -11.5 24.5t-18.5 7.5q-22 0 -42 -27q18 -8 33 -20l-46 -75q-6 21 -15 35q-22 -66 -39 -183l-7 -50q12 9 15 29l11 -39l41 3l31 2q7 0 7 -8t-11.5 -22t-21.5 -13l-53 7l-21 -42
q2 14 2 17q0 13 -7 19l-53 -363q-14 -97 -33 -151.5t-47 -78.5t-71 -24q-37 0 -56 14t-16 34q1 15 12.5 24t27.5 9q18 0 25 -9t12 -27q4 -14 8 -20t14 -6q12 0 19.5 15.5t16.5 59t22 134.5l51 353q3 15 3 26q0 15 -8 21q-56 2 -105 2l-55 -376q-14 -97 -33 -151.5t-47 -78.5
t-71 -24q-35 0 -53.5 12.5t-18.5 31.5q0 16 11.5 26.5t27.5 10.5q19 0 26 -9t12 -27q4 -14 8 -20t14 -6q12 0 19.5 15.5t16 58.5t21.5 135l51 353q1 7 1 17q0 16 -9 21t-34 7q-31 2 -141 4l-55 -376q-14 -97 -33 -151.5t-47 -78.5t-71 -24q-37 0 -56 14t-16 34q1 15 12.5 24
t27.5 9q18 0 25 -9t12 -27q4 -14 8 -20t14 -6q12 0 19.5 15.5t16.5 59t22 134.5l51 353q2 20 2 26q0 18 -11 23t-45 5q-3 0 -3 5q0 3 1.5 6t2.5 3q35 0 50 9.5t19 34.5q26 129 82.5 190t142.5 61q65 0 114 -31q56 66 140 66q32 0 57 -9q39 31 105 31q38 0 59 -15.5z
M580.5 571q17.5 59 41.5 93q-25 23 -55 23q-48 0 -81.5 -62.5t-51.5 -185.5l-9 -64h77q22 3 32.5 12.5t13.5 30.5q15 94 32.5 153zM171 375q106 0 137 1q47 3 57 30l3 12q17 92 43 150q-15 39 -40.5 61.5t-56.5 22.5q-97 0 -134 -213z" />
    <glyph glyph-name="f_f_h.liga" unicode="ffh" horiz-adv-x="967" 
d="M945 79q3 0 5 -3.5t-1 -6.5q-34 -40 -60.5 -59t-52.5 -19q-20 0 -29.5 11.5t-9.5 36.5q0 20 6 50l29 159q5 24 5 50q0 56 -39 56q-31 0 -64.5 -40t-63.5 -116.5t-50 -180.5l-1 -8q-1 -8 -11.5 -12.5t-28.5 -4.5q-25 0 -25 7l5 26q6 22 11 49l103 556q-13 34 -37 56.5
t-54 22.5q-107 0 -148 -270l-9 -62l55 4q10 1 21.5 2t23.5 1q7 0 7 -8t-12 -22t-22 -13q-42 8 -77 10l-54 -372q-14 -97 -33 -151.5t-47 -78.5t-71 -24q-37 0 -56 14t-16 34q1 15 12.5 24t27.5 9q18 0 25 -9t12 -27q4 -14 8 -20t14 -6q12 0 19.5 15.5t16.5 59t22 134.5
l51 353v3l-1 -3q1 7 1 17q0 16 -9 21t-34 7q-31 2 -141 4l-55 -376q-14 -97 -33 -151.5t-47 -78.5t-71 -24q-37 0 -56 14t-16 34q1 15 12.5 24t27.5 9q18 0 25 -9t12 -27q4 -14 8 -20t14 -6q12 0 19.5 15.5t16.5 59t22 134.5l51 353q2 20 2 26q0 18 -11 23t-45 5q-3 0 -3 5
q0 3 1.5 6t2.5 3q35 0 50 9.5t19 34.5q26 129 82.5 190t142.5 61q56 0 106 -26q30 43 69.5 63t91.5 20q65 0 104 -28q26 17 32 46q1 3 7 2.5t5 -3.5l-101 -550q35 97 82.5 151.5t100.5 54.5q33 0 49.5 -19t16.5 -58q0 -23 -6 -55l-32 -178q-3 -15 -3 -26q0 -29 18 -29
q10 0 25 11t37 32q2 2 4 2zM171 375q106 0 137 1q28 2 42 11t18 29v2q17 98 41 155q-16 37 -41 58t-54 21q-97 0 -134 -213z" />
    <glyph glyph-name="f_f_j.liga" unicode="ffj" horiz-adv-x="725" 
d="M690.5 707q26.5 -19 23.5 -47q-3 -16 -13 -24.5t-25 -8.5q-17 0 -25.5 10.5t-16.5 29.5q-9 21 -18.5 31.5t-28.5 10.5q-52 0 -93 -69t-60 -201l-9 -63q80 1 133 3.5t64 3.5q33 3 54 3q8 0 10.5 -2t2.5 -8l-4 -28q-5 -21 -9 -50l-59 -330q-17 -95 -35.5 -147t-45.5 -74
t-70 -22q-36 0 -55 14t-16 34q3 16 13.5 24.5t24.5 8.5q17 0 23 -9t10 -27q4 -15 8 -21.5t13 -6.5q13 0 22.5 18t18 57.5t24.5 126.5l61 347q3 15 3 25q0 21 -15.5 29.5t-52.5 10.5t-126 2l-55 -379q-14 -97 -33 -151.5t-47 -78.5t-71 -24q-37 0 -56 14t-16 34q1 15 12.5 24
t27.5 9q18 0 25 -9t12 -27q4 -14 8 -20t14 -6q12 0 19.5 15.5t16.5 59t22 134.5l51 353v3l-1 -3q1 7 1 17q0 16 -9 21t-34 7q-31 2 -141 4l-55 -376q-14 -97 -33 -151.5t-47 -78.5t-71 -24q-37 0 -56 14t-16 34q1 15 12.5 24t27.5 9q18 0 25 -9t12 -27q4 -14 8 -20t14 -6
q12 0 19.5 15.5t16.5 59t22 134.5l51 353q2 20 2 26q0 18 -11 23t-45 5q-3 0 -3 5q0 3 1.5 6t2.5 3q35 0 50 9.5t19 34.5q26 129 82.5 190t142.5 61q62 0 111 -29q61 86 165 86q49 0 75.5 -19zM171 375q106 0 137 1q47 3 57 30l3 12q17 91 43 151q-15 38 -41 60.5t-56 22.5
q-97 0 -134 -213z" />
    <glyph glyph-name="f_f_k.liga" unicode="ffk" horiz-adv-x="927" 
d="M929 76q3 0 5.5 -3.5t-0.5 -5.5q-67 -76 -105 -76q-25 0 -42.5 14t-40.5 53l-58 99q-9 16 -16.5 21t-20.5 4l-32 -173q-1 -8 -11.5 -12.5t-28.5 -4.5q-25 0 -25 7l5 26q6 22 11 49l103 556q-13 34 -37 56.5t-54 22.5q-107 0 -148 -270l-9 -62l55 4q10 1 21.5 2t23.5 1
q7 0 7 -8t-12 -22t-22 -13q-42 8 -77 10l-54 -372q-14 -97 -33 -151.5t-47 -78.5t-71 -24q-37 0 -56 14t-16 34q1 15 12.5 24t27.5 9q18 0 25 -9t12 -27q4 -14 8 -20t14 -6q12 0 19.5 15.5t16.5 59t22 134.5l51 353v3l-1 -3q1 7 1 17q0 16 -9 21t-34 7q-31 2 -141 4
l-55 -376q-14 -97 -33 -151.5t-47 -78.5t-71 -24q-37 0 -56 14t-16 34q1 15 12.5 24t27.5 9q18 0 25 -9t12 -27q4 -14 8 -20t14 -6q12 0 19.5 15.5t16.5 59t22 134.5l51 353q2 20 2 26q0 18 -11 23t-45 5q-3 0 -3 5q0 3 1.5 6t2.5 3q35 0 50 9.5t19 34.5q26 129 82.5 190
t142.5 61q56 0 106 -26q30 43 69.5 63t91.5 20q65 0 104 -28q26 17 32 46q1 3 7 2.5t5 -3.5l-79 -427q37 38 81.5 60.5t88.5 22.5q32 0 45.5 -15t13.5 -34q0 -39 -45 -76.5t-125 -66.5l66 -112q20 -33 33.5 -44.5t29.5 -11.5q26 0 63 36q1 1 3 1zM171 375q106 0 137 1
q28 2 42 11t18 29v2q17 98 41 155q-16 37 -41 58t-54 21q-97 0 -134 -213zM709 319q-39 -46 -55 -119v-2q85 20 123.5 47.5t45.5 72.5q1 5 1 13q0 16 -8 25t-21 9q-47 0 -86 -46z" />
    <glyph glyph-name="f_f_thorn.liga" unicode="ff&#xfe;" horiz-adv-x="936" 
d="M891 364.5q27 -28.5 27 -78.5q0 -16 -3 -34q-12 -73 -51.5 -130.5t-92 -90t-100.5 -32.5q-31 0 -51 3l-33 -180q-3 -18 -3 -29q0 -17 7.5 -24t25.5 -7q6 0 24 2q4 1 5.5 -4.5t-2.5 -6.5l-178 -28q-3 -1 -4.5 5t2.5 7q22 4 32 10.5t15.5 20.5t11.5 47l88 478
q-29 -20 -50 -36l-2 -1q-3 0 -5 4t0 6q35 29 61 47l58 316q-13 35 -37 57.5t-54 22.5q-107 0 -148 -270l-9 -62l55 4q10 1 21.5 2t23.5 1q7 0 7 -8t-12 -22t-22 -13q-42 8 -77 10l-54 -372q-14 -97 -33 -151.5t-47 -78.5t-71 -24q-37 0 -56 14t-16 34q1 15 12.5 24t27.5 9
q18 0 25 -9t12 -27q4 -14 8 -20t14 -6q12 0 19.5 15.5t16.5 59t22 134.5l51 353v3l-1 -3q1 7 1 17q0 16 -9 21t-34 7q-31 2 -141 4l-55 -376q-14 -97 -33 -151.5t-47 -78.5t-71 -24q-37 0 -56 14t-16 34q1 15 12.5 24t27.5 9q18 0 25 -9t12 -27q4 -14 8 -20t14 -6
q12 0 19.5 15.5t16.5 59t22 134.5l51 353q2 20 2 26q0 18 -11 23t-45 5q-3 0 -3 5q0 3 1.5 6t2.5 3q35 0 50 9.5t19 34.5q26 129 82.5 190t142.5 61q56 0 106 -26q30 43 69.5 63t91.5 20q65 0 104 -28q26 17 32 46q1 3 7 2.5t5 -3.5l-70 -387q71 37 133 37q47 0 74 -28.5z
M171 375q106 0 137 1q28 2 42 11t18 29v2q17 98 41 155q-16 37 -41 58t-54 21q-97 0 -134 -213zM847 253q0 44 -20.5 72t-62.5 28q-40 0 -84 -21l-53 -288q32 -16 75 -16q60 0 94 50t48 142q3 17 3 33z" />
    <glyph glyph-name="f_f_t.liga" unicode="fft" horiz-adv-x="796" 
d="M798 381q2 -3 1 -7q-3 -10 -14 -22.5t-20 -11.5q-71 10 -103 11l-44 -245q-3 -16 -3 -28q0 -47 49 -47q24 0 46 11t48 31h1q3 0 6 -3t1 -5q-45 -41 -80 -59t-66 -18q-32 0 -52.5 15t-20.5 50q0 12 3 27l41 226q2 14 2 17q0 17 -12 22.5t-42 7.5q-54 2 -117 2l-55 -376
q-14 -97 -33 -151.5t-47 -78.5t-71 -24q-37 0 -56 14t-16 34q1 15 12.5 24t27.5 9q18 0 25 -9t12 -27q4 -14 8 -20t14 -6q12 0 19.5 15.5t16.5 59t22 134.5l51 353v3l-1 -3q1 7 1 17q0 16 -9 21t-34 7q-31 2 -141 4l-55 -376q-14 -97 -33 -151.5t-47 -78.5t-71 -24
q-37 0 -56 14t-16 34q1 15 12.5 24t27.5 9q18 0 25 -9t12 -27q4 -14 8 -20t14 -6q12 0 19.5 15.5t16.5 59t22 134.5l51 353q2 20 2 26q0 18 -11 23t-45 5q-3 0 -3 5q0 3 1.5 6t2.5 3q35 0 50 9.5t19 34.5q26 129 82.5 190t142.5 61q47 0 94 -20q23 42 57 59.5t85 17.5
q38 0 59 -15.5t18 -38.5q-3 -16 -14 -24.5t-25 -8.5q-19 0 -26.5 9.5t-13.5 28.5q-6 17 -11.5 24.5t-18.5 7.5q-36 0 -62.5 -67t-46.5 -203l-9 -65q94 0 127 2q43 1 71.5 21.5t39.5 56.5q0 3 7 3q4 0 7.5 -1.5t2.5 -2.5l-14 -77q19 1 97 6l29 2q4 0 6 -3zM171 375
q106 0 137 1q28 2 42 11t18 29v2q16 99 36 165q-15 32 -39 50.5t-51 18.5q-97 0 -134 -213z" />
    <glyph glyph-name="f_h.liga" unicode="fh" horiz-adv-x="713" 
d="M691 79q3 0 5 -3.5t-1 -6.5q-34 -40 -60.5 -59t-52.5 -19q-20 0 -29.5 11.5t-9.5 36.5q0 20 6 50l29 159q5 24 5 50q0 56 -39 56q-31 0 -64.5 -40t-63.5 -116.5t-50 -180.5l-1 -8q-1 -8 -11.5 -12.5t-28.5 -4.5q-25 0 -25 7l5 26q6 22 11 49l103 556q-13 34 -37 56.5
t-54 22.5q-107 0 -148 -270l-9 -62l55 4q10 1 21.5 2t23.5 1q7 0 7 -8t-12 -22t-22 -13q-42 8 -77 10l-54 -372q-14 -97 -33 -151.5t-47 -78.5t-71 -24q-37 0 -56 14t-16 34q1 15 12.5 24t27.5 9q18 0 25 -9t12 -27q4 -14 8 -20t14 -6q12 0 19.5 15.5t16.5 59t22 134.5
l51 353q2 20 2 26q0 18 -11 23t-45 5q-3 0 -3 5q0 3 1.5 6t2.5 3q35 0 50 9.5t19 34.5q28 165 85 236.5t153 71.5q65 0 104 -28q26 17 32 46q1 3 7 2.5t5 -3.5l-101 -550q35 97 82.5 151.5t100.5 54.5q33 0 49.5 -19t16.5 -58q0 -23 -6 -55l-32 -178q-3 -15 -3 -26
q0 -29 18 -29q10 0 25 11t37 32q2 2 4 2z" />
    <glyph glyph-name="f_j.liga" unicode="fj" horiz-adv-x="477" 
d="M436.5 707q26.5 -19 23.5 -47q-3 -16 -13 -24.5t-25 -8.5q-17 0 -25.5 10.5t-16.5 29.5q-9 21 -18.5 31.5t-28.5 10.5q-52 0 -93 -69t-60 -201l-9 -63q80 1 133 3.5t64 3.5q33 3 54 3q8 0 10.5 -2t2.5 -8l-4 -28q-5 -21 -9 -50l-59 -330q-17 -95 -35.5 -147t-45.5 -74
t-70 -22q-36 0 -55 14t-16 34q3 16 13.5 24.5t24.5 8.5q17 0 23 -9t10 -27q4 -15 8 -21.5t13 -6.5q13 0 22.5 18t18 57.5t24.5 126.5l61 347q3 15 3 25q0 21 -15.5 29.5t-52.5 10.5t-126 2l-55 -379q-14 -97 -33 -151.5t-47 -78.5t-71 -24q-37 0 -56 14t-16 34q1 15 12.5 24
t27.5 9q18 0 25 -9t12 -27q4 -14 8 -20t14 -6q12 0 19.5 15.5t16.5 59t22 134.5l51 353q2 20 2 26q0 18 -11 23t-45 5q-3 0 -3 5q0 3 1.5 6t2.5 3q35 0 50 9.5t19 34.5q31 166 93.5 237t153.5 71q49 0 75.5 -19z" />
    <glyph glyph-name="f_k.liga" unicode="fk" horiz-adv-x="673" 
d="M675 76q3 0 5.5 -3.5t-0.5 -5.5q-67 -76 -105 -76q-25 0 -42.5 14t-40.5 53l-58 99q-9 16 -16.5 21t-20.5 4l-32 -173q-1 -8 -11.5 -12.5t-28.5 -4.5q-25 0 -25 7l5 26q6 22 11 49l103 556q-13 34 -37 56.5t-54 22.5q-107 0 -148 -270l-9 -62l55 4q10 1 21.5 2t23.5 1
q7 0 7 -8t-12 -22t-22 -13q-42 8 -77 10l-54 -372q-14 -97 -33 -151.5t-47 -78.5t-71 -24q-37 0 -56 14t-16 34q1 15 12.5 24t27.5 9q18 0 25 -9t12 -27q4 -14 8 -20t14 -6q12 0 19.5 15.5t16.5 59t22 134.5l51 353q2 20 2 26q0 18 -11 23t-45 5q-3 0 -3 5q0 3 1.5 6t2.5 3
q35 0 50 9.5t19 34.5q28 165 85 236.5t153 71.5q65 0 104 -28q26 17 32 46q1 3 7 2.5t5 -3.5l-79 -427q37 38 81.5 60.5t88.5 22.5q32 0 45.5 -15t13.5 -34q0 -39 -45 -76.5t-125 -66.5l66 -112q20 -33 33.5 -44.5t29.5 -11.5q26 0 63 36q1 1 3 1zM455 319q-39 -46 -55 -119
v-2q85 20 123.5 47.5t45.5 72.5q1 5 1 13q0 16 -8 25t-21 9q-47 0 -86 -46z" />
    <glyph glyph-name="f_thorn.liga" unicode="f&#xfe;" horiz-adv-x="682" 
d="M637 364.5q27 -28.5 27 -78.5q0 -16 -3 -34q-12 -73 -51.5 -130.5t-92 -90t-100.5 -32.5q-31 0 -51 3l-33 -180q-3 -18 -3 -29q0 -17 7.5 -24t25.5 -7q6 0 24 2q4 1 5.5 -4.5t-2.5 -6.5l-178 -28q-3 -1 -4.5 5t2.5 7q22 4 32 10.5t15.5 20.5t11.5 47l88 478
q-29 -20 -50 -36l-2 -1q-3 0 -5 4t0 6q35 29 61 47l58 316q-13 35 -37 57.5t-54 22.5q-107 0 -148 -270l-9 -62l55 4q10 1 21.5 2t23.5 1q7 0 7 -8t-12 -22t-22 -13q-42 8 -77 10l-54 -372q-14 -97 -33 -151.5t-47 -78.5t-71 -24q-37 0 -56 14t-16 34q1 15 12.5 24t27.5 9
q18 0 25 -9t12 -27q4 -14 8 -20t14 -6q12 0 19.5 15.5t16.5 59t22 134.5l51 353q2 20 2 26q0 18 -11 23t-45 5q-3 0 -3 5q0 3 1.5 6t2.5 3q35 0 50 9.5t19 34.5q28 165 85 236.5t153 71.5q65 0 104 -28q26 17 32 46q1 3 7 2.5t5 -3.5l-70 -387q71 37 133 37q47 0 74 -28.5z
M593 253q0 44 -20.5 72t-62.5 28q-40 0 -84 -21l-53 -288q32 -16 75 -16q60 0 94 50t48 142q3 17 3 33z" />
    <glyph glyph-name="f_t.liga" unicode="ft" horiz-adv-x="542" 
d="M544 381q2 -3 1 -7q-3 -10 -14 -22.5t-20 -11.5q-71 10 -103 11l-44 -245q-3 -16 -3 -28q0 -47 49 -47q24 0 46 11t48 31h1q3 0 6 -3t1 -5q-45 -41 -80 -59t-66 -18q-32 0 -52.5 15t-20.5 50q0 12 3 27l41 226q2 14 2 17q0 17 -12 22.5t-42 7.5q-54 2 -117 2l-55 -376
q-14 -97 -33 -151.5t-47 -78.5t-71 -24q-37 0 -56 14t-16 34q1 15 12.5 24t27.5 9q18 0 25 -9t12 -27q4 -14 8 -20t14 -6q12 0 19.5 15.5t16.5 59t22 134.5l51 353q2 20 2 26q0 18 -11 23t-45 5q-3 0 -3 5q0 3 1.5 6t2.5 3q35 0 50 9.5t19 34.5q20 123 45 188.5t62.5 92.5
t99.5 27q38 0 59 -15.5t18 -38.5q-3 -16 -14 -24.5t-25 -8.5q-19 0 -26.5 9.5t-13.5 28.5q-6 17 -11.5 24.5t-18.5 7.5q-36 0 -62.5 -67t-46.5 -203l-9 -65q94 0 127 2q43 1 71.5 21.5t39.5 56.5q0 3 7 3q4 0 7.5 -1.5t2.5 -2.5l-14 -77q19 1 97 6l29 2q4 0 6 -3z" />
    <glyph glyph-name="g_g.liga" unicode="gg" horiz-adv-x="828" 
d="M385 409q3 0 6 -1.5t2 -2.5l-83 -458q-19 -110 -76.5 -169t-145.5 -59q-48 0 -78.5 19.5t-30.5 50.5q0 21 12 32t27 11t22 -8.5t15 -28.5q11 -26 24.5 -40t45.5 -14q39 0 69.5 39t49.5 143l45 261q-43 -91 -99 -144t-109 -53q-30 0 -46.5 18.5t-16.5 56.5q0 9 2 29
q10 69 53.5 141.5t102.5 119.5t111 47q42 0 68 -27q19 16 26 35q2 2 4 2zM799 409q3 0 6 -1.5t2 -2.5l-83 -458q-19 -110 -76.5 -169t-145.5 -59q-48 0 -78.5 19.5t-30.5 50.5q0 21 12 32t27 11t22 -8.5t15 -28.5q11 -26 24.5 -40t45.5 -14q39 0 69.5 39t49.5 143l45 261
q-43 -91 -99 -144t-109 -53q-30 0 -46.5 18.5t-16.5 56.5q0 9 2 29q10 69 53.5 141.5t102.5 119.5t111 47q42 0 68 -27q19 16 26 35q2 2 4 2zM197.5 79q37.5 35 67 88t39.5 102q3 14 3 27q0 29 -15 46t-43 17q-34 0 -68 -27.5t-59 -75.5t-34 -108q-4 -32 -4 -42
q0 -62 42 -62q34 0 71.5 35zM611.5 79q37.5 35 67 88t39.5 102q3 14 3 27q0 29 -15 46t-43 17q-34 0 -68 -27.5t-59 -75.5t-34 -108q-4 -32 -4 -42q0 -62 42 -62q34 0 71.5 35z" />
    <glyph glyph-name="g_y.liga" unicode="gy" horiz-adv-x="854" 
d="M385 409q3 0 6 -1.5t2 -2.5l-83 -458q-19 -110 -76.5 -169t-145.5 -59q-48 0 -78.5 19.5t-30.5 50.5q0 21 12 32t27 11t22 -8.5t15 -28.5q11 -26 24.5 -40t45.5 -14q39 0 69.5 39t49.5 143l45 261q-43 -91 -99 -144t-109 -53q-30 0 -46.5 18.5t-16.5 56.5q0 9 2 29
q10 69 53.5 141.5t102.5 119.5t111 47q42 0 68 -27q19 16 26 35q2 2 4 2zM821 392.5q6 -1.5 6 -4.5q0 -5 -6 -28q-9 -40 -10 -48l-70 -382q-17 -98 -71 -154.5t-139 -56.5q-46 0 -75 19t-29 47q0 7 1 10q3 19 13.5 28.5t24.5 9.5t20.5 -8.5t13.5 -27.5q10 -28 24 -42.5
t47 -14.5q35 0 62 36t44 130l50 287q-36 -97 -83.5 -151.5t-100.5 -54.5q-67 0 -67 76q0 19 7 56l36 178q3 15 3 25q0 30 -19 30q-10 0 -25 -11t-36 -32q-2 -2 -4 -2q-3 0 -5 3.5t1 6.5q34 40 60 59t52 19q40 0 40 -49q0 -20 -6 -49l-32 -159q-6 -30 -6 -51q0 -55 40 -55
q30 0 62 37t61.5 108.5t49.5 169.5l6 33q1 6 10 10t25 4q19 0 25 -1.5zM197.5 79q37.5 35 67 88t39.5 102q3 14 3 27q0 29 -15 46t-43 17q-34 0 -68 -27.5t-59 -75.5t-34 -108q-4 -32 -4 -42q0 -62 42 -62q34 0 71.5 35z" />
    <glyph glyph-name="g_yacute.liga" unicode="g&#xfd;" horiz-adv-x="854" 
d="M666.5 472q-5.5 2 -3.5 4l87 240q2 5 24.5 10t39.5 5q13 0 12 -4l-153 -254q-1 -3 -6.5 -1zM385 409q3 0 6 -1.5t2 -2.5l-83 -458q-19 -110 -76.5 -169t-145.5 -59q-48 0 -78.5 19.5t-30.5 50.5q0 21 12 32t27 11t22 -8.5t15 -28.5q11 -26 24.5 -40t45.5 -14
q39 0 69.5 39t49.5 143l45 261q-43 -91 -99 -144t-109 -53q-30 0 -46.5 18.5t-16.5 56.5q0 9 2 29q10 69 53.5 141.5t102.5 119.5t111 47q42 0 68 -27q19 16 26 35q2 2 4 2zM821 392.5q6 -1.5 6 -4.5q0 -5 -6 -28q-9 -40 -10 -48l-70 -382q-17 -98 -71 -154.5t-139 -56.5
q-46 0 -75 19t-29 47q0 7 1 10q3 19 13.5 28.5t24.5 9.5t20.5 -8.5t13.5 -27.5q10 -28 24 -42.5t47 -14.5q35 0 62 36t44 130l50 287q-36 -97 -83.5 -151.5t-100.5 -54.5q-67 0 -67 76q0 19 7 56l36 178q3 15 3 25q0 30 -19 30q-10 0 -25 -11t-36 -32q-2 -2 -4 -2
q-3 0 -5 3.5t1 6.5q34 40 60 59t52 19q40 0 40 -49q0 -20 -6 -49l-32 -159q-6 -30 -6 -51q0 -55 40 -55q30 0 62 37t61.5 108.5t49.5 169.5l6 33q1 6 10 10t25 4q19 0 25 -1.5zM197.5 79q37.5 35 67 88t39.5 102q3 14 3 27q0 29 -15 46t-43 17q-34 0 -68 -27.5t-59 -75.5
t-34 -108q-4 -32 -4 -42q0 -62 42 -62q34 0 71.5 35z" />
    <glyph glyph-name="g_ycircumflex.liga" unicode="g&#x177;" horiz-adv-x="854" 
d="M610 473q-3 0 -5.5 1.5t-1.5 3.5l109 249q3 5 11 5t8 -5l22 -249q0 -3 -5.5 -3.5t-6.5 2.5l-38 139l-90 -142q-1 -1 -3 -1zM385 409q3 0 6 -1.5t2 -2.5l-83 -458q-19 -110 -76.5 -169t-145.5 -59q-48 0 -78.5 19.5t-30.5 50.5q0 21 12 32t27 11t22 -8.5t15 -28.5
q11 -26 24.5 -40t45.5 -14q39 0 69.5 39t49.5 143l45 261q-43 -91 -99 -144t-109 -53q-30 0 -46.5 18.5t-16.5 56.5q0 9 2 29q10 69 53.5 141.5t102.5 119.5t111 47q42 0 68 -27q19 16 26 35q2 2 4 2zM821 392.5q6 -1.5 6 -4.5q0 -5 -6 -28q-9 -40 -10 -48l-70 -382
q-17 -98 -71 -154.5t-139 -56.5q-46 0 -75 19t-29 47q0 7 1 10q3 19 13.5 28.5t24.5 9.5t20.5 -8.5t13.5 -27.5q10 -28 24 -42.5t47 -14.5q35 0 62 36t44 130l50 287q-36 -97 -83.5 -151.5t-100.5 -54.5q-67 0 -67 76q0 19 7 56l36 178q3 15 3 25q0 30 -19 30q-10 0 -25 -11
t-36 -32q-2 -2 -4 -2q-3 0 -5 3.5t1 6.5q34 40 60 59t52 19q40 0 40 -49q0 -20 -6 -49l-32 -159q-6 -30 -6 -51q0 -55 40 -55q30 0 62 37t61.5 108.5t49.5 169.5l6 33q1 6 10 10t25 4q19 0 25 -1.5zM197.5 79q37.5 35 67 88t39.5 102q3 14 3 27q0 29 -15 46t-43 17
q-34 0 -68 -27.5t-59 -75.5t-34 -108q-4 -32 -4 -42q0 -62 42 -62q34 0 71.5 35z" />
    <glyph glyph-name="g_ydieresis.liga" unicode="g&#xff;" horiz-adv-x="854" 
d="M579 485q-12 12 -12 34q0 21 12 32.5t34 11.5q21 0 32.5 -11.5t11.5 -32.5q0 -22 -11.5 -34t-32.5 -12q-22 0 -34 12zM732 485q-12 12 -12 34q0 21 12 32.5t34 11.5q21 0 33 -11.5t12 -32.5q0 -22 -12 -34t-33 -12q-22 0 -34 12zM385 409q3 0 6 -1.5t2 -2.5l-83 -458
q-19 -110 -76.5 -169t-145.5 -59q-48 0 -78.5 19.5t-30.5 50.5q0 21 12 32t27 11t22 -8.5t15 -28.5q11 -26 24.5 -40t45.5 -14q39 0 69.5 39t49.5 143l45 261q-43 -91 -99 -144t-109 -53q-30 0 -46.5 18.5t-16.5 56.5q0 9 2 29q10 69 53.5 141.5t102.5 119.5t111 47
q42 0 68 -27q19 16 26 35q2 2 4 2zM821 392.5q6 -1.5 6 -4.5q0 -5 -6 -28q-9 -40 -10 -48l-70 -382q-17 -98 -71 -154.5t-139 -56.5q-46 0 -75 19t-29 47q0 7 1 10q3 19 13.5 28.5t24.5 9.5t20.5 -8.5t13.5 -27.5q10 -28 24 -42.5t47 -14.5q35 0 62 36t44 130l50 287
q-36 -97 -83.5 -151.5t-100.5 -54.5q-67 0 -67 76q0 19 7 56l36 178q3 15 3 25q0 30 -19 30q-10 0 -25 -11t-36 -32q-2 -2 -4 -2q-3 0 -5 3.5t1 6.5q34 40 60 59t52 19q40 0 40 -49q0 -20 -6 -49l-32 -159q-6 -30 -6 -51q0 -55 40 -55q30 0 62 37t61.5 108.5t49.5 169.5
l6 33q1 6 10 10t25 4q19 0 25 -1.5zM197.5 79q37.5 35 67 88t39.5 102q3 14 3 27q0 29 -15 46t-43 17q-34 0 -68 -27.5t-59 -75.5t-34 -108q-4 -32 -4 -42q0 -62 42 -62q34 0 71.5 35z" />
    <glyph glyph-name="g_ygrave.liga" unicode="g&#x1ef3;" horiz-adv-x="854" 
d="M636 727q-1 5 13 5q16 0 35.5 -5.5t19.5 -10.5l-11 -240q0 -2 -4.5 -3t-4.5 2zM385 409q3 0 6 -1.5t2 -2.5l-83 -458q-19 -110 -76.5 -169t-145.5 -59q-48 0 -78.5 19.5t-30.5 50.5q0 21 12 32t27 11t22 -8.5t15 -28.5q11 -26 24.5 -40t45.5 -14q39 0 69.5 39t49.5 143
l45 261q-43 -91 -99 -144t-109 -53q-30 0 -46.5 18.5t-16.5 56.5q0 9 2 29q10 69 53.5 141.5t102.5 119.5t111 47q42 0 68 -27q19 16 26 35q2 2 4 2zM821 392.5q6 -1.5 6 -4.5q0 -5 -6 -28q-9 -40 -10 -48l-70 -382q-17 -98 -71 -154.5t-139 -56.5q-46 0 -75 19t-29 47
q0 7 1 10q3 19 13.5 28.5t24.5 9.5t20.5 -8.5t13.5 -27.5q10 -28 24 -42.5t47 -14.5q35 0 62 36t44 130l50 287q-36 -97 -83.5 -151.5t-100.5 -54.5q-67 0 -67 76q0 19 7 56l36 178q3 15 3 25q0 30 -19 30q-10 0 -25 -11t-36 -32q-2 -2 -4 -2q-3 0 -5 3.5t1 6.5q34 40 60 59
t52 19q40 0 40 -49q0 -20 -6 -49l-32 -159q-6 -30 -6 -51q0 -55 40 -55q30 0 62 37t61.5 108.5t49.5 169.5l6 33q1 6 10 10t25 4q19 0 25 -1.5zM197.5 79q37.5 35 67 88t39.5 102q3 14 3 27q0 29 -15 46t-43 17q-34 0 -68 -27.5t-59 -75.5t-34 -108q-4 -32 -4 -42
q0 -62 42 -62q34 0 71.5 35z" />
    <glyph glyph-name="uni00670233.liga" unicode="g&#x233;" horiz-adv-x="854" 
d="M566 493q0 16 7 16h234q4 0 6 -5t2 -11t-2 -11t-6 -5h-234q-7 0 -7 16zM385 409q3 0 6 -1.5t2 -2.5l-83 -458q-19 -110 -76.5 -169t-145.5 -59q-48 0 -78.5 19.5t-30.5 50.5q0 21 12 32t27 11t22 -8.5t15 -28.5q11 -26 24.5 -40t45.5 -14q39 0 69.5 39t49.5 143l45 261
q-43 -91 -99 -144t-109 -53q-30 0 -46.5 18.5t-16.5 56.5q0 9 2 29q10 69 53.5 141.5t102.5 119.5t111 47q42 0 68 -27q19 16 26 35q2 2 4 2zM821 392.5q6 -1.5 6 -4.5q0 -5 -6 -28q-9 -40 -10 -48l-70 -382q-17 -98 -71 -154.5t-139 -56.5q-46 0 -75 19t-29 47q0 7 1 10
q3 19 13.5 28.5t24.5 9.5t20.5 -8.5t13.5 -27.5q10 -28 24 -42.5t47 -14.5q35 0 62 36t44 130l50 287q-36 -97 -83.5 -151.5t-100.5 -54.5q-67 0 -67 76q0 19 7 56l36 178q3 15 3 25q0 30 -19 30q-10 0 -25 -11t-36 -32q-2 -2 -4 -2q-3 0 -5 3.5t1 6.5q34 40 60 59t52 19
q40 0 40 -49q0 -20 -6 -49l-32 -159q-6 -30 -6 -51q0 -55 40 -55q30 0 62 37t61.5 108.5t49.5 169.5l6 33q1 6 10 10t25 4q19 0 25 -1.5zM197.5 79q37.5 35 67 88t39.5 102q3 14 3 27q0 29 -15 46t-43 17q-34 0 -68 -27.5t-59 -75.5t-34 -108q-4 -32 -4 -42q0 -62 42 -62
q34 0 71.5 35z" />
    <glyph glyph-name="uni00671EF9.liga" unicode="g&#x1ef9;" horiz-adv-x="854" 
d="M555 477q-3 0 -5 2.5t0 4.5q47 67 90 67q14 0 50 -10q46 -14 74 -14q19 0 30.5 6.5t24.5 20.5h1q3 0 5.5 -2.5t0.5 -4.5q-28 -40 -45.5 -54t-39.5 -14q-20 0 -60 12q-4 1 -25.5 7t-43.5 6q-18 0 -28 -5t-17 -12l-10 -10h-2zM385 409q3 0 6 -1.5t2 -2.5l-83 -458
q-19 -110 -76.5 -169t-145.5 -59q-48 0 -78.5 19.5t-30.5 50.5q0 21 12 32t27 11t22 -8.5t15 -28.5q11 -26 24.5 -40t45.5 -14q39 0 69.5 39t49.5 143l45 261q-43 -91 -99 -144t-109 -53q-30 0 -46.5 18.5t-16.5 56.5q0 9 2 29q10 69 53.5 141.5t102.5 119.5t111 47
q42 0 68 -27q19 16 26 35q2 2 4 2zM821 392.5q6 -1.5 6 -4.5q0 -5 -6 -28q-9 -40 -10 -48l-70 -382q-17 -98 -71 -154.5t-139 -56.5q-46 0 -75 19t-29 47q0 7 1 10q3 19 13.5 28.5t24.5 9.5t20.5 -8.5t13.5 -27.5q10 -28 24 -42.5t47 -14.5q35 0 62 36t44 130l50 287
q-36 -97 -83.5 -151.5t-100.5 -54.5q-67 0 -67 76q0 19 7 56l36 178q3 15 3 25q0 30 -19 30q-10 0 -25 -11t-36 -32q-2 -2 -4 -2q-3 0 -5 3.5t1 6.5q34 40 60 59t52 19q40 0 40 -49q0 -20 -6 -49l-32 -159q-6 -30 -6 -51q0 -55 40 -55q30 0 62 37t61.5 108.5t49.5 169.5
l6 33q1 6 10 10t25 4q19 0 25 -1.5zM197.5 79q37.5 35 67 88t39.5 102q3 14 3 27q0 29 -15 46t-43 17q-34 0 -68 -27.5t-59 -75.5t-34 -108q-4 -32 -4 -42q0 -62 42 -62q34 0 71.5 35z" />
    <glyph glyph-name="longs_b.liga" unicode="&#x17f;b" horiz-adv-x="713" 
d="M674.5 370.5q21.5 -28.5 21.5 -76.5q0 -23 -4 -43q-16 -81 -61 -141t-102 -91.5t-106 -31.5q-48 0 -76 20t-28 55q0 6 2 18l105 562q-13 30 -36 48.5t-50 18.5q-53 0 -90.5 -68t-56.5 -202l-68 -460q-14 -97 -33 -151.5t-47 -78.5t-71 -24q-35 0 -53.5 12.5t-18.5 31.5
q0 16 11.5 26.5t27.5 10.5q19 0 26 -9t12 -27q4 -14 8 -20t14 -6q12 0 19.5 15.5t15.5 57.5t22 136l68 465q24 164 82.5 236t155.5 72q62 0 100 -25q24 16 29 43q1 3 7 2.5t5 -3.5l-95 -520q35 78 90 127t114 49q39 0 60.5 -28.5zM623 271q0 35 -14 55.5t-42 20.5
q-39 0 -75.5 -31.5t-64 -88.5t-40.5 -130v-1q-1 -5 -1 -14q0 -31 21 -50t55 -19q32 0 63.5 25t56 72t35.5 110q6 27 6 51z" />
    <glyph glyph-name="longs_h.liga" unicode="&#x17f;h" horiz-adv-x="719" 
d="M696 79q3 0 5 -3.5t-1 -6.5q-34 -40 -60 -59t-52 -19q-20 0 -29.5 12t-9.5 37q0 17 5 49l30 159q5 24 5 50q0 56 -39 56q-32 0 -65.5 -40.5t-63.5 -117.5t-49 -183l-1 -4q-1 -8 -11.5 -12.5t-28.5 -4.5q-26 0 -26 7q1 6 6.5 30t9.5 45l105 567q-13 30 -36 49t-50 19
q-53 0 -90.5 -68t-56.5 -202l-68 -460q-14 -97 -33 -151.5t-47 -78.5t-71 -24q-35 0 -53.5 12.5t-18.5 31.5q0 16 11.5 26.5t27.5 10.5q19 0 26 -9t12 -27q4 -14 8 -20t14 -6q12 0 19.5 15.5t15.5 57.5t22 136l68 465q24 164 82.5 236t155.5 72q62 0 100 -25q24 16 29 43
q1 3 7 2.5t5 -3.5l-100 -549q35 97 82.5 151t100.5 54q33 0 49.5 -19t16.5 -60q0 -20 -5 -53l-33 -178q-3 -16 -3 -27q0 -28 18 -28q10 0 25 11t36 32q2 2 4 2z" />
    <glyph glyph-name="longs_i.liga" unicode="&#x17f;i" horiz-adv-x="485" 
d="M-79.5 -262.5q-18.5 12.5 -18.5 31.5q0 16 11.5 26.5t27.5 10.5q19 0 26 -9t12 -27q4 -14 8 -20t14 -6q12 0 19.5 15.5t15.5 57.5t22 136l68 465q24 164 86 236t150 72q46 0 72 -17t26 -43q0 -19 -10.5 -29t-26.5 -10q-17 0 -26 10.5t-17 29.5q-9 21 -18 31.5t-28 10.5
q-48 0 -85 -68.5t-57 -201.5l-67 -460q-14 -97 -33 -151.5t-47 -78.5t-71 -24q-35 0 -53.5 12.5zM272 40q0 21 6 49l41 208q3 15 3 26q0 30 -19 30q-11 0 -28 -11.5t-37 -32.5q-1 -1 -3 -1q-3 0 -5.5 3.5t0.5 5.5q66 78 117 78q20 0 29.5 -11.5t9.5 -35.5q0 -23 -5 -46
l-41 -213q-3 -15 -3 -26q0 -29 18 -29q23 0 63 42q1 1 3 1q4 0 6 -3.5t-1 -5.5q-33 -39 -60.5 -58t-53.5 -19q-40 0 -40 49z" />
    <glyph glyph-name="longs_j.liga" unicode="&#x17f;j" horiz-adv-x="495" 
d="M-79.5 -262.5q-18.5 12.5 -18.5 31.5q0 16 11.5 26.5t27.5 10.5q19 0 26 -9t12 -27q4 -14 8 -20t14 -6q12 0 19.5 15.5t15.5 57.5t22 136l68 465q25 163 90.5 235.5t155.5 72.5q50 0 76.5 -19t23.5 -47q-3 -16 -13 -24.5t-25 -8.5q-17 0 -25.5 9.5t-16.5 29.5
q-9 21 -18.5 32t-29.5 11q-51 0 -91 -69t-61 -201l-67 -460q-14 -97 -33 -151.5t-47 -78.5t-71 -24q-35 0 -53.5 12.5zM138 -261q-19 14 -16 34q3 16 13.5 24.5t24.5 8.5q17 0 23 -9t10 -27q4 -15 8 -21.5t13 -6.5q13 0 22.5 18t18.5 58.5t24 125.5l61 353q3 15 3 25
q0 31 -19 31q-24 0 -66 -44q-1 -1 -3 -1q-3 0 -5 3.5t0 5.5q35 41 63.5 59.5t55.5 18.5q20 0 29 -11.5t9 -36.5q0 -15 -5 -45l-58 -334q-16 -95 -35 -147t-46 -74t-70 -22q-36 0 -55 14z" />
    <glyph glyph-name="longs_k.liga" unicode="&#x17f;k" horiz-adv-x="685" 
d="M681 76q3 0 5 -3.5t0 -5.5q-67 -76 -105 -76q-25 0 -43 14.5t-40 52.5l-58 99q-9 16 -16.5 21t-20.5 4l-32 -173q-1 -8 -11.5 -12.5t-28.5 -4.5q-26 0 -26 7q1 6 6.5 30t9.5 45l105 567q-13 30 -36 49t-50 19q-53 0 -90.5 -68t-56.5 -202l-68 -460q-14 -97 -33 -151.5
t-47 -78.5t-71 -24q-35 0 -53.5 12.5t-18.5 31.5q0 16 11.5 26.5t27.5 10.5q19 0 26 -9t12 -27q4 -14 8 -20t14 -6q12 0 19.5 15.5t15.5 57.5t22 136l68 465q24 164 82.5 236t155.5 72q62 0 100 -25q24 16 29 43q1 3 7 2.5t5 -3.5l-78 -427q37 39 81 61t89 22q32 0 45.5 -15
t13.5 -34q0 -39 -45.5 -76.5t-124.5 -66.5l65 -112q20 -33 34 -44.5t30 -11.5q24 0 63 36q1 1 3 1zM460.5 319q-38.5 -46 -54.5 -119v-2q85 20 123.5 47.5t45.5 72.5q1 4 1 12q0 17 -8 26t-22 9q-47 0 -85.5 -46z" />
    <glyph glyph-name="longs_l.liga" unicode="&#x17f;l" horiz-adv-x="506" 
d="M385 89q-3 -15 -3 -25q0 -30 19 -30q17 0 62 43q2 2 3 2q3 0 5.5 -3.5t-0.5 -6.5q-36 -40 -62 -59t-52 -19q-20 0 -29.5 12t-9.5 38q0 24 5 48l103 553q-13 30 -36 48.5t-50 18.5q-53 0 -90.5 -68t-56.5 -202l-68 -460q-14 -97 -33 -151.5t-47 -78.5t-71 -24
q-35 0 -53.5 12.5t-18.5 31.5q0 16 11.5 26.5t27.5 10.5q19 0 26 -9t12 -27q4 -14 8 -20t14 -6q12 0 19.5 15.5t15.5 57.5t22 136l68 465q24 164 82.5 236t155.5 72q62 0 100 -25q24 16 29 43q1 3 7 2.5t5 -3.5z" />
    <glyph glyph-name="longs_thorn.liga" unicode="&#x17f;&#xfe;" horiz-adv-x="690" 
d="M647 364q27 -29 27 -79q0 -16 -3 -33q-13 -73 -52.5 -131t-92 -90t-100.5 -32q-31 0 -51 3l-33 -180q-3 -17 -3 -28q0 -17 8 -24.5t25 -7.5q6 0 24 2q4 1 5.5 -4.5t-2.5 -6.5l-178 -28q-4 -1 -5 5t3 7q22 4 32 10.5t15.5 20.5t11.5 47l88 478q-19 -13 -49 -36l-2 -1
q-4 0 -6 4t1 6q31 27 60 47l59 322q-13 32 -37 53t-52 21q-53 0 -90.5 -68t-56.5 -202l-68 -460q-14 -97 -33 -151.5t-47 -78.5t-71 -24q-35 0 -53.5 12.5t-18.5 31.5q0 16 11.5 26.5t27.5 10.5q19 0 26 -9t12 -27q4 -14 8 -20t14 -6q12 0 19.5 15.5t15.5 57.5t22 136
l68 465q24 164 82.5 236t155.5 72q64 0 102 -27q26 16 31 45q0 3 5 3q3 0 5.5 -1.5t1.5 -2.5l-70 -387q71 37 133 37q48 0 75 -29zM601 252q0 45 -20 73t-62 28q-40 0 -84 -21l-53 -288q32 -16 75 -16q60 0 94 50t48 142q2 11 2 32z" />
    <glyph glyph-name="longs_longs.liga" unicode="&#x17f;&#x17f;" horiz-adv-x="493" 
d="M626 712.5q18 -13.5 18 -34.5q0 -17 -10 -27.5t-26 -10.5q-20 0 -26.5 9.5t-10.5 29.5q-3 16 -7 23.5t-16 7.5q-34 0 -57.5 -65t-44.5 -206l-68 -460q-14 -97 -32.5 -151.5t-46.5 -78.5t-71 -24q-35 0 -53 14t-16 36q2 14 13 22.5t27 8.5q18 0 25 -9t12 -27
q4 -13 8.5 -19.5t13.5 -6.5q11 0 18.5 15.5t15 57t21.5 136.5l68 465q15 110 37 173q-16 29 -38.5 45t-48.5 16q-48 0 -82.5 -54t-50.5 -159l-67 -460q-14 -97 -33 -151.5t-47 -78.5t-71 -24q-35 0 -53.5 12.5t-18.5 31.5q0 16 11.5 26.5t27.5 10.5q19 0 26 -9t12 -27
q4 -14 8 -20t14 -6q12 0 19.5 15.5t15.5 57.5t22 136l68 465q19 127 78 189t146 62q46 0 88 -17q23 40 54 57t75 17q35 0 53 -13.5z" />
    <glyph glyph-name="longs_longs_b.liga" unicode="&#x17f;&#x17f;b" horiz-adv-x="965" 
d="M925.5 370.5q21.5 -28.5 21.5 -76.5q0 -23 -4 -43q-16 -81 -61 -141t-102 -91.5t-106 -31.5q-48 0 -76 20t-28 55q0 6 2 18l105 562q-13 30 -36 48.5t-50 18.5q-53 0 -90.5 -68t-56.5 -202l-68 -460q-14 -97 -33 -151.5t-47 -78.5t-71 -24q-35 0 -53.5 12.5t-18.5 31.5
q0 16 11.5 26.5t27.5 10.5q19 0 26 -9t12 -27q4 -14 8 -20t14 -6q12 0 19.5 15.5t15.5 57.5t22 136l68 465q14 97 43 168q-15 31 -38.5 48.5t-50.5 17.5q-48 0 -82.5 -54t-50.5 -159l-67 -460q-14 -97 -33 -151.5t-47 -78.5t-71 -24q-35 0 -53.5 12.5t-18.5 31.5
q0 16 11.5 26.5t27.5 10.5q19 0 26 -9t12 -27q4 -14 8 -20t14 -6q12 0 19.5 15.5t15.5 57.5t22 136l68 465q19 127 78 189t146 62q53 0 99 -22q29 41 69 60t91 19q62 0 100 -25q24 16 29 43q1 3 7 2.5t5 -3.5l-95 -520q35 78 90 127t114 49q39 0 60.5 -28.5zM874 271
q0 35 -14 55.5t-42 20.5q-39 0 -75.5 -31.5t-64 -88.5t-40.5 -130v-1q-1 -5 -1 -14q0 -31 21 -50t55 -19q32 0 63.5 25t56 72t35.5 110q6 27 6 51z" />
    <glyph glyph-name="longs_longs_h.liga" unicode="&#x17f;&#x17f;h" horiz-adv-x="974" 
d="M952 79q3 0 5 -3.5t-1 -6.5q-34 -40 -60 -59t-52 -19q-20 0 -29.5 12t-9.5 37q0 17 5 49l30 159q5 24 5 50q0 56 -39 56q-32 0 -65.5 -40.5t-63.5 -117.5t-49 -183l-1 -4q-1 -8 -11.5 -12.5t-28.5 -4.5q-26 0 -26 7q1 6 6.5 30t9.5 45l105 567q-13 30 -36 49t-50 19
q-53 0 -90.5 -68t-56.5 -202l-68 -460q-14 -97 -33 -151.5t-47 -78.5t-71 -24q-35 0 -53.5 12.5t-18.5 31.5q0 16 11.5 26.5t27.5 10.5q19 0 26 -9t12 -27q4 -14 8 -20t14 -6q12 0 19.5 15.5t15.5 57.5t22 136l68 465q15 102 41 163q-15 33 -39 52t-53 19q-48 0 -82.5 -54
t-50.5 -159l-67 -460q-14 -97 -33 -151.5t-47 -78.5t-71 -24q-35 0 -53.5 12.5t-18.5 31.5q0 16 11.5 26.5t27.5 10.5q19 0 26 -9t12 -27q4 -14 8 -20t14 -6q12 0 19.5 15.5t15.5 57.5t22 136l68 465q19 127 78 189t146 62q54 0 102 -23q59 80 162 80q63 0 100 -25
q24 16 29 43q1 3 7 2.5t5 -3.5l-100 -549q35 97 82.5 151t100.5 54q33 0 49.5 -19t16.5 -60q0 -20 -5 -53l-33 -178q-3 -16 -3 -27q0 -28 18 -28q10 0 25 11t36 32q2 2 4 2z" />
    <glyph glyph-name="longs_longs_i.liga" unicode="&#x17f;&#x17f;i" horiz-adv-x="735" 
d="M684 709q26 -17 26 -43q0 -19 -10.5 -29t-26.5 -10q-17 0 -26 10.5t-17 29.5q-9 21 -18 31.5t-28 10.5q-48 0 -85 -68.5t-57 -201.5l-67 -460q-14 -97 -33 -151.5t-47 -78.5t-71 -24q-35 0 -53.5 12.5t-18.5 31.5q0 16 11.5 26.5t27.5 10.5q19 0 26 -9t12 -27
q4 -14 8 -20t14 -6q12 0 19.5 15.5t15.5 57.5t22 136l68 465q15 101 45 168q-16 31 -39.5 48.5t-50.5 17.5q-48 0 -82.5 -54t-50.5 -159l-67 -460q-14 -97 -33 -151.5t-47 -78.5t-71 -24q-35 0 -53.5 12.5t-18.5 31.5q0 16 11.5 26.5t27.5 10.5q19 0 26 -9t12 -27
q4 -14 8 -20t14 -6q12 0 19.5 15.5t15.5 57.5t22 136l68 465q19 127 78 189t146 62q52 0 100 -22q60 79 156 79q46 0 72 -17zM671 77q4 0 6 -3.5t-1 -5.5q-33 -39 -60.5 -58t-53.5 -19q-40 0 -40 49q0 21 6 49l41 208q3 15 3 26q0 30 -19 30q-11 0 -28 -11.5t-37 -32.5
q-1 -1 -3 -1q-3 0 -5.5 3.5t0.5 5.5q66 78 117 78q20 0 29.5 -11.5t9.5 -35.5q0 -23 -5 -46l-41 -213q-3 -15 -3 -26q0 -29 18 -29q23 0 63 42q1 1 3 1z" />
    <glyph glyph-name="longs_longs_j.liga" unicode="&#x17f;&#x17f;j" horiz-adv-x="735" 
d="M698.5 707q26.5 -19 23.5 -47q-3 -16 -13 -24.5t-25 -8.5q-17 0 -25.5 9.5t-16.5 29.5q-9 21 -18.5 32t-29.5 11q-51 0 -91 -69t-61 -201l-67 -460q-14 -97 -33 -151.5t-47 -78.5t-71 -24q-35 0 -53.5 12.5t-18.5 31.5q0 16 11.5 26.5t27.5 10.5q19 0 26 -9t12 -27
q4 -14 8 -20t14 -6q12 0 19.5 15.5t15.5 57.5t22 136l68 465q15 97 46 165q-15 32 -39 50.5t-52 18.5q-48 0 -82.5 -54t-50.5 -159l-67 -460q-14 -97 -33 -151.5t-47 -78.5t-71 -24q-35 0 -53.5 12.5t-18.5 31.5q0 16 11.5 26.5t27.5 10.5q19 0 26 -9t12 -27q4 -14 8 -20
t14 -6q12 0 19.5 15.5t15.5 57.5t22 136l68 465q19 127 78 189t146 62q54 0 104 -24q63 81 162 81q50 0 76.5 -19zM648 383.5q9 -11.5 9 -36.5q0 -15 -5 -45l-58 -334q-16 -95 -35 -147t-46 -74t-70 -22q-36 0 -55 14t-16 34q3 16 13.5 24.5t24.5 8.5q17 0 23 -9t10 -27
q4 -15 8 -21.5t13 -6.5q13 0 22.5 18t18.5 58.5t24 125.5l61 353q3 15 3 25q0 31 -19 31q-24 0 -66 -44q-1 -1 -3 -1q-3 0 -5 3.5t0 5.5q35 41 63.5 59.5t55.5 18.5q20 0 29 -11.5z" />
    <glyph glyph-name="longs_longs_k.liga" unicode="&#x17f;&#x17f;k" horiz-adv-x="935" 
d="M937 76q3 0 5 -3.5t0 -5.5q-67 -76 -105 -76q-25 0 -43 14.5t-40 52.5l-58 99q-9 16 -16.5 21t-20.5 4l-32 -173q-1 -8 -11.5 -12.5t-28.5 -4.5q-26 0 -26 7q1 6 6.5 30t9.5 45l105 567q-13 30 -36 49t-50 19q-53 0 -90.5 -68t-56.5 -202l-68 -460q-14 -97 -33 -151.5
t-47 -78.5t-71 -24q-35 0 -53.5 12.5t-18.5 31.5q0 16 11.5 26.5t27.5 10.5q19 0 26 -9t12 -27q4 -14 8 -20t14 -6q12 0 19.5 15.5t15.5 57.5t22 136l68 465q15 102 41 163q-15 33 -39 52t-53 19q-48 0 -82.5 -54t-50.5 -159l-67 -460q-14 -97 -33 -151.5t-47 -78.5t-71 -24
q-35 0 -53.5 12.5t-18.5 31.5q0 16 11.5 26.5t27.5 10.5q19 0 26 -9t12 -27q4 -14 8 -20t14 -6q12 0 19.5 15.5t15.5 57.5t22 136l68 465q19 127 78 189t146 62q54 0 102 -23q59 80 162 80q63 0 100 -25q24 16 29 43q1 3 7 2.5t5 -3.5l-78 -427q37 39 81 61t89 22
q32 0 45.5 -15t13.5 -34q0 -39 -45.5 -76.5t-124.5 -66.5l65 -112q20 -33 34 -44.5t30 -11.5q24 0 63 36q1 1 3 1zM716.5 319q-38.5 -46 -54.5 -119v-2q85 20 123.5 47.5t45.5 72.5q1 4 1 12q0 17 -8 26t-22 9q-47 0 -85.5 -46z" />
    <glyph glyph-name="longs_longs_l.liga" unicode="&#x17f;&#x17f;l" horiz-adv-x="761" 
d="M641 89q-3 -15 -3 -25q0 -30 19 -30q17 0 62 43q2 2 3 2q3 0 5.5 -3.5t-0.5 -6.5q-36 -40 -62 -59t-52 -19q-20 0 -29.5 12t-9.5 38q0 24 5 48l103 553q-13 30 -36 48.5t-50 18.5q-53 0 -90.5 -68t-56.5 -202l-68 -460q-14 -97 -33 -151.5t-47 -78.5t-71 -24
q-35 0 -53.5 12.5t-18.5 31.5q0 16 11.5 26.5t27.5 10.5q19 0 26 -9t12 -27q4 -14 8 -20t14 -6q12 0 19.5 15.5t15.5 57.5t22 136l68 465q15 102 41 163q-15 33 -39 52t-53 19q-48 0 -82.5 -54t-50.5 -159l-67 -460q-14 -97 -33 -151.5t-47 -78.5t-71 -24q-35 0 -53.5 12.5
t-18.5 31.5q0 16 11.5 26.5t27.5 10.5q19 0 26 -9t12 -27q4 -14 8 -20t14 -6q12 0 19.5 15.5t15.5 57.5t22 136l68 465q19 127 78 189t146 62q54 0 102 -23q59 80 162 80q63 0 100 -25q24 16 29 43q1 3 7 2.5t5 -3.5z" />
    <glyph glyph-name="longs_longs_thorn.liga" unicode="&#x17f;&#x17f;&#xfe;" horiz-adv-x="946" 
d="M903 364q27 -29 27 -79q0 -16 -3 -33q-13 -73 -52.5 -131t-92 -90t-100.5 -32q-31 0 -51 3l-33 -180q-3 -17 -3 -28q0 -17 8 -24.5t25 -7.5q6 0 24 2q4 1 5.5 -4.5t-2.5 -6.5l-178 -28q-4 -1 -5 5t3 7q22 4 32 10.5t15.5 20.5t11.5 47l88 478q-19 -13 -49 -36l-2 -1
q-4 0 -6 4t1 6q31 27 60 47l59 322q-13 32 -37 53t-52 21q-53 0 -90.5 -68t-56.5 -202l-68 -460q-14 -97 -33 -151.5t-47 -78.5t-71 -24q-35 0 -53.5 12.5t-18.5 31.5q0 16 11.5 26.5t27.5 10.5q19 0 26 -9t12 -27q4 -14 8 -20t14 -6q12 0 19.5 15.5t15.5 57.5t22 136
l68 465q15 102 41 163q-15 33 -39 52t-53 19q-48 0 -82.5 -54t-50.5 -159l-67 -460q-14 -97 -33 -151.5t-47 -78.5t-71 -24q-35 0 -53.5 12.5t-18.5 31.5q0 16 11.5 26.5t27.5 10.5q19 0 26 -9t12 -27q4 -14 8 -20t14 -6q12 0 19.5 15.5t15.5 57.5t22 136l68 465
q19 127 78 189t146 62q54 0 102 -23q59 80 162 80q64 0 102 -27q26 16 31 45q0 3 5 3q3 0 5.5 -1.5t1.5 -2.5l-70 -387q71 37 133 37q48 0 75 -29zM857 252q0 45 -20 73t-62 28q-40 0 -84 -21l-53 -288q32 -16 75 -16q60 0 94 50t48 142q2 11 2 32z" />
    <glyph glyph-name=".notdef" horiz-adv-x="450" 
d="M1 -275l177 1000h285l-176 -1000h-286zM214 556h150l6 32h-60l6 38h61l5 32h-148l-6 -32h57l-5 -38h-60zM192 426h150l5 34h-60l12 69h-90zM227 460l6 35h30l-7 -35h-29zM168 295h90l12 70h60l6 33h-149l-6 -33h59l-6 -36h-60zM159 239h149l17 99h-29l-12 -65h-119z
M135 103h149l20 113h-90l-10 -56h30l5 24h30l-8 -48h-91l14 80h-30zM104 -70h150l20 113h-150zM139 -37l8 48h92l-9 -48h-91zM81 -206h148l6 33h-91l70 47h29l6 34h-148l-6 -34h63l-71 -47z" />
    <glyph glyph-name=".null" horiz-adv-x="0" 
 />
    <glyph glyph-name="nonmarkingreturn" unicode="&#xd;" horiz-adv-x="234" 
 />
    <glyph glyph-name="NULL" horiz-adv-x="0" 
 />
    <glyph glyph-name="NULL" horiz-adv-x="0" 
 />
    <glyph glyph-name="space" unicode=" " horiz-adv-x="234" 
 />
    <glyph glyph-name="exclam" unicode="!" horiz-adv-x="219" 
d="M106.5 186.5q-5.5 0.5 -4.5 5.5q31 291 34 429q0 4 16.5 8t33.5 4q18 0 34 -4t14 -8q-55 -152 -121 -430q-1 -5 -6.5 -4.5zM48.5 3q-12.5 13 -12.5 35q0 20 12.5 32t34.5 12t34 -11.5t12 -32.5q0 -23 -12 -35.5t-34 -12.5t-34.5 13z" />
    <glyph glyph-name="quotedbl" unicode="&#x22;" horiz-adv-x="325" 
d="M121 609q1 11 31.5 21t49.5 10q10 0 8 -3l-111 -334q-1 -3 -7 -3.5t-6 1.5zM272 609q1 11 31.5 21t49.5 10q10 0 8 -3l-111 -334q-1 -3 -7 -3.5t-6 1.5z" />
    <glyph glyph-name="numbersign" unicode="#" horiz-adv-x="438" 
d="M418 298q0 -24 -4 -24h-75l-53 -157h62q3 0 3 -18q0 -24 -4 -24h-75l-53 -157q0 -2 -5 -2q-7 0 -17.5 4t-9.5 7l49 148h-115l-53 -157q0 -2 -5 -2q-7 0 -17.5 4t-9.5 7l49 148h-60q-3 0 -3 21t3 21h74l53 157h-60q-2 0 -3 6.5t-1 14.5q0 7 1.5 13.5t2.5 6.5h74l56 169
q1 5 17 -1.5t15 -10.5l-53 -157h116l56 169q1 5 17 -1.5t15 -10.5l-53 -157h63q3 0 3 -17zM250 117l53 157h-115l-53 -157h115z" />
    <glyph glyph-name="dollar" unicode="$" horiz-adv-x="460" 
d="M455 595l-14 -117q0 -4 -5.5 -4t-5.5 4q-8 59 -33.5 97.5t-72.5 42.5l-45 -253l23 -17q58 -41 88 -76t30 -86q0 -18 -2 -28q-13 -68 -66 -115t-139 -54l-17 -98q-1 -5 -10 -5q-5 0 -9 2.5t-3 6.5l16 93h-4q-36 0 -69 7.5t-69 26.5q-8 5 -6 19l20 135q0 5 5.5 5t6.5 -5
q6 -71 36 -116.5t84 -51.5l49 282q-1 1 -13 10q-37 27 -58.5 46t-36.5 45t-15 60q0 15 3 30q13 66 63.5 106t117.5 47l15 88q1 5 9 5q6 0 10 -2.5t3 -6.5l-14 -82h5q55 0 111 -24q13 -7 12 -17zM211.5 431q16.5 -26 47.5 -51l42 239q-52 -5 -79 -45t-27 -84q0 -33 16.5 -59z
M340 147q0 40 -20 69.5t-57 58.5l-47 -268q46 2 79 30t42 82q3 15 3 28z" />
    <glyph glyph-name="percent" unicode="%" horiz-adv-x="522" 
d="M93 331q-24 28 -24 73q0 40 18.5 76t49.5 58t66 22q40 0 63 -28t23 -72q0 -15 -3 -30q-10 -54 -46.5 -90.5t-82.5 -36.5q-40 0 -64 28zM64 -8q-5 0 -14.5 6.5t-7.5 8.5l430 544q0 1 2 1q5 0 13.5 -7.5t6.5 -9.5l-429 -543h-1zM205 344q13 27 21 79q5 35 5 54
q0 33 -9.5 50.5t-26.5 17.5q-28 0 -42.5 -29t-22.5 -80q-4 -24 -4 -51q0 -68 39 -68q27 0 40 27zM287.5 23q-24.5 28 -24.5 73q0 40 18.5 76t49.5 58t66 22q40 0 63 -27.5t23 -71.5q0 -15 -3 -30q-10 -55 -46 -91.5t-82 -36.5q-40 0 -64.5 28zM400 37q13 27 21 79q5 33 5 54
q0 67 -37 67q-27 0 -41.5 -29t-22.5 -80q-5 -30 -5 -51q0 -31 10 -49t30 -18q27 0 40 27z" />
    <glyph glyph-name="ampersand" unicode="&#x26;" horiz-adv-x="755" 
d="M753.5 378.5q7.5 -7.5 7.5 -26.5q0 -26 -15 -51.5t-39.5 -41.5t-52.5 -16q-30 0 -70 20q-19 -134 -92.5 -204.5t-180.5 -70.5q-70 0 -124.5 32.5t-85 86.5t-30.5 118q0 26 6 53q12 54 46 96.5t81 66.5t96 24q50 0 82 -25q57 64 57 111q0 19 -6.5 29t-18.5 19
q-10 8 -15 15.5t-5 20.5q0 17 10.5 27.5t27.5 10.5q24 0 38.5 -21t14.5 -55q0 -57 -40 -114.5t-97 -107t-147 -118.5l-57 -44q9 -54 38.5 -95t72 -63t90.5 -22q86 0 146.5 62.5t74.5 176.5l-28 14q-37 19 -61.5 29t-45.5 10q-15 0 -23.5 -6t-8.5 -15q0 -12 10 -28
q4 -7 7 -13.5t3 -12.5q0 -11 -7 -19t-21 -8q-13 0 -21 8.5t-8 26.5q0 27 17.5 52t46 41t57.5 16q25 0 51 -10t67 -31q38 -19 58.5 -27.5t39.5 -8.5q12 0 20.5 5.5t8.5 13.5q0 9 -11 22q-14 16 -14 30q0 12 7.5 18.5t21.5 6.5t21.5 -7.5zM140 260q0 -10 2 -28l52 42
q83 66 130 108q-24 55 -76 55q-37 0 -64.5 -36.5t-38.5 -90.5q-5 -28 -5 -50z" />
    <glyph glyph-name="quotesingle" unicode="'" horiz-adv-x="132" 
d="M103 609q1 11 31.5 21t49.5 10q10 0 8 -3l-111 -334q-1 -3 -7 -3.5t-6 1.5z" />
    <glyph glyph-name="parenleft" unicode="(" horiz-adv-x="283" 
d="M99.5 1q-32.5 77 -32.5 179q0 65 11 124q25 141 96 254t171 167h1q3 0 5.5 -3.5t-0.5 -4.5q-75 -71 -122.5 -172.5t-71.5 -240.5q-15 -85 -15 -160q0 -147 62 -253v-1q0 -3 -2.5 -5.5t-4.5 -1.5q-65 41 -97.5 118z" />
    <glyph glyph-name="parenright" unicode=")" horiz-adv-x="283" 
d="M223.5 607q32.5 -77 32.5 -179q0 -65 -11 -124q-25 -141 -96 -254t-171 -167h-1q-3 0 -5.5 3.5t0.5 4.5q75 71 122.5 172.5t71.5 240.5q15 86 15 160q0 147 -62 253v1q0 3 2.5 5.5t4.5 1.5q65 -41 97.5 -118z" />
    <glyph glyph-name="asterisk" unicode="*" horiz-adv-x="448" 
d="M253 659q-1 11 30 21t52 10q10 0 8 -3l-67 -158q-1 -3 -5.5 -3t-5.5 3zM117 539q-10 3 -10 38q0 21 3.5 40.5t7.5 15.5l129 -112q1 -1 1 -3q0 -3 -1.5 -5.5t-3.5 -1.5zM291 503q-2 0 -3.5 4.5t0.5 5.5l119 51q8 4 23.5 -15t26 -40t4.5 -21zM176 369q-12 0 -32 7.5
t-34.5 16t-10.5 11.5l146 87q1 1 3 1t4.5 -3t1.5 -4l-66 -111q-3 -5 -12 -5zM273 481v1q0 2 3.5 4.5t4.5 1.5l86 -98q6 -7 -7 -27t-30.5 -37t-18.5 -11z" />
    <glyph glyph-name="plus" unicode="+" horiz-adv-x="398" 
d="M367.5 203.5q1.5 -6.5 1.5 -13.5q0 -8 -1.5 -14.5t-3.5 -6.5h-144v-144q0 -2 -8 -3.5t-16 -1.5q-18 0 -18 3v146h-144q-2 0 -3.5 7t-1.5 15q0 7 1 13t3 6h145v144q0 2 6.5 3.5t14.5 1.5t14.5 -1.5t6.5 -3.5v-144h144q2 0 3.5 -6.5z" />
    <glyph glyph-name="comma" unicode="," horiz-adv-x="227" 
d="M117.5 64q15.5 -18 15.5 -49q0 -14 -3 -29q-7 -38 -36.5 -75.5t-74.5 -69.5q-1 -1 -3 -1q-3 0 -5 4t1 6q72 57 82 120q1 6 1 17q0 10 -2 14q-7 -9 -26 -9q-22 0 -33.5 15t-9.5 34t15 30t36 11q27 0 42.5 -18z" />
    <glyph glyph-name="hyphen" unicode="-" horiz-adv-x="305" 
d="M28 195q0 17 2 18l249 46q2 1 3.5 -8t1.5 -19q0 -19 -3 -19l-248 -47q-5 -1 -5 29z" />
    <glyph glyph-name="period" unicode="." horiz-adv-x="200" 
d="M36.5 3q-12.5 13 -12.5 35q0 20 12.5 32t34.5 12t34 -11.5t12 -32.5q0 -23 -12 -35.5t-34 -12.5t-34.5 13z" />
    <glyph glyph-name="slash" unicode="/" horiz-adv-x="305" 
d="M-19.5 -169q-9.5 2 -17.5 6.5t-7 7.5l384 887q2 4 11.5 2t17 -7t5.5 -9l-382 -886q-2 -3 -11.5 -1z" />
    <glyph glyph-name="zero" unicode="0" horiz-adv-x="467" 
d="M92.5 45.5q-37.5 58.5 -37.5 158.5q0 53 10 109q17 94 54 167.5t88 115t107 41.5q67 0 104 -58.5t37 -157.5q0 -48 -11 -111q-17 -95 -53.5 -168t-87 -114t-106.5 -41q-67 0 -104.5 58.5zM302 80.5q38 77.5 61 217.5q16 92 16 161q0 79 -20.5 121t-56.5 42
q-52 0 -93.5 -83.5t-64.5 -218.5q-14 -84 -14 -149q0 -79 20 -123.5t61 -44.5q53 0 91 77.5z" />
    <glyph glyph-name="one" unicode="1" horiz-adv-x="352" 
d="M20 6q0 6 3 6q40 0 62 6t33.5 21t17.5 44l69 393q3 17 3 28q0 28 -19 28q-12 0 -30.5 -10t-50.5 -31l-2 -1q-4 0 -6 4.5t1 6.5l185 132q3 2 5 2q3 0 5 -2.5t1 -6.5l-96 -547q-3 -15 -3 -27q0 -25 18.5 -32.5t70.5 -7.5q2 0 2 -6t-2 -6q-36 0 -56 1l-76 1l-78 -1
q-20 -1 -54 -1q-3 0 -3 6z" />
    <glyph glyph-name="two" unicode="2" horiz-adv-x="402" 
d="M-5.5 8.5q-2.5 8.5 0.5 13.5l31 34q93 100 145.5 161.5t91 125t48.5 123.5q3 20 3 35q0 43 -21.5 64.5t-60.5 21.5q-45 0 -80 -27.5t-56 -75.5q-1 -2 -4 -2t-5.5 2t-1.5 5q25 69 75 108t112 39q57 0 87 -32.5t30 -86.5q0 -17 -3 -35q-15 -79 -75.5 -157t-157.5 -172
q-13 -13 -39 -39.5t-40 -43.5q-3 -3 -2 -3.5t5 -0.5q106 0 155.5 4.5t71 19t27.5 46.5q0 4 5 4q3 0 5.5 -2t1.5 -4l-23 -126q-1 -3 -3.5 -5.5t-6.5 -2.5h-308q-5 0 -7.5 8.5z" />
    <glyph glyph-name="three" unicode="3" horiz-adv-x="392" 
d="M336 398q-37 -44 -91 -64q51 -4 78.5 -38t27.5 -86q0 -22 -4 -39q-13 -82 -69.5 -132.5t-133.5 -50.5q-86 0 -132 78l-1 2q0 2 4 4.5t6 0.5q18 -25 47 -39t58 -14q61 0 98.5 42.5t48.5 109.5q4 19 4 41q0 108 -132 108q-4 0 -4 7t4 7q75 0 113.5 36.5t49.5 101.5
q4 28 4 37q0 42 -20.5 62.5t-57.5 20.5q-38 0 -75 -20.5t-58 -57.5q-2 -2 -4 -2q-3 0 -5.5 2.5t-0.5 5.5q29 53 76.5 84t101.5 31q55 0 85.5 -31.5t30.5 -81.5q0 -15 -3 -30q-9 -51 -46 -95z" />
    <glyph glyph-name="four" unicode="4" horiz-adv-x="428" 
d="M388 222q0 -12 -3 -28.5t-6 -16.5l-74 3l-17 -99q-4 -24 -4 -31q0 -22 12.5 -30t43.5 -8q5 0 5 -6t-5 -6q-24 0 -39 1l-58 1l-70 -1q-18 -1 -49 -1q-4 0 -4 6t4 6q40 0 58 4.5t26 18t14 46.5l18 101q-120 2 -223 2q-5 0 -6.5 3.5t2.5 7.5l358 435q2 2 5 2t5.5 -1.5
t1.5 -4.5l-69 -399l72 3q2 0 2 -8zM247 226l50 285l-226 -279q-7 -8 3 -8q71 0 173 2z" />
    <glyph glyph-name="five" unicode="5" horiz-adv-x="410" 
d="M428 656q3 0 5 -1.5t1 -3.5l-24 -71q-4 -11 -10 -14t-18 -3l-191 5q-10 0 -16 -14l-46 -171q58 15 97 15q70 0 109 -37t39 -107q0 -30 -5 -54q-13 -67 -45.5 -115t-78 -72.5t-96.5 -24.5q-42 0 -72.5 19.5t-52.5 57.5v1q0 4 4.5 6.5t6.5 -1.5q16 -27 43 -40.5t59 -13.5
q60 0 97 46.5t52 124.5q5 27 5 47q0 60 -31 96t-88 36q-41 0 -68 -10q-5 0 -7 3.5t0 7.5l72 245q2 7 4.5 9.5t8.5 2.5q125 0 166 1.5t54.5 7t21.5 21.5q1 1 4 1z" />
    <glyph glyph-name="six" unicode="6" horiz-adv-x="452" 
d="M87.5 31.5q-36.5 44.5 -36.5 121.5q0 37 7 73q18 98 70.5 188t131 150.5t169.5 71.5q4 0 5 -5t-3 -6q-77 -21 -139 -79t-102 -137.5t-54 -165.5q-7 -38 -7 -84q0 -66 21.5 -108.5t68.5 -42.5q84 0 107 122q6 35 6 67q0 52 -17.5 83t-54.5 31t-70 -36l-2 -1q-3 0 -6 3.5
t-2 4.5q19 27 50 42.5t63 15.5q60 0 88.5 -37.5t28.5 -96.5q0 -26 -4 -47q-16 -80 -74.5 -126t-133.5 -46q-74 0 -110.5 44.5z" />
    <glyph glyph-name="seven" unicode="7" horiz-adv-x="396" 
d="M48 8q0 5 4 10l328 540q5 7 -2 7q-135 0 -186 -4t-70 -16.5t-33 -47.5q-1 -4 -6.5 -2t-3.5 5l58 153q0 1 4 1q8 0 7 -4q-3 -7 -3 -13q0 -7 9 -9.5t32 -2.5h238q4 0 6 -5t0 -8l-299 -599q-4 -7 -7.5 -10t-10.5 -3h-55q-10 0 -10 8z" />
    <glyph glyph-name="eight" unicode="8" horiz-adv-x="446" 
d="M399 439q-32 -47 -86 -85q49 -45 74.5 -80t25.5 -83q0 -13 -3 -30q-9 -50 -41.5 -89.5t-80 -62t-100.5 -22.5q-70 0 -113.5 39.5t-43.5 99.5q0 70 54 134.5t123 99.5q-32 31 -48.5 59t-16.5 64q0 8 2 26q12 67 63 97t109 30q52 0 83 -27t31 -74q0 -49 -32 -96zM362 538
q0 40 -16.5 60t-45.5 20q-37 0 -59.5 -19.5t-29.5 -61.5q-2 -14 -2 -21q0 -43 23.5 -77t67.5 -73q45 52 58 129q4 21 4 43zM340 161q0 52 -26 89t-77 83l-19 17q-42 -28 -69.5 -71.5t-36.5 -98.5q-4 -28 -4 -41q0 -58 28 -96t75 -38q45 0 81.5 35.5t45.5 90.5q2 10 2 30z
" />
    <glyph glyph-name="nine" unicode="9" horiz-adv-x="452" 
d="M60.5 -7.5q-0.5 5.5 3.5 6.5q117 32 193.5 136.5t100.5 244.5q7 47 7 82q0 68 -22 111.5t-70 43.5q-40 0 -66 -32t-38 -91q-7 -44 -7 -70q0 -51 18 -81t55 -30q36 0 70 35q1 1 3 1t4.5 -3t1.5 -5q-20 -28 -50 -43t-65 -15q-60 0 -87.5 37.5t-27.5 96.5q0 26 4 47
q17 80 75.5 126t135.5 46q72 0 108 -43t36 -120q0 -37 -7 -75q-19 -105 -71 -194.5t-129.5 -147t-170.5 -69.5q-4 0 -4.5 5.5z" />
    <glyph glyph-name="colon" unicode=":" horiz-adv-x="200" 
d="M73.5 284q-12.5 13 -12.5 35q0 20 12.5 32t34.5 12t34 -11.5t12 -32.5q0 -23 -12 -35.5t-34 -12.5t-34.5 13zM36.5 3q-12.5 13 -12.5 35q0 20 12.5 32t34.5 12t34 -11.5t12 -32.5q0 -23 -12 -35.5t-34 -12.5t-34.5 13z" />
    <glyph glyph-name="semicolon" unicode=";" horiz-adv-x="222" 
d="M142 351.5q12 -11.5 12 -32.5q0 -23 -12 -35.5t-34 -12.5t-34.5 13t-12.5 35q0 20 12.5 32t34.5 12t34 -11.5zM117.5 64q15.5 -18 15.5 -49q0 -14 -3 -29q-7 -38 -36.5 -75.5t-74.5 -69.5q-1 -1 -3 -1q-3 0 -5 4t1 6q72 57 82 120q1 6 1 17q0 10 -2 14q-7 -9 -26 -9
q-22 0 -33.5 15t-9.5 34t15 30t36 11q27 0 42.5 -18z" />
    <glyph glyph-name="less" unicode="&#x3c;" horiz-adv-x="407" 
d="M377 43q0 -21 -7 -18l-334 148q-5 3 -5 17q0 15 5 17l334 147q3 2 5 -3.5t2 -14.5q0 -21 -7 -25l-284 -121l284 -121q7 -3 7 -26z" />
    <glyph glyph-name="equal" unicode="=" horiz-adv-x="468" 
d="M30.5 246q-1.5 7 -1.5 15q0 7 1 13t3 6h401q2 0 3.5 -6.5t1.5 -13.5q0 -8 -1.5 -14.5t-3.5 -6.5h-400q-2 0 -3.5 7zM30.5 106q-1.5 7 -1.5 15q0 7 1 13t3 6h401q2 0 3.5 -6.5t1.5 -13.5q0 -8 -1.5 -14.5t-3.5 -6.5h-400q-2 0 -3.5 7z" />
    <glyph glyph-name="greater" unicode="&#x3e;" horiz-adv-x="407" 
d="M376 189q0 -14 -5 -17l-334 -147q-3 -1 -5 4.5t-2 13.5t2 16t5 9l284 121l-284 121q-3 2 -5 10t-2 16q0 9 2 14.5t5 3.5l334 -148q5 -2 5 -17z" />
    <glyph glyph-name="question" unicode="?" horiz-adv-x="295" 
d="M122.5 236q-5.5 26 -5.5 49q0 41 17.5 66t53.5 55q33 27 51.5 50.5t25.5 60.5q2 16 2 24q0 30 -14 49t-40 19q-23 0 -32.5 -11.5t-15.5 -32.5q-4 -21 -13 -35t-31 -14q-16 0 -24.5 9t-8.5 23q0 7 1 10q4 30 43.5 48.5t88.5 18.5q53 0 85 -24.5t32 -69.5q0 -12 -3 -26
q-6 -31 -21.5 -54.5t-31 -38t-47.5 -40.5q-42 -34 -60 -61t-24 -63q-2 -9 -2 -30q0 -18 1 -27q0 -4 -6 -5t-7 3q-9 21 -14.5 47zM80.5 3q-12.5 13 -12.5 35q0 20 12.5 32t34.5 12t34 -11.5t12 -32.5q0 -23 -12 -35.5t-34 -12.5t-34.5 13z" />
    <glyph glyph-name="at" unicode="@" horiz-adv-x="722" 
d="M422 68q-15 15 -15 43q0 8 4 30l7 36q-34 -57 -75.5 -91.5t-78.5 -34.5q-24 0 -38.5 15t-14.5 47q0 13 1 20q8 54 41.5 106t78.5 85t85 33q14 0 27 -5.5t22 -16.5q8 5 14.5 12.5t7.5 16.5q2 2 6 2t7.5 -1t4.5 -2l-41 -224q-3 -15 -3 -28q0 -18 8.5 -27.5t28.5 -9.5
q26 0 52.5 19t44.5 56t18 87q0 65 -32.5 119t-89 86t-125.5 32q-77 0 -133.5 -36.5t-85.5 -99t-29 -138.5q0 -80 34.5 -140.5t97 -93.5t144.5 -33q46 0 83.5 10.5t82.5 37.5h1q3 0 5 -3.5t0 -4.5q-89 -72 -206 -72q-82 0 -148 32.5t-104.5 95t-38.5 147.5q0 93 45.5 166.5
t121.5 114t162 40.5q77 0 135.5 -31.5t90 -84t31.5 -114.5q0 -56 -26 -105t-69.5 -78.5t-94.5 -29.5q-29 0 -44 15zM350.5 124q28.5 26 52 66.5t32.5 81.5q2 12 2 17q0 20 -9 32.5t-27 12.5q-25 0 -51.5 -22.5t-46.5 -60t-27 -79.5q-4 -26 -4 -35q0 -39 27 -39q23 0 51.5 26
z" />
    <glyph glyph-name="A" unicode="A" horiz-adv-x="602" 
d="M570 6q0 -6 -4 -6q-15 0 -47 2q-36 2 -57 2q-22 0 -54 -2t-46 -2q-3 0 -3 6t3 6q35 0 49 9t14 33q0 14 -3 30l-40 235h-150l-103 -188q-29 -52 -29 -80q0 -22 17 -30.5t52 -8.5q4 0 3.5 -6t-4.5 -6q-12 0 -48 2q-40 2 -62 2q-21 0 -49 -2t-43 -2q-4 0 -4 6t4 6
q29 0 63.5 27.5t68.5 87.5l284 508q2 3 7 3q9 0 11 -5l95 -549q5 -31 10.5 -45t19 -20.5t41.5 -6.5q4 0 4 -6zM245 342h133l-32 185z" />
    <glyph glyph-name="B" unicode="B" horiz-adv-x="534" 
d="M453.5 305.5q38.5 -38.5 38.5 -96.5q0 -14 -3 -31q-10 -50 -44.5 -91.5t-85 -66t-107.5 -24.5q-28 0 -63 3q-13 1 -30.5 2t-37.5 1l-64 -1q-16 -1 -45 -1q-3 0 -2.5 6t2.5 6q45 0 62.5 14t25.5 57l82 463q3 18 3 29q0 23 -13.5 30.5t-50.5 7.5q-3 0 -2.5 6t2.5 6l47 -1
q38 -2 60 -2q17 0 31.5 1t25.5 2q29 3 53 3q76 0 115 -28.5t39 -78.5q0 -14 -3 -29q-11 -48 -47 -84t-95 -57q68 -7 106.5 -45.5zM219 352l38 -1q67 0 108 39.5t53 102.5q4 16 4 34q0 40 -25.5 62.5t-77.5 22.5q-32 0 -46 -14t-21 -59zM413 205q0 58 -34 90t-102 33
q-25 1 -63 -2l-44 -247q-3 -13 -3 -24q0 -22 15.5 -31t56.5 -9q73 0 115 39.5t55 109.5q4 20 4 41z" />
    <glyph glyph-name="C" unicode="C" horiz-adv-x="586" 
d="M120 60.5q-63 73.5 -63 183.5q0 30 7 72q17 95 73.5 168t135.5 112.5t161 39.5q41 0 82.5 -9t64.5 -24q6 -4 7.5 -8.5t0.5 -15.5l-12 -118q-1 -4 -6 -4t-5 4q-10 76 -54.5 113.5t-115.5 37.5q-62 0 -114 -32.5t-86.5 -92.5t-46.5 -141q-7 -41 -7 -84q0 -74 22 -133
t63.5 -92.5t96.5 -33.5t108.5 37.5t101.5 113.5q2 2 4 2q3 0 5 -2t1 -4l-29 -110q-3 -12 -6 -16.5t-12 -6.5q-87 -30 -179 -30q-135 0 -198 73.5z" />
    <glyph glyph-name="D" unicode="D" horiz-adv-x="620" 
d="M185 -1q-12 1 -29.5 2t-39.5 1l-62 -1q-15 -1 -42 -1q-3 0 -3 6t3 6q31 0 46 5t23 19.5t13 44.5l82 463q4 17 4 32q0 22 -13 29.5t-48 7.5q-2 0 -2 6t2 6l44 -1q38 -2 62 -2q29 0 61 3q38 2 53 2q81 0 141.5 -31t93 -86.5t32.5 -127.5q0 -34 -5 -59q-17 -96 -72 -170.5
t-131.5 -115.5t-156.5 -41q-24 0 -56 3zM361 46q58 34 98.5 99t56.5 156q7 38 7 79q0 102 -47 166.5t-138 64.5q-46 0 -65.5 -14t-26.5 -55l-79 -450q-3 -16 -3 -30q0 -26 16 -38t56 -12q67 0 125 34z" />
    <glyph glyph-name="E" unicode="E" horiz-adv-x="520" 
d="M516 616l-8 -54l-12 -73q0 -3 -5 -3q-2 0 -4.5 1.5t-2.5 2.5q4 53 -21 85.5t-71 32.5h-62q-31 0 -45.5 -5t-21.5 -18t-12 -42l-36 -206h132q41 0 62 16t28 56q0 3 6 3q2 0 4.5 -1.5t1.5 -3.5q-3 -22 -9 -46q-4 -15 -7 -36l-5 -31q-3 -31 -10 -65q-1 -4 -7 -3.5t-5 4.5
q3 15 3 27q0 30 -17 43.5t-52 13.5h-129l-41 -229q-3 -18 -3 -30q0 -21 12.5 -28.5t46.5 -7.5h83q44 0 86 36.5t68 96.5q2 3 7.5 2t3.5 -4q-18 -58 -32 -135q-2 -9 -5 -12t-11 -3h-409q-2 0 -2 6t2 6q31 0 46 5t22.5 19t13.5 45l81 463q4 17 4 33q0 21 -13 28.5t-47 7.5
q-3 0 -3 6t3 6h386q8 0 6 -9z" />
    <glyph glyph-name="F" unicode="F" horiz-adv-x="484" 
d="M513 616l-12 -81l-7 -46q-1 -4 -7 -3t-5 4q3 53 -22 85.5t-71 32.5h-62q-31 0 -45.5 -5t-21.5 -18t-12 -42l-39 -218h118q41 0 62 16.5t28 55.5q1 4 7 3.5t5 -4.5q-4 -24 -16 -83l-15 -96q-1 -4 -7 -3.5t-5 4.5q2 10 2 26q0 31 -16.5 44.5t-51.5 13.5h-115l-38 -217
q-3 -16 -3 -29q0 -26 19.5 -35t75.5 -9q2 0 2 -6t-2 -6q-28 0 -46 1l-97 1l-60 -1q-15 -1 -42 -1q-3 0 -3 6t3 6q31 0 46 5t22.5 19.5t13.5 44.5l81 463q4 17 4 33q0 21 -13 28.5t-47 7.5q-3 0 -3 6t3 6h387q8 0 5 -9z" />
    <glyph glyph-name="G" unicode="G" horiz-adv-x="631" 
d="M183 20q-61 32 -92.5 89.5t-31.5 132.5q0 36 7 71q17 93 74 167t140.5 115t177.5 41q42 0 81 -9t61 -25q7 -5 7 -12l-1 -11l-11 -118q-1 -4 -6 -4t-6 4q-9 73 -51.5 112.5t-113.5 39.5q-105 0 -175.5 -71t-91.5 -193q-7 -42 -7 -85q0 -118 57.5 -187.5t156.5 -69.5
q40 0 63.5 9.5t37 35t20.5 74.5q6 38 6 59t-8 31t-26 13.5t-54 3.5q-2 0 -3.5 2.5t-1.5 5.5t1.5 5.5t3.5 2.5q68 -5 113 -5q42 0 89 3q4 0 4 -7t-4 -7q-18 1 -26.5 -6.5t-14 -29.5t-14.5 -81q-7 -44 -7.5 -62t-1.5 -26q-1 -6 -3 -7.5t-9 -4.5q-110 -28 -193 -28
q-86 0 -147 32z" />
    <glyph glyph-name="H" unicode="H" horiz-adv-x="672" 
d="M703 619q0 -6 -3 -6q-30 0 -45 -5.5t-22.5 -19.5t-13.5 -44l-82 -463q-3 -19 -3 -31q0 -23 13 -30.5t48 -7.5q3 0 3 -6t-3 -6q-26 0 -41 1l-62 1l-62 -1q-16 -1 -45 -1q-2 0 -2 6t2 6q32 0 47 5t22.5 19t12.5 45l41 233h-303l-41 -233q-4 -26 -4 -33q0 -21 13 -28.5
t48 -7.5q3 0 3 -6t-3 -6q-27 0 -43 1l-64 1l-60 -1q-15 -1 -42 -1q-3 0 -3 6t3 6q31 0 46 5t23 19.5t13 44.5l82 463q4 26 4 32q0 22 -13 29.5t-48 7.5q-2 0 -2 6t2 6l43 -1q36 -2 59 -2t63 2l44 1q2 0 2 -6t-2 -6q-30 0 -45.5 -6t-23 -20.5t-13.5 -44.5l-36 -205h302
l36 205q4 26 4 34q0 22 -13 29.5t-47 7.5q-3 0 -3 6t3 6l43 -1q38 -2 61 -2q22 0 62 2l42 1q3 0 3 -6z" />
    <glyph glyph-name="I" unicode="I" horiz-adv-x="317" 
d="M19 6q0 6 3 6q31 0 45.5 5t22 19t12.5 45l82 463q4 26 4 32q0 22 -13.5 29.5t-47.5 7.5q-3 0 -3 6t3 6l43 -1q38 -2 60 -2q29 0 67 2l40 1q3 0 3 -6t-3 -6q-30 0 -45 -6t-22.5 -20.5t-13.5 -44.5l-82 -461q-4 -26 -4 -32q0 -22 13.5 -29.5t48.5 -7.5q2 0 2 -6t-2 -6
q-26 0 -42 1l-64 1l-60 -1q-16 -1 -44 -1q-3 0 -3 6z" />
    <glyph glyph-name="J" unicode="J" horiz-adv-x="292" 
d="M-23 -193q-3 0 -5 4.5t1 6.5q45 27 71 81t42 141l89 504q3 18 3 31q0 23 -13 30.5t-48 7.5q-2 0 -2 6t2 6l43 -1q38 -2 61 -2q28 0 66 2l41 1q3 0 3 -6t-3 -6q-31 0 -46 -6t-22.5 -20.5t-12.5 -44.5l-84 -475q-15 -78 -37 -126.5t-56.5 -79t-91.5 -54.5h-1z" />
    <glyph glyph-name="K" unicode="K" horiz-adv-x="604" 
d="M634 619q0 -6 -3 -6q-37 0 -82.5 -20.5t-88.5 -60.5l-160 -143l97 -182q51 -94 77 -133.5t43.5 -50.5t44.5 -11q3 0 3 -6t-3 -6h-88q-41 0 -51.5 5t-36.5 60t-43 87l-100 186l-40 -35l-39 -222q-5 -30 -5 -41q0 -17 11.5 -22.5t44.5 -5.5q2 0 2 -6t-2 -6q-27 0 -41 1
l-60 1l-60 -1q-15 -1 -42 -1q-3 0 -3 6t3 6q31 0 46 5t23 19.5t13 44.5l82 463q4 26 4 32q0 22 -13 29.5t-48 7.5q-2 0 -2 6t2 6l43 -1q36 -2 59 -2t63 2l44 1q2 0 2 -6t-2 -6q-30 0 -45.5 -6t-23 -20.5t-13.5 -44.5l-38 -215l230 211q35 32 35 53q0 22 -44 22q-2 0 -2 6
t2 6l41 -1q40 -2 70 -2q28 0 60 2l31 1q3 0 3 -6z" />
    <glyph glyph-name="L" unicode="L" horiz-adv-x="499" 
d="M10 6q0 6 3 6q31 0 46 5t22.5 19.5t12.5 44.5l82 463q4 26 4 32q0 22 -13 29.5t-48 7.5q-2 0 -2 6t2 6l43 -1q36 -2 59 -2t63 2l44 1q2 0 2 -6t-2 -6q-31 0 -46 -5.5t-22.5 -20t-13.5 -44.5l-81 -458q-3 -18 -3 -31q0 -21 11.5 -28t41.5 -7h77q61 0 104 35t74 104
q1 3 6.5 2t4.5 -4q-20 -68 -33 -141q-2 -8 -5.5 -11.5t-10.5 -3.5h-419q-3 0 -3 6z" />
    <glyph glyph-name="M" unicode="M" horiz-adv-x="735" 
d="M769 619q0 -6 -2 -6q-39 0 -57.5 -13.5t-24.5 -53.5l-69 -465q-3 -18 -3 -30q0 -23 12.5 -31t47.5 -8q3 0 3 -6t-3 -6q-26 0 -41 1l-63 1l-61 -1q-16 -1 -44 -1q-3 0 -3 6t3 6q32 0 47 5t22.5 19.5t11.5 44.5l71 475l-284 -549q-2 -4 -7 -4q-6 0 -8 5l-112 534v1
l-77 -427q-4 -21 -4 -42q0 -62 53 -62q3 0 3 -6t-3 -6q-21 0 -32 1l-49 1l-44 -1q-12 -1 -36 -1q-3 0 -3 6t3 6q35 0 57 25.5t32 77.5l86 464q-21 34 -66 34q-3 0 -3 6t3 6q16 0 26 -1l32 -1q21 0 35 1t22 1q11 0 17 -10t13 -42l98 -457l249 484q6 11 15 18t19 7q7 0 20 -1
t30 -1l39 1q9 1 27 1q2 0 2 -6z" />
    <glyph glyph-name="N" unicode="N" 
d="M696 619q0 -6 -2 -6q-75 0 -91 -98l-94 -524q0 -2 -3 -3.5t-7 -1.5q-8 0 -9 4l-293 553l-75 -434q-4 -26 -4 -35q0 -62 59 -62q2 0 2 -6t-2 -6q-22 0 -35 1l-49 1l-48 -1q-13 -1 -38 -1q-2 0 -2 6t2 6q75 0 91 97l82 462q-16 23 -32 32.5t-34 9.5q-3 0 -3 6t3 6l39 -1
q12 -1 33 -1q19 0 32 1t19 1t9 -3.5t7 -15.5q7 -20 14 -33l241 -457l71 399q4 26 4 36q0 62 -59 62q-2 0 -2 6t2 6l34 -1q30 -2 51 -2q16 0 46 2l39 1q2 0 2 -6z" />
    <glyph glyph-name="O" unicode="O" 
d="M162.5 20.5q-50.5 32.5 -76.5 89.5t-26 130q0 36 6 73q16 93 66.5 166.5t123 115t154.5 41.5q71 0 122.5 -32.5t78.5 -89t27 -128.5q0 -38 -7 -73q-17 -95 -69.5 -169.5t-126 -115t-152.5 -40.5q-70 0 -120.5 32.5zM467.5 79q59.5 65 81.5 181q10 49 10 98
q0 73 -22.5 130.5t-65.5 90.5t-101 33q-83 0 -142.5 -66t-80.5 -180q-9 -48 -9 -93q0 -73 22 -132t64.5 -93t101.5 -34q82 0 141.5 65z" />
    <glyph glyph-name="P" unicode="P" horiz-adv-x="512" 
d="M11 6q0 6 2 6q31 0 46.5 5t23 19.5t13.5 44.5l81 463q4 17 4 33q0 21 -13 28.5t-47 7.5q-3 0 -3 6t3 6l42 -1q36 -2 60 -2l48 2q46 4 74 4q78 0 127 -35t49 -103q0 -11 -4 -37q-12 -63 -52.5 -106t-93 -64t-101.5 -21q-25 0 -41 5q-1 0 -1 3q0 4 2 9t4 4q13 -4 30 -4
q59 0 108.5 39.5t62.5 114.5q4 20 4 43q0 63 -33 99t-81 36q-30 0 -43.5 -4.5t-21 -18.5t-13.5 -46l-81 -461q-4 -26 -4 -33q0 -21 13 -28.5t48 -7.5q2 0 2 -6t-2 -6q-27 0 -43 1l-64 1l-60 -1q-16 -1 -43 -1q-2 0 -2 6z" />
    <glyph glyph-name="Q" unicode="Q" 
d="M690.5 -177.5q1.5 -5.5 -0.5 -6.5q-47 -13 -80 -13q-64 0 -130 51.5t-113 145.5q-40 -12 -84 -12q-70 0 -120.5 32.5t-76.5 89.5t-26 130q0 36 6 73q16 93 66.5 166.5t123 115t154.5 41.5q71 0 122.5 -32.5t78.5 -89t27 -128.5q0 -38 -7 -73q-17 -94 -67.5 -167
t-122.5 -115q24 -59 61 -106.5t77.5 -74.5t72.5 -27q22 0 34 4q3 1 4.5 -4.5zM138 273q0 -73 22 -132t64.5 -93t101.5 -34q82 0 141.5 65t81.5 181q10 49 10 98q0 73 -22.5 130.5t-65.5 90.5t-101 33q-83 0 -142.5 -66t-80.5 -180q-9 -48 -9 -93z" />
    <glyph glyph-name="R" unicode="R" horiz-adv-x="620" 
d="M599 6q0 -6 -4 -6h-121q-24 0 -69 84.5t-100 240.5q-32 -8 -61 -8q-11 0 -25 2l-43 -238q-4 -19 -4 -33q0 -21 13.5 -28.5t49.5 -7.5q4 0 4 -6t-3 -6q-29 0 -46 1l-63 1l-64 -1q-17 -1 -47 -1q-4 0 -4 6t4 6q33 0 50 5.5t25.5 19.5t14.5 44l81 463q4 17 4 33
q0 21 -13.5 28.5t-50.5 7.5q-4 0 -4 6t4 6l46 -1q38 -2 62 -2q17 0 31.5 1t25.5 2q28 3 50 3q70 0 107 -25.5t37 -71.5q0 -54 -34.5 -103t-89.5 -79q53 -129 91.5 -201t72 -104t69.5 -32q4 0 4 -6zM264 341q63 0 95.5 30t43.5 98q4 23 4 47q0 49 -22 72t-60 23
q-25 0 -36 -3.5t-18 -17.5t-13 -48l-35 -197q26 -4 41 -4z" />
    <glyph glyph-name="S" unicode="S" horiz-adv-x="465" 
d="M117 -4.5q-33 7.5 -69 26.5q-8 5 -6 19l20 135q0 5 5.5 5t6.5 -5q7 -77 41 -123t96 -46q47 0 82 28t44 84q3 15 3 28q0 48 -28.5 81.5t-81.5 71.5q-37 27 -58.5 46t-36.5 45t-15 60q0 15 3 30q14 74 74.5 114.5t134.5 40.5q55 0 111 -24q13 -7 12 -17l-14 -117
q0 -4 -5.5 -4t-5.5 4q-8 63 -36 102t-82 39q-40 0 -66 -20.5t-38.5 -50.5t-12.5 -59q0 -31 14.5 -55t34.5 -41.5t58 -44.5q58 -41 88 -76t30 -86q0 -18 -2 -28q-13 -74 -74 -122t-158 -48q-36 0 -69 7.5z" />
    <glyph glyph-name="T" unicode="T" horiz-adv-x="553" 
d="M130 6q0 6 3 6q35 0 52 5t25.5 19.5t14.5 44.5l81 463q3 18 3 30q0 19 -10 25.5t-37 6.5h-21q-55 0 -94.5 -37.5t-59.5 -110.5q0 -2 -4 -2q-3 0 -6 1.5t-2 2.5q9 27 24 90.5t21 96.5q1 3 7 2.5t5 -3.5q-3 -21 39 -21q74 -3 183 -3q51 0 113 2l63 1q30 0 45 5t21 20
q2 3 7 2.5t4 -4.5q-8 -29 -22.5 -96t-18.5 -92q-1 -3 -6.5 -2.5t-4.5 4.5q4 21 4 45q0 99 -99 99h-19q-34 0 -46 -12.5t-18 -51.5l-81 -461q-4 -26 -4 -32q0 -22 15.5 -29.5t57.5 -7.5q2 0 2 -6t-2 -6q-30 0 -47 1l-70 1l-67 -1q-17 -1 -48 -1q-3 0 -3 6z" />
    <glyph glyph-name="U" unicode="U" horiz-adv-x="703" 
d="M727 619q0 -6 -2 -6q-30 0 -45 -5.5t-23 -19.5t-13 -44l-82 -463q-4 -24 -4 -31q0 -23 15.5 -30.5t57.5 -7.5q4 0 4 -6t-4 -6l-83 1l-55 -1q-8 0 -10.5 1.5t-2.5 7.5l1 10l10 60q-57 -48 -106.5 -69.5t-103.5 -21.5q-83 0 -132.5 42.5t-49.5 116.5q0 18 3 39l63 358
q4 17 4 32q0 22 -13 29.5t-48 7.5q-2 0 -2 6t2 6l42 -1q38 -2 61 -2q24 0 62 2l44 1q2 0 2 -6t-2 -6q-31 0 -46 -6t-22.5 -20.5t-12.5 -44.5l-57 -321q-6 -31 -6 -59q0 -70 36.5 -107t103.5 -37q44 0 86.5 19.5t95.5 64.5l77 440q4 19 4 34q0 22 -13 29.5t-47 7.5q-2 0 -2 6
t2 6l43 -1q38 -2 61 -2t61 2l44 1q2 0 2 -6z" />
    <glyph glyph-name="V" unicode="V" horiz-adv-x="595" 
d="M668 619q0 -6 -4 -6q-31 0 -56 -17.5t-52 -68.5l-272 -526q-3 -4 -12 -4q-11 0 -12 4l-121 541q-9 40 -22.5 55.5t-39.5 15.5q-2 0 -2 6t2 6l41 -1q28 -2 42 -2q30 0 68 2l40 1q3 0 3 -6t-3 -6q-29 0 -44 -9t-15 -32q0 -8 3 -20l101 -448l220 427q13 25 13 43
q0 39 -63 39q-3 0 -3 6t3 6l39 -1q32 -2 61 -2q16 0 42 2l39 1q4 0 4 -6z" />
    <glyph glyph-name="W" unicode="W" horiz-adv-x="837" 
d="M912 619q0 -6 -2 -6q-33 0 -64 -23t-52 -70l-227 -520q-1 -4 -10 -4q-8 0 -9 4l-84 500l-227 -500q0 -4 -9 -4t-10 4l-74 543q-7 41 -20.5 55.5t-41.5 14.5q-2 0 -2 6t2 6l29 -1q24 -2 43 -2q42 0 82 2q13 1 33 1q2 0 2 -6t-2 -6q-30 0 -41.5 -8.5t-11.5 -33.5
q0 -13 3 -33l56 -402l222 489q2 3 10 3q9 0 9 -3l85 -493l170 391q15 37 15 54q0 36 -53 36q-2 0 -2 6t2 6l40 -1q32 -2 56 -2q18 0 42 2l39 1q2 0 2 -6z" />
    <glyph glyph-name="X" unicode="X" horiz-adv-x="579" 
d="M625 619q0 -6 -5 -6q-62 0 -142 -100l-135 -170l100 -260q14 -39 34 -55t54 -16q4 0 4 -6t-4 -6q-23 0 -37 1l-50 1l-72 -1q-18 -1 -46 -1q-4 0 -4 6t4 6q50 0 50 25q0 7 -3 14l-88 230l-144 -184q-28 -35 -28 -57q0 -28 50 -28q4 0 4 -6t-4 -6q-28 0 -44 1l-66 1l-37 -1
q-11 -1 -35 -1q-4 0 -4 6t4 6q30 0 66.5 23.5t73.5 70.5l155 196l-92 240q-14 38 -32 54.5t-46 16.5q-4 0 -4 6t4 6l34 -1q22 -2 33 -2q31 0 75 2l46 1q4 0 4 -6t-4 -6q-44 0 -44 -24q0 -8 4 -16l80 -209l124 159q30 39 30 61q0 29 -49 29q-4 0 -4 6t4 6l43 -1q42 -2 68 -2
q15 0 37 2l33 1q5 0 5 -6z" />
    <glyph glyph-name="Y" unicode="Y" horiz-adv-x="531" 
d="M605 619q0 -6 -3 -6q-64 0 -133 -99l-143 -203l-41 -230q-4 -19 -4 -34q0 -21 14 -28t52 -7q3 0 3 -6t-3 -6q-29 0 -45 1l-64 1l-67 -1q-16 -1 -44 -1q-4 0 -4 6t4 6q33 0 49.5 5.5t24.5 19.5t13 44l38 220l-102 241q-17 38 -34 54.5t-43 16.5q-4 0 -4 6t4 6l38 -1
q28 -2 40 -2q26 0 70 2l45 1q3 0 3 -5q0 -7 -4 -7q-26 0 -38 -5t-12 -16q0 -7 5 -19l100 -239l129 191q23 32 23 56q0 32 -43 32q-3 0 -3 6t3 6l44 -1q38 -2 62 -2q15 0 35 2l32 1q3 0 3 -6z" />
    <glyph glyph-name="Z" unicode="Z" horiz-adv-x="550" 
d="M17 0q-4 0 -5 4.5t1 8.5l467 587q5 5 4.5 6.5t-6.5 1.5q-143 0 -205 -8t-93 -31.5t-65 -83.5q-2 -4 -7 -2.5t-3 5.5l67 167q1 1 4 1t6 -1.5t2 -3.5q-2 -5 -2 -12q0 -9 9.5 -11.5t37.5 -2.5h340q4 0 5.5 -5t-0.5 -8l-462 -585q-4 -5 -3.5 -6.5t5.5 -1.5h176q80 0 127 27.5
t81 95.5q2 3 5 3t5.5 -1.5t1.5 -3.5l-37 -132q0 -3 -2.5 -6.5t-6.5 -3.5q-137 2 -447 2z" />
    <glyph glyph-name="bracketleft" unicode="[" horiz-adv-x="250" 
d="M20 -115q-1 2 1 9l145 821q1 7 2.5 8.5t6.5 1.5h136q4 0 4 -6t-4 -6q-35 0 -53 -6t-26.5 -20.5t-13.5 -44.5l-119 -676q-4 -24 -4 -31q0 -23 15.5 -31.5t54.5 -8.5q5 0 5 -6t-5 -6h-139q-5 0 -6 2z" />
    <glyph glyph-name="backslash" unicode="\" horiz-adv-x="305" 
d="M113 723q-1 4 7 7t18 3q11 0 13 -5l72 -887q1 -4 -7.5 -6.5t-17.5 -2.5q-13 0 -13 5z" />
    <glyph glyph-name="bracketright" unicode="]" horiz-adv-x="249" 
d="M269 723q1 -2 -1 -9l-145 -821q-1 -7 -2.5 -8.5t-6.5 -1.5h-136q-4 0 -4 6t4 6q35 0 53 6t26.5 20.5t13.5 44.5l119 676q4 24 4 31q0 23 -15.5 31.5t-54.5 8.5q-4 0 -4 6t4 6h139q5 0 6 -2z" />
    <glyph glyph-name="asciicircum" unicode="^" horiz-adv-x="353" 
d="M93 374q-3 0 -6 2t-2 4l158 249q3 5 11 5q9 0 9 -5l70 -249q0 -2 -4.5 -4t-5.5 1l-88 148l-139 -150q-1 -1 -3 -1z" />
    <glyph glyph-name="underscore" unicode="_" horiz-adv-x="363" 
d="M-10.5 -70q-1.5 7 -1.5 15q0 7 1 13.5t3 6.5h319q2 0 3.5 -6.5t1.5 -14.5t-1.5 -14.5t-3.5 -6.5h-318q-2 0 -3.5 7z" />
    <glyph glyph-name="grave" unicode="`" horiz-adv-x="166" 
d="M124 727q-1 5 13 5q16 0 35.5 -5.5t19.5 -10.5l-11 -240q0 -2 -4.5 -3t-4.5 2z" />
    <glyph glyph-name="a" unicode="a" horiz-adv-x="437" 
d="M414 78q3 0 5 -3.5t0 -5.5q-33 -39 -60 -58.5t-52 -19.5q-20 0 -29.5 12t-9.5 38q0 16 5 48l16 95q-43 -91 -99 -144t-109 -53q-30 0 -46.5 18.5t-16.5 56.5q0 9 2 29q10 69 53.5 141.5t102.5 119.5t111 47q42 0 68 -27q19 16 26 35q2 2 4 2q3 0 6 -1.5t2 -2.5l-58 -316
q-3 -15 -3 -27q0 -28 17 -28q21 0 62 43q1 1 3 1zM197.5 79q37.5 35 67 88t39.5 102q3 14 3 27q0 29 -15 46t-43 17q-34 0 -68 -27.5t-59 -75.5t-34 -108q-4 -32 -4 -42q0 -62 42 -62q34 0 71.5 35z" />
    <glyph glyph-name="b" unicode="b" horiz-adv-x="440" 
d="M401 370q22 -29 22 -77q0 -22 -4 -42q-16 -81 -61.5 -141t-102.5 -91.5t-106 -31.5q-47 0 -75 20.5t-28 54.5q0 6 2 18l99 530q2 9 2 23q0 28 -21 28q-16 0 -47 -15h-1q-4 0 -5.5 5.5t2.5 6.5l137 67h2q4 0 7.5 -3t2.5 -5l-89 -495q34 79 89.5 128t114.5 49q38 0 60 -29z
M349 272q0 35 -13.5 55t-41.5 20q-40 0 -76 -31.5t-63.5 -88.5t-40.5 -131q-1 -5 -1 -14q0 -31 21 -50t55 -19q32 0 63.5 25t55.5 72t35 110q6 27 6 52z" />
    <glyph glyph-name="c" unicode="c" horiz-adv-x="346" 
d="M59.5 32q-32.5 45 -32.5 112q0 30 6 58q11 59 45.5 104t80.5 69t91 24q36 0 62.5 -15.5t26.5 -41.5q0 -17 -10 -29t-29 -12q-31 0 -40 36q-11 38 -48 38q-42 0 -69 -38.5t-38 -102.5q-7 -40 -7 -66q0 -64 27 -103t81 -39q49 0 100 41l2 1q3 0 5.5 -4t0.5 -6
q-77 -71 -156 -71q-66 0 -98.5 45z" />
    <glyph glyph-name="d" unicode="d" horiz-adv-x="446" 
d="M346 89q-3 -15 -3 -26q0 -29 18 -29q10 0 25 11t37 32q2 2 4 2q3 0 5 -3.5t-1 -6.5q-35 -40 -61 -59t-52 -19q-20 0 -29.5 11.5t-9.5 36.5q0 20 6 50l17 89q-44 -89 -94 -140t-102 -51q-36 0 -60 23.5t-24 73.5q0 22 4 42q13 71 55 134t100 101t114 38q27 0 46 -11
l41 222q2 9 2 23q0 28 -21 28q-15 0 -47 -15h-1q-4 0 -5.5 5.5t2.5 6.5l138 67h2q4 0 7 -3t2 -5zM228 88.5q41 46.5 67 108t26 96.5q0 32 -18 49t-48 17q-61 0 -105 -48.5t-59 -139.5q-4 -23 -4 -46q0 -41 15 -62t42 -21q43 0 84 46.5z" />
    <glyph glyph-name="e" unicode="e" horiz-adv-x="347" 
d="M317 386.5q19 -12.5 19 -33.5q0 -47 -68.5 -85.5t-165.5 -55.5q-4 -24 -4 -52q0 -61 26.5 -98t77.5 -37q55 0 97 33h1q3 0 5.5 -3t0.5 -6q-71 -61 -149 -61q-66 0 -99 41t-33 106q0 22 5 50q10 52 43.5 101.5t83.5 81t106 31.5q35 0 54 -12.5zM259 337q0 17 -12.5 26
t-30.5 9q-41 0 -70 -40.5t-42 -105.5q138 26 153 98q2 10 2 13z" />
    <glyph glyph-name="f" unicode="f" horiz-adv-x="264" 
d="M380 710.5q21 -15.5 18 -38.5q-3 -16 -14 -24.5t-25 -8.5q-19 0 -26.5 9.5t-13.5 28.5q-6 17 -11.5 24.5t-18.5 7.5q-36 0 -62.5 -67t-46.5 -203l-9 -62q30 1 67 5l33 2q7 0 7 -8t-11 -21.5t-21 -13.5q-6 0 -13 1t-15 2q-17 3 -51 7l-54 -372q-14 -97 -33 -151.5
t-47 -78.5t-71 -24q-37 0 -56 14t-16 34q1 15 12.5 24t27.5 9q18 0 25 -9t12 -27q4 -14 8 -20t14 -6q12 0 19.5 15.5t16.5 59t22 134.5l51 353q2 20 2 26q0 18 -11 23t-45 5q-3 0 -3 5q0 3 1.5 6t2.5 3q35 0 50 9.5t19 34.5q20 123 45 188.5t62.5 92.5t99.5 27
q38 0 59 -15.5z" />
    <glyph glyph-name="g" unicode="g" horiz-adv-x="414" 
d="M385 409q3 0 6 -1.5t2 -2.5l-83 -458q-19 -110 -76.5 -169t-145.5 -59q-48 0 -78.5 19.5t-30.5 50.5q0 21 12 32t27 11t22 -8.5t15 -28.5q11 -26 24.5 -40t45.5 -14q39 0 69.5 39t49.5 143l45 261q-43 -91 -99 -144t-109 -53q-30 0 -46.5 18.5t-16.5 56.5q0 9 2 29
q10 69 53.5 141.5t102.5 119.5t111 47q42 0 68 -27q19 16 26 35q2 2 4 2zM197.5 79q37.5 35 67 88t39.5 102q3 14 3 27q0 29 -15 46t-43 17q-34 0 -68 -27.5t-59 -75.5t-34 -108q-4 -32 -4 -42q0 -62 42 -62q34 0 71.5 35z" />
    <glyph glyph-name="h" unicode="h" horiz-adv-x="448" 
d="M426 79q3 0 5.5 -3.5t-0.5 -6.5q-34 -40 -61 -59t-53 -19q-20 0 -29 11.5t-9 37.5q0 17 5 49l29 159q6 30 6 52q0 54 -39 54q-32 0 -66 -41t-64 -119t-49 -185q-2 -8 -12 -12.5t-27 -4.5q-27 0 -27 7l4 20q9 43 11 55l100 536q2 9 2 23q0 28 -21 28q-16 0 -46 -15h-1
q-4 0 -6 5t2 7l138 67h2q4 0 7 -3t2 -5l-95 -523q36 97 83.5 151t100.5 54q33 0 49 -18.5t16 -58.5q0 -29 -5 -55l-33 -178q-3 -15 -3 -25q0 -30 19 -30q10 0 25 11t37 32q2 2 3 2z" />
    <glyph glyph-name="i" unicode="i" horiz-adv-x="247" 
d="M137.5 521.5q-12.5 12.5 -12.5 34.5q0 21 12.5 33t34.5 12t34.5 -12t12.5 -33q0 -22 -12 -34.5t-35 -12.5q-22 0 -34.5 12.5zM68 40q0 21 6 49l41 208q3 15 3 26q0 30 -19 30q-11 0 -28 -11.5t-37 -32.5q-1 -1 -3 -1q-3 0 -5.5 3.5t0.5 5.5q66 78 117 78q20 0 29.5 -11.5
t9.5 -35.5q0 -23 -5 -46l-41 -213q-3 -15 -3 -26q0 -29 18 -29q23 0 63 42q1 1 3 1q4 0 6 -3.5t-1 -5.5q-33 -39 -60.5 -58t-53.5 -19q-40 0 -40 49z" />
    <glyph glyph-name="j" unicode="j" horiz-adv-x="242" 
d="M150.5 521.5q-12.5 12.5 -12.5 34.5q0 21 12.5 33t34.5 12t34.5 -12t12.5 -33q0 -22 -12 -34.5t-35 -12.5q-22 0 -34.5 12.5zM-77 -261q-19 14 -16 34q3 16 13.5 24.5t24.5 8.5q17 0 23 -9t10 -27q4 -15 8 -21.5t13 -6.5q13 0 22.5 18t18.5 58.5t24 125.5l61 353
q3 15 3 25q0 31 -19 31q-24 0 -66 -44q-1 -1 -3 -1q-3 0 -5 3.5t0 5.5q35 41 63.5 59.5t55.5 18.5q20 0 29 -11.5t9 -36.5q0 -15 -5 -45l-58 -334q-16 -95 -35 -147t-46 -74t-70 -22q-36 0 -55 14z" />
    <glyph glyph-name="k" unicode="k" horiz-adv-x="415" 
d="M410 76q4 0 6 -3.5t0 -5.5q-67 -76 -106 -76q-24 0 -42 14.5t-40 52.5l-58 99q-9 16 -16.5 21t-20.5 4l-32 -173q-2 -8 -12 -12.5t-27 -4.5q-27 0 -27 7l4 20q9 43 11 55l100 536q2 9 2 23q0 28 -21 28q-16 0 -46 -15h-1q-4 0 -6 5t2 7l138 67h2q4 0 7 -3t2 -5l-73 -402
q37 39 82 61.5t89 22.5q32 0 45.5 -15t13.5 -34q0 -39 -45.5 -76.5t-124.5 -66.5l65 -112q20 -33 34 -44.5t30 -11.5q26 0 62 36q1 1 3 1zM191 322q-38 -43 -54 -115l-2 -9q86 20 124.5 47.5t45.5 72.5q1 4 1 11q0 17 -8 26.5t-22 9.5q-47 0 -85 -43z" />
    <glyph glyph-name="l" unicode="l" horiz-adv-x="240" 
d="M62 3q-10 12 -10 37q0 19 6 49l96 521q3 15 3 25q0 26 -20 26q-16 0 -46 -15h-1q-5 0 -6.5 5.5t2.5 6.5l138 67h2q4 0 7 -3t2 -5l-115 -628q-3 -15 -3 -26q0 -29 18 -29q10 0 25 11t37 32q2 2 4 2q3 0 5 -3.5t-1 -6.5q-34 -40 -60.5 -59t-52.5 -19q-20 0 -30 12z" />
    <glyph glyph-name="m" unicode="m" horiz-adv-x="679" 
d="M657 79q3 0 5 -3.5t-1 -6.5q-34 -40 -60.5 -59t-52.5 -19q-20 0 -29 11.5t-9 36.5q0 17 5 50l29 159q5 33 5 52q0 54 -35 54q-29 0 -60.5 -37.5t-60.5 -111t-48 -174.5l-4 -22q-1 -8 -11 -12.5t-28 -4.5q-26 0 -26 7q1 6 6.5 31t8.5 44l33 175q4 24 4 48q0 57 -35 57
q-29 0 -61.5 -40t-61.5 -116t-47 -178l-2 -11q-5 -17 -40 -17q-26 0 -26 7l5 23l10 49l41 226q3 15 3 25q0 31 -19 31q-24 0 -66 -44q-1 -1 -3 -1q-3 0 -5 3.5t0 5.5q34 40 63 59t56 19q20 0 29 -11.5t9 -36.5q0 -15 -5 -45l-18 -104q34 95 80.5 148t96.5 53q62 0 62 -77
q0 -22 -6 -54l-13 -71q35 96 81.5 149t96.5 53q61 0 61 -76q0 -24 -6 -56l-32 -178q-3 -15 -3 -26q0 -29 18 -29q10 0 25 11t37 32q2 2 4 2z" />
    <glyph glyph-name="n" unicode="n" horiz-adv-x="468" 
d="M446 79q3 0 5 -3.5t0 -6.5q-34 -40 -61 -59t-53 -19q-20 0 -29 11.5t-9 37.5q0 17 5 49l29 159q6 30 6 52q0 54 -39 54q-32 0 -66 -41t-64 -119t-49 -185q-2 -8 -12 -12.5t-27 -4.5q-27 0 -27 7l4 20q9 43 11 55l41 223q3 15 3 25q0 31 -19 31q-24 0 -66 -44q-1 -1 -3 -1
q-3 0 -5 3.5t0 5.5q34 40 63 59t56 19q20 0 29 -11.5t9 -36.5q0 -15 -5 -45l-20 -110q36 98 84 152.5t101 54.5q33 0 49.5 -19t16.5 -58q0 -23 -6 -55l-33 -178q-3 -15 -3 -25q0 -30 19 -30q10 0 25 11t37 32q2 2 3 2z" />
    <glyph glyph-name="o" unicode="o" horiz-adv-x="401" 
d="M59.5 28.5q-33.5 42.5 -33.5 110.5q0 22 5 54q11 59 42.5 106t76.5 73.5t95 26.5q64 0 98.5 -41.5t34.5 -109.5q0 -26 -6 -55q-13 -63 -46.5 -110t-78.5 -72t-92 -25q-62 0 -95.5 42.5zM259.5 48q30.5 37 42.5 101q6 32 6 63q0 68 -24.5 115.5t-69.5 47.5q-38 0 -69 -37
t-43 -102q-7 -38 -7 -67q0 -67 25.5 -112.5t69.5 -45.5q39 0 69.5 37z" />
    <glyph glyph-name="p" unicode="p" horiz-adv-x="406" 
d="M359.5 366.5q25.5 -26.5 25.5 -77.5q0 -16 -3 -36q-9 -67 -45.5 -125.5t-87.5 -93.5t-104 -35q-31 0 -52 3l-32 -180q-3 -17 -3 -28q0 -17 8 -24.5t25 -7.5q6 0 24 2q4 1 5.5 -4.5t-2.5 -6.5l-178 -28q-4 -1 -5 5t3 7q22 4 32 10.5t15 20.5t11 47l85 476q-6 -4 -46 -34
l-2 -1q-4 0 -6 4.5t1 6.5q27 24 57 45l13 74q0 2 17 14.5t30.5 27.5t17.5 33q1 4 6.5 3t4.5 -5l-18 -103q69 37 129 37q49 0 74.5 -26.5zM317 255q0 98 -83 98q-39 0 -82 -20l-52 -289q37 -16 76 -16q59 0 93.5 52t45.5 140q2 24 2 35z" />
    <glyph glyph-name="q" unicode="q" horiz-adv-x="417" 
d="M289 -178q-3 -15 -3 -26q0 -19 9.5 -28t31.5 -9q6 0 22 2h1q3 0 4 -5t-3 -6l-186 -25q-4 -1 -5 5t3 7q24 4 34.5 10t16.5 20.5t12 47.5l58 329q-37 -74 -87.5 -115.5t-98.5 -41.5q-35 0 -56 24.5t-21 66.5q0 7 2 25q10 77 49.5 145.5t97 109.5t119.5 41q19 0 37 -6.5
t30 -20.5q17 14 27 35q2 2 4 2q3 0 6 -1.5t2 -2.5zM210 71.5q34 27.5 58 74t34 100.5q4 20 4 41q0 72 -59 72q-58 0 -101 -51t-56 -152q-1 -10 -1 -30q0 -82 50 -82q37 0 71 27.5z" />
    <glyph glyph-name="r" unicode="r" horiz-adv-x="345" 
d="M332 380q19 -15 19 -35q0 -15 -10.5 -26.5t-26.5 -11.5q-11 0 -18 4.5t-15 13.5q-5 5 -10.5 9.5t-12.5 4.5q-20 0 -48.5 -56.5t-54 -135t-37.5 -138.5q-2 -8 -12 -12.5t-27 -4.5q-26 0 -26 7q1 6 6.5 31t8.5 44l36 197q4 23 4 42q0 40 -22 40q-21 0 -59 -38q-1 -1 -3 -1
q-3 0 -5 3.5t0 5.5q32 37 59 54.5t53 17.5q21 0 31 -13t10 -44q0 -24 -6 -62l-21 -117q32 103 70.5 169.5t76.5 66.5q21 0 40 -15z" />
    <glyph glyph-name="s" unicode="s" horiz-adv-x="306" 
d="M36.5 6.5q-28.5 17.5 -28.5 41.5q0 18 10.5 28t25.5 10q11 0 18 -6.5t17 -22.5q11 -20 24 -31t36 -11q48 0 55 54q1 4 1 13q0 29 -16.5 50t-50.5 49q-33 27 -50 48t-17 50q0 32 19.5 59t52 42.5t68.5 15.5q39 0 64 -15t22 -38q-3 -15 -13 -23.5t-22 -8.5q-15 0 -23 7
t-17 21q-10 16 -20.5 24.5t-29.5 8.5t-31.5 -10t-14.5 -27q-1 -4 -1 -13q0 -27 16.5 -48t48.5 -48q35 -30 52.5 -52.5t17.5 -52.5t-19.5 -61t-53 -51t-74.5 -20q-38 0 -66.5 17.5z" />
    <glyph glyph-name="t" unicode="t" horiz-adv-x="297" 
d="M301 381q2 -3 1 -7q-3 -10 -13 -22t-20 -12q-5 0 -37.5 5t-66.5 6l-44 -245q-3 -15 -3 -27q0 -25 12 -36.5t38 -11.5q24 0 45.5 10.5t47.5 31.5h1q3 0 6 -3t1 -5q-45 -41 -79.5 -59t-66.5 -18t-52 15.5t-20 52.5q0 6 2 24l42 226q4 17 4 31t-8 18.5t-30 4.5q-3 0 -3 5
q0 3 1.5 6t2.5 3q37 0 64.5 22.5t39.5 57.5q0 3 7 3q4 0 7.5 -1.5t2.5 -2.5l-14 -77q24 1 46 2.5t40 2.5q29 3 40 3q4 0 6 -3z" />
    <glyph glyph-name="u" unicode="u" horiz-adv-x="468" 
d="M442 78q3 0 5 -3.5t0 -5.5q-35 -41 -63 -59.5t-55 -18.5q-20 0 -29 11t-9 36q0 16 5 46l20 114q-36 -100 -84.5 -155.5t-101.5 -55.5q-67 0 -67 76q0 19 7 56l36 178q3 15 3 25q0 30 -19 30q-10 0 -24.5 -11t-36.5 -32q-2 -2 -4 -2q-3 0 -5 3.5t1 6.5q35 40 61 59t52 19
q39 0 39 -49q0 -19 -6 -49l-32 -159q-6 -30 -6 -51q0 -55 40 -55q32 0 66 41t63.5 119t48.5 185q2 8 12 12.5t28 4.5q26 0 26 -7l-4 -20q-9 -43 -11 -55l-41 -223q-2 -9 -2 -25q0 -31 18 -31q12 0 29 11.5t37 32.5q1 1 3 1z" />
    <glyph glyph-name="v" unicode="v" horiz-adv-x="437" 
d="M117 21q-26 34 -26 81q0 33 14 69t40 88l21 42q5 12 5 17q0 9 -13 9h-50q-37 0 -51 -9.5t-24 -39.5q-1 -3 -6 -3q-3 0 -4.5 2t-0.5 5q16 46 27 67t27.5 29.5t46.5 8.5h90q11 0 11 -4q0 -2 -3 -8q-58 -133 -68 -208q-2 -11 -2 -30q0 -43 19 -67.5t52 -24.5q44 0 84.5 42.5
t55.5 108.5q6 27 6 46q0 27 -8 42t-23 31q-2 2 -9 9.5t-11 15.5t-4 17q0 19 13 29t31 10q25 0 36.5 -24.5t11.5 -67.5q0 -24 -3 -51q-10 -75 -45 -136t-81.5 -95.5t-89.5 -34.5t-69 34z" />
    <glyph glyph-name="w" unicode="w" horiz-adv-x="621" 
d="M577.5 372q11.5 -24 11.5 -66q0 -15 -4 -53q-9 -75 -40.5 -136t-74 -95.5t-81.5 -34.5q-27 0 -48 17.5t-34 49.5q-28 -32 -60 -49.5t-61 -17.5q-43 0 -67 31t-24 80q0 16 3 32q6 37 23.5 77.5t44.5 93.5q5 10 5 17q0 9 -13 9h-50q-37 0 -51 -9.5t-24 -39.5q-1 -3 -6 -3
q-3 0 -4.5 2t-0.5 5q16 46 27 67t27.5 29.5t46.5 8.5h90q11 0 11 -4q0 -2 -3 -8q-24 -55 -42 -111t-24 -97q-2 -22 -2 -30q0 -44 18.5 -69t50.5 -25q38 0 75 39q-9 38 -9 82q0 41 7 79q11 69 32.5 109t48.5 40q18 0 28 -17t10 -47q0 -11 -4 -41q-17 -106 -70 -189
q32 -55 84 -55q25 0 50.5 19t45.5 54t27 80q3 21 3 37q0 30 -8 48.5t-24 36.5q-11 12 -16 20t-5 19q0 20 13 29.5t32 9.5q24 0 35.5 -24zM313 212q0 -51 16 -90q39 59 49 131q2 18 2 25q0 21 -7 32t-20 11q-14 0 -23 -16.5t-13 -43.5q-4 -21 -4 -49z" />
    <glyph glyph-name="x" unicode="x" horiz-adv-x="424" 
d="M402 380.5q17 -14.5 17 -34.5q0 -14 -9.5 -23.5t-24.5 -9.5q-16 0 -29 13q-12 10 -22 10q-19 0 -38 -27l-58 -86l41 -136q9 -30 20.5 -39.5t26.5 -9.5q27 0 61 37q1 1 3 1q4 0 6 -3.5t0 -6.5q-37 -39 -63.5 -57.5t-49.5 -18.5t-37 14t-26 51l-31 99l-57 -91
q-29 -46 -44 -59.5t-37 -13.5t-39.5 17t-15.5 38q2 12 11.5 19.5t22.5 7.5q10 0 16 -3t13 -9q5 -4 10.5 -7t12.5 -3q19 0 37 26l65 97l-37 119q-9 34 -21.5 45t-27.5 11q-25 0 -62 -37q-1 -1 -3 -1q-3 0 -5.5 3.5t0.5 5.5q36 39 63 57.5t50 18.5t38.5 -15t27.5 -55l25 -83
l52 81q28 45 43 58.5t37 13.5q21 0 38 -14.5z" />
    <glyph glyph-name="y" unicode="y" horiz-adv-x="440" 
d="M407 392.5q6 -1.5 6 -4.5q0 -5 -6 -28q-9 -40 -10 -48l-70 -382q-17 -98 -71 -154.5t-139 -56.5q-46 0 -75 19t-29 47q0 7 1 10q3 19 13.5 28.5t24.5 9.5t20.5 -8.5t13.5 -27.5q10 -28 24 -42.5t47 -14.5q35 0 62 36t44 130l50 287q-36 -97 -83.5 -151.5t-100.5 -54.5
q-67 0 -67 76q0 19 7 56l36 178q3 15 3 25q0 30 -19 30q-10 0 -25 -11t-36 -32q-2 -2 -4 -2q-3 0 -5 3.5t1 6.5q34 40 60 59t52 19q40 0 40 -49q0 -20 -6 -49l-32 -159q-6 -30 -6 -51q0 -55 40 -55q30 0 62 37t61.5 108.5t49.5 169.5l6 33q1 6 10 10t25 4q19 0 25 -1.5z" />
    <glyph glyph-name="z" unicode="z" horiz-adv-x="344" 
d="M348 397q3 0 6.5 -4t1.5 -6l-273 -309q12 2 20 2q25 0 96 -13q58 -10 73 -10q16 0 26 10t19 34q1 1 4 1t5.5 -1.5t1.5 -3.5q-14 -47 -24 -67.5t-20.5 -27.5t-29.5 -7q-24 0 -56.5 5.5t-42.5 7.5q-62 13 -99 14q-16 0 -28 -6t-27 -23h-1q-3 0 -7 4t-2 6l274 308
q-12 -2 -20 -2q-21 0 -82 13q-46 11 -64 11q-17 0 -27.5 -10.5t-20.5 -34.5q-1 -3 -5 -3q-3 0 -5 2.5t-1 5.5q17 49 27 69.5t22 26.5t36 5q21 -1 77 -13q59 -12 89 -14q16 0 28 6t27 23z" />
    <glyph glyph-name="braceleft" unicode="{" horiz-adv-x="261" 
d="M109.5 -110q-23.5 7 -34.5 25t-11 52q0 35 13 113q16 91 16 128q0 39 -13 61t-41 29q-3 0 -3 6.5t3 6.5q49 7 74 58.5t44 159.5q15 86 33 126.5t47.5 55t84.5 14.5q3 0 3 -6t-3 -6q-65 0 -84 -106q-23 -119 -38.5 -170t-41.5 -79.5t-80 -52.5q44 -20 61.5 -44t17.5 -67
q0 -25 -6 -69t-15 -95l-5 -29q-3 -20 -3 -36q0 -34 12.5 -52t35.5 -18q2 0 2 -6t-2 -6q-43 0 -66.5 7z" />
    <glyph glyph-name="bar" unicode="|" horiz-adv-x="152" 
d="M19 -160q-8 0 -15 2.5t-6 6.5l154 882q1 5 16 5q9 0 16 -2.5t6 -6.5l-155 -881q-1 -6 -16 -6z" />
    <glyph glyph-name="braceright" unicode="}" horiz-adv-x="262" 
d="M191.5 718q23.5 -7 34.5 -25t11 -52q0 -35 -13 -113q-16 -91 -16 -128q0 -39 13 -61t41 -29q3 0 3 -6.5t-3 -6.5q-49 -7 -74 -58.5t-44 -159.5q-15 -86 -33 -126.5t-47.5 -55t-84.5 -14.5q-3 0 -3 6t3 6q65 0 84 106q23 119 38.5 170t41.5 79.5t80 52.5q-44 20 -61.5 44
t-17.5 67q0 25 6 69t15 95l5 29q3 20 3 36q0 34 -12.5 52t-35.5 18q-2 0 -2 6t2 6q43 0 66.5 -7z" />
    <glyph glyph-name="asciitilde" unicode="~" horiz-adv-x="443" 
d="M49 149q-2 0 -4.5 2.5t-1.5 4.5q30 39 56 59t57 20q24 0 77 -17q29 -9 47.5 -13.5t35.5 -4.5q28 0 45 10t33 28h1q3 0 5.5 -2.5t0.5 -4.5q-36 -46 -59.5 -62.5t-52.5 -16.5q-28 0 -79 17q-27 9 -46.5 13.5t-38.5 4.5q-27 0 -40 -8t-35 -30h-1z" />
    <glyph glyph-name="uni00A0" unicode="&#xa0;" horiz-adv-x="234" 
 />
    <glyph glyph-name="exclamdown" unicode="&#xa1;" horiz-adv-x="219" 
d="M173.5 351q12.5 -13 12.5 -35q0 -20 -12.5 -32t-34.5 -12t-34 11.5t-12 32.5q0 23 12 35.5t34 12.5t34.5 -13zM115.5 167.5q5.5 -0.5 4.5 -5.5q-31 -291 -34 -429q0 -4 -16.5 -8t-33.5 -4q-18 0 -34 4t-14 8q55 152 121 430q1 5 6.5 4.5z" />
    <glyph glyph-name="cent" unicode="&#xa2;" horiz-adv-x="590" 
d="M588.5 594.5q1.5 -4.5 0.5 -15.5l-12 -118q-1 -4 -6 -4t-5 4q-9 71 -50 108.5t-105 42.5l-106 -608q6 -1 19 -1q55 0 108.5 37.5t101.5 113.5q2 2 4 2q3 0 5 -2t1 -4l-29 -110q-3 -12 -6 -16.5t-12 -6.5q-87 -30 -179 -30h-16l-17 -96q-1 -5 -10 -5q-6 0 -10 2.5t-3 6.5
l16 94q-114 11 -167 82.5t-53 172.5q0 36 6 72q16 87 65 155.5t117.5 110t144.5 51.5l16 89q1 5 9 5q6 0 10.5 -2.5t3.5 -6.5l-14 -83q6 1 18 1q41 0 82.5 -9t64.5 -24q6 -4 7.5 -8.5zM142 262q0 -97 37.5 -166t102.5 -87l106 603q-92 -4 -156.5 -75.5t-82.5 -190.5
q-7 -41 -7 -84z" />
    <glyph glyph-name="sterling" unicode="&#xa3;" horiz-adv-x="432" 
d="M428 601l-22 -122q-1 -4 -6.5 -4t-5.5 4q-4 140 -89 140q-48 0 -78.5 -45.5t-40.5 -108.5q-4 -31 -4 -65q0 -21 2 -59l1 -27h114q5 0 5 -12t-5 -12h-112q2 -48 -5 -90q-9 -51 -30.5 -83.5t-52.5 -59.5l162 -1q37 0 56 6.5t31 23.5t25 54q0 1 4 1q3 0 5.5 -1t1.5 -2
q-16 -49 -29 -123q-2 -9 -5.5 -12t-11.5 -3h-329q-2 0 -2 5.5t2 6.5q42 19 62.5 51t32.5 90q7 40 7 91q0 31 -1 46h-47q-6 0 -6 12t6 12h46q-1 13 -1 38q0 43 6 75q18 104 75.5 156.5t127.5 52.5q60 0 102 -19q10 -6 9 -16z" />
    <glyph glyph-name="currency" unicode="&#xa4;" horiz-adv-x="378" 
d="M302 290q18 -27 18 -66q0 -66 -47 -111l35 -48l-33 -30l-34 53q-40 -23 -81 -23q-36 0 -63 20l-49 -50l-20 26l49 47q-19 29 -19 70q0 37 13.5 66t37.5 49l-35 48l32 29l36 -54q37 19 74 19q40 0 66 -23l56 55l18 -26zM228.5 111q22.5 26 31.5 74q3 18 3 35q0 41 -17 68
t-50 27q-29 0 -50 -24.5t-30 -71.5q-4 -26 -4 -40q0 -40 16 -67t48 -27q30 0 52.5 26z" />
    <glyph glyph-name="yen" unicode="&#xa5;" horiz-adv-x="531" 
d="M605 619q0 -6 -3 -6q-64 0 -133 -99l-144 -204h101q4 0 6 -3.5t2 -8.5t-2 -8.5t-6 -3.5h-276q-3 0 -5 3.5t-2 8.5t2 8.5t5 3.5h99l-99 232q-17 38 -34 54.5t-43 16.5q-4 0 -4 6t4 6l38 -1q28 -2 40 -2q26 0 70 2l45 1q3 0 3 -5q0 -7 -4 -7q-26 0 -38 -5t-12 -16
q0 -7 5 -19l99 -238l130 190q23 32 23 56q0 32 -43 32q-3 0 -3 6t3 6l44 -1q38 -2 62 -2q15 0 35 2l32 1q3 0 3 -6zM421 226q0 -12 -7 -12h-105l-24 -133q-4 -19 -4 -34q0 -21 14 -28t52 -7q3 0 3 -6t-3 -6q-29 0 -45 1l-64 1l-67 -1q-16 -1 -44 -1q-4 0 -4 6t4 6
q33 0 49.5 5.5t24.5 19.5t13 44l23 133h-99q-7 0 -7 12t7 12h276q7 0 7 -12z" />
    <glyph glyph-name="brokenbar" unicode="&#xa6;" horiz-adv-x="152" 
d="M111 351q-9 0 -16.5 2.5t-6.5 6.5l64 371q1 5 15 5q9 0 16.5 -2.5t6.5 -6.5l-65 -370q0 -6 -14 -6zM19 -163q-9 0 -16 2.5t-6 6.5l64 370q0 6 15 6q9 0 16.5 -2.5t6.5 -6.5l-65 -371q-1 -5 -15 -5z" />
    <glyph glyph-name="section" unicode="&#xa7;" horiz-adv-x="396" 
d="M378 540l-15 -108q0 -2 -5 -2t-5 2q-2 24 -14.5 51t-34.5 46t-51 19q-24 0 -41.5 -17t-23.5 -52q-2 -14 -2 -20q0 -35 19.5 -61t58.5 -59q44 -37 66.5 -68t22.5 -77q0 -45 -21 -83.5t-68 -79.5q26 -31 26 -70q0 -13 -3 -26q-11 -61 -57 -92t-106 -31q-48 0 -78 16
q-8 5 -7 16l14 107q1 3 6 3t5 -3q3 -24 15.5 -50.5t34 -45.5t49.5 -19q25 0 43 16.5t24 52.5q2 14 2 19q0 36 -19.5 61t-59.5 60q-44 38 -66.5 68.5t-22.5 76.5t21.5 84t67.5 78q-27 34 -27 71q0 13 3 26q11 61 57.5 92t106.5 31q48 0 78 -16q8 -6 7 -16zM292 158
q0 49 -22.5 80t-66.5 66q-30 26 -42 38q-26 -32 -34 -83q-3 -18 -3 -32q0 -49 22.5 -80t66.5 -67q30 -24 42 -38q26 31 34 83q3 18 3 33z" />
    <glyph glyph-name="dieresis" unicode="&#xa8;" horiz-adv-x="275" 
d="M84 485q-12 12 -12 34q0 21 12 32.5t34 11.5q21 0 32.5 -11.5t11.5 -32.5q0 -22 -11.5 -34t-32.5 -12q-22 0 -34 12zM237 485q-12 12 -12 34q0 21 12 32.5t34 11.5q21 0 33 -11.5t12 -32.5q0 -22 -12 -34t-33 -12q-22 0 -34 12z" />
    <glyph glyph-name="copyright" unicode="&#xa9;" horiz-adv-x="725" 
d="M227.5 -69q-69.5 34 -113 100t-43.5 158q0 89 46.5 160.5t123 111t162.5 39.5q76 0 134 -31.5t89 -84t31 -115.5q0 -60 -33 -113t-90.5 -85t-128.5 -32q-61 0 -101.5 22.5t-59.5 58t-19 75.5q0 52 25 90t65 58.5t83 20.5q39 0 69 -14.5t31 -38.5q0 -15 -9 -24.5t-25 -9.5
q-21 0 -38 30q-12 19 -23.5 28.5t-32.5 9.5q-40 0 -56.5 -30.5t-16.5 -90.5q0 -69 35.5 -113.5t112.5 -44.5q43 0 81 20t61 59t23 94q0 65 -31.5 119.5t-86.5 86.5t-122 32q-76 0 -131 -35.5t-84 -95.5t-29 -133q0 -89 39.5 -153.5t103.5 -97.5t135 -33q57 0 100 10t93 38
q2 1 5 -2.5t1 -5.5q-55 -42 -110 -57t-120 -15q-76 0 -145.5 34z" />
    <glyph glyph-name="ordfeminine" unicode="&#xaa;" horiz-adv-x="276" 
d="M308 425q3 0 6 -3t2 -5q-23 -27 -41.5 -40t-35.5 -13q-25 0 -25 33q0 12 3 30l8 50q-27 -55 -62.5 -85.5t-68.5 -30.5q-19 0 -29.5 12t-10.5 37q0 46 27.5 98.5t68.5 88.5t77 36q27 0 44 -17q11 11 15 22q1 2 5 1t4 -3l-38 -209q-2 -14 -2 -17q0 -18 11 -18q7 0 16.5 8
t24.5 25h1zM166.5 421q24.5 24 45 60t26.5 68q2 12 2 17q0 19 -9.5 30t-26.5 11q-22 0 -44.5 -18.5t-39 -50t-21.5 -68.5q-3 -18 -3 -32q0 -41 26 -41q20 0 44.5 24zM272.5 309q1.5 -4 1.5 -9t-1.5 -9.5t-3.5 -4.5h-225q-4 0 -4 15q0 12 3 12h226q2 0 3.5 -4z" />
    <glyph glyph-name="guillemotleft" unicode="&#xab;" horiz-adv-x="427" 
d="M246 364q3 0 6 -3t1 -5l-128 -155l74 -154v-1q0 -3 -3.5 -6t-4.5 0l-141 149q-3 5 -3 10q0 7 6 13l192 152h1zM394 364q3 0 6 -3t0 -5l-128 -155l75 -154v-1q0 -3 -3.5 -6t-5.5 0l-141 149q-3 3 -3 9q0 8 7 14l191 152h2z" />
    <glyph glyph-name="logicalnot" unicode="&#xac;" horiz-adv-x="400" 
d="M367 79q0 -2 -7 -3.5t-15 -1.5q-7 0 -13.5 1.5t-6.5 2.5v149h-288q-2 0 -3.5 7t-1.5 15q0 7 1.5 13.5t2.5 6.5h331v-190z" />
    <glyph glyph-name="uni00AD" unicode="&#xad;" horiz-adv-x="305" 
d="M28 195q0 17 2 18l249 46q2 1 3.5 -8t1.5 -19q0 -19 -3 -19l-248 -47q-5 -1 -5 29z" />
    <glyph glyph-name="registered" unicode="&#xae;" horiz-adv-x="759" 
d="M588 688.5q65 -36.5 100 -99t35 -138.5q0 -86 -42.5 -158t-114.5 -113.5t-157 -41.5q-75 0 -143 34.5t-110.5 100t-42.5 152.5t45 155.5t120 106.5t160 38t150 -36.5zM613 235.5q63 69.5 63 185.5q0 82 -35 146t-97 99.5t-140 35.5t-133 -34t-82 -90t-27 -124
q0 -87 39.5 -152.5t103.5 -100.5t134 -35q111 0 174 69.5zM584.5 282q-0.5 -4 -2.5 -4h-85q-17 0 -68 162q-21 -4 -50 -4l-18 -102q-3 -13 -3 -22q0 -14 9 -18t34 -4q1 0 1 -3t-1 -5.5t-2 -3.5l-73 1l-71 -1q-1 0 -1 2q0 3 1 6t2 4q29 0 38 7.5t14 36.5l38 216q3 14 3 21
q0 13 -8.5 18t-30.5 5q-1 0 -1 2q0 3 1 6t2 4l71 -1q13 0 43 2l40 1q84 0 84 -52q0 -5 -2 -15q-10 -59 -71 -86q21 -62 34.5 -94.5t30 -50.5t40.5 -24q2 0 1.5 -4zM411 452q35 0 54.5 15.5t25.5 51.5q3 15 3 27q0 49 -46 49q-18 0 -26.5 -2.5t-14 -12.5t-9.5 -33l-16 -93
q22 -2 29 -2z" />
    <glyph glyph-name="macron" unicode="&#xaf;" horiz-adv-x="333" 
d="M95 493q0 16 7 16h234q4 0 6 -5t2 -11t-2 -11t-6 -5h-234q-7 0 -7 16z" />
    <glyph glyph-name="degree" unicode="&#xb0;" horiz-adv-x="299" 
d="M97.5 407q-29.5 34 -29.5 80q0 15 3 28q10 47 53.5 81t101.5 34q56 0 84.5 -32.5t28.5 -79.5q0 -41 -21 -74t-56.5 -52t-77.5 -19q-57 0 -86.5 34zM246.5 413.5q16.5 24.5 24.5 68.5q5 35 5 55q0 78 -58 78q-36 0 -54.5 -26.5t-27.5 -70.5q-5 -28 -5 -50q0 -79 63 -79
q36 0 52.5 24.5z" />
    <glyph glyph-name="plusminus" unicode="&#xb1;" horiz-adv-x="398" 
d="M30.5 239q-1.5 7 -1.5 15q0 7 1 13t3 6h145v145q0 4 21 4t21 -4v-145h144q2 0 3.5 -6.5t1.5 -13.5q0 -8 -1.5 -14.5t-3.5 -6.5h-144v-144q0 -2 -7 -3.5t-15 -1.5q-7 0 -13.5 1.5t-6.5 2.5v145h-144q-2 0 -3.5 7zM367.5 33q1.5 -6 1.5 -13t-1.5 -13t-3.5 -6h-330
q-2 0 -3.5 6.5t-1.5 13.5t1.5 12.5t2.5 5.5h331q2 0 3.5 -6z" />
    <glyph glyph-name="uni00B2" unicode="&#xb2;" horiz-adv-x="230" 
d="M245 597q-22 -26 -65 -67q-32 -30 -48.5 -47.5t-25.5 -35.5h1q58 0 82.5 3.5t35 13.5t19.5 35q2 3 5 3t5.5 -1.5t1.5 -4.5l-18 -91q0 -2 -2 -2h-166q-2 0 -3 2.5t1 6.5q12 29 30.5 54t48.5 61q35 41 53 68t22 57q1 4 1 12q0 19 -9 30t-26 11q-21 0 -40 -16t-29 -41
q-1 -3 -5 -3q-3 0 -5.5 2t-1.5 5q37 77 102 77q32 0 48.5 -16t16.5 -43q0 -6 -2 -18q-5 -29 -27 -55z" />
    <glyph glyph-name="uni00B3" unicode="&#xb3;" horiz-adv-x="230" 
d="M249 611q-21 -26 -52 -38q56 -14 56 -66q0 -24 -13.5 -50t-39.5 -43t-59 -17q-64 0 -72 67q-1 4 4.5 5t6.5 -3q4 -20 17.5 -34t36.5 -14q24 0 42 18.5t24 55.5q2 14 2 20q0 27 -15 40t-41 13q-3 0 -3 6t3 6q27 0 46 22.5t25 52.5q1 5 1 14q0 18 -9.5 28t-25.5 10
q-20 0 -38 -15.5t-28 -37.5q-1 -2 -4 -2t-5 2t-1 4q15 33 40 53.5t59 20.5q31 0 47.5 -16.5t16.5 -43.5q0 -32 -21 -58z" />
    <glyph glyph-name="acute" unicode="&#xb4;" horiz-adv-x="212" 
d="M112.5 472q-5.5 2 -3.5 4l87 240q2 5 24.5 10t39.5 5q13 0 12 -4l-153 -254q-1 -3 -6.5 -1z" />
    <glyph glyph-name="paragraph" unicode="&#xb6;" horiz-adv-x="594" 
d="M199.5 -180q-17.5 13 -14.5 34q3 17 13.5 25.5t25.5 8.5t21 -7t11 -21q4 -15 10 -22t22 -7q18 0 28.5 13.5t19 48t22.5 115.5l21 117q-36 -3 -79 -3q-93 0 -158.5 48.5t-65.5 153.5q0 29 6 62q23 119 103 180.5t201 61.5q28 0 59 -3q66 -3 74 -3q19 0 53 2l47 1q5 0 5 -6
t-5 -6q-39 0 -64.5 -21t-32.5 -60l-83 -477q-23 -128 -69 -188t-119 -60q-34 0 -51.5 13z" />
    <glyph glyph-name="periodcentered" unicode="&#xb7;" horiz-adv-x="203" 
d="M69.5 175q-12.5 13 -12.5 35q0 20 12.5 32t34.5 12t34 -11.5t12 -32.5q0 -23 -12 -35.5t-34 -12.5t-34.5 13z" />
    <glyph glyph-name="cedilla" unicode="&#xb8;" horiz-adv-x="196" 
d="M-43.5 -263.5q-18.5 11.5 -18.5 30.5q0 16 9.5 24t24.5 8q13 0 20 -8t13 -22q6 -13 11 -19t15 -6q13 0 21.5 8.5t11.5 24.5q3 30 -42 85q-12 13 -12 34q0 20 12 44l29 60h13q-12 -27 -12 -45q0 -15 6.5 -28.5t20.5 -30.5q32 -42 32 -71q0 -9 -1 -13q-4 -31 -33 -59
t-75 -28q-27 0 -45.5 11.5z" />
    <glyph glyph-name="uni00B9" unicode="&#xb9;" horiz-adv-x="239" 
d="M77 408.5q0 5.5 3 5.5q29 0 41.5 4t19 17.5t12.5 47.5l21 118q7 42 7 53q0 20 -13 20q-12 0 -49 -17h-2q-3 0 -4.5 4.5t1.5 6.5l122 61q1 1 3 1t4 -2.5t1 -4.5l-41 -240q-6 -36 -6 -42q0 -17 10.5 -22t39.5 -5q3 0 3 -5.5t-3 -5.5q-22 0 -34 1l-46 1l-51 -1
q-13 -1 -36 -1q-3 0 -3 5.5z" />
    <glyph glyph-name="ordmasculine" unicode="&#xba;" horiz-adv-x="269" 
d="M87 388q-23 29 -23 74q0 12 4 36q10 60 51.5 96t89.5 36q43 0 66 -29t23 -75q0 -14 -3 -31q-7 -40 -29.5 -71t-53 -48t-61.5 -17q-41 0 -64 29zM218 401.5q20 24.5 29 70.5q4 20 4 43q0 44 -16.5 71t-46.5 27q-27 0 -46.5 -23.5t-26.5 -69.5q-4 -21 -4 -45q0 -44 16 -71
t44 -27q27 0 47 24.5zM45.5 290.5q-1.5 4.5 -1.5 9.5t1 9t3 4h221q2 0 3.5 -4t1.5 -9t-1.5 -9.5t-3.5 -4.5h-220q-2 0 -3.5 4.5z" />
    <glyph glyph-name="guillemotright" unicode="&#xbb;" horiz-adv-x="426" 
d="M35 37q-3 0 -6 3t-1 6l129 154l-75 154v1q0 3 3.5 6t4.5 0l142 -149q3 -4 3 -10q0 -7 -6 -13l-193 -152h-1zM182 37q-3 0 -6 3t0 6l129 154l-76 154v1q0 3 3.5 6t5.5 0l141 -149q3 -4 3 -10q0 -7 -6 -13l-192 -152h-2z" />
    <glyph glyph-name="onequarter" unicode="&#xbc;" horiz-adv-x="551" 
d="M195 310l-46 1l-51 -1q-13 -1 -36 -1q-3 0 -3 5.5t3 5.5q29 0 41.5 4t19 17.5t12.5 47.5l21 118q7 42 7 53q0 20 -13 20q-12 0 -49 -17h-2q-3 0 -4.5 4.5t1.5 6.5l122 61q1 1 3 1t4 -2.5t1 -4.5l-41 -240q-6 -36 -6 -42q0 -17 10.5 -22t39.5 -5q3 0 3 -5.5t-3 -5.5
q-22 0 -34 1zM470 627q6 0 15.5 -5.5t7.5 -8.5l-338 -617h-1q-5 0 -15 5t-9 7l338 618q0 1 2 1zM516 114q0 -8 -2 -17.5t-4 -9.5l-38 3l-8 -49l-2 -16q0 -9 7 -12t27 -3q5 0 5 -6t-5 -6q-15 0 -23 1l-35 1l-43 -1q-11 -1 -31 -1q-4 0 -4 6t4 6q31 0 40.5 5.5t13.5 25.5l9 51
q-31 1 -111 1q-1 0 -2 2.5t1 3.5l185 227q1 1 4 1t6 -2t2 -5l-35 -203l38 2q1 0 1 -5zM431 115l22 130l-96 -128q-1 -1 -0.5 -2.5t2.5 -1.5q30 0 72 2z" />
    <glyph glyph-name="onehalf" unicode="&#xbd;" horiz-adv-x="566" 
d="M195 310l-46 1l-51 -1q-13 -1 -36 -1q-3 0 -3 5.5t3 5.5q29 0 41.5 4t19 17.5t12.5 47.5l21 118q7 42 7 53q0 20 -13 20q-12 0 -49 -17h-2q-3 0 -4.5 4.5t1.5 6.5l122 61q1 1 3 1t4 -2.5t1 -4.5l-41 -240q-6 -36 -6 -42q0 -17 10.5 -22t39.5 -5q3 0 3 -5.5t-3 -5.5
q-22 0 -34 1zM470 627q6 0 15.5 -5.5t7.5 -8.5l-338 -617h-1q-5 0 -15 5t-9 7l338 618q0 1 2 1zM511 194q-22 -26 -65 -67q-32 -30 -48.5 -47.5t-25.5 -35.5h1q58 0 82.5 3.5t35 13.5t19.5 35q2 3 5 3t5.5 -1.5t1.5 -4.5l-18 -91q0 -2 -2 -2h-166q-2 0 -3 2.5t1 6.5
q12 29 30.5 54t48.5 61q35 41 53 68t22 57q1 4 1 12q0 19 -9 30t-26 11q-21 0 -40 -16t-29 -41q-1 -3 -5 -3q-3 0 -5.5 2t-1.5 5q37 77 102 77q32 0 48.5 -16t16.5 -43q0 -6 -2 -18q-5 -29 -27 -55z" />
    <glyph glyph-name="threequarters" unicode="&#xbe;" horiz-adv-x="543" 
d="M221.5 363q-13.5 -26 -39.5 -43t-59 -17q-64 0 -72 67q-1 4 4.5 5t6.5 -3q4 -20 17.5 -34t36.5 -14q24 0 42 18.5t24 55.5q2 14 2 20q0 27 -15 40t-41 13q-3 0 -3 6t3 6q27 0 46 22.5t25 52.5q1 5 1 14q0 18 -9.5 28t-25.5 10q-20 0 -38 -15.5t-28 -37.5q-1 -2 -4 -2
t-5 2t-1 4q15 33 40 53.5t59 20.5q31 0 47.5 -16.5t16.5 -43.5q0 -32 -21 -58t-52 -38q56 -14 56 -66q0 -24 -13.5 -50zM461 627q6 0 15.5 -5.5t7.5 -8.5l-338 -617h-1q-5 0 -15 5t-9 7l338 618q0 1 2 1zM507 114q0 -8 -2 -17.5t-4 -9.5l-38 3l-8 -49l-2 -16q0 -9 7 -12
t27 -3q5 0 5 -6t-5 -6q-15 0 -23 1l-35 1l-43 -1q-11 -1 -31 -1q-4 0 -4 6t4 6q31 0 40.5 5.5t13.5 25.5l9 51q-31 1 -111 1q-1 0 -2 2.5t1 3.5l185 227q1 1 4 1t6 -2t2 -5l-35 -203l38 2q1 0 1 -5zM422 115l22 130l-96 -128q-1 -1 -0.5 -2.5t2.5 -1.5q30 0 72 2z" />
    <glyph glyph-name="questiondown" unicode="&#xbf;" horiz-adv-x="311" 
d="M240.5 347q12.5 -13 12.5 -35q0 -20 -12.5 -32t-34.5 -12t-34 11.5t-12 32.5q0 23 12 35.5t34 12.5t34.5 -13zM198.5 114q5.5 -26 5.5 -49q0 -41 -17.5 -66t-53.5 -55q-33 -27 -51.5 -50.5t-25.5 -60.5q-2 -16 -2 -24q0 -30 14 -49t40 -19q23 0 32.5 11.5t15.5 32.5
q4 21 13 35t31 14q16 0 24.5 -9t8.5 -23q0 -7 -1 -10q-4 -30 -43.5 -48.5t-88.5 -18.5q-53 0 -85 24.5t-32 69.5q0 12 3 26q6 31 21.5 54.5t31 38t47.5 40.5q42 34 60 61t24 63q2 9 2 30q0 18 -1 27q0 4 6 5t7 -3q9 -21 14.5 -47z" />
    <glyph glyph-name="Agrave" unicode="&#xc0;" horiz-adv-x="602" 
d="M299.5 767q19.5 9 46 16t30.5 4q43 -39 110 -93q2 0 2 -3t-3 -5t-6 -1q-51 23 -93.5 39t-95.5 32q-10 2 9.5 11zM570 6q0 -6 -4 -6q-15 0 -47 2q-36 2 -57 2q-22 0 -54 -2t-46 -2q-3 0 -3 6t3 6q35 0 49 9t14 33q0 14 -3 30l-40 235h-150l-103 -188q-29 -52 -29 -80
q0 -22 17 -30.5t52 -8.5q4 0 3.5 -6t-4.5 -6q-12 0 -48 2q-40 2 -62 2q-21 0 -49 -2t-43 -2q-4 0 -4 6t4 6q29 0 63.5 27.5t68.5 87.5l284 508q2 3 7 3q9 0 11 -5l95 -549q5 -31 10.5 -45t19 -20.5t41.5 -6.5q4 0 4 -6zM245 342h133l-32 185z" />
    <glyph glyph-name="Aacute" unicode="&#xc1;" horiz-adv-x="602" 
d="M335 678q-4 0 -5 4.5t2 6.5q33 18 65.5 40t41.5 28l43 30q5 3 28 -4t40.5 -16t8.5 -11q-62 -15 -113.5 -33.5t-108.5 -43.5zM570 6q0 -6 -4 -6q-15 0 -47 2q-36 2 -57 2q-22 0 -54 -2t-46 -2q-3 0 -3 6t3 6q35 0 49 9t14 33q0 14 -3 30l-40 235h-150l-103 -188
q-29 -52 -29 -80q0 -22 17 -30.5t52 -8.5q4 0 3.5 -6t-4.5 -6q-12 0 -48 2q-40 2 -62 2q-21 0 -49 -2t-43 -2q-4 0 -4 6t4 6q29 0 63.5 27.5t68.5 87.5l284 508q2 3 7 3q9 0 11 -5l95 -549q5 -31 10.5 -45t19 -20.5t41.5 -6.5q4 0 4 -6zM245 342h133l-32 185z" />
    <glyph glyph-name="Acircumflex" unicode="&#xc2;" horiz-adv-x="602" 
d="M299 660q-3 0 -5 2.5t0 4.5l110 103q5 5 9 5q6 0 9 -5l77 -103l1 -2q0 -2 -3 -4t-5 -1l-88 51l-104 -51h-1zM570 6q0 -6 -4 -6q-15 0 -47 2q-36 2 -57 2q-22 0 -54 -2t-46 -2q-3 0 -3 6t3 6q35 0 49 9t14 33q0 14 -3 30l-40 235h-150l-103 -188q-29 -52 -29 -80
q0 -22 17 -30.5t52 -8.5q4 0 3.5 -6t-4.5 -6q-12 0 -48 2q-40 2 -62 2q-21 0 -49 -2t-43 -2q-4 0 -4 6t4 6q29 0 63.5 27.5t68.5 87.5l284 508q2 3 7 3q9 0 11 -5l95 -549q5 -31 10.5 -45t19 -20.5t41.5 -6.5q4 0 4 -6zM245 342h133l-32 185z" />
    <glyph glyph-name="Atilde" unicode="&#xc3;" horiz-adv-x="602" 
d="M279 692q-3 0 -5.5 2.5t-0.5 4.5q18 26 41.5 47t49.5 21q16 0 51 -11q44 -14 72 -14q19 0 31 6.5t25 20.5h2q3 0 5 -2.5t0 -4.5q-28 -40 -45.5 -53.5t-39.5 -13.5q-17 0 -36.5 5t-23.5 6q-41 13 -69 13q-19 0 -29 -5t-17 -12l-10 -10h-1zM570 6q0 -6 -4 -6q-15 0 -47 2
q-36 2 -57 2q-22 0 -54 -2t-46 -2q-3 0 -3 6t3 6q35 0 49 9t14 33q0 14 -3 30l-40 235h-150l-103 -188q-29 -52 -29 -80q0 -22 17 -30.5t52 -8.5q4 0 3.5 -6t-4.5 -6q-12 0 -48 2q-40 2 -62 2q-21 0 -49 -2t-43 -2q-4 0 -4 6t4 6q29 0 63.5 27.5t68.5 87.5l284 508q2 3 7 3
q9 0 11 -5l95 -549q5 -31 10.5 -45t19 -20.5t41.5 -6.5q4 0 4 -6zM245 342h133l-32 185z" />
    <glyph glyph-name="Adieresis" unicode="&#xc4;" horiz-adv-x="602" 
d="M300 724q-12 12 -12 34q0 21 12 32.5t34 11.5q21 0 32.5 -11.5t11.5 -32.5q0 -22 -11.5 -34t-32.5 -12q-22 0 -34 12zM453 724q-12 12 -12 34q0 21 12 32.5t34 11.5q21 0 33 -11.5t12 -32.5q0 -22 -12 -34t-33 -12q-22 0 -34 12zM570 6q0 -6 -4 -6q-15 0 -47 2
q-36 2 -57 2q-22 0 -54 -2t-46 -2q-3 0 -3 6t3 6q35 0 49 9t14 33q0 14 -3 30l-40 235h-150l-103 -188q-29 -52 -29 -80q0 -22 17 -30.5t52 -8.5q4 0 3.5 -6t-4.5 -6q-12 0 -48 2q-40 2 -62 2q-21 0 -49 -2t-43 -2q-4 0 -4 6t4 6q29 0 63.5 27.5t68.5 87.5l284 508q2 3 7 3
q9 0 11 -5l95 -549q5 -31 10.5 -45t19 -20.5t41.5 -6.5q4 0 4 -6zM245 342h133l-32 185z" />
    <glyph glyph-name="Aring" unicode="&#xc5;" horiz-adv-x="602" 
d="M330.5 691.5q-23.5 23.5 -23.5 56.5q0 36 29.5 56.5t66.5 20.5t62.5 -23t25.5 -57q0 -35 -29.5 -56t-67.5 -21q-40 0 -63.5 23.5zM358 767q0 -33 14.5 -60.5t36.5 -27.5q29 0 29 49q0 34 -16 59.5t-38 25.5q-26 0 -26 -46zM570 6q0 -6 -4 -6q-15 0 -47 2q-36 2 -57 2
q-22 0 -54 -2t-46 -2q-3 0 -3 6t3 6q35 0 49 9t14 33q0 14 -3 30l-40 235h-150l-103 -188q-29 -52 -29 -80q0 -22 17 -30.5t52 -8.5q4 0 3.5 -6t-4.5 -6q-12 0 -48 2q-40 2 -62 2q-21 0 -49 -2t-43 -2q-4 0 -4 6t4 6q29 0 63.5 27.5t68.5 87.5l284 508q2 3 7 3q9 0 11 -5
l95 -549q5 -31 10.5 -45t19 -20.5t41.5 -6.5q4 0 4 -6zM245 342h133l-32 185z" />
    <glyph glyph-name="AE" unicode="&#xc6;" horiz-adv-x="770" 
d="M765 616l-9 -61q-2 -15 -4.5 -32t-5.5 -34q-1 -4 -7 -3t-5 4q2 55 -24.5 88t-76.5 33h-31q-47 0 -64.5 -14t-22.5 -54l-26 -206h106q43 0 64.5 17t29.5 56q0 3 4 3q3 0 5.5 -1.5t1.5 -2.5q-5 -33 -10 -55l-5 -29q-6 -38 -8 -53l-7 -43q0 -2 -4 -2q-3 0 -5.5 1.5t-2.5 2.5
q2 9 2 25q0 30 -17.5 44t-54.5 14h-102l-29 -229q-2 -22 -2 -29q0 -23 12 -30.5t48 -7.5h51q43 0 83 36.5t64 97.5q2 3 7.5 2t3.5 -4q-18 -58 -32 -135q-2 -9 -5 -12t-11 -3h-373q-4 0 -4 6t4 6q31 0 47 5.5t23.5 19.5t11.5 44l30 233h-146l-139 -191q-31 -43 -31 -70
q0 -41 68 -41q4 0 3.5 -6t-3.5 -6q-15 0 -57 2q-44 2 -70 2q-23 0 -53 -2q-26 -2 -43 -2q-5 0 -5 6t5 6q40 0 75.5 25.5t87.5 95.5l319 442q14 20 14 27q0 8 -13.5 9.5t-55.5 1.5q-4 0 -4 6t4 6h388q8 0 6 -9zM286 337h132l29 221z" />
    <glyph glyph-name="Ccedilla" unicode="&#xc7;" horiz-adv-x="586" 
d="M588.5 594.5q1.5 -4.5 0.5 -15.5l-12 -118q-1 -4 -6 -4t-5 4q-10 76 -54.5 113.5t-115.5 37.5q-62 0 -114 -32.5t-86.5 -92.5t-46.5 -141q-7 -41 -7 -84q0 -74 22 -133t63.5 -92.5t96.5 -33.5t108.5 37.5t101.5 113.5q2 2 4 2q3 0 5 -2t1 -4l-29 -110q-3 -12 -6 -16.5
t-12 -6.5q-87 -30 -178 -30q-7 -18 -7 -33t7 -28.5t20 -29.5q32 -42 32 -71q0 -9 -1 -13q-4 -31 -33 -59t-75 -28q-27 0 -45.5 11.5t-18.5 30.5q0 16 9.5 24t24.5 8q13 0 20 -8t13 -22q6 -13 11 -19t15 -6q13 0 21.5 8.5t11.5 24.5q3 30 -42 85q-12 13 -12 34q0 20 12 44
l23 47q-128 4 -187.5 77t-59.5 180q0 36 6 72q17 95 73.5 168t135.5 112.5t161 39.5q41 0 82.5 -9t64.5 -24q6 -4 7.5 -8.5z" />
    <glyph glyph-name="Egrave" unicode="&#xc8;" horiz-adv-x="520" 
d="M252.5 767q19.5 9 46 16t30.5 4q43 -39 110 -93q2 0 2 -3t-3 -5t-6 -1q-51 23 -93.5 39t-95.5 32q-10 2 9.5 11zM516 616l-8 -54l-12 -73q0 -3 -5 -3q-2 0 -4.5 1.5t-2.5 2.5q4 53 -21 85.5t-71 32.5h-62q-31 0 -45.5 -5t-21.5 -18t-12 -42l-36 -206h132q41 0 62 16
t28 56q0 3 6 3q2 0 4.5 -1.5t1.5 -3.5q-3 -22 -9 -46q-4 -15 -7 -36l-5 -31q-3 -31 -10 -65q-1 -4 -7 -3.5t-5 4.5q3 15 3 27q0 30 -17 43.5t-52 13.5h-129l-41 -229q-3 -18 -3 -30q0 -21 12.5 -28.5t46.5 -7.5h83q44 0 86 36.5t68 96.5q2 3 7.5 2t3.5 -4q-18 -58 -32 -135
q-2 -9 -5 -12t-11 -3h-409q-2 0 -2 6t2 6q31 0 46 5t22.5 19t13.5 45l81 463q4 17 4 33q0 21 -13 28.5t-47 7.5q-3 0 -3 6t3 6h386q8 0 6 -9z" />
    <glyph glyph-name="Eacute" unicode="&#xc9;" horiz-adv-x="520" 
d="M288 678q-4 0 -5 4.5t2 6.5q33 18 65.5 40t41.5 28l43 30q5 3 28 -4t40.5 -16t8.5 -11q-62 -15 -113.5 -33.5t-108.5 -43.5zM516 616l-8 -54l-12 -73q0 -3 -5 -3q-2 0 -4.5 1.5t-2.5 2.5q4 53 -21 85.5t-71 32.5h-62q-31 0 -45.5 -5t-21.5 -18t-12 -42l-36 -206h132
q41 0 62 16t28 56q0 3 6 3q2 0 4.5 -1.5t1.5 -3.5q-3 -22 -9 -46q-4 -15 -7 -36l-5 -31q-3 -31 -10 -65q-1 -4 -7 -3.5t-5 4.5q3 15 3 27q0 30 -17 43.5t-52 13.5h-129l-41 -229q-3 -18 -3 -30q0 -21 12.5 -28.5t46.5 -7.5h83q44 0 86 36.5t68 96.5q2 3 7.5 2t3.5 -4
q-18 -58 -32 -135q-2 -9 -5 -12t-11 -3h-409q-2 0 -2 6t2 6q31 0 46 5t22.5 19t13.5 45l81 463q4 17 4 33q0 21 -13 28.5t-47 7.5q-3 0 -3 6t3 6h386q8 0 6 -9z" />
    <glyph glyph-name="Ecircumflex" unicode="&#xca;" horiz-adv-x="520" 
d="M251 660q-3 0 -5 2.5t0 4.5l110 103q5 5 9 5q6 0 9 -5l77 -103l1 -2q0 -2 -3 -4t-5 -1l-88 51l-104 -51h-1zM516 616l-8 -54l-12 -73q0 -3 -5 -3q-2 0 -4.5 1.5t-2.5 2.5q4 53 -21 85.5t-71 32.5h-62q-31 0 -45.5 -5t-21.5 -18t-12 -42l-36 -206h132q41 0 62 16t28 56
q0 3 6 3q2 0 4.5 -1.5t1.5 -3.5q-3 -22 -9 -46q-4 -15 -7 -36l-5 -31q-3 -31 -10 -65q-1 -4 -7 -3.5t-5 4.5q3 15 3 27q0 30 -17 43.5t-52 13.5h-129l-41 -229q-3 -18 -3 -30q0 -21 12.5 -28.5t46.5 -7.5h83q44 0 86 36.5t68 96.5q2 3 7.5 2t3.5 -4q-18 -58 -32 -135
q-2 -9 -5 -12t-11 -3h-409q-2 0 -2 6t2 6q31 0 46 5t22.5 19t13.5 45l81 463q4 17 4 33q0 21 -13 28.5t-47 7.5q-3 0 -3 6t3 6h386q8 0 6 -9z" />
    <glyph glyph-name="Edieresis" unicode="&#xcb;" horiz-adv-x="520" 
d="M253 724q-12 12 -12 34q0 21 12 32.5t34 11.5q21 0 32.5 -11.5t11.5 -32.5q0 -22 -11.5 -34t-32.5 -12q-22 0 -34 12zM406 724q-12 12 -12 34q0 21 12 32.5t34 11.5q21 0 33 -11.5t12 -32.5q0 -22 -12 -34t-33 -12q-22 0 -34 12zM516 616l-8 -54l-12 -73q0 -3 -5 -3
q-2 0 -4.5 1.5t-2.5 2.5q4 53 -21 85.5t-71 32.5h-62q-31 0 -45.5 -5t-21.5 -18t-12 -42l-36 -206h132q41 0 62 16t28 56q0 3 6 3q2 0 4.5 -1.5t1.5 -3.5q-3 -22 -9 -46q-4 -15 -7 -36l-5 -31q-3 -31 -10 -65q-1 -4 -7 -3.5t-5 4.5q3 15 3 27q0 30 -17 43.5t-52 13.5h-129
l-41 -229q-3 -18 -3 -30q0 -21 12.5 -28.5t46.5 -7.5h83q44 0 86 36.5t68 96.5q2 3 7.5 2t3.5 -4q-18 -58 -32 -135q-2 -9 -5 -12t-11 -3h-409q-2 0 -2 6t2 6q31 0 46 5t22.5 19t13.5 45l81 463q4 17 4 33q0 21 -13 28.5t-47 7.5q-3 0 -3 6t3 6h386q8 0 6 -9z" />
    <glyph glyph-name="Igrave" unicode="&#xcc;" horiz-adv-x="317" 
d="M229.5 724q-42.5 16 -95.5 32q-10 2 9.5 11t46 16t30.5 4q43 -39 110 -93q2 0 2 -3t-3 -5t-6 -1q-51 23 -93.5 39zM19 6q0 6 3 6q31 0 45.5 5t22 19t12.5 45l82 463q4 26 4 32q0 22 -13.5 29.5t-47.5 7.5q-3 0 -3 6t3 6l43 -1q38 -2 60 -2q29 0 67 2l40 1q3 0 3 -6t-3 -6
q-30 0 -45 -6t-22.5 -20.5t-13.5 -44.5l-82 -461q-4 -26 -4 -32q0 -22 13.5 -29.5t48.5 -7.5q2 0 2 -6t-2 -6q-26 0 -42 1l-64 1l-60 -1q-16 -1 -44 -1q-3 0 -3 6z" />
    <glyph glyph-name="Iacute" unicode="&#xcd;" horiz-adv-x="317" 
d="M179 678q-4 0 -5 4.5t2 6.5q33 18 65.5 40t41.5 28l43 30q5 3 28 -4t40.5 -16t8.5 -11q-62 -15 -113.5 -33.5t-108.5 -43.5zM19 6q0 6 3 6q31 0 45.5 5t22 19t12.5 45l82 463q4 26 4 32q0 22 -13.5 29.5t-47.5 7.5q-3 0 -3 6t3 6l43 -1q38 -2 60 -2q29 0 67 2l40 1
q3 0 3 -6t-3 -6q-30 0 -45 -6t-22.5 -20.5t-13.5 -44.5l-82 -461q-4 -26 -4 -32q0 -22 13.5 -29.5t48.5 -7.5q2 0 2 -6t-2 -6q-26 0 -42 1l-64 1l-60 -1q-16 -1 -44 -1q-3 0 -3 6z" />
    <glyph glyph-name="Icircumflex" unicode="&#xce;" horiz-adv-x="317" 
d="M143 660q-3 0 -5 2.5t0 4.5l110 103q5 5 9 5q6 0 9 -5l77 -103l1 -2q0 -2 -3 -4t-5 -1l-88 51l-104 -51h-1zM19 6q0 6 3 6q31 0 45.5 5t22 19t12.5 45l82 463q4 26 4 32q0 22 -13.5 29.5t-47.5 7.5q-3 0 -3 6t3 6l43 -1q38 -2 60 -2q29 0 67 2l40 1q3 0 3 -6t-3 -6
q-30 0 -45 -6t-22.5 -20.5t-13.5 -44.5l-82 -461q-4 -26 -4 -32q0 -22 13.5 -29.5t48.5 -7.5q2 0 2 -6t-2 -6q-26 0 -42 1l-64 1l-60 -1q-16 -1 -44 -1q-3 0 -3 6z" />
    <glyph glyph-name="Idieresis" unicode="&#xcf;" horiz-adv-x="317" 
d="M151.5 724q-12.5 12 -12.5 34q0 21 12.5 32.5t34.5 11.5t33 -11.5t11 -32.5q0 -22 -11 -34t-33 -12t-34.5 12zM291.5 724q-11.5 12 -11.5 34q0 21 11.5 32.5t33.5 11.5q21 0 32.5 -11.5t11.5 -32.5q0 -22 -11.5 -34t-32.5 -12q-22 0 -33.5 12zM19 6q0 6 3 6q31 0 45.5 5
t22 19t12.5 45l82 463q4 26 4 32q0 22 -13.5 29.5t-47.5 7.5q-3 0 -3 6t3 6l43 -1q38 -2 60 -2q29 0 67 2l40 1q3 0 3 -6t-3 -6q-30 0 -45 -6t-22.5 -20.5t-13.5 -44.5l-82 -461q-4 -26 -4 -32q0 -22 13.5 -29.5t48.5 -7.5q2 0 2 -6t-2 -6q-26 0 -42 1l-64 1l-60 -1
q-16 -1 -44 -1q-3 0 -3 6z" />
    <glyph glyph-name="Eth" unicode="&#xd0;" horiz-adv-x="620" 
d="M480.5 596q60.5 -31 93 -86.5t32.5 -127.5q0 -34 -5 -59q-17 -96 -72 -170.5t-131.5 -115.5t-156.5 -41q-24 0 -56 3q-12 1 -29.5 2t-39.5 1l-62 -1q-15 -1 -42 -1q-3 0 -3 6t3 6q31 0 46 5t23 19.5t13 44.5l39 219h-73q-4 0 -4 11t4 11h77l39 222q4 17 4 32
q0 22 -13 29.5t-48 7.5q-2 0 -2 6t2 6l44 -1q38 -2 62 -2q29 0 61 3q38 2 53 2q81 0 141.5 -31zM523 380q0 102 -47 166.5t-138 64.5q-46 0 -65.5 -14t-26.5 -55l-39 -220h115q5 0 5 -11q0 -4 -1.5 -7.5t-3.5 -3.5h-118l-37 -208q-3 -16 -3 -30q0 -26 16 -38t56 -12
q67 0 125 34t98.5 99t56.5 156q7 38 7 79z" />
    <glyph glyph-name="Ntilde" unicode="&#xd1;" 
d="M286 692q-3 0 -5.5 2.5t-0.5 4.5q18 26 41.5 47t49.5 21q16 0 51 -11q44 -14 72 -14q19 0 31 6.5t25 20.5h2q3 0 5 -2.5t0 -4.5q-28 -40 -45.5 -53.5t-39.5 -13.5q-17 0 -36.5 5t-23.5 6q-41 13 -69 13q-19 0 -29 -5t-17 -12l-10 -10h-1zM696 619q0 -6 -2 -6
q-75 0 -91 -98l-94 -524q0 -2 -3 -3.5t-7 -1.5q-8 0 -9 4l-293 553l-75 -434q-4 -26 -4 -35q0 -62 59 -62q2 0 2 -6t-2 -6q-22 0 -35 1l-49 1l-48 -1q-13 -1 -38 -1q-2 0 -2 6t2 6q75 0 91 97l82 462q-16 23 -32 32.5t-34 9.5q-3 0 -3 6t3 6l39 -1q12 -1 33 -1q19 0 32 1
t19 1t9 -3.5t7 -15.5q7 -20 14 -33l241 -457l71 399q4 26 4 36q0 62 -59 62q-2 0 -2 6t2 6l34 -1q30 -2 51 -2q16 0 46 2l39 1q2 0 2 -6z" />
    <glyph glyph-name="Ograve" unicode="&#xd2;" 
d="M397.5 724q-42.5 16 -95.5 32q-10 2 9.5 11t46 16t30.5 4q43 -39 110 -93q2 0 2 -3t-3 -5t-6 -1q-51 23 -93.5 39zM162.5 20.5q-50.5 32.5 -76.5 89.5t-26 130q0 36 6 73q16 93 66.5 166.5t123 115t154.5 41.5q71 0 122.5 -32.5t78.5 -89t27 -128.5q0 -38 -7 -73
q-17 -95 -69.5 -169.5t-126 -115t-152.5 -40.5q-70 0 -120.5 32.5zM467.5 79q59.5 65 81.5 181q10 49 10 98q0 73 -22.5 130.5t-65.5 90.5t-101 33q-83 0 -142.5 -66t-80.5 -180q-9 -48 -9 -93q0 -73 22 -132t64.5 -93t101.5 -34q82 0 141.5 65z" />
    <glyph glyph-name="Oacute" unicode="&#xd3;" 
d="M347 678q-4 0 -5 4.5t2 6.5q33 18 65.5 40t41.5 28l43 30q5 3 28 -4t40.5 -16t8.5 -11q-62 -15 -113.5 -33.5t-108.5 -43.5zM162.5 20.5q-50.5 32.5 -76.5 89.5t-26 130q0 36 6 73q16 93 66.5 166.5t123 115t154.5 41.5q71 0 122.5 -32.5t78.5 -89t27 -128.5
q0 -38 -7 -73q-17 -95 -69.5 -169.5t-126 -115t-152.5 -40.5q-70 0 -120.5 32.5zM467.5 79q59.5 65 81.5 181q10 49 10 98q0 73 -22.5 130.5t-65.5 90.5t-101 33q-83 0 -142.5 -66t-80.5 -180q-9 -48 -9 -93q0 -73 22 -132t64.5 -93t101.5 -34q82 0 141.5 65z" />
    <glyph glyph-name="Ocircumflex" unicode="&#xd4;" 
d="M310 660q-3 0 -5 2.5t0 4.5l110 103q5 5 9 5q6 0 9 -5l77 -103l1 -2q0 -2 -3 -4t-5 -1l-88 51l-104 -51h-1zM162.5 20.5q-50.5 32.5 -76.5 89.5t-26 130q0 36 6 73q16 93 66.5 166.5t123 115t154.5 41.5q71 0 122.5 -32.5t78.5 -89t27 -128.5q0 -38 -7 -73
q-17 -95 -69.5 -169.5t-126 -115t-152.5 -40.5q-70 0 -120.5 32.5zM467.5 79q59.5 65 81.5 181q10 49 10 98q0 73 -22.5 130.5t-65.5 90.5t-101 33q-83 0 -142.5 -66t-80.5 -180q-9 -48 -9 -93q0 -73 22 -132t64.5 -93t101.5 -34q82 0 141.5 65z" />
    <glyph glyph-name="Otilde" unicode="&#xd5;" 
d="M291 692q-3 0 -5.5 2.5t-0.5 4.5q18 26 41.5 47t49.5 21q16 0 51 -11q44 -14 72 -14q19 0 31 6.5t25 20.5h2q3 0 5 -2.5t0 -4.5q-28 -40 -45.5 -53.5t-39.5 -13.5q-17 0 -36.5 5t-23.5 6q-41 13 -69 13q-19 0 -29 -5t-17 -12l-10 -10h-1zM162.5 20.5
q-50.5 32.5 -76.5 89.5t-26 130q0 36 6 73q16 93 66.5 166.5t123 115t154.5 41.5q71 0 122.5 -32.5t78.5 -89t27 -128.5q0 -38 -7 -73q-17 -95 -69.5 -169.5t-126 -115t-152.5 -40.5q-70 0 -120.5 32.5zM467.5 79q59.5 65 81.5 181q10 49 10 98q0 73 -22.5 130.5t-65.5 90.5
t-101 33q-83 0 -142.5 -66t-80.5 -180q-9 -48 -9 -93q0 -73 22 -132t64.5 -93t101.5 -34q82 0 141.5 65z" />
    <glyph glyph-name="Odieresis" unicode="&#xd6;" 
d="M312 724q-12 12 -12 34q0 21 12 32.5t34 11.5q21 0 32.5 -11.5t11.5 -32.5q0 -22 -11.5 -34t-32.5 -12q-22 0 -34 12zM465 724q-12 12 -12 34q0 21 12 32.5t34 11.5q21 0 33 -11.5t12 -32.5q0 -22 -12 -34t-33 -12q-22 0 -34 12zM162.5 20.5q-50.5 32.5 -76.5 89.5
t-26 130q0 36 6 73q16 93 66.5 166.5t123 115t154.5 41.5q71 0 122.5 -32.5t78.5 -89t27 -128.5q0 -38 -7 -73q-17 -95 -69.5 -169.5t-126 -115t-152.5 -40.5q-70 0 -120.5 32.5zM467.5 79q59.5 65 81.5 181q10 49 10 98q0 73 -22.5 130.5t-65.5 90.5t-101 33
q-83 0 -142.5 -66t-80.5 -180q-9 -48 -9 -93q0 -73 22 -132t64.5 -93t101.5 -34q82 0 141.5 65z" />
    <glyph glyph-name="multiply" unicode="&#xd7;" horiz-adv-x="398" 
d="M330 88q3 -4 -11.5 -18t-18.5 -11l-101 101l-103 -102q-2 -4 -17 11t-13 17l103 104l-102 102q-3 3 12 17.5t17 12.5l103 -103l101 102q4 2 18.5 -12t11.5 -18l-102 -101z" />
    <glyph glyph-name="Oslash" unicode="&#xd8;" 
d="M650 633q4 0 11 -6.5t4 -9.5l-71 -72q44 -65 44 -159q0 -29 -7 -73q-17 -95 -69.5 -169.5t-126 -115t-152.5 -40.5q-53 0 -95 18.5t-71 53.5l-69 -70l-2 -1q-5 0 -11.5 7.5t-3.5 10.5l72 73q-43 66 -43 161q0 35 6 72q16 93 66.5 166.5t123 115t154.5 41.5q108 0 170 -73
l68 69zM139 273q0 -77 22 -134l366 370q-24 49 -64 76t-93 27q-83 0 -142.5 -66t-80.5 -180q-8 -43 -8 -93zM559 357q0 70 -22 130l-366 -372q24 -47 63.5 -74t91.5 -27q82 0 141.5 65t81.5 181q10 47 10 97z" />
    <glyph glyph-name="Ugrave" unicode="&#xd9;" horiz-adv-x="703" 
d="M330.5 767q19.5 9 46 16t30.5 4q43 -39 110 -93q2 0 2 -3t-3 -5t-6 -1q-51 23 -93.5 39t-95.5 32q-10 2 9.5 11zM727 619q0 -6 -2 -6q-30 0 -45 -5.5t-23 -19.5t-13 -44l-82 -463q-4 -24 -4 -31q0 -23 15.5 -30.5t57.5 -7.5q4 0 4 -6t-4 -6l-83 1l-55 -1q-8 0 -10.5 1.5
t-2.5 7.5l1 10l10 60q-57 -48 -106.5 -69.5t-103.5 -21.5q-83 0 -132.5 42.5t-49.5 116.5q0 18 3 39l63 358q4 17 4 32q0 22 -13 29.5t-48 7.5q-2 0 -2 6t2 6l42 -1q38 -2 61 -2q24 0 62 2l44 1q2 0 2 -6t-2 -6q-31 0 -46 -6t-22.5 -20.5t-12.5 -44.5l-57 -321
q-6 -31 -6 -59q0 -70 36.5 -107t103.5 -37q44 0 86.5 19.5t95.5 64.5l77 440q4 19 4 34q0 22 -13 29.5t-47 7.5q-2 0 -2 6t2 6l43 -1q38 -2 61 -2t61 2l44 1q2 0 2 -6z" />
    <glyph glyph-name="Uacute" unicode="&#xda;" horiz-adv-x="703" 
d="M366 678q-4 0 -5 4.5t2 6.5q33 18 65.5 40t41.5 28l43 30q5 3 28 -4t40.5 -16t8.5 -11q-62 -15 -113.5 -33.5t-108.5 -43.5zM727 619q0 -6 -2 -6q-30 0 -45 -5.5t-23 -19.5t-13 -44l-82 -463q-4 -24 -4 -31q0 -23 15.5 -30.5t57.5 -7.5q4 0 4 -6t-4 -6l-83 1l-55 -1
q-8 0 -10.5 1.5t-2.5 7.5l1 10l10 60q-57 -48 -106.5 -69.5t-103.5 -21.5q-83 0 -132.5 42.5t-49.5 116.5q0 18 3 39l63 358q4 17 4 32q0 22 -13 29.5t-48 7.5q-2 0 -2 6t2 6l42 -1q38 -2 61 -2q24 0 62 2l44 1q2 0 2 -6t-2 -6q-31 0 -46 -6t-22.5 -20.5t-12.5 -44.5
l-57 -321q-6 -31 -6 -59q0 -70 36.5 -107t103.5 -37q44 0 86.5 19.5t95.5 64.5l77 440q4 19 4 34q0 22 -13 29.5t-47 7.5q-2 0 -2 6t2 6l43 -1q38 -2 61 -2t61 2l44 1q2 0 2 -6z" />
    <glyph glyph-name="Ucircumflex" unicode="&#xdb;" horiz-adv-x="703" 
d="M329 660q-3 0 -5 2.5t0 4.5l110 103q5 5 9 5q6 0 9 -5l77 -103l1 -2q0 -2 -3 -4t-5 -1l-88 51l-104 -51h-1zM727 619q0 -6 -2 -6q-30 0 -45 -5.5t-23 -19.5t-13 -44l-82 -463q-4 -24 -4 -31q0 -23 15.5 -30.5t57.5 -7.5q4 0 4 -6t-4 -6l-83 1l-55 -1q-8 0 -10.5 1.5
t-2.5 7.5l1 10l10 60q-57 -48 -106.5 -69.5t-103.5 -21.5q-83 0 -132.5 42.5t-49.5 116.5q0 18 3 39l63 358q4 17 4 32q0 22 -13 29.5t-48 7.5q-2 0 -2 6t2 6l42 -1q38 -2 61 -2q24 0 62 2l44 1q2 0 2 -6t-2 -6q-31 0 -46 -6t-22.5 -20.5t-12.5 -44.5l-57 -321
q-6 -31 -6 -59q0 -70 36.5 -107t103.5 -37q44 0 86.5 19.5t95.5 64.5l77 440q4 19 4 34q0 22 -13 29.5t-47 7.5q-2 0 -2 6t2 6l43 -1q38 -2 61 -2t61 2l44 1q2 0 2 -6z" />
    <glyph glyph-name="Udieresis" unicode="&#xdc;" horiz-adv-x="703" 
d="M331 724q-12 12 -12 34q0 21 12 32.5t34 11.5q21 0 32.5 -11.5t11.5 -32.5q0 -22 -11.5 -34t-32.5 -12q-22 0 -34 12zM484 724q-12 12 -12 34q0 21 12 32.5t34 11.5q21 0 33 -11.5t12 -32.5q0 -22 -12 -34t-33 -12q-22 0 -34 12zM727 619q0 -6 -2 -6q-30 0 -45 -5.5
t-23 -19.5t-13 -44l-82 -463q-4 -24 -4 -31q0 -23 15.5 -30.5t57.5 -7.5q4 0 4 -6t-4 -6l-83 1l-55 -1q-8 0 -10.5 1.5t-2.5 7.5l1 10l10 60q-57 -48 -106.5 -69.5t-103.5 -21.5q-83 0 -132.5 42.5t-49.5 116.5q0 18 3 39l63 358q4 17 4 32q0 22 -13 29.5t-48 7.5q-2 0 -2 6
t2 6l42 -1q38 -2 61 -2q24 0 62 2l44 1q2 0 2 -6t-2 -6q-31 0 -46 -6t-22.5 -20.5t-12.5 -44.5l-57 -321q-6 -31 -6 -59q0 -70 36.5 -107t103.5 -37q44 0 86.5 19.5t95.5 64.5l77 440q4 19 4 34q0 22 -13 29.5t-47 7.5q-2 0 -2 6t2 6l43 -1q38 -2 61 -2t61 2l44 1q2 0 2 -6z
" />
    <glyph glyph-name="Yacute" unicode="&#xdd;" horiz-adv-x="531" 
d="M294 678q-4 0 -5 4.5t2 6.5q33 18 65.5 40t41.5 28l43 30q5 3 28 -4t40.5 -16t8.5 -11q-62 -15 -113.5 -33.5t-108.5 -43.5zM605 619q0 -6 -3 -6q-64 0 -133 -99l-143 -203l-41 -230q-4 -19 -4 -34q0 -21 14 -28t52 -7q3 0 3 -6t-3 -6q-29 0 -45 1l-64 1l-67 -1
q-16 -1 -44 -1q-4 0 -4 6t4 6q33 0 49.5 5.5t24.5 19.5t13 44l38 220l-102 241q-17 38 -34 54.5t-43 16.5q-4 0 -4 6t4 6l38 -1q28 -2 40 -2q26 0 70 2l45 1q3 0 3 -5q0 -7 -4 -7q-26 0 -38 -5t-12 -16q0 -7 5 -19l100 -239l129 191q23 32 23 56q0 32 -43 32q-3 0 -3 6t3 6
l44 -1q38 -2 62 -2q15 0 35 2l32 1q3 0 3 -6z" />
    <glyph glyph-name="Thorn" unicode="&#xde;" horiz-adv-x="538" 
d="M470.5 461.5q57.5 -37.5 57.5 -108.5q0 -18 -5 -41q-13 -61 -57 -103t-102 -62t-112 -20q-24 0 -41 4q-1 0 -1 3q0 4 2 9t4 4q15 -3 30 -3q66 0 122.5 37t71.5 111q5 25 5 44q0 66 -41.5 106.5t-110.5 40.5q-25 0 -57 -4l-70 -398q-4 -26 -4 -32q0 -23 17 -30t67 -7
q2 0 2 -6t-2 -6q-33 0 -52 1l-78 1l-60 -1q-16 -1 -43 -1q-2 0 -2 6t2 6q31 0 46.5 5t23 19.5t13.5 44.5l81 463q4 17 4 33q0 21 -13 28.5t-47 7.5q-3 0 -3 6t3 6l42 -1q36 -2 60 -2q33 0 81 2l50 1q2 0 2 -6t-2 -6q-45 0 -64.5 -4.5t-28 -18.5t-14.5 -48l-8 -48q34 5 82 5
q92 0 149.5 -37.5z" />
    <glyph glyph-name="germandbls" unicode="&#xdf;" horiz-adv-x="457" 
d="M-101 -261.5q-18 13.5 -16 34.5q1 14 12 23.5t28 9.5t24.5 -9.5t11.5 -25.5q4 -14 8.5 -20.5t14.5 -6.5t18 17t17 61t23 131l75 481q21 135 82 213.5t152 78.5q48 0 72 -23t24 -58q0 -10 -1 -15q-5 -33 -23.5 -60.5t-49.5 -60.5t-46.5 -56.5t-15.5 -51.5q0 -26 11.5 -51
t35.5 -61q27 -42 41 -72.5t14 -65.5q0 -37 -17.5 -75t-49.5 -62.5t-74 -24.5q-36 0 -56.5 17t-20.5 38q0 16 10 27t27 11q16 0 23.5 -8t14.5 -25q6 -16 13.5 -24.5t23.5 -8.5q43 0 52 62q1 5 1 16q0 30 -12.5 57t-37.5 66q-26 41 -38.5 69t-12.5 59q0 7 2 21q5 29 18 53
t37 57q31 43 46.5 76.5t15.5 80.5q0 75 -56 75q-49 0 -86 -68.5t-57 -196.5l-72 -464q-15 -97 -33.5 -151.5t-46.5 -78.5t-71 -24q-37 0 -55 13.5z" />
    <glyph glyph-name="agrave" unicode="&#xe0;" horiz-adv-x="437" 
d="M246 727q-1 5 13 5q16 0 35.5 -5.5t19.5 -10.5l-11 -240q0 -2 -4.5 -3t-4.5 2zM414 78q3 0 5 -3.5t0 -5.5q-33 -39 -60 -58.5t-52 -19.5q-20 0 -29.5 12t-9.5 38q0 16 5 48l16 95q-43 -91 -99 -144t-109 -53q-30 0 -46.5 18.5t-16.5 56.5q0 9 2 29q10 69 53.5 141.5
t102.5 119.5t111 47q42 0 68 -27q19 16 26 35q2 2 4 2q3 0 6 -1.5t2 -2.5l-58 -316q-3 -15 -3 -27q0 -28 17 -28q21 0 62 43q1 1 3 1zM197.5 79q37.5 35 67 88t39.5 102q3 14 3 27q0 29 -15 46t-43 17q-34 0 -68 -27.5t-59 -75.5t-34 -108q-4 -32 -4 -42q0 -62 42 -62
q34 0 71.5 35z" />
    <glyph glyph-name="aacute" unicode="&#xe1;" horiz-adv-x="437" 
d="M384.5 726q22.5 5 39.5 5q13 0 12 -4l-153 -254q-1 -3 -6.5 -1t-3.5 4l87 240q2 5 24.5 10zM414 78q3 0 5 -3.5t0 -5.5q-33 -39 -60 -58.5t-52 -19.5q-20 0 -29.5 12t-9.5 38q0 16 5 48l16 95q-43 -91 -99 -144t-109 -53q-30 0 -46.5 18.5t-16.5 56.5q0 9 2 29
q10 69 53.5 141.5t102.5 119.5t111 47q42 0 68 -27q19 16 26 35q2 2 4 2q3 0 6 -1.5t2 -2.5l-58 -316q-3 -15 -3 -27q0 -28 17 -28q21 0 62 43q1 1 3 1zM197.5 79q37.5 35 67 88t39.5 102q3 14 3 27q0 29 -15 46t-43 17q-34 0 -68 -27.5t-59 -75.5t-34 -108q-4 -32 -4 -42
q0 -62 42 -62q34 0 71.5 35z" />
    <glyph glyph-name="acircumflex" unicode="&#xe2;" horiz-adv-x="437" 
d="M227 472q-3 0 -5.5 1.5t-1.5 3.5l110 249q1 5 10 5q8 0 8 -5l22 -249q0 -2 -5.5 -2.5t-5.5 1.5l-39 139l-90 -141q-2 -2 -3 -2zM414 78q3 0 5 -3.5t0 -5.5q-33 -39 -60 -58.5t-52 -19.5q-20 0 -29.5 12t-9.5 38q0 16 5 48l16 95q-43 -91 -99 -144t-109 -53
q-30 0 -46.5 18.5t-16.5 56.5q0 9 2 29q10 69 53.5 141.5t102.5 119.5t111 47q42 0 68 -27q19 16 26 35q2 2 4 2q3 0 6 -1.5t2 -2.5l-58 -316q-3 -15 -3 -27q0 -28 17 -28q21 0 62 43q1 1 3 1zM197.5 79q37.5 35 67 88t39.5 102q3 14 3 27q0 29 -15 46t-43 17
q-34 0 -68 -27.5t-59 -75.5t-34 -108q-4 -32 -4 -42q0 -62 42 -62q34 0 71.5 35z" />
    <glyph glyph-name="atilde" unicode="&#xe3;" horiz-adv-x="437" 
d="M430 554q3 0 5.5 -2.5t0.5 -4.5q-28 -40 -45.5 -54t-39.5 -14q-20 0 -60 12q-4 1 -25.5 7t-43.5 6q-18 0 -28 -5t-17 -12l-10 -10h-2q-3 0 -5 2.5t0 4.5q47 67 90 67q14 0 50 -10q46 -14 74 -14q19 0 30.5 6.5t24.5 20.5h1zM414 78q3 0 5 -3.5t0 -5.5q-33 -39 -60 -58.5
t-52 -19.5q-20 0 -29.5 12t-9.5 38q0 16 5 48l16 95q-43 -91 -99 -144t-109 -53q-30 0 -46.5 18.5t-16.5 56.5q0 9 2 29q10 69 53.5 141.5t102.5 119.5t111 47q42 0 68 -27q19 16 26 35q2 2 4 2q3 0 6 -1.5t2 -2.5l-58 -316q-3 -15 -3 -27q0 -28 17 -28q21 0 62 43q1 1 3 1z
M197.5 79q37.5 35 67 88t39.5 102q3 14 3 27q0 29 -15 46t-43 17q-34 0 -68 -27.5t-59 -75.5t-34 -108q-4 -32 -4 -42q0 -62 42 -62q34 0 71.5 35z" />
    <glyph glyph-name="adieresis" unicode="&#xe4;" horiz-adv-x="437" 
d="M189 485q-12 12 -12 34q0 21 12 32.5t34 11.5q21 0 32.5 -11.5t11.5 -32.5q0 -22 -11.5 -34t-32.5 -12q-22 0 -34 12zM342 485q-12 12 -12 34q0 21 12 32.5t34 11.5q21 0 33 -11.5t12 -32.5q0 -22 -12 -34t-33 -12q-22 0 -34 12zM414 78q3 0 5 -3.5t0 -5.5
q-33 -39 -60 -58.5t-52 -19.5q-20 0 -29.5 12t-9.5 38q0 16 5 48l16 95q-43 -91 -99 -144t-109 -53q-30 0 -46.5 18.5t-16.5 56.5q0 9 2 29q10 69 53.5 141.5t102.5 119.5t111 47q42 0 68 -27q19 16 26 35q2 2 4 2q3 0 6 -1.5t2 -2.5l-58 -316q-3 -15 -3 -27q0 -28 17 -28
q21 0 62 43q1 1 3 1zM197.5 79q37.5 35 67 88t39.5 102q3 14 3 27q0 29 -15 46t-43 17q-34 0 -68 -27.5t-59 -75.5t-34 -108q-4 -32 -4 -42q0 -62 42 -62q34 0 71.5 35z" />
    <glyph glyph-name="aring" unicode="&#xe5;" horiz-adv-x="437" 
d="M229.5 491.5q-23.5 23.5 -23.5 55.5q0 36 30 57t67 21q36 0 61.5 -23.5t25.5 -56.5q0 -35 -29.5 -56t-67.5 -21q-40 0 -63.5 23.5zM258 567q0 -33 14 -60.5t37 -27.5q29 0 29 48q0 34 -16.5 60t-38.5 26q-25 0 -25 -46zM414 78q3 0 5 -3.5t0 -5.5q-33 -39 -60 -58.5
t-52 -19.5q-20 0 -29.5 12t-9.5 38q0 16 5 48l16 95q-43 -91 -99 -144t-109 -53q-30 0 -46.5 18.5t-16.5 56.5q0 9 2 29q10 69 53.5 141.5t102.5 119.5t111 47q42 0 68 -27q19 16 26 35q2 2 4 2q3 0 6 -1.5t2 -2.5l-58 -316q-3 -15 -3 -27q0 -28 17 -28q21 0 62 43q1 1 3 1z
M197.5 79q37.5 35 67 88t39.5 102q3 14 3 27q0 29 -15 46t-43 17q-34 0 -68 -27.5t-59 -75.5t-34 -108q-4 -32 -4 -42q0 -62 42 -62q34 0 71.5 35z" />
    <glyph glyph-name="ae" unicode="&#xe6;" horiz-adv-x="556" 
d="M542 385q17 -14 17 -37q0 -38 -47 -71t-172 -72q-3 -27 -3 -49q0 -64 21 -97t58 -33q45 0 81 32l2 1q3 0 5.5 -4t0.5 -6q-35 -32 -67 -46.5t-66 -14.5q-50 0 -77 35t-27 99q0 29 6 63q-41 -90 -91.5 -144t-98.5 -54q-31 0 -48.5 19.5t-17.5 57.5q0 7 2 27q9 69 49 141
t96 119.5t111 47.5q28 0 48.5 -14t25.5 -42q62 56 138 56q37 0 54 -14zM476 364.5q-9 12.5 -29 12.5q-37 0 -66.5 -44.5t-39.5 -114.5q64 23 104 50.5t40 66.5q0 17 -9 29.5zM188.5 81q33.5 35 61.5 87.5t37 101.5q3 15 3 28q0 31 -13.5 50t-37.5 19q-29 0 -60.5 -29
t-55 -79.5t-32.5 -111.5q-3 -22 -3 -39q0 -62 41 -62q26 0 59.5 35z" />
    <glyph glyph-name="ccedilla" unicode="&#xe7;" horiz-adv-x="346" 
d="M312.5 383.5q26.5 -15.5 26.5 -41.5q0 -17 -10 -29t-29 -12q-31 0 -40 36q-11 38 -48 38q-42 0 -69 -38.5t-38 -102.5q-7 -40 -7 -66q0 -64 27 -103t81 -39q49 0 100 41l2 1q3 0 5.5 -4t0.5 -6q-74 -68 -149 -71q-7 -17 -7 -33q0 -15 7 -28.5t20 -29.5q32 -42 32 -71
q0 -9 -1 -13q-4 -31 -33 -59t-75 -28q-27 0 -45.5 11.5t-18.5 30.5q0 16 9.5 24t24.5 8q13 0 20 -8t13 -22q6 -13 11 -19t15 -6q13 0 21.5 8.5t11.5 24.5q3 30 -42 85q-12 13 -12 34q0 20 12 44l23 47q-63 3 -93.5 47t-30.5 110q0 30 6 58q11 59 45.5 104t80.5 69t91 24
q36 0 62.5 -15.5z" />
    <glyph glyph-name="egrave" unicode="&#xe8;" horiz-adv-x="347" 
d="M200 727q-1 5 13 5q16 0 35.5 -5.5t19.5 -10.5l-11 -240q0 -2 -4.5 -3t-4.5 2zM317 386.5q19 -12.5 19 -33.5q0 -47 -68.5 -85.5t-165.5 -55.5q-4 -24 -4 -52q0 -61 26.5 -98t77.5 -37q55 0 97 33h1q3 0 5.5 -3t0.5 -6q-71 -61 -149 -61q-66 0 -99 41t-33 106q0 22 5 50
q10 52 43.5 101.5t83.5 81t106 31.5q35 0 54 -12.5zM259 337q0 17 -12.5 26t-30.5 9q-41 0 -70 -40.5t-42 -105.5q138 26 153 98q2 10 2 13z" />
    <glyph glyph-name="eacute" unicode="&#xe9;" horiz-adv-x="347" 
d="M338.5 726q22.5 5 39.5 5q13 0 12 -4l-153 -254q-1 -3 -6.5 -1t-3.5 4l87 240q2 5 24.5 10zM317 386.5q19 -12.5 19 -33.5q0 -47 -68.5 -85.5t-165.5 -55.5q-4 -24 -4 -52q0 -61 26.5 -98t77.5 -37q55 0 97 33h1q3 0 5.5 -3t0.5 -6q-71 -61 -149 -61q-66 0 -99 41
t-33 106q0 22 5 50q10 52 43.5 101.5t83.5 81t106 31.5q35 0 54 -12.5zM259 337q0 17 -12.5 26t-30.5 9q-41 0 -70 -40.5t-42 -105.5q138 26 153 98q2 10 2 13z" />
    <glyph glyph-name="ecircumflex" unicode="&#xea;" horiz-adv-x="347" 
d="M174 473q-3 0 -5.5 1.5t-1.5 3.5l109 249q3 5 11 5t8 -5l22 -249q0 -3 -5.5 -3.5t-6.5 2.5l-38 139l-90 -142q-1 -1 -3 -1zM317 386.5q19 -12.5 19 -33.5q0 -47 -68.5 -85.5t-165.5 -55.5q-4 -24 -4 -52q0 -61 26.5 -98t77.5 -37q55 0 97 33h1q3 0 5.5 -3t0.5 -6
q-71 -61 -149 -61q-66 0 -99 41t-33 106q0 22 5 50q10 52 43.5 101.5t83.5 81t106 31.5q35 0 54 -12.5zM259 337q0 17 -12.5 26t-30.5 9q-41 0 -70 -40.5t-42 -105.5q138 26 153 98q2 10 2 13z" />
    <glyph glyph-name="edieresis" unicode="&#xeb;" horiz-adv-x="347" 
d="M143 485q-12 12 -12 34q0 21 12 32.5t34 11.5q21 0 32.5 -11.5t11.5 -32.5q0 -22 -11.5 -34t-32.5 -12q-22 0 -34 12zM363 551.5q12 -11.5 12 -32.5q0 -22 -12 -34t-33 -12q-22 0 -34 12t-12 34q0 21 12 32.5t34 11.5q21 0 33 -11.5zM317 386.5q19 -12.5 19 -33.5
q0 -47 -68.5 -85.5t-165.5 -55.5q-4 -24 -4 -52q0 -61 26.5 -98t77.5 -37q55 0 97 33h1q3 0 5.5 -3t0.5 -6q-71 -61 -149 -61q-66 0 -99 41t-33 106q0 22 5 50q10 52 43.5 101.5t83.5 81t106 31.5q35 0 54 -12.5zM259 337q0 17 -12.5 26t-30.5 9q-41 0 -70 -40.5t-42 -105.5
q138 26 153 98q2 10 2 13z" />
    <glyph glyph-name="igrave" unicode="&#xec;" horiz-adv-x="247" 
d="M110 727q-1 5 13 5q16 0 35.5 -5.5t19.5 -10.5l-11 -240q0 -2 -4.5 -3t-4.5 2zM68 40q0 21 6 49l41 208q3 15 3 26q0 30 -19 30q-11 0 -28 -11.5t-37 -32.5q-1 -1 -3 -1q-3 0 -5.5 3.5t0.5 5.5q66 78 117 78q20 0 29.5 -11.5t9.5 -35.5q0 -23 -5 -46l-41 -213
q-3 -15 -3 -26q0 -29 18 -29q23 0 63 42q1 1 3 1q4 0 6 -3.5t-1 -5.5q-33 -39 -60.5 -58t-53.5 -19q-40 0 -40 49z" />
    <glyph glyph-name="iacute" unicode="&#xed;" horiz-adv-x="247" 
d="M140.5 472q-5.5 2 -3.5 4l87 240q2 5 24.5 10t39.5 5q13 0 12 -4l-153 -254q-1 -3 -6.5 -1zM68 40q0 21 6 49l41 208q3 15 3 26q0 30 -19 30q-11 0 -28 -11.5t-37 -32.5q-1 -1 -3 -1q-3 0 -5.5 3.5t0.5 5.5q66 78 117 78q20 0 29.5 -11.5t9.5 -35.5q0 -23 -5 -46
l-41 -213q-3 -15 -3 -26q0 -29 18 -29q23 0 63 42q1 1 3 1q4 0 6 -3.5t-1 -5.5q-33 -39 -60.5 -58t-53.5 -19q-40 0 -40 49z" />
    <glyph glyph-name="icircumflex" unicode="&#xee;" horiz-adv-x="247" 
d="M234 477q0 -2 -5.5 -2.5t-5.5 1.5l-39 139l-90 -141q-2 -2 -3 -2q-3 0 -5.5 1.5t-1.5 3.5l110 249q1 5 10 5q8 0 8 -5zM68 40q0 21 6 49l41 208q3 15 3 26q0 30 -19 30q-11 0 -28 -11.5t-37 -32.5q-1 -1 -3 -1q-3 0 -5.5 3.5t0.5 5.5q66 78 117 78q20 0 29.5 -11.5
t9.5 -35.5q0 -23 -5 -46l-41 -213q-3 -15 -3 -26q0 -29 18 -29q23 0 63 42q1 1 3 1q4 0 6 -3.5t-1 -5.5q-33 -39 -60.5 -58t-53.5 -19q-40 0 -40 49z" />
    <glyph glyph-name="idieresis" unicode="&#xef;" horiz-adv-x="247" 
d="M60.5 485q-12.5 12 -12.5 34q0 21 12.5 32.5t34.5 11.5t33 -11.5t11 -32.5q0 -22 -11 -34t-33 -12t-34.5 12zM200.5 485q-11.5 12 -11.5 34q0 21 11.5 32.5t33.5 11.5q21 0 32.5 -11.5t11.5 -32.5q0 -22 -11.5 -34t-32.5 -12q-22 0 -33.5 12zM68 40q0 21 6 49l41 208
q3 15 3 26q0 30 -19 30q-11 0 -28 -11.5t-37 -32.5q-1 -1 -3 -1q-3 0 -5.5 3.5t0.5 5.5q66 78 117 78q20 0 29.5 -11.5t9.5 -35.5q0 -23 -5 -46l-41 -213q-3 -15 -3 -26q0 -29 18 -29q23 0 63 42q1 1 3 1q4 0 6 -3.5t-1 -5.5q-33 -39 -60.5 -58t-53.5 -19q-40 0 -40 49z" />
    <glyph glyph-name="eth" unicode="&#xf0;" horiz-adv-x="401" 
d="M406 644q4 0 8 -8.5t0 -9.5l-96 -46q33 -58 50.5 -128t17.5 -141q0 -54 -8 -95q-13 -74 -47 -125.5t-80.5 -77.5t-96.5 -26q-62 0 -97 42.5t-35 108.5q0 21 5 48q12 69 47.5 117t81 72t86.5 24q39 0 69 -21q-11 97 -43 178l-127 -60h-1q-5 0 -9 8.5t0 9.5l129 61
q-41 94 -100 137l-1 2q0 5 11.5 9.5t15.5 1.5q73 -44 122 -127l97 46h1zM258 55.5q33 47.5 49 148.5q6 38 6 69q0 53 -20.5 80t-64.5 27q-43 0 -79.5 -44t-48.5 -121q-5 -33 -5 -59q0 -65 23 -106.5t63 -41.5q44 0 77 47.5z" />
    <glyph glyph-name="ntilde" unicode="&#xf1;" horiz-adv-x="468" 
d="M151 477q-3 0 -5 2.5t0 4.5q47 67 90 67q14 0 50 -10q46 -14 74 -14q19 0 30.5 6.5t24.5 20.5h1q3 0 5.5 -2.5t0.5 -4.5q-28 -40 -45.5 -54t-39.5 -14q-20 0 -60 12q-4 1 -25.5 7t-43.5 6q-18 0 -28 -5t-17 -12l-10 -10h-2zM446 79q3 0 5 -3.5t0 -6.5q-34 -40 -61 -59
t-53 -19q-20 0 -29 11.5t-9 37.5q0 17 5 49l29 159q6 30 6 52q0 54 -39 54q-32 0 -66 -41t-64 -119t-49 -185q-2 -8 -12 -12.5t-27 -4.5q-27 0 -27 7l4 20q9 43 11 55l41 223q3 15 3 25q0 31 -19 31q-24 0 -66 -44q-1 -1 -3 -1q-3 0 -5 3.5t0 5.5q34 40 63 59t56 19
q20 0 29 -11.5t9 -36.5q0 -15 -5 -45l-20 -110q36 98 84 152.5t101 54.5q33 0 49.5 -19t16.5 -58q0 -23 -6 -55l-33 -178q-3 -15 -3 -25q0 -30 19 -30q10 0 25 11t37 32q2 2 3 2z" />
    <glyph glyph-name="ograve" unicode="&#xf2;" horiz-adv-x="401" 
d="M199 727q-1 5 13 5q16 0 35.5 -5.5t19.5 -10.5l-11 -240q0 -2 -4.5 -3t-4.5 2zM59.5 28.5q-33.5 42.5 -33.5 110.5q0 22 5 54q11 59 42.5 106t76.5 73.5t95 26.5q64 0 98.5 -41.5t34.5 -109.5q0 -26 -6 -55q-13 -63 -46.5 -110t-78.5 -72t-92 -25q-62 0 -95.5 42.5z
M259.5 48q30.5 37 42.5 101q6 32 6 63q0 68 -24.5 115.5t-69.5 47.5q-38 0 -69 -37t-43 -102q-7 -38 -7 -67q0 -67 25.5 -112.5t69.5 -45.5q39 0 69.5 37z" />
    <glyph glyph-name="oacute" unicode="&#xf3;" horiz-adv-x="401" 
d="M229.5 472q-5.5 2 -3.5 4l87 240q2 5 24.5 10t39.5 5q13 0 12 -4l-153 -254q-1 -3 -6.5 -1zM59.5 28.5q-33.5 42.5 -33.5 110.5q0 22 5 54q11 59 42.5 106t76.5 73.5t95 26.5q64 0 98.5 -41.5t34.5 -109.5q0 -26 -6 -55q-13 -63 -46.5 -110t-78.5 -72t-92 -25
q-62 0 -95.5 42.5zM259.5 48q30.5 37 42.5 101q6 32 6 63q0 68 -24.5 115.5t-69.5 47.5q-38 0 -69 -37t-43 -102q-7 -38 -7 -67q0 -67 25.5 -112.5t69.5 -45.5q39 0 69.5 37z" />
    <glyph glyph-name="ocircumflex" unicode="&#xf4;" horiz-adv-x="401" 
d="M316 478q0 -3 -5.5 -3.5t-6.5 2.5l-38 139l-90 -142q-1 -1 -3 -1q-3 0 -5.5 1.5t-1.5 3.5l109 249q3 5 11 5t8 -5zM59.5 28.5q-33.5 42.5 -33.5 110.5q0 22 5 54q11 59 42.5 106t76.5 73.5t95 26.5q64 0 98.5 -41.5t34.5 -109.5q0 -26 -6 -55q-13 -63 -46.5 -110
t-78.5 -72t-92 -25q-62 0 -95.5 42.5zM259.5 48q30.5 37 42.5 101q6 32 6 63q0 68 -24.5 115.5t-69.5 47.5q-38 0 -69 -37t-43 -102q-7 -38 -7 -67q0 -67 25.5 -112.5t69.5 -45.5q39 0 69.5 37z" />
    <glyph glyph-name="otilde" unicode="&#xf5;" horiz-adv-x="401" 
d="M118 477q-3 0 -5 2.5t0 4.5q47 67 90 67q14 0 50 -10q46 -14 74 -14q19 0 30.5 6.5t24.5 20.5h1q3 0 5.5 -2.5t0.5 -4.5q-28 -40 -45.5 -54t-39.5 -14q-20 0 -60 12q-4 1 -25.5 7t-43.5 6q-18 0 -28 -5t-17 -12l-10 -10h-2zM59.5 28.5q-33.5 42.5 -33.5 110.5q0 22 5 54
q11 59 42.5 106t76.5 73.5t95 26.5q64 0 98.5 -41.5t34.5 -109.5q0 -26 -6 -55q-13 -63 -46.5 -110t-78.5 -72t-92 -25q-62 0 -95.5 42.5zM259.5 48q30.5 37 42.5 101q6 32 6 63q0 68 -24.5 115.5t-69.5 47.5q-38 0 -69 -37t-43 -102q-7 -38 -7 -67q0 -67 25.5 -112.5
t69.5 -45.5q39 0 69.5 37z" />
    <glyph glyph-name="odieresis" unicode="&#xf6;" horiz-adv-x="401" 
d="M142 485q-12 12 -12 34q0 21 12 32.5t34 11.5q21 0 32.5 -11.5t11.5 -32.5q0 -22 -11.5 -34t-32.5 -12q-22 0 -34 12zM295 485q-12 12 -12 34q0 21 12 32.5t34 11.5q21 0 33 -11.5t12 -32.5q0 -22 -12 -34t-33 -12q-22 0 -34 12zM59.5 28.5q-33.5 42.5 -33.5 110.5
q0 22 5 54q11 59 42.5 106t76.5 73.5t95 26.5q64 0 98.5 -41.5t34.5 -109.5q0 -26 -6 -55q-13 -63 -46.5 -110t-78.5 -72t-92 -25q-62 0 -95.5 42.5zM259.5 48q30.5 37 42.5 101q6 32 6 63q0 68 -24.5 115.5t-69.5 47.5q-38 0 -69 -37t-43 -102q-7 -38 -7 -67
q0 -67 25.5 -112.5t69.5 -45.5q39 0 69.5 37z" />
    <glyph glyph-name="divide" unicode="&#xf7;" horiz-adv-x="389" 
d="M162.5 327.5q-12.5 12.5 -12.5 34.5q0 21 12.5 33t34.5 12t34.5 -12t12.5 -33q0 -22 -12.5 -34.5t-34.5 -12.5t-34.5 12.5zM30.5 181q-1.5 7 -1.5 15q0 7 1.5 13.5t2.5 6.5h331q2 0 3.5 -6.5t1.5 -14.5t-1.5 -14.5t-3.5 -6.5h-330q-2 0 -3.5 7zM164 3q-13 13 -13 35
q0 20 13 32t35 12t34 -12t12 -32q0 -23 -12 -35.5t-34 -12.5t-35 13z" />
    <glyph glyph-name="oslash" unicode="&#xf8;" horiz-adv-x="408" 
d="M387 400q4 0 11 -5.5t4 -8.5l-46 -47q22 -37 22 -90q0 -27 -6 -56q-13 -63 -46.5 -110t-78.5 -72t-92 -25q-62 0 -97 45l-45 -47h-1q-5 0 -11.5 6t-2.5 10l48 49q-20 38 -20 90q0 22 5 54q11 59 42.5 106t76.5 73.5t95 26.5q63 0 99 -42l42 43h1zM95 169q0 -27 7 -62
l191 197q-12 33 -32 52t-47 19q-38 0 -69 -37t-43 -102q-7 -38 -7 -67zM307 211q0 39 -7 70l-191 -198q12 -34 32.5 -53t48.5 -19q39 0 69.5 37t42.5 101q5 26 5 62z" />
    <glyph glyph-name="ugrave" unicode="&#xf9;" horiz-adv-x="468" 
d="M223 727q-1 5 13 5q16 0 35.5 -5.5t19.5 -10.5l-11 -240q0 -2 -4.5 -3t-4.5 2zM442 78q3 0 5 -3.5t0 -5.5q-35 -41 -63 -59.5t-55 -18.5q-20 0 -29 11t-9 36q0 16 5 46l20 114q-36 -100 -84.5 -155.5t-101.5 -55.5q-67 0 -67 76q0 19 7 56l36 178q3 15 3 25q0 30 -19 30
q-10 0 -24.5 -11t-36.5 -32q-2 -2 -4 -2q-3 0 -5 3.5t1 6.5q35 40 61 59t52 19q39 0 39 -49q0 -19 -6 -49l-32 -159q-6 -30 -6 -51q0 -55 40 -55q32 0 66 41t63.5 119t48.5 185q2 8 12 12.5t28 4.5q26 0 26 -7l-4 -20q-9 -43 -11 -55l-41 -223q-2 -9 -2 -25q0 -31 18 -31
q12 0 29 11.5t37 32.5q1 1 3 1z" />
    <glyph glyph-name="uacute" unicode="&#xfa;" horiz-adv-x="468" 
d="M253.5 472q-5.5 2 -3.5 4l87 240q2 5 24.5 10t39.5 5q13 0 12 -4l-153 -254q-1 -3 -6.5 -1zM442 78q3 0 5 -3.5t0 -5.5q-35 -41 -63 -59.5t-55 -18.5q-20 0 -29 11t-9 36q0 16 5 46l20 114q-36 -100 -84.5 -155.5t-101.5 -55.5q-67 0 -67 76q0 19 7 56l36 178q3 15 3 25
q0 30 -19 30q-10 0 -24.5 -11t-36.5 -32q-2 -2 -4 -2q-3 0 -5 3.5t1 6.5q35 40 61 59t52 19q39 0 39 -49q0 -19 -6 -49l-32 -159q-6 -30 -6 -51q0 -55 40 -55q32 0 66 41t63.5 119t48.5 185q2 8 12 12.5t28 4.5q26 0 26 -7l-4 -20q-9 -43 -11 -55l-41 -223q-2 -9 -2 -25
q0 -31 18 -31q12 0 29 11.5t37 32.5q1 1 3 1z" />
    <glyph glyph-name="ucircumflex" unicode="&#xfb;" horiz-adv-x="468" 
d="M197 473q-3 0 -5.5 1.5t-1.5 3.5l109 249q3 5 11 5t8 -5l22 -249q0 -3 -5.5 -3.5t-6.5 2.5l-38 139l-90 -142q-1 -1 -3 -1zM442 78q3 0 5 -3.5t0 -5.5q-35 -41 -63 -59.5t-55 -18.5q-20 0 -29 11t-9 36q0 16 5 46l20 114q-36 -100 -84.5 -155.5t-101.5 -55.5
q-67 0 -67 76q0 19 7 56l36 178q3 15 3 25q0 30 -19 30q-10 0 -24.5 -11t-36.5 -32q-2 -2 -4 -2q-3 0 -5 3.5t1 6.5q35 40 61 59t52 19q39 0 39 -49q0 -19 -6 -49l-32 -159q-6 -30 -6 -51q0 -55 40 -55q32 0 66 41t63.5 119t48.5 185q2 8 12 12.5t28 4.5q26 0 26 -7l-4 -20
q-9 -43 -11 -55l-41 -223q-2 -9 -2 -25q0 -31 18 -31q12 0 29 11.5t37 32.5q1 1 3 1z" />
    <glyph glyph-name="udieresis" unicode="&#xfc;" horiz-adv-x="468" 
d="M166 485q-12 12 -12 34q0 21 12 32.5t34 11.5q21 0 32.5 -11.5t11.5 -32.5q0 -22 -11.5 -34t-32.5 -12q-22 0 -34 12zM319 485q-12 12 -12 34q0 21 12 32.5t34 11.5q21 0 33 -11.5t12 -32.5q0 -22 -12 -34t-33 -12q-22 0 -34 12zM442 78q3 0 5 -3.5t0 -5.5
q-35 -41 -63 -59.5t-55 -18.5q-20 0 -29 11t-9 36q0 16 5 46l20 114q-36 -100 -84.5 -155.5t-101.5 -55.5q-67 0 -67 76q0 19 7 56l36 178q3 15 3 25q0 30 -19 30q-10 0 -24.5 -11t-36.5 -32q-2 -2 -4 -2q-3 0 -5 3.5t1 6.5q35 40 61 59t52 19q39 0 39 -49q0 -19 -6 -49
l-32 -159q-6 -30 -6 -51q0 -55 40 -55q32 0 66 41t63.5 119t48.5 185q2 8 12 12.5t28 4.5q26 0 26 -7l-4 -20q-9 -43 -11 -55l-41 -223q-2 -9 -2 -25q0 -31 18 -31q12 0 29 11.5t37 32.5q1 1 3 1z" />
    <glyph glyph-name="yacute" unicode="&#xfd;" horiz-adv-x="440" 
d="M252.5 472q-5.5 2 -3.5 4l87 240q2 5 24.5 10t39.5 5q13 0 12 -4l-153 -254q-1 -3 -6.5 -1zM407 392.5q6 -1.5 6 -4.5q0 -5 -6 -28q-9 -40 -10 -48l-70 -382q-17 -98 -71 -154.5t-139 -56.5q-46 0 -75 19t-29 47q0 7 1 10q3 19 13.5 28.5t24.5 9.5t20.5 -8.5t13.5 -27.5
q10 -28 24 -42.5t47 -14.5q35 0 62 36t44 130l50 287q-36 -97 -83.5 -151.5t-100.5 -54.5q-67 0 -67 76q0 19 7 56l36 178q3 15 3 25q0 30 -19 30q-10 0 -25 -11t-36 -32q-2 -2 -4 -2q-3 0 -5 3.5t1 6.5q34 40 60 59t52 19q40 0 40 -49q0 -20 -6 -49l-32 -159q-6 -30 -6 -51
q0 -55 40 -55q30 0 62 37t61.5 108.5t49.5 169.5l6 33q1 6 10 10t25 4q19 0 25 -1.5z" />
    <glyph glyph-name="thorn" unicode="&#xfe;" horiz-adv-x="409" 
d="M365.5 364q26.5 -29 26.5 -79q0 -15 -3 -33q-13 -73 -52.5 -130.5t-91.5 -90t-100 -32.5q-31 0 -52 3l-32 -180q-3 -17 -3 -28q0 -17 8 -24.5t25 -7.5q6 0 24 2q4 1 5.5 -4.5t-2.5 -6.5l-178 -28q-4 -1 -5 5t3 7q22 4 32 10.5t15 20.5t11 47l86 476q-29 -19 -47 -34
l-2 -1q-4 0 -6 4t1 6q38 32 58 46l54 298q3 15 3 26q0 25 -20 25q-16 0 -46 -15h-1q-5 0 -6.5 5.5t2.5 6.5l138 67h2q4 0 7 -3t2 -5l-65 -362q71 38 135 38q48 0 74.5 -29zM320 251q0 45 -20 73.5t-62 28.5q-41 0 -86 -21l-51 -288q32 -16 75 -16q112 0 142 192q2 20 2 31z
" />
    <glyph glyph-name="ydieresis" unicode="&#xff;" horiz-adv-x="440" 
d="M165 485q-12 12 -12 34q0 21 12 32.5t34 11.5q21 0 32.5 -11.5t11.5 -32.5q0 -22 -11.5 -34t-32.5 -12q-22 0 -34 12zM318 485q-12 12 -12 34q0 21 12 32.5t34 11.5q21 0 33 -11.5t12 -32.5q0 -22 -12 -34t-33 -12q-22 0 -34 12zM407 392.5q6 -1.5 6 -4.5q0 -5 -6 -28
q-9 -40 -10 -48l-70 -382q-17 -98 -71 -154.5t-139 -56.5q-46 0 -75 19t-29 47q0 7 1 10q3 19 13.5 28.5t24.5 9.5t20.5 -8.5t13.5 -27.5q10 -28 24 -42.5t47 -14.5q35 0 62 36t44 130l50 287q-36 -97 -83.5 -151.5t-100.5 -54.5q-67 0 -67 76q0 19 7 56l36 178q3 15 3 25
q0 30 -19 30q-10 0 -25 -11t-36 -32q-2 -2 -4 -2q-3 0 -5 3.5t1 6.5q34 40 60 59t52 19q40 0 40 -49q0 -20 -6 -49l-32 -159q-6 -30 -6 -51q0 -55 40 -55q30 0 62 37t61.5 108.5t49.5 169.5l6 33q1 6 10 10t25 4q19 0 25 -1.5z" />
    <glyph glyph-name="Amacron" unicode="&#x100;" horiz-adv-x="602" 
d="M287 732q0 16 7 16h234q4 0 6 -5t2 -11t-2 -11t-6 -5h-234q-7 0 -7 16zM570 6q0 -6 -4 -6q-15 0 -47 2q-36 2 -57 2q-22 0 -54 -2t-46 -2q-3 0 -3 6t3 6q35 0 49 9t14 33q0 14 -3 30l-40 235h-150l-103 -188q-29 -52 -29 -80q0 -22 17 -30.5t52 -8.5q4 0 3.5 -6t-4.5 -6
q-12 0 -48 2q-40 2 -62 2q-21 0 -49 -2t-43 -2q-4 0 -4 6t4 6q29 0 63.5 27.5t68.5 87.5l284 508q2 3 7 3q9 0 11 -5l95 -549q5 -31 10.5 -45t19 -20.5t41.5 -6.5q4 0 4 -6zM245 342h133l-32 185z" />
    <glyph glyph-name="amacron" unicode="&#x101;" horiz-adv-x="437" 
d="M423 504q2 -5 2 -11t-2 -11t-6 -5h-234q-7 0 -7 16t7 16h234q4 0 6 -5zM414 78q3 0 5 -3.5t0 -5.5q-33 -39 -60 -58.5t-52 -19.5q-20 0 -29.5 12t-9.5 38q0 16 5 48l16 95q-43 -91 -99 -144t-109 -53q-30 0 -46.5 18.5t-16.5 56.5q0 9 2 29q10 69 53.5 141.5t102.5 119.5
t111 47q42 0 68 -27q19 16 26 35q2 2 4 2q3 0 6 -1.5t2 -2.5l-58 -316q-3 -15 -3 -27q0 -28 17 -28q21 0 62 43q1 1 3 1zM197.5 79q37.5 35 67 88t39.5 102q3 14 3 27q0 29 -15 46t-43 17q-34 0 -68 -27.5t-59 -75.5t-34 -108q-4 -32 -4 -42q0 -62 42 -62q34 0 71.5 35z" />
    <glyph glyph-name="Abreve" unicode="&#x102;" horiz-adv-x="602" 
d="M327.5 691q-24.5 25 -24.5 64q0 6 17.5 11t32.5 5q11 0 11 -3q2 -28 19 -44t44 -16q44 0 71 56q2 3 6 3t7.5 -2t2.5 -4q-21 -46 -51.5 -70.5t-68.5 -24.5q-42 0 -66.5 25zM570 6q0 -6 -4 -6q-15 0 -47 2q-36 2 -57 2q-22 0 -54 -2t-46 -2q-3 0 -3 6t3 6q35 0 49 9t14 33
q0 14 -3 30l-40 235h-150l-103 -188q-29 -52 -29 -80q0 -22 17 -30.5t52 -8.5q4 0 3.5 -6t-4.5 -6q-12 0 -48 2q-40 2 -62 2q-21 0 -49 -2t-43 -2q-4 0 -4 6t4 6q29 0 63.5 27.5t68.5 87.5l284 508q2 3 7 3q9 0 11 -5l95 -549q5 -31 10.5 -45t19 -20.5t41.5 -6.5q4 0 4 -6z
M245 342h133l-32 185z" />
    <glyph glyph-name="abreve" unicode="&#x103;" horiz-adv-x="437" 
d="M219.5 500q-24.5 25 -24.5 64q0 6 17.5 11t32.5 5q11 0 11 -3q2 -28 19 -44t44 -16q44 0 71 56q2 3 6 3t7.5 -2t2.5 -4q-21 -46 -51.5 -70.5t-68.5 -24.5q-42 0 -66.5 25zM414 78q3 0 5 -3.5t0 -5.5q-33 -39 -60 -58.5t-52 -19.5q-20 0 -29.5 12t-9.5 38q0 16 5 48l16 95
q-43 -91 -99 -144t-109 -53q-30 0 -46.5 18.5t-16.5 56.5q0 9 2 29q10 69 53.5 141.5t102.5 119.5t111 47q42 0 68 -27q19 16 26 35q2 2 4 2q3 0 6 -1.5t2 -2.5l-58 -316q-3 -15 -3 -27q0 -28 17 -28q21 0 62 43q1 1 3 1zM197.5 79q37.5 35 67 88t39.5 102q3 14 3 27
q0 29 -15 46t-43 17q-34 0 -68 -27.5t-59 -75.5t-34 -108q-4 -32 -4 -42q0 -62 42 -62q34 0 71.5 35z" />
    <glyph glyph-name="Aogonek" unicode="&#x104;" horiz-adv-x="602" 
d="M570 6q0 -6 -4 -6l-77 1q-40 0 -73.5 -21t-53 -57t-19.5 -79q0 -38 21 -60.5t60 -22.5q18 0 28 4t21 12h1q2 0 4 -3t0 -5q-26 -23 -48.5 -33.5t-49.5 -10.5q-44 0 -70.5 21.5t-26.5 62.5q0 7 2 21q5 38 23 64.5t53 64.5q31 32 46 55t15 52q0 6 -2 18l-39 235h-147
l-101 -188q-31 -56 -31 -82q0 -21 16.5 -29t50.5 -8q4 0 3.5 -6t-4.5 -6q-12 0 -48 2q-40 2 -62 2q-21 0 -49 -2t-43 -2q-4 0 -4 6t4 6q30 0 66 27.5t69 87.5l281 508q2 3 7 3q9 0 11 -5l94 -542q5 -33 13 -49.5t21.5 -23t37.5 -6.5q4 0 4 -6zM247 342h130l-31 184z" />
    <glyph glyph-name="aogonek" unicode="&#x105;" horiz-adv-x="439" 
d="M394 45q-71 -70 -100.5 -108t-38.5 -84q-2 -8 -2 -23q0 -29 14.5 -47.5t43.5 -18.5q17 0 28.5 6.5t26.5 19.5h1q3 0 5.5 -3.5t0.5 -5.5q-28 -30 -52 -43t-51 -13q-38 0 -59.5 23t-21.5 58q0 40 35 88t94 98q-4 -1 -11 -1q-20 0 -29.5 12t-9.5 38q0 16 5 48l14 88
q-43 -87 -98.5 -138.5t-107.5 -51.5q-30 0 -46.5 18.5t-16.5 56.5q0 9 2 29q10 69 53.5 141.5t102.5 119.5t111 47q20 0 38.5 -7t29.5 -20q19 16 26 35q2 2 4 2q3 0 6 -1.5t2 -2.5l-58 -316q-3 -15 -3 -27q0 -28 17 -28q21 0 62 43q1 1 3 1q3 0 5 -3.5t0 -5.5zM307 296
q0 29 -15 46t-43 17q-34 0 -68 -27.5t-59 -75.5t-34 -108q-4 -32 -4 -42q0 -62 42 -62q34 0 71.5 35t67 88t39.5 102q3 14 3 27z" />
    <glyph glyph-name="Cacute" unicode="&#x106;" horiz-adv-x="586" 
d="M367 678q-4 0 -5 4.5t2 6.5q33 18 65.5 40t41.5 28l43 30q5 3 28 -4t40.5 -16t8.5 -11q-62 -15 -113.5 -33.5t-108.5 -43.5zM120 60.5q-63 73.5 -63 183.5q0 30 7 72q17 95 73.5 168t135.5 112.5t161 39.5q41 0 82.5 -9t64.5 -24q6 -4 7.5 -8.5t0.5 -15.5l-12 -118
q-1 -4 -6 -4t-5 4q-10 76 -54.5 113.5t-115.5 37.5q-62 0 -114 -32.5t-86.5 -92.5t-46.5 -141q-7 -41 -7 -84q0 -74 22 -133t63.5 -92.5t96.5 -33.5t108.5 37.5t101.5 113.5q2 2 4 2q3 0 5 -2t1 -4l-29 -110q-3 -12 -6 -16.5t-12 -6.5q-87 -30 -179 -30q-135 0 -198 73.5z
" />
    <glyph glyph-name="cacute" unicode="&#x107;" horiz-adv-x="346" 
d="M227.5 472q-5.5 2 -3.5 4l87 240q2 5 24.5 10t39.5 5q13 0 12 -4l-153 -254q-1 -3 -6.5 -1zM59.5 32q-32.5 45 -32.5 112q0 30 6 58q11 59 45.5 104t80.5 69t91 24q36 0 62.5 -15.5t26.5 -41.5q0 -17 -10 -29t-29 -12q-31 0 -40 36q-11 38 -48 38q-42 0 -69 -38.5
t-38 -102.5q-7 -40 -7 -66q0 -64 27 -103t81 -39q49 0 100 41l2 1q3 0 5.5 -4t0.5 -6q-77 -71 -156 -71q-66 0 -98.5 45z" />
    <glyph glyph-name="Ccircumflex" unicode="&#x108;" horiz-adv-x="586" 
d="M331 660q-3 0 -5 2.5t0 4.5l110 103q5 5 9 5q6 0 9 -5l77 -103l1 -2q0 -2 -3 -4t-5 -1l-88 51l-104 -51h-1zM120 60.5q-63 73.5 -63 183.5q0 30 7 72q17 95 73.5 168t135.5 112.5t161 39.5q41 0 82.5 -9t64.5 -24q6 -4 7.5 -8.5t0.5 -15.5l-12 -118q-1 -4 -6 -4t-5 4
q-10 76 -54.5 113.5t-115.5 37.5q-62 0 -114 -32.5t-86.5 -92.5t-46.5 -141q-7 -41 -7 -84q0 -74 22 -133t63.5 -92.5t96.5 -33.5t108.5 37.5t101.5 113.5q2 2 4 2q3 0 5 -2t1 -4l-29 -110q-3 -12 -6 -16.5t-12 -6.5q-87 -30 -179 -30q-135 0 -198 73.5z" />
    <glyph glyph-name="ccircumflex" unicode="&#x109;" horiz-adv-x="346" 
d="M314 478q0 -3 -5.5 -3.5t-6.5 2.5l-38 139l-90 -142q-1 -1 -3 -1q-3 0 -5.5 1.5t-1.5 3.5l109 249q3 5 11 5t8 -5zM59.5 32q-32.5 45 -32.5 112q0 30 6 58q11 59 45.5 104t80.5 69t91 24q36 0 62.5 -15.5t26.5 -41.5q0 -17 -10 -29t-29 -12q-31 0 -40 36q-11 38 -48 38
q-42 0 -69 -38.5t-38 -102.5q-7 -40 -7 -66q0 -64 27 -103t81 -39q49 0 100 41l2 1q3 0 5.5 -4t0.5 -6q-77 -71 -156 -71q-66 0 -98.5 45z" />
    <glyph glyph-name="Cdotaccent" unicode="&#x10a;" horiz-adv-x="586" 
d="M404 722.5q-13 12.5 -13 34.5t13 34t35 12t34.5 -12t12.5 -34t-12.5 -34.5t-34.5 -12.5t-35 12.5zM120 60.5q-63 73.5 -63 183.5q0 30 7 72q17 95 73.5 168t135.5 112.5t161 39.5q41 0 82.5 -9t64.5 -24q6 -4 7.5 -8.5t0.5 -15.5l-12 -118q-1 -4 -6 -4t-5 4
q-10 76 -54.5 113.5t-115.5 37.5q-62 0 -114 -32.5t-86.5 -92.5t-46.5 -141q-7 -41 -7 -84q0 -74 22 -133t63.5 -92.5t96.5 -33.5t108.5 37.5t101.5 113.5q2 2 4 2q3 0 5 -2t1 -4l-29 -110q-3 -12 -6 -16.5t-12 -6.5q-87 -30 -179 -30q-135 0 -198 73.5z" />
    <glyph glyph-name="cdotaccent" unicode="&#x10b;" horiz-adv-x="346" 
d="M224.5 521.5q-12.5 12.5 -12.5 34.5q0 21 12.5 33t34.5 12t34.5 -12t12.5 -33q0 -22 -12 -34.5t-35 -12.5q-22 0 -34.5 12.5zM59.5 32q-32.5 45 -32.5 112q0 30 6 58q11 59 45.5 104t80.5 69t91 24q36 0 62.5 -15.5t26.5 -41.5q0 -17 -10 -29t-29 -12q-31 0 -40 36
q-11 38 -48 38q-42 0 -69 -38.5t-38 -102.5q-7 -40 -7 -66q0 -64 27 -103t81 -39q49 0 100 41l2 1q3 0 5.5 -4t0.5 -6q-77 -71 -156 -71q-66 0 -98.5 45z" />
    <glyph glyph-name="Ccaron" unicode="&#x10c;" horiz-adv-x="586" 
d="M340 779v1q0 2 3 4.5t4 1.5l88 -52l104 52h1q3 0 5.5 -3t-0.5 -4l-110 -104q-4 -4 -10 -4q-5 0 -8 4zM120 60.5q-63 73.5 -63 183.5q0 30 7 72q17 95 73.5 168t135.5 112.5t161 39.5q41 0 82.5 -9t64.5 -24q6 -4 7.5 -8.5t0.5 -15.5l-12 -118q-1 -4 -6 -4t-5 4
q-10 76 -54.5 113.5t-115.5 37.5q-62 0 -114 -32.5t-86.5 -92.5t-46.5 -141q-7 -41 -7 -84q0 -74 22 -133t63.5 -92.5t96.5 -33.5t108.5 37.5t101.5 113.5q2 2 4 2q3 0 5 -2t1 -4l-29 -110q-3 -12 -6 -16.5t-12 -6.5q-87 -30 -179 -30q-135 0 -198 73.5z" />
    <glyph glyph-name="ccaron" unicode="&#x10d;" horiz-adv-x="346" 
d="M212 726q0 3 5.5 3.5t6.5 -2.5l38 -139l90 142q1 1 3 1q3 0 5.5 -1.5t1.5 -3.5l-109 -249q-2 -5 -11 -5q-3 0 -5.5 1.5t-2.5 3.5zM59.5 32q-32.5 45 -32.5 112q0 30 6 58q11 59 45.5 104t80.5 69t91 24q36 0 62.5 -15.5t26.5 -41.5q0 -17 -10 -29t-29 -12q-31 0 -40 36
q-11 38 -48 38q-42 0 -69 -38.5t-38 -102.5q-7 -40 -7 -66q0 -64 27 -103t81 -39q49 0 100 41l2 1q3 0 5.5 -4t0.5 -6q-77 -71 -156 -71q-66 0 -98.5 45z" />
    <glyph glyph-name="Dcaron" unicode="&#x10e;" horiz-adv-x="620" 
d="M252 779v1q0 2 3 4.5t4 1.5l88 -52l104 52h1q3 0 5.5 -3t-0.5 -4l-110 -104q-4 -4 -10 -4q-5 0 -8 4zM185 -1q-12 1 -29.5 2t-39.5 1l-62 -1q-15 -1 -42 -1q-3 0 -3 6t3 6q31 0 46 5t23 19.5t13 44.5l82 463q4 17 4 32q0 22 -13 29.5t-48 7.5q-2 0 -2 6t2 6l44 -1
q38 -2 62 -2q29 0 61 3q38 2 53 2q81 0 141.5 -31t93 -86.5t32.5 -127.5q0 -34 -5 -59q-17 -96 -72 -170.5t-131.5 -115.5t-156.5 -41q-24 0 -56 3zM361 46q58 34 98.5 99t56.5 156q7 38 7 79q0 102 -47 166.5t-138 64.5q-46 0 -65.5 -14t-26.5 -55l-79 -450q-3 -16 -3 -30
q0 -26 16 -38t56 -12q67 0 125 34z" />
    <glyph glyph-name="dcaron" unicode="&#x10f;" horiz-adv-x="446" 
d="M533 722.5q13 -7.5 24.5 -18t10.5 -15.5l-79 -236q-1 -2 -6 -2t-5 2l41 272q1 5 14 -2.5zM452 725q4 0 7 -3t2 -5l-115 -628q-3 -15 -3 -26q0 -29 18 -29q10 0 25 11t37 32q2 2 4 2q3 0 5 -3.5t-1 -6.5q-35 -40 -61 -59t-52 -19q-20 0 -29.5 11.5t-9.5 36.5q0 20 6 50
l17 89q-44 -89 -94 -140t-102 -51q-36 0 -60 23.5t-24 73.5q0 22 4 42q13 71 55 134t100 101t114 38q27 0 46 -11l41 222q2 9 2 23q0 28 -21 28q-15 0 -47 -15h-1q-4 0 -5.5 5.5t2.5 6.5l138 67h2zM228 88.5q41 46.5 67 108t26 96.5q0 32 -18 49t-48 17q-61 0 -105 -48.5
t-59 -139.5q-4 -23 -4 -46q0 -41 15 -62t42 -21q43 0 84 46.5z" />
    <glyph glyph-name="Dcroat" unicode="&#x110;" horiz-adv-x="620" 
d="M480.5 596q60.5 -31 93 -86.5t32.5 -127.5q0 -34 -5 -59q-17 -96 -72 -170.5t-131.5 -115.5t-156.5 -41q-24 0 -56 3q-12 1 -29.5 2t-39.5 1l-62 -1q-15 -1 -42 -1q-3 0 -3 6t3 6q31 0 46 5t23 19.5t13 44.5l39 219h-73q-4 0 -4 11t4 11h77l39 222q4 17 4 32
q0 22 -13 29.5t-48 7.5q-2 0 -2 6t2 6l44 -1q38 -2 62 -2q29 0 61 3q38 2 53 2q81 0 141.5 -31zM523 380q0 102 -47 166.5t-138 64.5q-46 0 -65.5 -14t-26.5 -55l-39 -220h115q5 0 5 -11q0 -4 -1.5 -7.5t-3.5 -3.5h-118l-37 -208q-3 -16 -3 -30q0 -26 16 -38t56 -12
q67 0 125 34t98.5 99t56.5 156q7 38 7 79z" />
    <glyph glyph-name="dcroat" unicode="&#x111;" horiz-adv-x="436" 
d="M484 510q0 -10 -4 -10h-59l-75 -411q-3 -15 -3 -26q0 -29 18 -29q10 0 25 11t37 32q2 2 4 2q3 0 5 -3.5t-1 -6.5q-35 -40 -61 -59t-52 -19q-20 0 -29.5 11.5t-9.5 36.5q0 20 6 50l17 89q-44 -89 -94 -140t-102 -51q-36 0 -60 23.5t-24 73.5q0 22 4 42q13 71 55 134
t100 101t114 38q27 0 46 -11l21 112h-169q-4 0 -4 10t4 10h172l17 90q2 9 2 23q0 28 -21 28q-15 0 -47 -15h-1q-4 0 -5.5 5.5t2.5 6.5l138 67h2q4 0 7 -3t2 -5l-36 -197h55q4 0 4 -10zM228 88.5q41 46.5 67 108t26 96.5q0 32 -18 49t-48 17q-61 0 -105 -48.5t-59 -139.5
q-4 -23 -4 -46q0 -41 15 -62t42 -21q43 0 84 46.5z" />
    <glyph glyph-name="Emacron" unicode="&#x112;" horiz-adv-x="520" 
d="M240 732q0 16 7 16h234q4 0 6 -5t2 -11t-2 -11t-6 -5h-234q-7 0 -7 16zM516 616l-8 -54l-12 -73q0 -3 -5 -3q-2 0 -4.5 1.5t-2.5 2.5q4 53 -21 85.5t-71 32.5h-62q-31 0 -45.5 -5t-21.5 -18t-12 -42l-36 -206h132q41 0 62 16t28 56q0 3 6 3q2 0 4.5 -1.5t1.5 -3.5
q-3 -22 -9 -46q-4 -15 -7 -36l-5 -31q-3 -31 -10 -65q-1 -4 -7 -3.5t-5 4.5q3 15 3 27q0 30 -17 43.5t-52 13.5h-129l-41 -229q-3 -18 -3 -30q0 -21 12.5 -28.5t46.5 -7.5h83q44 0 86 36.5t68 96.5q2 3 7.5 2t3.5 -4q-18 -58 -32 -135q-2 -9 -5 -12t-11 -3h-409q-2 0 -2 6
t2 6q31 0 46 5t22.5 19t13.5 45l81 463q4 17 4 33q0 21 -13 28.5t-47 7.5q-3 0 -3 6t3 6h386q8 0 6 -9z" />
    <glyph glyph-name="emacron" unicode="&#x113;" horiz-adv-x="347" 
d="M377 504q2 -5 2 -11t-2 -11t-6 -5h-234q-7 0 -7 16t7 16h234q4 0 6 -5zM317 386.5q19 -12.5 19 -33.5q0 -47 -68.5 -85.5t-165.5 -55.5q-4 -24 -4 -52q0 -61 26.5 -98t77.5 -37q55 0 97 33h1q3 0 5.5 -3t0.5 -6q-71 -61 -149 -61q-66 0 -99 41t-33 106q0 22 5 50
q10 52 43.5 101.5t83.5 81t106 31.5q35 0 54 -12.5zM259 337q0 17 -12.5 26t-30.5 9q-41 0 -70 -40.5t-42 -105.5q138 26 153 98q2 10 2 13z" />
    <glyph glyph-name="Ebreve" unicode="&#x114;" horiz-adv-x="520" 
d="M285.5 691q-24.5 25 -24.5 64q0 6 17.5 11t32.5 5q11 0 11 -3q2 -28 19 -44t44 -16q44 0 71 56q2 3 6 3t7.5 -2t2.5 -4q-21 -46 -51.5 -70.5t-68.5 -24.5q-42 0 -66.5 25zM516 616l-8 -54l-12 -73q0 -3 -5 -3q-2 0 -4.5 1.5t-2.5 2.5q4 53 -21 85.5t-71 32.5h-62
q-31 0 -45.5 -5t-21.5 -18t-12 -42l-36 -206h132q41 0 62 16t28 56q0 3 6 3q2 0 4.5 -1.5t1.5 -3.5q-3 -22 -9 -46q-4 -15 -7 -36l-5 -31q-3 -31 -10 -65q-1 -4 -7 -3.5t-5 4.5q3 15 3 27q0 30 -17 43.5t-52 13.5h-129l-41 -229q-3 -18 -3 -30q0 -21 12.5 -28.5t46.5 -7.5
h83q44 0 86 36.5t68 96.5q2 3 7.5 2t3.5 -4q-18 -58 -32 -135q-2 -9 -5 -12t-11 -3h-409q-2 0 -2 6t2 6q31 0 46 5t22.5 19t13.5 45l81 463q4 17 4 33q0 21 -13 28.5t-47 7.5q-3 0 -3 6t3 6h386q8 0 6 -9z" />
    <glyph glyph-name="ebreve" unicode="&#x115;" horiz-adv-x="347" 
d="M350 576q4 0 7.5 -2t2.5 -4q-21 -46 -51.5 -70.5t-68.5 -24.5q-42 0 -66.5 25t-24.5 64q0 6 17.5 11t32.5 5q11 0 11 -3q2 -28 19 -44t44 -16q44 0 71 56q2 3 6 3zM317 386.5q19 -12.5 19 -33.5q0 -47 -68.5 -85.5t-165.5 -55.5q-4 -24 -4 -52q0 -61 26.5 -98t77.5 -37
q55 0 97 33h1q3 0 5.5 -3t0.5 -6q-71 -61 -149 -61q-66 0 -99 41t-33 106q0 22 5 50q10 52 43.5 101.5t83.5 81t106 31.5q35 0 54 -12.5zM259 337q0 17 -12.5 26t-30.5 9q-41 0 -70 -40.5t-42 -105.5q138 26 153 98q2 10 2 13z" />
    <glyph glyph-name="Edotaccent" unicode="&#x116;" horiz-adv-x="520" 
d="M324 722.5q-13 12.5 -13 34.5t13 34t35 12t34.5 -12t12.5 -34t-12.5 -34.5t-34.5 -12.5t-35 12.5zM516 616l-8 -54l-12 -73q0 -3 -5 -3q-2 0 -4.5 1.5t-2.5 2.5q4 53 -21 85.5t-71 32.5h-62q-31 0 -45.5 -5t-21.5 -18t-12 -42l-36 -206h132q41 0 62 16t28 56q0 3 6 3
q2 0 4.5 -1.5t1.5 -3.5q-3 -22 -9 -46q-4 -15 -7 -36l-5 -31q-3 -31 -10 -65q-1 -4 -7 -3.5t-5 4.5q3 15 3 27q0 30 -17 43.5t-52 13.5h-129l-41 -229q-3 -18 -3 -30q0 -21 12.5 -28.5t46.5 -7.5h83q44 0 86 36.5t68 96.5q2 3 7.5 2t3.5 -4q-18 -58 -32 -135q-2 -9 -5 -12
t-11 -3h-409q-2 0 -2 6t2 6q31 0 46 5t22.5 19t13.5 45l81 463q4 17 4 33q0 21 -13 28.5t-47 7.5q-3 0 -3 6t3 6h386q8 0 6 -9z" />
    <glyph glyph-name="edotaccent" unicode="&#x117;" horiz-adv-x="347" 
d="M227.5 521.5q-12.5 12.5 -12.5 34.5q0 21 12.5 33t34.5 12t34.5 -12t12.5 -33q0 -22 -12 -34.5t-35 -12.5q-22 0 -34.5 12.5zM317 386.5q19 -12.5 19 -33.5q0 -47 -68.5 -85.5t-165.5 -55.5q-4 -24 -4 -52q0 -61 26.5 -98t77.5 -37q55 0 97 33h1q3 0 5.5 -3t0.5 -6
q-71 -61 -149 -61q-66 0 -99 41t-33 106q0 22 5 50q10 52 43.5 101.5t83.5 81t106 31.5q35 0 54 -12.5zM259 337q0 17 -12.5 26t-30.5 9q-41 0 -70 -40.5t-42 -105.5q138 26 153 98q2 10 2 13z" />
    <glyph glyph-name="Eogonek" unicode="&#x118;" horiz-adv-x="520" 
d="M516 616l-8 -54l-12 -73q0 -3 -5 -3q-2 0 -4.5 1.5t-2.5 2.5q4 53 -21 85.5t-71 32.5h-62q-31 0 -45.5 -5t-21.5 -18t-12 -42l-36 -206h132q41 0 62 16t28 56q0 3 6 3q2 0 4.5 -1.5t1.5 -3.5q-3 -22 -9 -46q-4 -15 -7 -36l-5 -31q-3 -31 -10 -65q-1 -4 -7 -3.5t-5 4.5
q3 15 3 27q0 30 -17 43.5t-52 13.5h-129l-41 -229q-3 -18 -3 -30q0 -21 12.5 -28.5t46.5 -7.5h83q44 0 86 36.5t68 96.5q2 3 7.5 2t3.5 -4q-18 -58 -32 -135q-2 -9 -5 -12t-11 -3h-41q-44 -46 -68.5 -88t-24.5 -85q0 -31 15.5 -49.5t43.5 -18.5q16 0 28 6t27 18l1 1
q3 0 5.5 -4t0.5 -6q-28 -26 -52.5 -37.5t-50.5 -11.5q-38 0 -59 21.5t-21 56.5q0 6 2 22q7 40 41.5 83t92.5 92h-349q-2 0 -2 6t2 6q31 0 46 5t22.5 19t13.5 45l81 463q4 17 4 33q0 21 -13 28.5t-47 7.5q-3 0 -3 6t3 6h386q8 0 6 -9z" />
    <glyph glyph-name="eogonek" unicode="&#x119;" horiz-adv-x="351" 
d="M317 386.5q19 -12.5 19 -33.5q0 -47 -68.5 -85.5t-165.5 -55.5q-4 -24 -4 -52q0 -61 26.5 -98t77.5 -37q45 0 83 23q1 1 13 10h1h1q3 0 5.5 -3t0.5 -6q-7 -6 -21 -16q-72 -62 -103 -102.5t-38 -79.5q-3 -14 -3 -25q0 -28 14 -45t42 -17t57 25l2 1q3 0 5 -3.5t0 -5.5
q-49 -56 -104 -56q-35 0 -57 20t-22 54q0 14 2 22q8 38 40.5 79.5t102.5 98.5q-32 -11 -66 -11q-66 0 -99 41t-33 106q0 22 5 50q10 52 43.5 101.5t83.5 81t106 31.5q35 0 54 -12.5zM259 337q0 17 -12.5 26t-30.5 9q-41 0 -70 -40.5t-42 -105.5q138 26 153 98q2 10 2 13z
" />
    <glyph glyph-name="Ecaron" unicode="&#x11a;" horiz-adv-x="520" 
d="M261 779v1q0 2 3 4.5t4 1.5l88 -52l104 52h1q3 0 5.5 -3t-0.5 -4l-110 -104q-4 -4 -10 -4q-5 0 -8 4zM516 616l-8 -54l-12 -73q0 -3 -5 -3q-2 0 -4.5 1.5t-2.5 2.5q4 53 -21 85.5t-71 32.5h-62q-31 0 -45.5 -5t-21.5 -18t-12 -42l-36 -206h132q41 0 62 16t28 56q0 3 6 3
q2 0 4.5 -1.5t1.5 -3.5q-3 -22 -9 -46q-4 -15 -7 -36l-5 -31q-3 -31 -10 -65q-1 -4 -7 -3.5t-5 4.5q3 15 3 27q0 30 -17 43.5t-52 13.5h-129l-41 -229q-3 -18 -3 -30q0 -21 12.5 -28.5t46.5 -7.5h83q44 0 86 36.5t68 96.5q2 3 7.5 2t3.5 -4q-18 -58 -32 -135q-2 -9 -5 -12
t-11 -3h-409q-2 0 -2 6t2 6q31 0 46 5t22.5 19t13.5 45l81 463q4 17 4 33q0 21 -13 28.5t-47 7.5q-3 0 -3 6t3 6h386q8 0 6 -9z" />
    <glyph glyph-name="ecaron" unicode="&#x11b;" horiz-adv-x="347" 
d="M358 731q3 0 5.5 -1.5t1.5 -3.5l-109 -249q-2 -5 -11 -5q-3 0 -5.5 1.5t-2.5 3.5l-22 249q0 3 5.5 3.5t6.5 -2.5l38 -139l90 142q1 1 3 1zM317 386.5q19 -12.5 19 -33.5q0 -47 -68.5 -85.5t-165.5 -55.5q-4 -24 -4 -52q0 -61 26.5 -98t77.5 -37q55 0 97 33h1q3 0 5.5 -3
t0.5 -6q-71 -61 -149 -61q-66 0 -99 41t-33 106q0 22 5 50q10 52 43.5 101.5t83.5 81t106 31.5q35 0 54 -12.5zM259 337q0 17 -12.5 26t-30.5 9q-41 0 -70 -40.5t-42 -105.5q138 26 153 98q2 10 2 13z" />
    <glyph glyph-name="Gcircumflex" unicode="&#x11c;" horiz-adv-x="631" 
d="M348 660q-3 0 -5 2.5t0 4.5l110 103q5 5 9 5q6 0 9 -5l77 -103l1 -2q0 -2 -3 -4t-5 -1l-88 51l-104 -51h-1zM183 20q-61 32 -92.5 89.5t-31.5 132.5q0 36 7 71q17 93 74 167t140.5 115t177.5 41q42 0 81 -9t61 -25q7 -5 7 -12l-1 -11l-11 -118q-1 -4 -6 -4t-6 4
q-9 73 -51.5 112.5t-113.5 39.5q-105 0 -175.5 -71t-91.5 -193q-7 -42 -7 -85q0 -118 57.5 -187.5t156.5 -69.5q40 0 63.5 9.5t37 35t20.5 74.5q6 38 6 59t-8 31t-26 13.5t-54 3.5q-2 0 -3.5 2.5t-1.5 5.5t1.5 5.5t3.5 2.5q68 -5 113 -5q42 0 89 3q4 0 4 -7t-4 -7
q-18 1 -26.5 -6.5t-14 -29.5t-14.5 -81q-7 -44 -7.5 -62t-1.5 -26q-1 -6 -3 -7.5t-9 -4.5q-110 -28 -193 -28q-86 0 -147 32z" />
    <glyph glyph-name="gcircumflex" unicode="&#x11d;" horiz-adv-x="414" 
d="M204 473q-3 0 -5.5 1.5t-1.5 3.5l109 249q3 5 11 5t8 -5l22 -249q0 -3 -5.5 -3.5t-6.5 2.5l-38 139l-90 -142q-1 -1 -3 -1zM385 409q3 0 6 -1.5t2 -2.5l-83 -458q-19 -110 -76.5 -169t-145.5 -59q-48 0 -78.5 19.5t-30.5 50.5q0 21 12 32t27 11t22 -8.5t15 -28.5
q11 -26 24.5 -40t45.5 -14q39 0 69.5 39t49.5 143l45 261q-43 -91 -99 -144t-109 -53q-30 0 -46.5 18.5t-16.5 56.5q0 9 2 29q10 69 53.5 141.5t102.5 119.5t111 47q42 0 68 -27q19 16 26 35q2 2 4 2zM197.5 79q37.5 35 67 88t39.5 102q3 14 3 27q0 29 -15 46t-43 17
q-34 0 -68 -27.5t-59 -75.5t-34 -108q-4 -32 -4 -42q0 -62 42 -62q34 0 71.5 35z" />
    <glyph glyph-name="Gbreve" unicode="&#x11e;" horiz-adv-x="631" 
d="M376.5 691q-24.5 25 -24.5 64q0 6 17.5 11t32.5 5q11 0 11 -3q2 -28 19 -44t44 -16q44 0 71 56q2 3 6 3t7.5 -2t2.5 -4q-21 -46 -51.5 -70.5t-68.5 -24.5q-42 0 -66.5 25zM183 20q-61 32 -92.5 89.5t-31.5 132.5q0 36 7 71q17 93 74 167t140.5 115t177.5 41q42 0 81 -9
t61 -25q7 -5 7 -12l-1 -11l-11 -118q-1 -4 -6 -4t-6 4q-9 73 -51.5 112.5t-113.5 39.5q-105 0 -175.5 -71t-91.5 -193q-7 -42 -7 -85q0 -118 57.5 -187.5t156.5 -69.5q40 0 63.5 9.5t37 35t20.5 74.5q6 38 6 59t-8 31t-26 13.5t-54 3.5q-2 0 -3.5 2.5t-1.5 5.5t1.5 5.5
t3.5 2.5q68 -5 113 -5q42 0 89 3q4 0 4 -7t-4 -7q-18 1 -26.5 -6.5t-14 -29.5t-14.5 -81q-7 -44 -7.5 -62t-1.5 -26q-1 -6 -3 -7.5t-9 -4.5q-110 -28 -193 -28q-86 0 -147 32z" />
    <glyph glyph-name="gbreve" unicode="&#x11f;" horiz-adv-x="414" 
d="M203.5 500q-24.5 25 -24.5 64q0 6 17.5 11t32.5 5q11 0 11 -3q2 -28 19 -44t44 -16q44 0 71 56q2 3 6 3t7.5 -2t2.5 -4q-21 -46 -51.5 -70.5t-68.5 -24.5q-42 0 -66.5 25zM385 409q3 0 6 -1.5t2 -2.5l-83 -458q-19 -110 -76.5 -169t-145.5 -59q-48 0 -78.5 19.5
t-30.5 50.5q0 21 12 32t27 11t22 -8.5t15 -28.5q11 -26 24.5 -40t45.5 -14q39 0 69.5 39t49.5 143l45 261q-43 -91 -99 -144t-109 -53q-30 0 -46.5 18.5t-16.5 56.5q0 9 2 29q10 69 53.5 141.5t102.5 119.5t111 47q42 0 68 -27q19 16 26 35q2 2 4 2zM197.5 79q37.5 35 67 88
t39.5 102q3 14 3 27q0 29 -15 46t-43 17q-34 0 -68 -27.5t-59 -75.5t-34 -108q-4 -32 -4 -42q0 -62 42 -62q34 0 71.5 35z" />
    <glyph glyph-name="Gdotaccent" unicode="&#x120;" horiz-adv-x="631" 
d="M421 722.5q-13 12.5 -13 34.5t13 34t35 12t34.5 -12t12.5 -34t-12.5 -34.5t-34.5 -12.5t-35 12.5zM183 20q-61 32 -92.5 89.5t-31.5 132.5q0 36 7 71q17 93 74 167t140.5 115t177.5 41q42 0 81 -9t61 -25q7 -5 7 -12l-1 -11l-11 -118q-1 -4 -6 -4t-6 4q-9 73 -51.5 112.5
t-113.5 39.5q-105 0 -175.5 -71t-91.5 -193q-7 -42 -7 -85q0 -118 57.5 -187.5t156.5 -69.5q40 0 63.5 9.5t37 35t20.5 74.5q6 38 6 59t-8 31t-26 13.5t-54 3.5q-2 0 -3.5 2.5t-1.5 5.5t1.5 5.5t3.5 2.5q68 -5 113 -5q42 0 89 3q4 0 4 -7t-4 -7q-18 1 -26.5 -6.5t-14 -29.5
t-14.5 -81q-7 -44 -7.5 -62t-1.5 -26q-1 -6 -3 -7.5t-9 -4.5q-110 -28 -193 -28q-86 0 -147 32z" />
    <glyph glyph-name="gdotaccent" unicode="&#x121;" horiz-adv-x="414" 
d="M257.5 521.5q-12.5 12.5 -12.5 34.5q0 21 12.5 33t34.5 12t34.5 -12t12.5 -33q0 -22 -12 -34.5t-35 -12.5q-22 0 -34.5 12.5zM385 409q3 0 6 -1.5t2 -2.5l-83 -458q-19 -110 -76.5 -169t-145.5 -59q-48 0 -78.5 19.5t-30.5 50.5q0 21 12 32t27 11t22 -8.5t15 -28.5
q11 -26 24.5 -40t45.5 -14q39 0 69.5 39t49.5 143l45 261q-43 -91 -99 -144t-109 -53q-30 0 -46.5 18.5t-16.5 56.5q0 9 2 29q10 69 53.5 141.5t102.5 119.5t111 47q42 0 68 -27q19 16 26 35q2 2 4 2zM197.5 79q37.5 35 67 88t39.5 102q3 14 3 27q0 29 -15 46t-43 17
q-34 0 -68 -27.5t-59 -75.5t-34 -108q-4 -32 -4 -42q0 -62 42 -62q34 0 71.5 35z" />
    <glyph glyph-name="Gcommaaccent" unicode="&#x122;" horiz-adv-x="631" 
d="M242.5 542q-70.5 -71 -91.5 -193q-7 -42 -7 -85q0 -118 57.5 -187.5t156.5 -69.5q40 0 63.5 9.5t37 35t20.5 74.5q6 38 6 59t-8 31t-26 13.5t-54 3.5q-2 0 -3.5 2.5t-1.5 5.5t1.5 5.5t3.5 2.5q68 -5 113 -5q42 0 89 3q4 0 4 -7t-4 -7q-18 1 -26.5 -6.5t-14 -29.5
t-14.5 -81q-7 -44 -7.5 -62t-1.5 -26q-1 -6 -3 -7.5t-9 -4.5q-110 -28 -193 -28q-86 0 -147 32t-92.5 89.5t-31.5 132.5q0 36 7 71q17 93 74 167t140.5 115t177.5 41q42 0 81 -9t61 -25q7 -5 7 -12l-1 -11l-11 -118q-1 -4 -6 -4t-6 4q-9 73 -51.5 112.5t-113.5 39.5
q-105 0 -175.5 -71zM363.5 -96.5q14.5 -16.5 14.5 -44.5q0 -77 -87 -134l-2 -1q-4 0 -6 4.5t1 6.5q49 33 55 74q2 12 2 16t-2 12q-7 -7 -23 -7q-23 0 -34.5 15t-9.5 35q2 18 15.5 29t35.5 11q26 0 40.5 -16.5z" />
    <glyph glyph-name="gcommaaccent" unicode="&#x123;" horiz-adv-x="414" 
d="M239.5 482.5q-14.5 16.5 -14.5 44.5q0 77 87 134l2 1q4 0 6 -4.5t-1 -6.5q-49 -33 -55 -74q-1 -6 -1 -16q0 -8 1 -12q7 7 23 7q23 0 34.5 -15t9.5 -35q-2 -18 -15.5 -29t-35.5 -11q-26 0 -40.5 16.5zM385 409q3 0 6 -1.5t2 -2.5l-83 -458q-19 -110 -76.5 -169t-145.5 -59
q-48 0 -78.5 19.5t-30.5 50.5q0 21 12 32t27 11t22 -8.5t15 -28.5q11 -26 24.5 -40t45.5 -14q39 0 69.5 39t49.5 143l45 261q-43 -91 -99 -144t-109 -53q-30 0 -46.5 18.5t-16.5 56.5q0 9 2 29q10 69 53.5 141.5t102.5 119.5t111 47q42 0 68 -27q19 16 26 35q2 2 4 2z
M197.5 79q37.5 35 67 88t39.5 102q3 14 3 27q0 29 -15 46t-43 17q-34 0 -68 -27.5t-59 -75.5t-34 -108q-4 -32 -4 -42q0 -62 42 -62q34 0 71.5 35z" />
    <glyph glyph-name="Hcircumflex" unicode="&#x124;" horiz-adv-x="672" 
d="M324 660q-3 0 -5 2.5t0 4.5l110 103q5 5 9 5q6 0 9 -5l77 -103l1 -2q0 -2 -3 -4t-5 -1l-88 51l-104 -51h-1zM703 619q0 -6 -3 -6q-30 0 -45 -5.5t-22.5 -19.5t-13.5 -44l-82 -463q-3 -19 -3 -31q0 -23 13 -30.5t48 -7.5q3 0 3 -6t-3 -6q-26 0 -41 1l-62 1l-62 -1
q-16 -1 -45 -1q-2 0 -2 6t2 6q32 0 47 5t22.5 19t12.5 45l41 233h-303l-41 -233q-4 -26 -4 -33q0 -21 13 -28.5t48 -7.5q3 0 3 -6t-3 -6q-27 0 -43 1l-64 1l-60 -1q-15 -1 -42 -1q-3 0 -3 6t3 6q31 0 46 5t23 19.5t13 44.5l82 463q4 26 4 32q0 22 -13 29.5t-48 7.5
q-2 0 -2 6t2 6l43 -1q36 -2 59 -2t63 2l44 1q2 0 2 -6t-2 -6q-30 0 -45.5 -6t-23 -20.5t-13.5 -44.5l-36 -205h302l36 205q4 26 4 34q0 22 -13 29.5t-47 7.5q-3 0 -3 6t3 6l43 -1q38 -2 61 -2q22 0 62 2l42 1q3 0 3 -6z" />
    <glyph glyph-name="hcircumflex" unicode="&#x125;" horiz-adv-x="448" 
d="M110 706q-3 3 -1 5l110 103q5 5 9 5q6 0 9 -5l77 -103v-1q0 -3 -2.5 -5.5t-4.5 -0.5l-88 52l-104 -52q-2 -1 -5 2zM426 79q3 0 5.5 -3.5t-0.5 -6.5q-34 -40 -61 -59t-53 -19q-20 0 -29 11.5t-9 37.5q0 17 5 49l29 159q6 30 6 52q0 54 -39 54q-32 0 -66 -41t-64 -119
t-49 -185q-2 -8 -12 -12.5t-27 -4.5q-27 0 -27 7l4 20q9 43 11 55l100 536q2 9 2 23q0 28 -21 28q-16 0 -46 -15h-1q-4 0 -6 5t2 7l138 67h2q4 0 7 -3t2 -5l-95 -523q36 97 83.5 151t100.5 54q33 0 49 -18.5t16 -58.5q0 -29 -5 -55l-33 -178q-3 -15 -3 -25q0 -30 19 -30
q10 0 25 11t37 32q2 2 3 2z" />
    <glyph glyph-name="Hbar" unicode="&#x126;" horiz-adv-x="672" 
d="M703 619q0 -6 -3 -6q-30 0 -45 -5.5t-22.5 -19.5t-13.5 -44l-82 -463q-3 -19 -3 -31q0 -23 13 -30.5t48 -7.5q3 0 3 -6t-3 -6q-26 0 -41 1l-62 1l-62 -1q-16 -1 -45 -1q-2 0 -2 6t2 6q32 0 47 5t22.5 19t12.5 45l24 139h-302l-25 -139q-4 -26 -4 -33q0 -21 13 -28.5
t48 -7.5q3 0 3 -6t-3 -6q-27 0 -43 1l-64 1l-60 -1q-15 -1 -42 -1q-3 0 -3 6t3 6q31 0 46 5t23 19.5t13 44.5l82 463q4 17 4 32q0 22 -13 29.5t-48 7.5q-2 0 -2 6t2 6l43 -1q36 -2 59 -2t63 2l44 1q2 0 2 -6t-2 -6q-30 0 -45.5 -6t-23 -20.5t-13.5 -44.5l-20 -112h302
l20 112q4 26 4 34q0 22 -13 29.5t-47 7.5q-3 0 -3 6t3 6l43 -1q38 -2 61 -2q22 0 62 2l42 1q3 0 3 -6zM193 243h302l29 164h-302z" />
    <glyph glyph-name="hbar" unicode="&#x127;" horiz-adv-x="443" 
d="M426 79q3 0 5.5 -3.5t-0.5 -6.5q-34 -40 -61 -59t-53 -19q-20 0 -29 11.5t-9 37.5q0 17 5 49l29 159q6 30 6 52q0 54 -39 54q-32 0 -66 -41t-64 -119t-49 -185q-2 -8 -12 -12.5t-27 -4.5q-27 0 -27 7l4 20q9 43 11 55l79 426h-56q-4 0 -4 10t4 10h60l17 90q2 9 2 23
q0 28 -21 28q-16 0 -46 -15h-1q-4 0 -6 5t2 7l138 67h2q4 0 7 -3t2 -5l-36 -197h166q2 0 3.5 -3t1.5 -7t-1.5 -7t-3.5 -3h-169l-56 -306q36 97 83.5 151t100.5 54q33 0 49 -18.5t16 -58.5q0 -29 -5 -55l-33 -178q-3 -15 -3 -25q0 -30 19 -30q10 0 25 11t37 32q2 2 3 2z" />
    <glyph glyph-name="Itilde" unicode="&#x128;" horiz-adv-x="317" 
d="M119 693q-3 0 -5 2.5t0 4.5q47 67 90 67q14 0 50 -10q46 -14 74 -14q19 0 30.5 6.5t24.5 20.5h1q3 0 5.5 -2.5t0.5 -4.5q-28 -40 -45.5 -54t-39.5 -14q-20 0 -60 12q-4 1 -25.5 7t-43.5 6q-18 0 -28 -5t-17 -12l-10 -10h-2zM19 6q0 6 3 6q31 0 45.5 5t22 19t12.5 45
l82 463q4 26 4 32q0 22 -13.5 29.5t-47.5 7.5q-3 0 -3 6t3 6l43 -1q38 -2 60 -2q29 0 67 2l40 1q3 0 3 -6t-3 -6q-30 0 -45 -6t-22.5 -20.5t-13.5 -44.5l-82 -461q-4 -26 -4 -32q0 -22 13.5 -29.5t48.5 -7.5q2 0 2 -6t-2 -6q-26 0 -42 1l-64 1l-60 -1q-16 -1 -44 -1
q-3 0 -3 6z" />
    <glyph glyph-name="itilde" unicode="&#x129;" horiz-adv-x="247" 
d="M53 477q-2 0 -4.5 2.5t-1.5 4.5q18 26 41.5 46.5t47.5 20.5q9 0 33 -10q28 -14 47 -14t29.5 6.5t24.5 20.5h1q3 0 5 -2.5t1 -4.5q-28 -40 -46 -54t-38 -14q-9 0 -19 3.5t-20 8.5q-2 1 -16 7t-30 6q-17 0 -27 -5.5t-17 -12.5t-10 -9h-1zM68 40q0 21 6 49l41 208q3 15 3 26
q0 30 -19 30q-11 0 -28 -11.5t-37 -32.5q-1 -1 -3 -1q-3 0 -5.5 3.5t0.5 5.5q66 78 117 78q20 0 29.5 -11.5t9.5 -35.5q0 -23 -5 -46l-41 -213q-3 -15 -3 -26q0 -29 18 -29q23 0 63 42q1 1 3 1q4 0 6 -3.5t-1 -5.5q-33 -39 -60.5 -58t-53.5 -19q-40 0 -40 49z" />
    <glyph glyph-name="Imacron" unicode="&#x12a;" horiz-adv-x="317" 
d="M131 732q0 16 7 16h234q4 0 6 -5t2 -11t-2 -11t-6 -5h-234q-7 0 -7 16zM19 6q0 6 3 6q31 0 45.5 5t22 19t12.5 45l82 463q4 26 4 32q0 22 -13.5 29.5t-47.5 7.5q-3 0 -3 6t3 6l43 -1q38 -2 60 -2q29 0 67 2l40 1q3 0 3 -6t-3 -6q-30 0 -45 -6t-22.5 -20.5t-13.5 -44.5
l-82 -461q-4 -26 -4 -32q0 -22 13.5 -29.5t48.5 -7.5q2 0 2 -6t-2 -6q-26 0 -42 1l-64 1l-60 -1q-16 -1 -44 -1q-3 0 -3 6z" />
    <glyph glyph-name="imacron" unicode="&#x12b;" horiz-adv-x="247" 
d="M40 493q0 16 7 16h234q4 0 6 -5t2 -11t-2 -11t-6 -5h-234q-7 0 -7 16zM68 40q0 21 6 49l41 208q3 15 3 26q0 30 -19 30q-11 0 -28 -11.5t-37 -32.5q-1 -1 -3 -1q-3 0 -5.5 3.5t0.5 5.5q66 78 117 78q20 0 29.5 -11.5t9.5 -35.5q0 -23 -5 -46l-41 -213q-3 -15 -3 -26
q0 -29 18 -29q23 0 63 42q1 1 3 1q4 0 6 -3.5t-1 -5.5q-33 -39 -60.5 -58t-53.5 -19q-40 0 -40 49z" />
    <glyph glyph-name="Ibreve" unicode="&#x12c;" horiz-adv-x="317" 
d="M176.5 691q-24.5 25 -24.5 64q0 6 17.5 11t32.5 5q11 0 11 -3q2 -28 19 -44t44 -16q44 0 71 56q2 3 6 3t7.5 -2t2.5 -4q-21 -46 -51.5 -70.5t-68.5 -24.5q-42 0 -66.5 25zM19 6q0 6 3 6q31 0 45.5 5t22 19t12.5 45l82 463q4 26 4 32q0 22 -13.5 29.5t-47.5 7.5q-3 0 -3 6
t3 6l43 -1q38 -2 60 -2q29 0 67 2l40 1q3 0 3 -6t-3 -6q-30 0 -45 -6t-22.5 -20.5t-13.5 -44.5l-82 -461q-4 -26 -4 -32q0 -22 13.5 -29.5t48.5 -7.5q2 0 2 -6t-2 -6q-26 0 -42 1l-64 1l-60 -1q-16 -1 -44 -1q-3 0 -3 6z" />
    <glyph glyph-name="ibreve" unicode="&#x12d;" horiz-adv-x="247" 
d="M83.5 500q-24.5 25 -24.5 64q0 6 17.5 11t32.5 5q11 0 11 -3q2 -28 19 -44t44 -16q44 0 71 56q2 3 6 3t7.5 -2t2.5 -4q-21 -46 -51.5 -70.5t-68.5 -24.5q-42 0 -66.5 25zM68 40q0 21 6 49l41 208q3 15 3 26q0 30 -19 30q-11 0 -28 -11.5t-37 -32.5q-1 -1 -3 -1
q-3 0 -5.5 3.5t0.5 5.5q66 78 117 78q20 0 29.5 -11.5t9.5 -35.5q0 -23 -5 -46l-41 -213q-3 -15 -3 -26q0 -29 18 -29q23 0 63 42q1 1 3 1q4 0 6 -3.5t-1 -5.5q-33 -39 -60.5 -58t-53.5 -19q-40 0 -40 49z" />
    <glyph glyph-name="Iogonek" unicode="&#x12e;" horiz-adv-x="317" 
d="M340 619q0 -6 -3 -6q-30 0 -45 -6t-22.5 -20.5t-13.5 -44.5l-82 -461q-4 -26 -4 -32q0 -22 13.5 -29.5t48.5 -7.5q2 0 2 -6t-2 -6q-24 0 -38 1l-57 1q-52 -72 -61 -147q-3 -15 -3 -29q0 -30 12.5 -47.5t35.5 -17.5q26 0 48 22h1q4 0 7 -3.5t0 -5.5q-27 -26 -49.5 -37.5
t-47.5 -11.5q-33 0 -51.5 21t-18.5 56q0 46 29 95t82 105l-57 -1q-15 -1 -42 -1q-3 0 -3 6t3 6q31 0 45.5 5t22 19t12.5 45l82 463q4 26 4 32q0 22 -13.5 29.5t-47.5 7.5q-3 0 -3 6t3 6l43 -1q38 -2 60 -2q29 0 67 2l40 1q3 0 3 -6z" />
    <glyph glyph-name="iogonek" unicode="&#x12f;" horiz-adv-x="247" 
d="M137.5 521.5q-12.5 12.5 -12.5 34.5q0 21 12.5 33t34.5 12t34.5 -12t12.5 -33q0 -22 -12.5 -34.5t-34.5 -12.5t-34.5 12.5zM198 45q-71 -70 -100.5 -108t-38.5 -84q-2 -8 -2 -24q0 -29 14 -47t42 -18q15 0 26 5.5t24 15.5l1 1q3 0 5.5 -4t0.5 -6q-26 -26 -48.5 -38.5
t-47.5 -12.5q-37 0 -59 23t-22 56q0 77 129 188q-4 -1 -12 -1q-21 0 -30.5 12.5t-9.5 38.5q0 15 5 47l39 208q3 15 3 25q0 31 -19 31q-11 0 -28 -11.5t-37 -32.5q-1 -1 -3 -1q-4 0 -6 3.5t1 5.5q35 41 63 59.5t55 18.5q20 0 29 -11.5t9 -36.5q0 -15 -5 -45l-38 -213
q-3 -15 -3 -26q0 -29 18 -29q17 0 62 43q1 1 3 1q3 0 5 -3.5t0 -5.5z" />
    <glyph glyph-name="Idotaccent" unicode="&#x130;" horiz-adv-x="317" 
d="M216 722.5q-13 12.5 -13 34.5t13 34t35 12t34.5 -12t12.5 -34t-12.5 -34.5t-34.5 -12.5t-35 12.5zM19 6q0 6 3 6q31 0 45.5 5t22 19t12.5 45l82 463q4 26 4 32q0 22 -13.5 29.5t-47.5 7.5q-3 0 -3 6t3 6l43 -1q38 -2 60 -2q29 0 67 2l40 1q3 0 3 -6t-3 -6q-30 0 -45 -6
t-22.5 -20.5t-13.5 -44.5l-82 -461q-4 -26 -4 -32q0 -22 13.5 -29.5t48.5 -7.5q2 0 2 -6t-2 -6q-26 0 -42 1l-64 1l-60 -1q-16 -1 -44 -1q-3 0 -3 6z" />
    <glyph glyph-name="dotlessi" unicode="&#x131;" horiz-adv-x="247" 
d="M68 40q0 21 6 49l41 208q3 15 3 26q0 30 -19 30q-11 0 -28 -11.5t-37 -32.5q-1 -1 -3 -1q-3 0 -5.5 3.5t0.5 5.5q66 78 117 78q20 0 29.5 -11.5t9.5 -35.5q0 -23 -5 -46l-41 -213q-3 -15 -3 -26q0 -29 18 -29q23 0 63 42q1 1 3 1q4 0 6 -3.5t-1 -5.5q-33 -39 -60.5 -58
t-53.5 -19q-40 0 -40 49z" />
    <glyph glyph-name="IJ" unicode="&#x132;" horiz-adv-x="619" 
d="M46 275q0 6 4 6q33 0 48.5 5t23 19t12.5 45l34 194q4 17 4 33q0 21 -13.5 28.5t-50.5 7.5q-4 0 -4 6t4 6l48 -1q40 -2 63 -2q27 0 67 2l43 1q5 0 5 -6t-5 -6q-32 0 -48.5 -6t-24 -20t-13.5 -45l-34 -192q-4 -26 -4 -33q0 -22 13.5 -29t50.5 -7q4 0 4 -6t-4 -6
q-28 0 -44 1l-66 1l-64 -1q-16 -1 -45 -1q-4 0 -4 6zM181 7q-43 20 -67 51.5t-24 65.5q0 24 12 39t33 15q25 0 31.5 -16t8.5 -51q2 -48 21.5 -77.5t81.5 -29.5q75 0 118.5 50.5t59.5 145.5l61 344q3 18 3 30q0 24 -15 31.5t-59 7.5q-3 0 -3 6t3 6l53 -1q42 -2 67 -2t61 2
l40 1q4 0 4 -6t-4 -6q-29 0 -43 -6t-21 -20.5t-12 -44.5l-49 -284q-23 -129 -93.5 -200t-168.5 -71q-56 0 -99 20z" />
    <glyph glyph-name="ij" unicode="&#x133;" horiz-adv-x="453" 
d="M128.5 521.5q-12.5 12.5 -12.5 34.5q0 21 12.5 33t34.5 12t34.5 -12t12.5 -33q0 -22 -12 -34.5t-35 -12.5q-22 0 -34.5 12.5zM327.5 521.5q-12.5 12.5 -12.5 34.5q0 21 12.5 33t34.5 12t34.5 -12t12.5 -33q0 -22 -12 -34.5t-35 -12.5q-22 0 -34.5 12.5zM408 392.5
q6 -1.5 6 -4.5q-1 -5 -3 -16t-5 -26l-7 -34l-70 -382q-18 -94 -74 -152.5t-136 -58.5q-47 0 -76 19t-29 47q0 7 1 10q3 20 14 29t24 9q14 0 20.5 -8.5t14.5 -27.5q9 -27 23.5 -42t47.5 -15q35 0 61.5 36t43.5 130l51 290q-36 -99 -84 -154t-101 -55q-67 0 -67 76q0 19 7 56
l36 178q3 15 3 25q0 30 -19 30q-10 0 -24.5 -11t-36.5 -32q-2 -2 -4 -2q-3 0 -5 3.5t1 6.5q35 40 61 59t52 19q39 0 39 -49q0 -19 -6 -49l-32 -159q-6 -30 -6 -51q0 -55 40 -55q32 0 66 41t64 120t49 186v1q1 6 10.5 10t24.5 4q19 0 25 -1.5z" />
    <glyph glyph-name="Jcircumflex" unicode="&#x134;" horiz-adv-x="292" 
d="M135 660q-3 0 -5 2.5t0 4.5l110 103q5 5 9 5q6 0 9 -5l77 -103l1 -2q0 -2 -3 -4t-5 -1l-88 51l-104 -51h-1zM-23 -193q-3 0 -5 4.5t1 6.5q45 27 71 81t42 141l89 504q3 18 3 31q0 23 -13 30.5t-48 7.5q-2 0 -2 6t2 6l43 -1q38 -2 61 -2q28 0 66 2l41 1q3 0 3 -6t-3 -6
q-31 0 -46 -6t-22.5 -20.5t-12.5 -44.5l-84 -475q-15 -78 -37 -126.5t-56.5 -79t-91.5 -54.5h-1z" />
    <glyph glyph-name="jcircumflex" unicode="&#x135;" horiz-adv-x="242" 
d="M240 478q0 -3 -5.5 -3.5t-6.5 2.5l-38 139l-90 -142q-1 -1 -3 -1q-3 0 -5.5 1.5t-1.5 3.5l109 249q3 5 11 5t8 -5zM-77 -261q-19 14 -16 34q3 16 13.5 24.5t24.5 8.5q17 0 23 -9t10 -27q4 -15 8 -21.5t13 -6.5q13 0 22.5 18t18.5 58.5t24 125.5l61 353q3 15 3 25
q0 31 -19 31q-24 0 -66 -44q-1 -1 -3 -1q-3 0 -5 3.5t0 5.5q35 41 63.5 59.5t55.5 18.5q20 0 29 -11.5t9 -36.5q0 -15 -5 -45l-58 -334q-16 -95 -35 -147t-46 -74t-70 -22q-36 0 -55 14z" />
    <glyph glyph-name="Kcommaaccent" unicode="&#x136;" horiz-adv-x="604" 
d="M634 619q0 -6 -3 -6q-37 0 -82.5 -20.5t-88.5 -60.5l-160 -143l97 -182q51 -94 77 -133.5t43.5 -50.5t44.5 -11q3 0 3 -6t-3 -6h-88q-41 0 -51.5 5t-36.5 60t-43 87l-100 186l-40 -35l-39 -222q-5 -30 -5 -41q0 -17 11.5 -22.5t44.5 -5.5q2 0 2 -6t-2 -6q-27 0 -41 1
l-60 1l-60 -1q-15 -1 -42 -1q-3 0 -3 6t3 6q31 0 46 5t23 19.5t13 44.5l82 463q4 26 4 32q0 22 -13 29.5t-48 7.5q-2 0 -2 6t2 6l43 -1q36 -2 59 -2t63 2l44 1q2 0 2 -6t-2 -6q-30 0 -45.5 -6t-23 -20.5t-13.5 -44.5l-38 -215l230 211q35 32 35 53q0 22 -44 22q-2 0 -2 6
t2 6l41 -1q40 -2 70 -2q28 0 60 2l31 1q3 0 3 -6zM316.5 -96.5q14.5 -16.5 14.5 -44.5q0 -77 -87 -134l-2 -1q-4 0 -6 4.5t1 6.5q49 33 55 74q2 12 2 16t-2 12q-7 -7 -23 -7q-23 0 -34.5 15t-9.5 35q2 18 15.5 29t35.5 11q26 0 40.5 -16.5z" />
    <glyph glyph-name="kcommaaccent" unicode="&#x137;" horiz-adv-x="415" 
d="M410 76q4 0 6 -3.5t0 -5.5q-67 -76 -106 -76q-24 0 -42 14.5t-40 52.5l-58 99q-9 16 -16.5 21t-20.5 4l-32 -173q-2 -8 -12 -12.5t-27 -4.5q-27 0 -27 7l4 20q9 43 11 55l100 536q2 9 2 23q0 28 -21 28q-16 0 -46 -15h-1q-4 0 -6 5t2 7l138 67h2q4 0 7 -3t2 -5l-73 -402
q37 39 82 61.5t89 22.5q32 0 45.5 -15t13.5 -34q0 -39 -45.5 -76.5t-124.5 -66.5l65 -112q20 -33 34 -44.5t30 -11.5q26 0 62 36q1 1 3 1zM191 322q-38 -43 -54 -115l-2 -9q86 20 124.5 47.5t45.5 72.5q1 4 1 11q0 17 -8 26.5t-22 9.5q-47 0 -85 -43zM193.5 -96.5
q14.5 -16.5 14.5 -44.5q0 -77 -87 -134l-2 -1q-4 0 -6 4.5t1 6.5q49 33 55 74q2 12 2 16t-2 12q-7 -7 -23 -7q-23 0 -34.5 15t-9.5 35q2 18 15.5 29t35.5 11q26 0 40.5 -16.5z" />
    <glyph glyph-name="kgreenlandic" unicode="&#x138;" horiz-adv-x="434" 
d="M430 76q4 0 6 -3.5t-1 -5.5q-66 -76 -105 -76q-24 0 -42 14.5t-41 52.5l-59 99q-9 16 -16 21.5t-20 3.5l-31 -173q-5 -17 -40 -17q-26 0 -26 7q0 4 7 37l8 38l41 223q3 15 3 25q0 31 -19 31q-24 0 -66 -44q-1 -1 -3 -1q-3 0 -5 3.5t0 5.5q34 40 63 59t56 19q20 0 29 -11
t9 -36q0 -13 -3 -33q37 39 82 61.5t89 22.5q32 0 45.5 -14.5t13.5 -33.5q0 -9 -1 -12q-6 -36 -50.5 -71t-118.5 -61l65 -112q20 -33 34 -44.5t30 -11.5q26 0 63 36q1 1 3 1zM210 322q-38 -43 -54 -115l-2 -9q85 20 124 47.5t46 72.5q1 5 1 13q0 16 -8 25t-21 9
q-48 0 -86 -43z" />
    <glyph glyph-name="Lacute" unicode="&#x139;" horiz-adv-x="499" 
d="M170 678q-4 0 -5 4.5t2 6.5q33 18 65.5 40t41.5 28l43 30q5 3 28 -4t40.5 -16t8.5 -11q-62 -15 -113.5 -33.5t-108.5 -43.5zM10 6q0 6 3 6q31 0 46 5t22.5 19.5t12.5 44.5l82 463q4 26 4 32q0 22 -13 29.5t-48 7.5q-2 0 -2 6t2 6l43 -1q36 -2 59 -2t63 2l44 1q2 0 2 -6
t-2 -6q-31 0 -46 -5.5t-22.5 -20t-13.5 -44.5l-81 -458q-3 -18 -3 -31q0 -21 11.5 -28t41.5 -7h77q61 0 104 35t74 104q1 3 6.5 2t4.5 -4q-20 -68 -33 -141q-2 -8 -5.5 -11.5t-10.5 -3.5h-419q-3 0 -3 6z" />
    <glyph glyph-name="lacute" unicode="&#x13a;" horiz-adv-x="240" 
d="M117 715q-4 0 -5 4.5t2 6.5q33 18 65.5 40t41.5 28l43 30q5 3 28 -4t40.5 -16t8.5 -11q-62 -15 -113.5 -33.5t-108.5 -43.5zM62 3q-10 12 -10 37q0 19 6 49l96 521q3 15 3 25q0 26 -20 26q-16 0 -46 -15h-1q-5 0 -6.5 5.5t2.5 6.5l138 67h2q4 0 7 -3t2 -5l-115 -628
q-3 -15 -3 -26q0 -29 18 -29q10 0 25 11t37 32q2 2 4 2q3 0 5 -3.5t-1 -6.5q-34 -40 -60.5 -59t-52.5 -19q-20 0 -30 12z" />
    <glyph glyph-name="Lcommaaccent" unicode="&#x13b;" horiz-adv-x="499" 
d="M476.5 160q5.5 -1 4.5 -4q-20 -68 -33 -141q-2 -8 -5.5 -11.5t-10.5 -3.5h-419q-3 0 -3 6t3 6q31 0 46 5t22.5 19.5t12.5 44.5l82 463q4 26 4 32q0 22 -13 29.5t-48 7.5q-2 0 -2 6t2 6l43 -1q36 -2 59 -2t63 2l44 1q2 0 2 -6t-2 -6q-31 0 -46 -5.5t-22.5 -20t-13.5 -44.5
l-81 -458q-3 -18 -3 -31q0 -21 11.5 -28t41.5 -7h77q61 0 104 35t74 104q1 3 6.5 2zM273.5 -96.5q14.5 -16.5 14.5 -44.5q0 -77 -87 -134l-2 -1q-4 0 -6 4.5t1 6.5q49 33 55 74q2 12 2 16t-2 12q-7 -7 -23 -7q-23 0 -34.5 15t-9.5 35q2 18 15.5 29t35.5 11q26 0 40.5 -16.5z
" />
    <glyph glyph-name="lcommaaccent" unicode="&#x13c;" horiz-adv-x="240" 
d="M120 89q-3 -15 -3 -26q0 -29 18 -29q10 0 25 11t37 32q2 2 4 2q3 0 5 -3.5t-1 -6.5q-34 -40 -60.5 -59t-52.5 -19q-20 0 -30 12t-10 37q0 19 6 49l96 521q3 15 3 25q0 26 -20 26q-16 0 -46 -15h-1q-5 0 -6.5 5.5t2.5 6.5l138 67h2q4 0 7 -3t2 -5zM114.5 -96.5
q14.5 -16.5 14.5 -44.5q0 -77 -87 -134l-2 -1q-4 0 -6 4.5t1 6.5q49 33 55 74q2 12 2 16t-2 12q-7 -7 -23 -7q-23 0 -34.5 15t-9.5 35q2 18 15.5 29t35.5 11q26 0 40.5 -16.5z" />
    <glyph glyph-name="Lcaron" unicode="&#x13d;" horiz-adv-x="499" 
d="M438 625q1 5 14 -2.5t24.5 -18t10.5 -15.5l-79 -236q-1 -2 -6 -2t-5 2zM10 6q0 6 3 6q31 0 46 5t22.5 19.5t12.5 44.5l82 463q4 26 4 32q0 22 -13 29.5t-48 7.5q-2 0 -2 6t2 6l43 -1q36 -2 59 -2t63 2l44 1q2 0 2 -6t-2 -6q-31 0 -46 -5.5t-22.5 -20t-13.5 -44.5
l-81 -458q-3 -18 -3 -31q0 -21 11.5 -28t41.5 -7h77q61 0 104 35t74 104q1 3 6.5 2t4.5 -4q-20 -68 -33 -141q-2 -8 -5.5 -11.5t-10.5 -3.5h-419q-3 0 -3 6z" />
    <glyph glyph-name="lcaron" unicode="&#x13e;" horiz-adv-x="240" 
d="M305 724q1 5 14 -2.5t24.5 -18t10.5 -15.5l-79 -236q-1 -2 -6 -2t-5 2zM62 3q-10 12 -10 37q0 19 6 49l96 521q3 15 3 25q0 26 -20 26q-16 0 -46 -15h-1q-5 0 -6.5 5.5t2.5 6.5l138 67h2q4 0 7 -3t2 -5l-115 -628q-3 -15 -3 -26q0 -29 18 -29q10 0 25 11t37 32q2 2 4 2
q3 0 5 -3.5t-1 -6.5q-34 -40 -60.5 -59t-52.5 -19q-20 0 -30 12z" />
    <glyph glyph-name="Ldot" unicode="&#x13f;" horiz-adv-x="499" 
d="M10 6q0 6 3 6q31 0 46 5t22.5 19.5t12.5 44.5l82 463q4 26 4 32q0 22 -13 29.5t-48 7.5q-2 0 -2 6t2 6l43 -1q36 -2 59 -2t63 2l44 1q2 0 2 -6t-2 -6q-31 0 -46 -5.5t-22.5 -20t-13.5 -44.5l-81 -458q-3 -18 -3 -31q0 -21 11.5 -28t41.5 -7h77q61 0 104 35t74 104
q1 3 6.5 2t4.5 -4q-20 -68 -33 -141q-2 -8 -5.5 -11.5t-10.5 -3.5h-419q-3 0 -3 6zM396.5 291q-12.5 13 -12.5 35q0 20 12.5 32t34.5 12t34 -11.5t12 -32.5q0 -23 -12 -35.5t-34 -12.5t-34.5 13z" />
    <glyph glyph-name="ldot" unicode="&#x140;" horiz-adv-x="240" 
d="M62 3q-10 12 -10 37q0 19 6 49l96 521q3 15 3 25q0 26 -20 26q-16 0 -46 -15h-1q-5 0 -6.5 5.5t2.5 6.5l138 67h2q4 0 7 -3t2 -5l-115 -628q-3 -15 -3 -26q0 -29 18 -29q10 0 25 11t37 32q2 2 4 2q3 0 5 -3.5t-1 -6.5q-34 -40 -60.5 -59t-52.5 -19q-20 0 -30 12zM226 322
q-12 12 -12 34q0 21 12 32.5t34 11.5q21 0 33 -11.5t12 -32.5q0 -22 -12 -34t-33 -12q-22 0 -34 12z" />
    <glyph glyph-name="Lslash" unicode="&#x141;" horiz-adv-x="499" 
d="M476.5 160q5.5 -1 4.5 -4q-20 -68 -33 -141q-2 -8 -5.5 -11.5t-10.5 -3.5h-419q-3 0 -3 6t3 6q31 0 46 5t22.5 19.5t12.5 44.5l34 190l-54 -31h-1q-4 0 -8 7.5t-1 8.5l68 39l44 249q4 26 4 32q0 22 -13 29.5t-48 7.5q-2 0 -2 6t2 6l43 -1q36 -2 59 -2t63 2l44 1q2 0 2 -6
t-2 -6q-31 0 -46 -5.5t-22.5 -20t-13.5 -44.5l-36 -203l73 42h1q4 0 8 -7.5t0 -8.5l-86 -50l-41 -231q-3 -18 -3 -31q0 -21 11.5 -28t41.5 -7h77q61 0 104 35t74 104q1 3 6.5 2z" />
    <glyph glyph-name="lslash" unicode="&#x142;" horiz-adv-x="252" 
d="M239 417q4 0 8.5 -8.5t1.5 -10.5l-75 -42l-49 -267q-3 -15 -3 -26q0 -29 18 -29q10 0 25 11t37 32q2 2 4 2q3 0 5 -3.5t-1 -6.5q-34 -40 -60.5 -59t-52.5 -19q-20 0 -30 12t-10 37q0 19 6 49l42 228l-56 -31h-1q-4 0 -9 8.5t-1 9.5l72 41l49 265q3 15 3 25q0 26 -20 26
q-16 0 -46 -15h-1q-5 0 -6.5 5.5t2.5 6.5l138 67h2q4 0 7 -3t2 -5l-61 -333l59 33h1z" />
    <glyph glyph-name="Nacute" unicode="&#x143;" 
d="M342 678q-4 0 -5 4.5t2 6.5q33 18 65.5 40t41.5 28l43 30q5 3 28 -4t40.5 -16t8.5 -11q-62 -15 -113.5 -33.5t-108.5 -43.5zM696 619q0 -6 -2 -6q-75 0 -91 -98l-94 -524q0 -2 -3 -3.5t-7 -1.5q-8 0 -9 4l-293 553l-75 -434q-4 -26 -4 -35q0 -62 59 -62q2 0 2 -6t-2 -6
q-22 0 -35 1l-49 1l-48 -1q-13 -1 -38 -1q-2 0 -2 6t2 6q75 0 91 97l82 462q-16 23 -32 32.5t-34 9.5q-3 0 -3 6t3 6l39 -1q12 -1 33 -1q19 0 32 1t19 1t9 -3.5t7 -15.5q7 -20 14 -33l241 -457l71 399q4 26 4 36q0 62 -59 62q-2 0 -2 6t2 6l34 -1q30 -2 51 -2q16 0 46 2
l39 1q2 0 2 -6z" />
    <glyph glyph-name="nacute" unicode="&#x144;" horiz-adv-x="468" 
d="M262.5 472q-5.5 2 -3.5 4l87 240q2 5 24.5 10t39.5 5q13 0 12 -4l-153 -254q-1 -3 -6.5 -1zM446 79q3 0 5 -3.5t0 -6.5q-34 -40 -61 -59t-53 -19q-20 0 -29 11.5t-9 37.5q0 17 5 49l29 159q6 30 6 52q0 54 -39 54q-32 0 -66 -41t-64 -119t-49 -185q-2 -8 -12 -12.5
t-27 -4.5q-27 0 -27 7l4 20q9 43 11 55l41 223q3 15 3 25q0 31 -19 31q-24 0 -66 -44q-1 -1 -3 -1q-3 0 -5 3.5t0 5.5q34 40 63 59t56 19q20 0 29 -11.5t9 -36.5q0 -15 -5 -45l-20 -110q36 98 84 152.5t101 54.5q33 0 49.5 -19t16.5 -58q0 -23 -6 -55l-33 -178
q-3 -15 -3 -25q0 -30 19 -30q10 0 25 11t37 32q2 2 3 2z" />
    <glyph glyph-name="Ncommaaccent" unicode="&#x145;" 
d="M696 619q0 -6 -2 -6q-75 0 -91 -98l-94 -524q0 -2 -3 -3.5t-7 -1.5q-8 0 -9 4l-293 553l-75 -434q-4 -26 -4 -35q0 -62 59 -62q2 0 2 -6t-2 -6q-22 0 -35 1l-49 1l-48 -1q-13 -1 -38 -1q-2 0 -2 6t2 6q75 0 91 97l82 462q-16 23 -32 32.5t-34 9.5q-3 0 -3 6t3 6l39 -1
q12 -1 33 -1q19 0 32 1t19 1t9 -3.5t7 -15.5q7 -20 14 -33l241 -457l71 399q4 26 4 36q0 62 -59 62q-2 0 -2 6t2 6l34 -1q30 -2 51 -2q16 0 46 2l39 1q2 0 2 -6zM332.5 -96.5q14.5 -16.5 14.5 -44.5q0 -77 -87 -134l-2 -1q-4 0 -6 4.5t1 6.5q49 33 55 74q2 12 2 16t-2 12
q-7 -7 -23 -7q-23 0 -34.5 15t-9.5 35q2 18 15.5 29t35.5 11q26 0 40.5 -16.5z" />
    <glyph glyph-name="ncommaaccent" unicode="&#x146;" horiz-adv-x="468" 
d="M446 79q3 0 5 -3.5t0 -6.5q-34 -40 -61 -59t-53 -19q-20 0 -29 11.5t-9 37.5q0 17 5 49l29 159q6 30 6 52q0 54 -39 54q-32 0 -66 -41t-64 -119t-49 -185q-2 -8 -12 -12.5t-27 -4.5q-27 0 -27 7l4 20q9 43 11 55l41 223q3 15 3 25q0 31 -19 31q-24 0 -66 -44q-1 -1 -3 -1
q-3 0 -5 3.5t0 5.5q34 40 63 59t56 19q20 0 29 -11.5t9 -36.5q0 -15 -5 -45l-20 -110q36 98 84 152.5t101 54.5q33 0 49.5 -19t16.5 -58q0 -23 -6 -55l-33 -178q-3 -15 -3 -25q0 -30 19 -30q10 0 25 11t37 32q2 2 3 2zM244.5 -96.5q14.5 -16.5 14.5 -44.5q0 -77 -87 -134
l-2 -1q-4 0 -6 4.5t1 6.5q49 33 55 74q2 12 2 16t-2 12q-7 -7 -23 -7q-23 0 -34.5 15t-9.5 35q2 18 15.5 29t35.5 11q26 0 40.5 -16.5z" />
    <glyph glyph-name="Ncaron" unicode="&#x147;" 
d="M315 779v1q0 2 3 4.5t4 1.5l88 -52l104 52h1q3 0 5.5 -3t-0.5 -4l-110 -104q-4 -4 -10 -4q-5 0 -8 4zM696 619q0 -6 -2 -6q-75 0 -91 -98l-94 -524q0 -2 -3 -3.5t-7 -1.5q-8 0 -9 4l-293 553l-75 -434q-4 -26 -4 -35q0 -62 59 -62q2 0 2 -6t-2 -6q-22 0 -35 1l-49 1
l-48 -1q-13 -1 -38 -1q-2 0 -2 6t2 6q75 0 91 97l82 462q-16 23 -32 32.5t-34 9.5q-3 0 -3 6t3 6l39 -1q12 -1 33 -1q19 0 32 1t19 1t9 -3.5t7 -15.5q7 -20 14 -33l241 -457l71 399q4 26 4 36q0 62 -59 62q-2 0 -2 6t2 6l34 -1q30 -2 51 -2q16 0 46 2l39 1q2 0 2 -6z" />
    <glyph glyph-name="ncaron" unicode="&#x148;" horiz-adv-x="468" 
d="M277 472q-3 0 -5.5 1.5t-2.5 3.5l-22 249q0 3 5.5 3.5t6.5 -2.5l38 -139l90 142q1 1 3 1q3 0 5.5 -1.5t1.5 -3.5l-109 -249q-2 -5 -11 -5zM446 79q3 0 5 -3.5t0 -6.5q-34 -40 -61 -59t-53 -19q-20 0 -29 11.5t-9 37.5q0 17 5 49l29 159q6 30 6 52q0 54 -39 54
q-32 0 -66 -41t-64 -119t-49 -185q-2 -8 -12 -12.5t-27 -4.5q-27 0 -27 7l4 20q9 43 11 55l41 223q3 15 3 25q0 31 -19 31q-24 0 -66 -44q-1 -1 -3 -1q-3 0 -5 3.5t0 5.5q34 40 63 59t56 19q20 0 29 -11.5t9 -36.5q0 -15 -5 -45l-20 -110q36 98 84 152.5t101 54.5
q33 0 49.5 -19t16.5 -58q0 -23 -6 -55l-33 -178q-3 -15 -3 -25q0 -30 19 -30q10 0 25 11t37 32q2 2 3 2z" />
    <glyph glyph-name="napostrophe" unicode="&#x149;" horiz-adv-x="468" 
d="M76 409q-3 0 -5 4t1 6q72 57 82 120q1 6 1 17q0 10 -2 14q-7 -9 -26 -9q-22 0 -33.5 15t-9.5 34t15 30t36 11q27 0 42.5 -18t15.5 -49q0 -14 -3 -29q-7 -38 -36.5 -75.5t-74.5 -69.5q-1 -1 -3 -1zM446 79q3 0 5 -3.5t0 -6.5q-34 -40 -61 -59t-53 -19q-20 0 -29 11.5
t-9 37.5q0 17 5 49l29 159q6 30 6 52q0 54 -39 54q-32 0 -66 -41t-64 -119t-49 -185q-2 -8 -12 -12.5t-27 -4.5q-27 0 -27 7l4 20q9 43 11 55l41 223q3 15 3 25q0 31 -19 31q-24 0 -66 -44q-1 -1 -3 -1q-3 0 -5 3.5t0 5.5q34 40 63 59t56 19q20 0 29 -11.5t9 -36.5
q0 -15 -5 -45l-20 -110q36 98 84 152.5t101 54.5q33 0 49.5 -19t16.5 -58q0 -23 -6 -55l-33 -178q-3 -15 -3 -25q0 -30 19 -30q10 0 25 11t37 32q2 2 3 2z" />
    <glyph glyph-name="Eng" unicode="&#x14a;" horiz-adv-x="650" 
d="M696 619q0 -6 -2 -6q-75 0 -91 -98l-94 -524v-1q-16 -90 -54 -135.5t-95 -45.5q-35 0 -58 17t-23 41q0 22 12 33.5t32 11.5q19 0 26.5 -10t11.5 -29q4 -18 10 -26.5t22 -8.5q32 0 56 38.5t38 118.5l-290 548l-75 -434q-4 -26 -4 -35q0 -62 59 -62q2 0 2 -6t-2 -6
q-22 0 -35 1l-49 1l-48 -1q-13 -1 -38 -1q-2 0 -2 6t2 6q75 0 91 97l82 462q-16 23 -32 32.5t-34 9.5q-3 0 -3 6t3 6l39 -1q12 -1 33 -1q19 0 32 1t19 1t9 -3.5t7 -15.5q7 -20 14 -33l241 -457l71 399q4 26 4 36q0 62 -59 62q-2 0 -2 6t2 6l34 -1q30 -2 51 -2q16 0 46 2
l39 1q2 0 2 -6z" />
    <glyph glyph-name="eng" unicode="&#x14b;" horiz-adv-x="439" 
d="M387.5 380q16.5 -19 16.5 -58q0 -23 -6 -55l-57 -299q-18 -95 -37 -146.5t-46 -74t-69 -22.5q-33 0 -51.5 12.5t-18.5 30.5t11.5 28t26.5 10q17 0 23 -9t10 -27q4 -15 8 -21.5t13 -6.5q13 0 22 17.5t16.5 53t26.5 131.5l57 304q6 30 6 52q0 54 -39 54q-32 0 -66 -41
t-64 -119t-49 -185q-2 -8 -12 -12.5t-27 -4.5q-27 0 -27 7l4 20q9 43 11 55l41 223q3 15 3 25q0 31 -19 31q-24 0 -66 -44q-1 -1 -3 -1q-3 0 -5 3.5t0 5.5q34 40 63 59t56 19q20 0 29 -11.5t9 -36.5q0 -15 -5 -45l-20 -110q36 98 84 152.5t101 54.5q33 0 49.5 -19z" />
    <glyph glyph-name="Omacron" unicode="&#x14c;" 
d="M299 732q0 16 7 16h234q4 0 6 -5t2 -11t-2 -11t-6 -5h-234q-7 0 -7 16zM162.5 20.5q-50.5 32.5 -76.5 89.5t-26 130q0 36 6 73q16 93 66.5 166.5t123 115t154.5 41.5q71 0 122.5 -32.5t78.5 -89t27 -128.5q0 -38 -7 -73q-17 -95 -69.5 -169.5t-126 -115t-152.5 -40.5
q-70 0 -120.5 32.5zM467.5 79q59.5 65 81.5 181q10 49 10 98q0 73 -22.5 130.5t-65.5 90.5t-101 33q-83 0 -142.5 -66t-80.5 -180q-9 -48 -9 -93q0 -73 22 -132t64.5 -93t101.5 -34q82 0 141.5 65z" />
    <glyph glyph-name="omacron" unicode="&#x14d;" horiz-adv-x="401" 
d="M129 493q0 16 7 16h234q4 0 6 -5t2 -11t-2 -11t-6 -5h-234q-7 0 -7 16zM59.5 28.5q-33.5 42.5 -33.5 110.5q0 22 5 54q11 59 42.5 106t76.5 73.5t95 26.5q64 0 98.5 -41.5t34.5 -109.5q0 -26 -6 -55q-13 -63 -46.5 -110t-78.5 -72t-92 -25q-62 0 -95.5 42.5zM259.5 48
q30.5 37 42.5 101q6 32 6 63q0 68 -24.5 115.5t-69.5 47.5q-38 0 -69 -37t-43 -102q-7 -38 -7 -67q0 -67 25.5 -112.5t69.5 -45.5q39 0 69.5 37z" />
    <glyph glyph-name="Obreve" unicode="&#x14e;" 
d="M344.5 691q-24.5 25 -24.5 64q0 6 17.5 11t32.5 5q11 0 11 -3q2 -28 19 -44t44 -16q44 0 71 56q2 3 6 3t7.5 -2t2.5 -4q-21 -46 -51.5 -70.5t-68.5 -24.5q-42 0 -66.5 25zM162.5 20.5q-50.5 32.5 -76.5 89.5t-26 130q0 36 6 73q16 93 66.5 166.5t123 115t154.5 41.5
q71 0 122.5 -32.5t78.5 -89t27 -128.5q0 -38 -7 -73q-17 -95 -69.5 -169.5t-126 -115t-152.5 -40.5q-70 0 -120.5 32.5zM467.5 79q59.5 65 81.5 181q10 49 10 98q0 73 -22.5 130.5t-65.5 90.5t-101 33q-83 0 -142.5 -66t-80.5 -180q-9 -48 -9 -93q0 -73 22 -132t64.5 -93
t101.5 -34q82 0 141.5 65z" />
    <glyph glyph-name="obreve" unicode="&#x14f;" horiz-adv-x="401" 
d="M172.5 500q-24.5 25 -24.5 64q0 6 17.5 11t32.5 5q11 0 11 -3q2 -28 19 -44t44 -16q44 0 71 56q2 3 6 3t7.5 -2t2.5 -4q-21 -46 -51.5 -70.5t-68.5 -24.5q-42 0 -66.5 25zM59.5 28.5q-33.5 42.5 -33.5 110.5q0 22 5 54q11 59 42.5 106t76.5 73.5t95 26.5q64 0 98.5 -41.5
t34.5 -109.5q0 -26 -6 -55q-13 -63 -46.5 -110t-78.5 -72t-92 -25q-62 0 -95.5 42.5zM259.5 48q30.5 37 42.5 101q6 32 6 63q0 68 -24.5 115.5t-69.5 47.5q-38 0 -69 -37t-43 -102q-7 -38 -7 -67q0 -67 25.5 -112.5t69.5 -45.5q39 0 69.5 37z" />
    <glyph glyph-name="Ohungarumlaut" unicode="&#x150;" 
d="M299 666q-3 0 -4 4.5t1 6.5l37 38q47 49 72 77q2 2 8 2q18 0 45.5 -10.5t17.5 -16.5q-59 -28 -98.5 -50.5t-76.5 -49.5zM427 666q-3 0 -4 4.5t1 6.5l44 46q43 44 64 69q3 4 25 -0.5t38.5 -12.5t8.5 -12q-102 -46 -175 -100zM162.5 20.5q-50.5 32.5 -76.5 89.5t-26 130
q0 36 6 73q16 93 66.5 166.5t123 115t154.5 41.5q71 0 122.5 -32.5t78.5 -89t27 -128.5q0 -38 -7 -73q-17 -95 -69.5 -169.5t-126 -115t-152.5 -40.5q-70 0 -120.5 32.5zM467.5 79q59.5 65 81.5 181q10 49 10 98q0 73 -22.5 130.5t-65.5 90.5t-101 33q-83 0 -142.5 -66
t-80.5 -180q-9 -48 -9 -93q0 -73 22 -132t64.5 -93t101.5 -34q82 0 141.5 65z" />
    <glyph glyph-name="ohungarumlaut" unicode="&#x151;" horiz-adv-x="401" 
d="M146 458q-4 0 -5 5t2 7q58 60 108 115q4 4 26 -1t38 -12.5t7 -11.5q-105 -51 -174 -101zM273 458q-3 0 -4 5t1 7q55 55 109 115q4 4 25.5 -1t38 -13t7.5 -11q-95 -42 -175 -101zM59.5 28.5q-33.5 42.5 -33.5 110.5q0 22 5 54q11 59 42.5 106t76.5 73.5t95 26.5
q64 0 98.5 -41.5t34.5 -109.5q0 -26 -6 -55q-13 -63 -46.5 -110t-78.5 -72t-92 -25q-62 0 -95.5 42.5zM259.5 48q30.5 37 42.5 101q6 32 6 63q0 68 -24.5 115.5t-69.5 47.5q-38 0 -69 -37t-43 -102q-7 -38 -7 -67q0 -67 25.5 -112.5t69.5 -45.5q39 0 69.5 37z" />
    <glyph glyph-name="OE" unicode="&#x152;" horiz-adv-x="807" 
d="M814 616l-20 -127q-1 -4 -7 -3t-5 4q2 55 -18.5 86.5t-64.5 31.5h-42q-31 0 -46 -5t-22 -18t-13 -42l-36 -206h105q42 0 62.5 16.5t27.5 55.5q0 3 6 3q2 0 4.5 -1.5t1.5 -3.5q-3 -18 -5.5 -30.5t-3.5 -21.5l-6 -30l-15 -96q-1 -4 -7 -3.5t-5 4.5q2 9 2 26q0 30 -17 44
t-52 14h-102l-40 -229q-4 -26 -4 -32q0 -21 13 -28t48 -7h60q43 0 76.5 35t61.5 99q1 3 6.5 2t4.5 -4q-18 -53 -31 -135q-2 -9 -5.5 -12t-11.5 -3h-263q-23 0 -69 -2q-40 -2 -55 -2q-82 0 -142.5 32t-93 89t-32.5 130q0 25 5 58q17 96 71.5 169t131.5 113t159 40q36 0 58 -1
l71 -1h253q8 0 6 -9zM501 531q4 24 4 32q0 25 -16.5 36t-55.5 11q-69 0 -127.5 -32.5t-99 -96.5t-55.5 -154q-7 -39 -7 -81q0 -105 47 -169.5t129 -64.5q36 0 55.5 4.5t31 19.5t16.5 46z" />
    <glyph glyph-name="oe" unicode="&#x153;" horiz-adv-x="610" 
d="M585.5 386.5q18.5 -12.5 18.5 -33.5q0 -47 -72 -86t-161 -54q-4 -24 -4 -53q0 -62 26.5 -98.5t77.5 -36.5q55 0 97 33h1q3 0 5.5 -3t0.5 -6q-71 -61 -149 -61q-46 0 -76 21t-44 58q-32 -39 -73.5 -60t-83.5 -21q-60 0 -92.5 42.5t-32.5 109.5q0 31 5 55q10 59 41 106
t76 73.5t95 26.5q46 0 76.5 -24t42.5 -66q34 41 78.5 65.5t94.5 24.5q34 0 52.5 -12.5zM251.5 48.5q30.5 37.5 41.5 100.5q6 32 6 64q0 68 -23.5 115t-66.5 47q-38 0 -68.5 -37.5t-41.5 -101.5q-6 -33 -6 -66q0 -67 24 -113t66 -46q38 0 68.5 37.5zM527 338q0 17 -11 25.5
t-30 8.5q-43 0 -71.5 -40.5t-40.5 -104.5q64 11 103.5 33.5t47.5 63.5q2 10 2 14z" />
    <glyph glyph-name="Racute" unicode="&#x154;" horiz-adv-x="620" 
d="M274 678q-4 0 -5 4.5t2 6.5q33 18 65.5 40t41.5 28l43 30q5 3 28 -4t40.5 -16t8.5 -11q-62 -15 -113.5 -33.5t-108.5 -43.5zM599 6q0 -6 -4 -6h-121q-24 0 -69 84.5t-100 240.5q-32 -8 -61 -8q-11 0 -25 2l-43 -238q-4 -19 -4 -33q0 -21 13.5 -28.5t49.5 -7.5q4 0 4 -6
t-3 -6q-29 0 -46 1l-63 1l-64 -1q-17 -1 -47 -1q-4 0 -4 6t4 6q33 0 50 5.5t25.5 19.5t14.5 44l81 463q4 17 4 33q0 21 -13.5 28.5t-50.5 7.5q-4 0 -4 6t4 6l46 -1q38 -2 62 -2q17 0 31.5 1t25.5 2q28 3 50 3q70 0 107 -25.5t37 -71.5q0 -54 -34.5 -103t-89.5 -79
q53 -129 91.5 -201t72 -104t69.5 -32q4 0 4 -6zM264 341q63 0 95.5 30t43.5 98q4 23 4 47q0 49 -22 72t-60 23q-25 0 -36 -3.5t-18 -17.5t-13 -48l-35 -197q26 -4 41 -4z" />
    <glyph glyph-name="racute" unicode="&#x155;" horiz-adv-x="345" 
d="M310.5 726q22.5 5 39.5 5q13 0 12 -4l-153 -254q-1 -3 -6.5 -1t-3.5 4l87 240q2 5 24.5 10zM332 380q19 -15 19 -35q0 -15 -10.5 -26.5t-26.5 -11.5q-11 0 -18 4.5t-15 13.5q-5 5 -10.5 9.5t-12.5 4.5q-20 0 -48.5 -56.5t-54 -135t-37.5 -138.5q-2 -8 -12 -12.5t-27 -4.5
q-26 0 -26 7q1 6 6.5 31t8.5 44l36 197q4 23 4 42q0 40 -22 40q-21 0 -59 -38q-1 -1 -3 -1q-3 0 -5 3.5t0 5.5q32 37 59 54.5t53 17.5q21 0 31 -13t10 -44q0 -24 -6 -62l-21 -117q32 103 70.5 169.5t76.5 66.5q21 0 40 -15z" />
    <glyph glyph-name="Rcommaaccent" unicode="&#x156;" horiz-adv-x="620" 
d="M599 6q0 -6 -4 -6h-121q-24 0 -69 84.5t-100 240.5q-32 -8 -61 -8q-11 0 -25 2l-43 -238q-4 -19 -4 -33q0 -21 13.5 -28.5t49.5 -7.5q4 0 4 -6t-3 -6q-29 0 -46 1l-63 1l-64 -1q-17 -1 -47 -1q-4 0 -4 6t4 6q33 0 50 5.5t25.5 19.5t14.5 44l81 463q4 17 4 33
q0 21 -13.5 28.5t-50.5 7.5q-4 0 -4 6t4 6l46 -1q38 -2 62 -2q17 0 31.5 1t25.5 2q28 3 50 3q70 0 107 -25.5t37 -71.5q0 -54 -34.5 -103t-89.5 -79q53 -129 91.5 -201t72 -104t69.5 -32q4 0 4 -6zM264 341q63 0 95.5 30t43.5 98q4 23 4 47q0 49 -22 72t-60 23
q-25 0 -36 -3.5t-18 -17.5t-13 -48l-35 -197q26 -4 41 -4zM339.5 -96.5q14.5 -16.5 14.5 -44.5q0 -77 -87 -134l-2 -1q-4 0 -6 4.5t1 6.5q49 33 55 74q2 12 2 16t-2 12q-7 -7 -23 -7q-23 0 -34.5 15t-9.5 35q2 18 15.5 29t35.5 11q26 0 40.5 -16.5z" />
    <glyph glyph-name="rcommaaccent" unicode="&#x157;" horiz-adv-x="345" 
d="M332 380q19 -15 19 -35q0 -15 -10.5 -26.5t-26.5 -11.5q-11 0 -18 4.5t-15 13.5q-5 5 -10.5 9.5t-12.5 4.5q-20 0 -48.5 -56.5t-54 -135t-37.5 -138.5q-2 -8 -12 -12.5t-27 -4.5q-26 0 -26 7q1 6 6.5 31t8.5 44l36 197q4 23 4 42q0 40 -22 40q-21 0 -59 -38q-1 -1 -3 -1
q-3 0 -5 3.5t0 5.5q32 37 59 54.5t53 17.5q21 0 31 -13t10 -44q0 -24 -6 -62l-21 -117q32 103 70.5 169.5t76.5 66.5q21 0 40 -15zM113.5 -96.5q14.5 -16.5 14.5 -44.5q0 -77 -87 -134l-2 -1q-4 0 -6 4.5t1 6.5q49 33 55 74q2 12 2 16t-2 12q-7 -7 -23 -7q-23 0 -34.5 15
t-9.5 35q2 18 15.5 29t35.5 11q26 0 40.5 -16.5z" />
    <glyph glyph-name="Rcaron" unicode="&#x158;" horiz-adv-x="620" 
d="M247 779v1q0 2 3 4.5t4 1.5l88 -52l104 52h1q3 0 5.5 -3t-0.5 -4l-110 -104q-4 -4 -10 -4q-5 0 -8 4zM599 6q0 -6 -4 -6h-121q-24 0 -69 84.5t-100 240.5q-32 -8 -61 -8q-11 0 -25 2l-43 -238q-4 -19 -4 -33q0 -21 13.5 -28.5t49.5 -7.5q4 0 4 -6t-3 -6q-29 0 -46 1
l-63 1l-64 -1q-17 -1 -47 -1q-4 0 -4 6t4 6q33 0 50 5.5t25.5 19.5t14.5 44l81 463q4 17 4 33q0 21 -13.5 28.5t-50.5 7.5q-4 0 -4 6t4 6l46 -1q38 -2 62 -2q17 0 31.5 1t25.5 2q28 3 50 3q70 0 107 -25.5t37 -71.5q0 -54 -34.5 -103t-89.5 -79q53 -129 91.5 -201t72 -104
t69.5 -32q4 0 4 -6zM264 341q63 0 95.5 30t43.5 98q4 23 4 47q0 49 -22 72t-60 23q-25 0 -36 -3.5t-18 -17.5t-13 -48l-35 -197q26 -4 41 -4z" />
    <glyph glyph-name="rcaron" unicode="&#x159;" horiz-adv-x="345" 
d="M217 472q-3 0 -5.5 1.5t-2.5 3.5l-22 249q0 3 5.5 3.5t6.5 -2.5l38 -139l90 142q1 1 3 1q3 0 5.5 -1.5t1.5 -3.5l-109 -249q-2 -5 -11 -5zM332 380q19 -15 19 -35q0 -15 -10.5 -26.5t-26.5 -11.5q-11 0 -18 4.5t-15 13.5q-5 5 -10.5 9.5t-12.5 4.5q-20 0 -48.5 -56.5
t-54 -135t-37.5 -138.5q-2 -8 -12 -12.5t-27 -4.5q-26 0 -26 7q1 6 6.5 31t8.5 44l36 197q4 23 4 42q0 40 -22 40q-21 0 -59 -38q-1 -1 -3 -1q-3 0 -5 3.5t0 5.5q32 37 59 54.5t53 17.5q21 0 31 -13t10 -44q0 -24 -6 -62l-21 -117q32 103 70.5 169.5t76.5 66.5q21 0 40 -15z
" />
    <glyph glyph-name="Sacute" unicode="&#x15a;" horiz-adv-x="465" 
d="M262 678q-4 0 -5 4.5t2 6.5q33 18 65.5 40t41.5 28l43 30q5 3 28 -4t40.5 -16t8.5 -11q-62 -15 -113.5 -33.5t-108.5 -43.5zM117 -4.5q-33 7.5 -69 26.5q-8 5 -6 19l20 135q0 5 5.5 5t6.5 -5q7 -77 41 -123t96 -46q47 0 82 28t44 84q3 15 3 28q0 48 -28.5 81.5
t-81.5 71.5q-37 27 -58.5 46t-36.5 45t-15 60q0 15 3 30q14 74 74.5 114.5t134.5 40.5q55 0 111 -24q13 -7 12 -17l-14 -117q0 -4 -5.5 -4t-5.5 4q-8 63 -36 102t-82 39q-40 0 -66 -20.5t-38.5 -50.5t-12.5 -59q0 -31 14.5 -55t34.5 -41.5t58 -44.5q58 -41 88 -76t30 -86
q0 -18 -2 -28q-13 -74 -74 -122t-158 -48q-36 0 -69 7.5z" />
    <glyph glyph-name="sacute" unicode="&#x15b;" horiz-adv-x="306" 
d="M183.5 472q-5.5 2 -3.5 4l87 240q2 5 24.5 10t39.5 5q13 0 12 -4l-153 -254q-1 -3 -6.5 -1zM36.5 6.5q-28.5 17.5 -28.5 41.5q0 18 10.5 28t25.5 10q11 0 18 -6.5t17 -22.5q11 -20 24 -31t36 -11q48 0 55 54q1 4 1 13q0 29 -16.5 50t-50.5 49q-33 27 -50 48t-17 50
q0 32 19.5 59t52 42.5t68.5 15.5q39 0 64 -15t22 -38q-3 -15 -13 -23.5t-22 -8.5q-15 0 -23 7t-17 21q-10 16 -20.5 24.5t-29.5 8.5t-31.5 -10t-14.5 -27q-1 -4 -1 -13q0 -27 16.5 -48t48.5 -48q35 -30 52.5 -52.5t17.5 -52.5t-19.5 -61t-53 -51t-74.5 -20q-38 0 -66.5 17.5
z" />
    <glyph glyph-name="Scircumflex" unicode="&#x15c;" horiz-adv-x="465" 
d="M225 660q-3 0 -5 2.5t0 4.5l110 103q5 5 9 5q6 0 9 -5l77 -103l1 -2q0 -2 -3 -4t-5 -1l-88 51l-104 -51h-1zM117 -4.5q-33 7.5 -69 26.5q-8 5 -6 19l20 135q0 5 5.5 5t6.5 -5q7 -77 41 -123t96 -46q47 0 82 28t44 84q3 15 3 28q0 48 -28.5 81.5t-81.5 71.5
q-37 27 -58.5 46t-36.5 45t-15 60q0 15 3 30q14 74 74.5 114.5t134.5 40.5q55 0 111 -24q13 -7 12 -17l-14 -117q0 -4 -5.5 -4t-5.5 4q-8 63 -36 102t-82 39q-40 0 -66 -20.5t-38.5 -50.5t-12.5 -59q0 -31 14.5 -55t34.5 -41.5t58 -44.5q58 -41 88 -76t30 -86q0 -18 -2 -28
q-13 -74 -74 -122t-158 -48q-36 0 -69 7.5z" />
    <glyph glyph-name="scircumflex" unicode="&#x15d;" horiz-adv-x="306" 
d="M270 478q0 -3 -5.5 -3.5t-6.5 2.5l-38 139l-90 -142q-1 -1 -3 -1q-3 0 -5.5 1.5t-1.5 3.5l109 249q3 5 11 5t8 -5zM36.5 6.5q-28.5 17.5 -28.5 41.5q0 18 10.5 28t25.5 10q11 0 18 -6.5t17 -22.5q11 -20 24 -31t36 -11q48 0 55 54q1 4 1 13q0 29 -16.5 50t-50.5 49
q-33 27 -50 48t-17 50q0 32 19.5 59t52 42.5t68.5 15.5q39 0 64 -15t22 -38q-3 -15 -13 -23.5t-22 -8.5q-15 0 -23 7t-17 21q-10 16 -20.5 24.5t-29.5 8.5t-31.5 -10t-14.5 -27q-1 -4 -1 -13q0 -27 16.5 -48t48.5 -48q35 -30 52.5 -52.5t17.5 -52.5t-19.5 -61t-53 -51
t-74.5 -20q-38 0 -66.5 17.5z" />
    </font>
</defs>
</svg>
