<?xml version="1.0" standalone="no"?>
<!DOCTYPE svg PUBLIC "-//W3C//DTD SVG 1.1//EN" "http://www.w3.org/Graphics/SVG/1.1/DTD/svg11.dtd" >
<svg xmlns="http://www.w3.org/2000/svg" xmlns:xlink="http://www.w3.org/1999/xlink" version="1.1">
<metadata>
Created by FontForge 20160405 at Mon Jan 21 16:24:54 2019
 By www-data
Copyright (c) 2008 by Stefan Gandl. All rights reserved.
</metadata>
<defs>
<font id="NBInternationalPro-LightIta" horiz-adv-x="516" >
  <font-face 
    font-family="NB International Light"
    font-weight="300"
    font-style="italic"
    font-stretch="normal"
    units-per-em="1000"
    panose-1="2 11 3 3 4 1 0 10 0 4"
    ascent="800"
    descent="-200"
    x-height="506"
    cap-height="704"
    bbox="-121.5 -208 1122.53 911"
    underline-thickness="85"
    underline-position="-217"
    unicode-range="U+0009-FB05"
  />
<missing-glyph 
d="M425 5q0 -5 -6 -5h-411q-4 0 -4 5l123 694q0 5 6 5h411q4 0 4 -5zM508 681h-346l119 -306zM392 24l-120 305l-226 -305h346zM409 48l107 608q-56 -75 -114 -152t-112 -152zM264 352l-120 305l-107 -610z" />
    <glyph glyph-name="fi" unicode="fi" horiz-adv-x="592" 
d="M181 506q4 0 6 5l11 66q11 58 47 92.5t111 34.5h55q4 0 4 -5l-9 -50q-2 -5 -6 -5h-54q-32 0 -52 -17.5t-26 -49.5l-11 -66q-2 -5 4 -5h115q4 0 4 -5l-9 -50q-2 -5 -6 -5h-115q-4 0 -6 -5l-77 -436q0 -5 -6 -5h-60q-4 0 -4 5l77 436q2 5 -4 5h-95q-6 0 -4 5l9 50q0 5 6 5
h95zM532 506q4 0 4 -5l-88 -496q0 -5 -6 -5h-60q-4 0 -4 5l88 496q0 5 6 5h60zM577 704q4 0 4 -5l-14 -80q-2 -5 -6 -5h-80q-6 0 -4 5l14 80q0 5 6 5h80z" />
    <glyph glyph-name="fl" unicode="fl" horiz-adv-x="572" 
d="M181 506q4 0 6 5l11 66q11 58 47 92.5t111 34.5h55q4 0 4 -5l-9 -50q-2 -5 -6 -5h-54q-32 0 -52 -17.5t-26 -49.5l-11 -66q-2 -5 4 -5h115q4 0 4 -5l-9 -50q-2 -5 -6 -5h-115q-4 0 -6 -5l-77 -436q0 -5 -6 -5h-60q-4 0 -4 5l77 436q2 5 -4 5h-95q-6 0 -4 5l9 50q0 5 6 5
h95zM557 704q4 0 4 -5l-123 -694q0 -5 -6 -5h-60q-4 0 -4 5l123 694q0 5 6 5h60z" />
    <glyph glyph-name=".notdef" 
d="M425 5q0 -5 -6 -5h-411q-4 0 -4 5l123 694q0 5 6 5h411q4 0 4 -5zM508 681h-346l119 -306zM392 24l-120 305l-226 -305h346zM409 48l107 608q-56 -75 -114 -152t-112 -152zM264 352l-120 305l-107 -610z" />
    <glyph glyph-name=".null" horiz-adv-x="30" 
 />
    <glyph glyph-name=".null" horiz-adv-x="30" 
 />
    <glyph glyph-name="nonmarkingreturn" unicode="&#xd;" horiz-adv-x="30" 
 />
    <glyph glyph-name="HT" unicode="&#x9;" horiz-adv-x="280" 
 />
    <glyph glyph-name="LF" unicode="&#xa;" horiz-adv-x="280" 
 />
    <glyph glyph-name="DLE" horiz-adv-x="280" 
 />
    <glyph glyph-name="DC1" horiz-adv-x="280" 
 />
    <glyph glyph-name="DC2" horiz-adv-x="280" 
 />
    <glyph glyph-name="DC3" horiz-adv-x="280" 
 />
    <glyph glyph-name="DC4" horiz-adv-x="280" 
 />
    <glyph glyph-name="RS" horiz-adv-x="30" 
 />
    <glyph glyph-name="US" horiz-adv-x="30" 
 />
    <glyph glyph-name="space" unicode=" " horiz-adv-x="266" 
 />
    <glyph glyph-name="exclam" unicode="!" horiz-adv-x="234" 
d="M85 208q-6 0 -4 5l42 293l34 193q0 5 6 5h64q4 0 4 -5l-34 -193l-62 -293q-2 -5 -6 -5h-44zM20 0q-4 0 -4 5l18 100q2 5 6 5h100q6 0 4 -5l-18 -100q0 -5 -6 -5h-100z" />
    <glyph glyph-name="quotedbl" unicode="&#x22;" horiz-adv-x="376" 
d="M105 446q-4 0 -4 5l11 120l23 128q2 5 6 5h60q6 0 4 -5l-23 -128l-31 -120q0 -5 -6 -5h-40zM255 446q-4 0 -4 5l11 120l23 128q2 5 6 5h60q6 0 4 -5l-23 -128l-31 -120q0 -5 -6 -5h-40z" />
    <glyph glyph-name="numbersign" unicode="#" horiz-adv-x="596" 
d="M208 402q3 6 -4 6h-136q-4 0 -4 5l11 59q0 5 6 5h154q5 0 6 4l87 220q1 3 6 3h55q3 0 4 -2.5t-1 -4.5l-84 -214q-2 -2 0 -4t4 -2h102q5 0 6 5l87 219q1 3 6 3h55q3 0 4 -2.5t-1 -4.5l-84 -214q-3 -6 4 -6h99q4 0 4 -5l-11 -59q0 -5 -6 -5h-117q-4 0 -6 -5l-46 -110
q-3 -6 4 -6h144q6 0 4 -5l-10 -59q-2 -5 -6 -5h-162q-3 0 -6 -4l-84 -211q-2 -3 -6 -3h-54q-3 0 -4 2.5t1 4.5l82 206q3 5 -3 5h-105q-3 0 -6 -5l-84 -210q-2 -3 -6 -3h-54q-3 0 -4 2.5t1 4.5l81 205q2 6 -4 6h-92q-6 0 -4 5l10 59q2 5 6 5h110q4 0 7 5zM281 408q-4 0 -6 -5
l-46 -109q-2 -7 4 -7h104q3 0 6 5l44 110q4 6 -3 6h-103z" />
    <glyph glyph-name="dollar" unicode="$" horiz-adv-x="625" 
d="M234 -12q2 5 -5 5q-50 6 -86.5 23.5t-59.5 44.5t-31.5 60.5t-1.5 71.5q0 5 5 5h60q5 0 5 -5q-4 -23 1.5 -45t20.5 -41t39.5 -32.5t57.5 -19.5q6 -1 8 4l48 271q0 5 -4 6q-38 6 -73 17.5t-60.5 32.5t-37 53.5t-3.5 80.5q7 42 30.5 75t56.5 57.5t72.5 39t80.5 19.5
q4 1 4.5 2l1.5 3l14 81q2 5 5 5h61q6 0 4 -5l-14 -81q-2 -5 5 -6q38 -6 71.5 -21t57 -39t34.5 -58.5t3 -80.5q-2 -5 -6 -5h-60q-6 0 -4 5q10 59 -20.5 93.5t-85.5 45.5q-6 1 -8 -5l-44 -251q-2 -6 6 -6q41 -5 79.5 -14.5t67 -31t42 -57t3.5 -92.5q-8 -42 -31 -77t-58 -61.5
t-79.5 -42.5t-95.5 -20q-4 0 -6 -5l-14 -82q-2 -5 -6 -5h-61q-5 0 -3 5zM504 193q6 37 -2.5 61t-28 39.5t-46.5 23t-57 11.5q-6 0 -6 -5l-48 -267q0 -6 8 -5q32 4 62 15t54.5 29t41 42.5t22.5 55.5zM187 520q-3 -20 -1.5 -38.5t13.5 -34.5t36.5 -29t65.5 -20q5 -2 7 5
l42 243q2 5 -4 5q-29 -5 -56 -16.5t-48.5 -28t-36 -38.5t-18.5 -48z" />
    <glyph glyph-name="percent" unicode="%" horiz-adv-x="847" 
d="M686 702q2 2 5 2h44q8 0 2 -8l-548 -694q-2 -2 -5 -2h-42q-8 0 -2 8zM766 188q-8 -43 -22 -79.5t-35.5 -62.5t-52 -41t-72.5 -15t-68 15t-38.5 41t-13.5 62.5t7 79.5q7 43 21 80t36 63.5t53 41.5t73 15t67.5 -15t38 -41.5t13 -63.5t-6.5 -80zM714 188q13 75 -2 112.5
t-67 37.5q-53 0 -81 -37.5t-41 -112.5q-13 -72 2 -110t68 -38q52 0 80 38t41 110zM407 514q-8 -43 -21.5 -79.5t-35.5 -62.5t-52.5 -41t-72.5 -15t-67.5 15t-38.5 41t-14 62.5t7 79.5t22 80t35.5 63.5t52.5 41.5t73 15t67.5 -15t38 -41.5t13.5 -63.5t-7 -80zM355 514
q14 75 -1 112.5t-67 37.5q-53 0 -81 -37.5t-42 -112.5q-13 -72 2 -110t68 -38q52 0 80 38t41 110z" />
    <glyph glyph-name="ampersand" unicode="&#x26;" horiz-adv-x="688" 
d="M604 254q-6 -34 -19 -67.5t-36 -60.5q-4 -5 -3 -7t3 -4q1 -2 6.5 -9t14 -15t18 -14.5t20.5 -6.5l-13 -70q-28 2 -52 19.5t-45 42.5q-2 2 -3.5 3t-5.5 -2q-45 -32 -105.5 -52.5t-126.5 -20.5q-56 0 -97.5 17.5t-67.5 47.5t-35.5 70t-1.5 85q7 40 26 73t44 58.5t52 44
t51 30.5q4 2 4.5 4.5t-1.5 4.5q-32 42 -45.5 76.5t-7.5 69.5q5 30 20.5 56t40 45.5t58.5 30.5t77 11q40 0 69 -12.5t47 -33t24 -46t2 -51.5q-6 -37 -25.5 -64.5t-44.5 -47.5t-52.5 -34.5t-51.5 -24.5q-8 -4 -4 -8l160 -219q2 -3 5 0q7 7 12.5 20t9.5 25.5t6.5 22.5t2.5 13
l15 82q0 5 6 5h60q4 0 4 -5zM278 53q19 0 41.5 3.5t45 10.5t44.5 18.5t40 26.5q6 4 3 10l-180 241q-2 2 -3.5 3t-6.5 -1q-20 -9 -41.5 -22.5t-41 -32.5t-34 -44t-20.5 -56q-6 -37 2 -66t28 -49.5t51.5 -31t71.5 -10.5zM364 654q-18 0 -37 -4.5t-35 -14t-28 -25.5t-16 -39
q-5 -25 7.5 -54t44.5 -67q2 -2 8 -1l44 17q35 15 61 39.5t33 65.5q4 21 -2 36.5t-18 26t-28.5 15.5t-33.5 5zM608 70q4 0 4 -5l-11 -60q0 -5 -6 -5z" />
    <glyph glyph-name="quotesingle" unicode="'" horiz-adv-x="226" 
d="M105 446q-4 0 -4 5l11 120l23 128q2 5 6 5h60q6 0 4 -5l-23 -128l-31 -120q0 -5 -6 -5h-40z" />
    <glyph glyph-name="parenleft" unicode="(" horiz-adv-x="250" 
d="M107 253q-21 -121 -7.5 -234t59.5 -212q3 -5 -4 -5h-60q-5 0 -6 5q-19 41 -33.5 93t-22.5 110.5t-7.5 120.5t11.5 122q10 60 31.5 122t50 120.5t61.5 110.5t66 93q4 5 8 5h60q7 0 2 -5q-81 -99 -134.5 -212t-74.5 -234z" />
    <glyph glyph-name="parenright" unicode=")" horiz-adv-x="250" 
d="M169 253q21 121 7 234t-60 212q-2 5 4 5h60q5 0 6 -5q19 -41 33.5 -93t22.5 -110.5t7.5 -120.5t-10.5 -122q-11 -60 -32.5 -122t-50 -120.5t-61.5 -110.5t-66 -93q-4 -5 -8 -5h-59q-5 0 -2 5q80 99 134 212t75 234z" />
    <glyph glyph-name="asterisk" unicode="*" horiz-adv-x="422" 
d="M266 573q-1 -2 1 -4t4 -1l71 30l53 16q4 1 6 -3l6 -38q2 -5 -5 -7l-53 -16l-75 -16q-10 -2 -4 -10l39 -52l24 -43q0 -5 -2 -6l-38 -24q-2 -2 -4 -1.5t-2 2.5l-24 43l-23 57q-3 7 -10 0l-43 -57l-38 -43q-2 -2 -4 -2.5t-4 1.5l-28 24q-4 2 0 6l38 43l57 52q5 5 3 7.5
t-5 3.5l-67 15l-47 16q-5 2 -3 7l20 38q1 4 6 3l47 -16l60 -30q3 -2 5.5 0t2.5 5l6 73l9 53q2 5 6 5h40q6 0 4 -5l-9 -53z" />
    <glyph glyph-name="plus" unicode="+" horiz-adv-x="622" 
d="M304 5q0 -5 -6 -5h-60q-4 0 -4 5l37 208q0 5 -4 5h-203q-6 0 -4 5l10 60q2 5 6 5h203q4 0 6 5l37 208q0 5 5 5h60q5 0 5 -5l-37 -208q-2 -5 4 -5h213q6 0 4 -5l-10 -60q-2 -5 -6 -5h-213q-6 0 -6 -5z" />
    <glyph glyph-name="comma" unicode="," horiz-adv-x="246" 
d="M58 0q-5 0 -5 5l18 100q2 5 6 5h100q6 0 4 -5l-18 -104q-10 -54 -39.5 -82.5t-85.5 -28.5q-6 0 -4 5l7 40q2 5 6 5q44 0 55 55q0 5 -4 5h-40z" />
    <glyph glyph-name="hyphen" unicode="-" horiz-adv-x="400" 
d="M64 218q-6 0 -4 5l10 60q2 5 6 5h274q6 0 4 -5l-10 -60q-2 -5 -6 -5h-274z" />
    <glyph glyph-name="period" unicode="." horiz-adv-x="246" 
d="M53 0q-6 0 -4 5l17 100q2 5 6 5h100q6 0 4 -5l-17 -100q-2 -5 -6 -5h-100z" />
    <glyph glyph-name="slash" unicode="/" horiz-adv-x="381" 
d="M67 3q-2 -3 -6 -3h-63q-3 0 -4 2.5t1 4.5l357 694q1 3 6 3h57q3 0 4 -2.5t-1 -4.5z" />
    <glyph glyph-name="zero" unicode="0" horiz-adv-x="640" 
d="M623 351q-14 -78 -38.5 -144.5t-64.5 -114.5t-96 -75t-132 -27t-123 27t-70 75t-25 114.5t12 144.5q14 79 39 145.5t65 115t96.5 75.5t132.5 27t122.5 -27t69.5 -75.5t24.5 -115t-12.5 -145.5zM548 351q13 75 13 131.5t-16.5 94.5t-49.5 57.5t-86 19.5t-93.5 -19.5
t-70.5 -57.5t-50.5 -94.5t-33.5 -131.5q-13 -74 -12.5 -130t17 -94t50 -57.5t86.5 -19.5q106 0 163 76.5t83 224.5z" />
    <glyph glyph-name="one" unicode="1" horiz-adv-x="389" 
d="M92 561q2 5 6 5h127q29 0 52.5 20t28.5 49l11 60l1 4q0 5 6 5h60q4 0 4 -5l-123 -694q0 -5 -6 -5h-60q-4 0 -4 5l83 466q2 14 -6.5 24.5t-22.5 10.5h-161q-6 0 -4 5z" />
    <glyph glyph-name="two" unicode="2" horiz-adv-x="559" 
d="M112 511q9 51 33.5 89.5t59 63.5t76.5 37.5t87 12.5q54 0 93 -15.5t63 -42.5t32.5 -64t1.5 -80q-6 -36 -22.5 -66.5t-38 -56t-45 -46t-43.5 -36.5l-294 -238q-4 -3 -2.5 -6t4.5 -3h357q4 0 4 -5l-9 -50q-2 -5 -6 -5h-457q-6 0 -4 5l10 55q0 3 6 7l346 284q12 10 31.5 27
t38.5 38t34.5 45.5t19.5 50.5q4 23 -0.5 48t-20 46t-42.5 34.5t-68 13.5q-30 0 -58.5 -10t-52.5 -28.5t-41 -45t-23 -59.5q0 -5 -6 -5h-60q-4 0 -4 5z" />
    <glyph glyph-name="three" unicode="3" horiz-adv-x="575" 
d="M112 511q9 52 32.5 90.5t57.5 63.5t76 37t88 12q49 0 87 -15.5t62.5 -42t34.5 -62.5t3 -77q-7 -38 -26 -66t-41 -46.5t-41 -28t-25 -10.5q-4 -1 -5 -4.5t3 -5.5q12 -4 30.5 -16.5t34.5 -34t25.5 -51t2.5 -68.5q-8 -45 -32 -81.5t-60 -62t-82 -39t-98 -13.5h-1
q-54 0 -93 14.5t-63 41.5t-32 64.5t0 82.5q2 5 6 5h60q6 0 4 -5q-11 -62 21.5 -102.5t106.5 -40.5h1q37 0 70 9.5t58 27t41.5 42.5t22.5 57q6 33 -2 59.5t-27.5 44.5t-48.5 28t-65 10h-47q-4 0 -4 5l9 50q2 5 6 5h47q68 0 116.5 35t59.5 94q4 27 -2.5 51.5t-23 43.5
t-43 30.5t-60.5 11.5q-31 0 -60 -9t-52 -26.5t-39.5 -44.5t-22.5 -63q-2 -5 -6 -5h-60q-6 0 -4 5z" />
    <glyph glyph-name="four" unicode="4" horiz-adv-x="585" 
d="M41 225q2 7 5 10l377 464q3 5 9 5h70q4 0 4 -5l-82 -464q-2 -5 4 -5h118q6 0 4 -5l-9 -50q0 -5 -6 -5h-118q-5 0 -5 -5l-29 -160q0 -5 -6 -5h-60q-4 0 -4 5l29 160q0 5 -5 5h-301q-4 0 -4 5zM124 236q-4 -6 2 -6h222q4 0 6 5l61 345q1 5 -3 6t-7 -4z" />
    <glyph glyph-name="five" unicode="5" horiz-adv-x="594" 
d="M269 644q-2 0 -4.5 -0.5t-4.5 -5.5q-5 -17 -15 -50.5t-21 -66.5q-12 -40 -26 -83q-2 -5 2 -5.5t6 1.5q19 21 63.5 38t105.5 17q51 0 90.5 -18t65 -51t35 -78.5t-0.5 -100.5q-10 -59 -36 -105.5t-64 -78.5t-86 -49.5t-102 -17.5q-66 0 -108.5 21t-65.5 52t-30 66t-2 64
q0 5 6 5h60q4 0 4 -5q-4 -21 1 -45.5t21.5 -46.5t47 -36.5t77.5 -14.5q38 0 72.5 13t61.5 37.5t46 60t27 80.5q7 41 0.5 75.5t-25 59.5t-48 39t-67.5 14q-54 0 -98 -18.5t-79 -59.5q-5 -5 -9 -5h-57q-6 0 -4 5l106 348q2 5 9 5h366q6 0 4 -5l-9 -50q0 -5 -6 -5h-309z" />
    <glyph glyph-name="six" unicode="6" horiz-adv-x="603" 
d="M271 474q-1 -2 1 -4.5t7 -0.5q14 6 38 13t55 7q51 0 91 -18.5t65.5 -51.5t35.5 -79.5t0 -101.5q-10 -54 -35 -99.5t-62.5 -78.5t-87 -51.5t-108.5 -18.5t-101.5 18.5t-68.5 51.5t-34.5 78.5t1.5 99.5q7 41 24.5 78.5t39.5 68.5l223 314q4 5 9 5h58q7 0 3 -6zM494 238
q15 86 -21 138.5t-124 52.5t-142 -52t-69 -139t20.5 -137.5t123.5 -50.5q89 0 143 50.5t69 137.5z" />
    <glyph glyph-name="seven" unicode="7" horiz-adv-x="527" 
d="M568 657q-1 -8 -2.5 -11l-3.5 -7l-355 -634q-2 -5 -7 -5h-65q-5 0 -3 5l353 634q3 5 -3 5h-362q-6 0 -4 5l9 50q0 5 6 5h441q4 0 4 -5z" />
    <glyph glyph-name="eight" unicode="8" horiz-adv-x="606" 
d="M273 -10q-52 0 -93 13.5t-68.5 39t-39 62t-3.5 81.5q7 42 27 72.5t43.5 51t46.5 31.5t36 15q5 2 5.5 5.5t-3.5 4.5q-9 2 -25 11.5t-30.5 27.5t-22.5 46t-1 66q7 41 29.5 77t56 62.5t77 42t92.5 15.5t87 -15.5t62.5 -42t34.5 -62.5t3 -77q-7 -38 -26 -66t-41 -46.5
t-41 -28t-25 -10.5q-4 -1 -5 -4.5t3 -5.5q12 -4 30.5 -16.5t34.5 -34t25.5 -51t2.5 -68.5q-8 -45 -32 -81.5t-60 -62t-82 -39t-98 -13.5zM283 50q37 0 70 9.5t58 27t41.5 42.5t22.5 57q6 33 -2 59.5t-27.5 44.5t-48.5 28t-65 10t-68 -10t-58 -28t-43.5 -44.5t-23.5 -59.5
q-11 -64 29 -100t115 -36zM213 517q-5 -29 2 -53t24 -41t43.5 -26t60.5 -9q68 0 116.5 35t59.5 94q4 27 -2.5 51.5t-23 43.5t-43 30.5t-60.5 11.5q-35 0 -65 -11.5t-53.5 -30.5t-39 -43.5t-19.5 -51.5z" />
    <glyph glyph-name="nine" unicode="9" horiz-adv-x="603" 
d="M400 230q1 2 -1 4.5t-7 0.5q-14 -6 -38 -13t-55 -7q-51 0 -91 18.5t-65.5 51.5t-35.5 79t0 102q10 54 35 99.5t62.5 78.5t87 51.5t108.5 18.5q58 0 101 -18.5t69 -51.5t34.5 -78.5t-1.5 -99.5q-7 -41 -24 -78.5t-40 -68.5l-223 -314q-4 -5 -9 -5h-58q-2 0 -3.5 1.5
t0.5 4.5zM177 466q-15 -87 21 -139t125 -52q88 0 141.5 52t68.5 139t-20.5 137.5t-123.5 50.5q-89 0 -143 -50.5t-69 -137.5z" />
    <glyph glyph-name="colon" unicode=":" horiz-adv-x="246" 
d="M35 0q-4 0 -4 5l18 100q0 5 6 5h100q4 0 4 -5l-18 -100q0 -5 -6 -5h-100zM105 396q-6 0 -4 5l18 100q0 5 5 5h100q5 0 5 -5l-18 -100q-2 -5 -6 -5h-100z" />
    <glyph glyph-name="semicolon" unicode=";" horiz-adv-x="266" 
d="M104 396q-6 0 -4 5l17 100q2 5 6 5h100q6 0 4 -5l-17 -100q-2 -5 -6 -5h-100zM36 0q-6 0 -4 5l18 100q0 5 5 5h100q5 0 5 -5l-19 -104q-9 -54 -38.5 -82.5t-85.5 -28.5q-6 0 -4 5l7 40q0 5 5 5q46 0 55 55q2 5 -4 5h-40z" />
    <glyph glyph-name="less" unicode="&#x3c;" horiz-adv-x="526" 
d="M117 258q-4 -2 -4.5 -5t2.5 -5l350 -173q6 -2 4 -7l-11 -63q0 -6 -6 -4l-410 201q-5 2 -4 6l16 90q0 4 6 6l481 201q5 2 5 -4l-12 -63q0 -5 -6 -7z" />
    <glyph glyph-name="equal" unicode="=" horiz-adv-x="550" 
d="M74 331q-5 0 -5 5l11 60q2 5 6 5h444q6 0 4 -5l-11 -60q0 -5 -5 -5h-444zM34 106q-6 0 -4 5l10 60q2 5 6 5h444q6 0 4 -5l-10 -60q-2 -5 -6 -5h-444z" />
    <glyph glyph-name="greater" unicode="&#x3e;" horiz-adv-x="526" 
d="M82 431q-4 1 -4 7l12 63q0 6 5 4l411 -201q4 -1 4 -6l-16 -90q-2 -5 -6 -6l-482 -201q-4 -1 -4 4l11 63q2 6 6 7l412 173q3 2 3.5 5t-1.5 5z" />
    <glyph glyph-name="question" unicode="?" horiz-adv-x="526" 
d="M93 511q7 42 29 79t55.5 64.5t77 43.5t93.5 16q112 0 162.5 -55t33.5 -147q-8 -47 -27.5 -76t-46.5 -49t-60 -36.5t-70 -38.5q-14 -7 -22.5 -15.5t-11.5 -24.5l-10 -59q-2 -5 -6 -5h-60q-6 0 -4 5l12 70q5 29 27 48.5t57 39.5q46 25 74.5 42.5t44.5 32.5t23 30.5t10 35.5
q5 29 -0.5 55t-22 45.5t-45 30.5t-69.5 11q-36 0 -66 -13t-52.5 -33t-37 -46t-18.5 -51q0 -5 -6 -5h-60q-4 0 -4 5zM172 0q-6 0 -4 5l18 100q0 5 5 5h100q5 0 5 -5l-18 -100q-2 -5 -6 -5h-100z" />
    <glyph glyph-name="at" unicode="@" horiz-adv-x="1001" 
d="M686 -138q-25 -12 -60 -24t-76.5 -22.5t-86.5 -17t-90 -6.5q-117 0 -196 37t-120.5 100t-46 147.5t25.5 179.5q36 109 103.5 194.5t154 144t184.5 89t196 30.5q97 0 172.5 -30t118.5 -88t48.5 -143.5t-36.5 -196.5q-32 -87 -69.5 -139t-74 -80.5t-70 -37.5t-58.5 -9
q-23 0 -37.5 7t-23.5 18t-13 24.5t-5 27.5q0 4 -3 4t-6 -2q-35 -30 -85.5 -54.5t-107.5 -24.5q-65 0 -104.5 21.5t-56.5 58.5t-14.5 84.5t20.5 100.5q25 67 62.5 116t80.5 81.5t89.5 48.5t91.5 16q32 0 56 -5t40.5 -14t27.5 -21t18 -25q1 -2 3.5 -2t4.5 2l31 49q3 5 8 5h48
q5 0 5 -5l-130 -335q-23 -61 -20 -88.5t41 -27.5q18 0 40 10.5t46 34.5t48.5 63.5t46.5 97.5q37 98 36.5 173t-35 125.5t-100.5 76t-160 25.5q-90 0 -174 -29t-155 -81.5t-126 -126.5t-87 -163q-30 -87 -27 -161t38 -128t101.5 -84.5t164.5 -30.5q87 0 172 20.5t155 52.5
q3 2 4.5 0t-0.5 -4l-21 -51q-2 -5 -7 -8zM339 255q-16 -40 -20 -77t6.5 -65.5t37.5 -45.5t72 -17q76 0 135.5 51.5t99.5 154.5q22 56 25.5 94.5t-9 62t-39.5 34t-64 10.5q-40 0 -77 -16t-69 -44t-57 -64.5t-41 -77.5z" />
    <glyph glyph-name="A" unicode="A" horiz-adv-x="682" 
d="M483 158q0 5 -6 5h-308q-5 0 -8 -5l-77 -153q-2 -5 -8 -5h-64q-5 0 -3 5l353 694q2 5 7 5h100q3 0 5 -5l107 -694q2 -5 -5 -5h-64q-4 0 -6 5zM197 228q-3 -5 3 -5h269q4 0 4 5l-61 412q-1 4 -4.5 4t-5.5 -4z" />
    <glyph glyph-name="B" unicode="B" horiz-adv-x="693" 
d="M50 0q-4 0 -4 5l123 694q0 5 6 5h335q39 0 68.5 -15.5t48.5 -41.5t26 -61.5t0 -74.5q-6 -31 -20 -55t-31 -41.5t-34.5 -28.5t-29.5 -16q-5 -2 -6 -5t4 -5q14 -5 30 -20t28.5 -37t18.5 -50t0 -60q-8 -43 -29 -78.5t-52.5 -61t-70.5 -39.5t-82 -14h-329zM179 332
q-4 0 -6 -5l-46 -262q-2 -5 4 -5h245q32 0 60.5 11t50.5 29t36.5 42t19.5 51q5 26 -1.5 51t-21.5 44.5t-38 31.5t-51 12h-252zM583 511q4 27 0.5 51t-16.5 42t-35 29t-53 11h-245q-4 0 -6 -5l-43 -242q0 -5 5 -5h245q23 1 47 10t45 24.5t36 37t20 47.5z" />
    <glyph glyph-name="C" unicode="C" horiz-adv-x="698" 
d="M573 193q3 5 8 5h59q6 0 4 -5q-5 -20 -27.5 -54t-62 -67t-94.5 -57.5t-125 -24.5q-75 0 -128.5 26.5t-85.5 74.5t-41 114.5t5 146.5q14 79 46.5 145.5t81 114.5t111.5 75t138 27q70 0 117 -24.5t74.5 -57.5t38.5 -67t9 -54q-2 -5 -6 -5h-59q-6 0 -6 5q-3 16 -13 40
t-30.5 47t-53.5 39.5t-81 16.5q-118 0 -193.5 -79.5t-100.5 -222.5q-26 -143 21.5 -222.5t165.5 -79.5q48 0 87 16.5t67.5 39.5t47 47t26.5 40z" />
    <glyph glyph-name="D" unicode="D" horiz-adv-x="703" 
d="M48 0q-4 0 -4 5l123 694q0 5 6 5h254q78 0 131.5 -27t84 -74.5t38 -113t-6.5 -144.5q-14 -80 -44.5 -143.5t-77 -108.5t-109.5 -69t-141 -24h-254zM232 644q-4 0 -6 -5l-101 -574q-2 -5 4 -5h184q112 0 186.5 71.5t99.5 213.5q12 69 6 124.5t-29.5 94t-63.5 59.5t-96 21
h-184z" />
    <glyph glyph-name="E" unicode="E" horiz-adv-x="627" 
d="M50 0q-4 0 -4 5l123 694q0 5 6 5h470q4 0 4 -5l-9 -50q-2 -5 -6 -5h-400q-4 0 -6 -5l-43 -242q0 -5 5 -5h357q4 0 4 -5l-9 -50q-2 -5 -6 -5h-357q-4 0 -6 -5l-46 -262q-2 -5 4 -5h400q6 0 4 -5l-9 -50q0 -5 -6 -5h-470z" />
    <glyph glyph-name="F" unicode="F" horiz-adv-x="564" 
d="M50 0q-4 0 -4 5l123 694q0 5 6 5h434q4 0 4 -5l-9 -50q-2 -5 -6 -5h-364q-4 0 -6 -5l-43 -242q0 -5 5 -5h321q4 0 4 -5l-9 -50q-2 -5 -6 -5h-321q-4 0 -6 -5l-57 -322q0 -5 -6 -5h-60z" />
    <glyph glyph-name="G" unicode="G" horiz-adv-x="764" 
d="M615 317q2 5 -4 5h-224q-4 0 -4 5l9 50q0 5 6 5h294q4 0 4 -5l-66 -372q0 -5 -6 -5h-49q-4 0 -5 5l5 85q0 5 -3 5t-5 -3q-15 -17 -41 -35t-58.5 -33t-69.5 -24.5t-74 -9.5q-79 0 -133.5 26.5t-85 74.5t-38.5 114.5t6 146.5q14 79 46.5 145.5t81.5 114.5t112 75t138 27
q65 0 111 -17.5t76 -46t44.5 -65t16.5 -74.5q0 -5 -5 -5h-57q-6 0 -7 5q-14 78 -64 110.5t-125 32.5q-118 0 -193 -79.5t-100 -222.5q-26 -143 21 -222.5t165 -79.5q61 0 108.5 20t82 53t55.5 74.5t29 84.5z" />
    <glyph glyph-name="H" unicode="H" horiz-adv-x="685" 
d="M485 0q-4 0 -4 5l57 322q2 5 -4 5h-359q-4 0 -6 -5l-57 -322q0 -5 -6 -5h-60q-4 0 -4 5l123 694q0 5 6 5h60q4 0 4 -5l-54 -302q0 -5 5 -5h359q5 0 5 5l54 302q0 5 6 5h60q4 0 4 -5l-123 -694q0 -5 -6 -5h-60z" />
    <glyph glyph-name="I" unicode="I" horiz-adv-x="246" 
d="M231 704q4 0 4 -5l-123 -694q0 -5 -6 -5h-60q-4 0 -4 5l123 694q0 5 6 5h60z" />
    <glyph glyph-name="J" unicode="J" horiz-adv-x="477" 
d="M86 193q-5 -26 -6 -51.5t8 -45.5t30.5 -33t63.5 -13t69 12.5t43.5 33t24 45.5t12.5 50l89 508q2 5 6 5h60q6 0 4 -5l-89 -508q-8 -42 -21.5 -78.5t-39.5 -64t-67 -43t-102 -15.5q-57 0 -91 15.5t-50.5 43t-18.5 64.5t5 80l9 53q2 5 6 5h60q6 0 4 -5l-9 -53v0z" />
    <glyph glyph-name="K" unicode="K" horiz-adv-x="635" 
d="M485 0q-4 0 -7 5l-181 375q0 4 -6 0l-125 -105q-8 -6 -8 -13l-46 -257q0 -5 -6 -5h-60q-4 0 -4 5l123 694q0 5 6 5h60q4 0 4 -5l-58 -327q0 -7 6 -2l395 329q5 5 10 5h79q6 0 1 -5l-307 -259q-4 -3 -4 -6t1 -5l202 -424q3 -5 -4 -5h-71z" />
    <glyph glyph-name="L" unicode="L" horiz-adv-x="560" 
d="M46 0q-4 0 -4 5l123 694q0 5 6 5h60q4 0 4 -5l-112 -634q-2 -5 4 -5h364q6 0 4 -5l-9 -50q0 -5 -6 -5h-434z" />
    <glyph glyph-name="M" unicode="M" horiz-adv-x="870" 
d="M326 704q4 0 6 -5l72 -635q1 -4 4.5 -4t5.5 4l296 635q2 5 8 5h123q4 0 4 -5l-123 -694q0 -5 -6 -5h-60q-4 0 -4 5l112 634q1 4 -3 5t-7 -5l-298 -634q-2 -5 -7 -5h-104q-3 0 -5 5l-74 634q0 6 -4.5 5t-5.5 -5l-112 -634q0 -5 -6 -5h-60q-4 0 -4 5l123 694q0 5 6 5h123z
" />
    <glyph glyph-name="N" unicode="N" horiz-adv-x="705" 
d="M690 704q4 0 4 -5l-123 -694q0 -5 -6 -5h-112q-4 0 -6 5l-213 635q-2 6 -5.5 4t-4.5 -5l-112 -634q0 -5 -6 -5h-60q-4 0 -4 5l123 694q0 5 6 5h115q2 0 4 -5l212 -636q2 -4 5.5 -3t4.5 4l112 635q0 5 6 5h60z" />
    <glyph glyph-name="O" unicode="O" horiz-adv-x="744" 
d="M324 -10q-78 0 -132.5 26.5t-85.5 74.5t-39 114.5t6 146.5q14 79 45.5 145.5t79 114.5t111.5 75t142 27t132.5 -27t85.5 -75t39.5 -114.5t-5.5 -145.5q-14 -80 -45.5 -146.5t-79.5 -114.5t-112 -74.5t-142 -26.5zM334 50q118 0 193 79.5t101 222.5q25 143 -22 222.5
t-165 79.5t-193 -79.5t-100 -222.5q-26 -143 21 -222.5t165 -79.5z" />
    <glyph glyph-name="P" unicode="P" horiz-adv-x="612" 
d="M46 0q-4 0 -4 5l123 694q0 5 6 5h294q43 0 76.5 -15.5t54.5 -43.5t29 -65.5t0 -81.5t-29 -82t-52 -65.5t-70 -43t-82 -15.5h-224q-4 0 -6 -5l-50 -282q0 -5 -6 -5h-60zM230 644q-4 0 -6 -5l-50 -282q0 -5 5 -5h214q31 0 59 12.5t49 33.5t35 47t19 53t0 53t-19 47
t-37.5 33.5t-54.5 12.5h-214z" />
    <glyph glyph-name="Q" unicode="Q" horiz-adv-x="746" 
d="M583 -49q-5 0 -10 5l-59 72q-2 4 -9 0q-38 -20 -77.5 -29t-88.5 -9q-78 0 -132.5 26.5t-85.5 74.5t-39 114.5t6 146.5q14 79 45.5 145.5t79.5 114.5t112 75t142 27t132.5 -27t85.5 -75t39 -114.5t-6 -145.5q-16 -91 -52 -162.5t-96 -119.5q-4 -3 -2 -7l88 -107
q5 -5 -2 -5h-71zM523 117q3 -3 7 0q86 76 113 235q26 143 -21 222.5t-165 79.5t-193 -79.5t-101 -222.5q-25 -143 22 -222.5t165 -79.5q34 0 62.5 5.5t55.5 18.5q5 2 2 7l-84 101q-3 5 3 5h73q4 0 7 -5z" />
    <glyph glyph-name="R" unicode="R" horiz-adv-x="650" 
d="M46 0q-4 0 -4 5l123 694q0 5 6 5h294q43 0 76.5 -15.5t54.5 -43.5t29 -65.5t0 -81.5q-6 -35 -20.5 -65.5t-35 -56t-46 -43.5t-54.5 -27q-6 -2 -4 -8q19 -75 39.5 -146.5t40.5 -146.5q2 -5 -5 -5h-59q-4 0 -6 5l-77 282q-1 5 -6 5h-224q-4 0 -6 -5l-50 -282q0 -5 -6 -5
h-60zM230 644q-4 0 -6 -5l-50 -282q0 -5 5 -5h214q31 0 59 12.5t49 33.5t35 47t19 53t0 53t-19 47t-37.5 33.5t-54.5 12.5h-214z" />
    <glyph glyph-name="S" unicode="S" horiz-adv-x="620" 
d="M105 193q-5 -26 4 -52t30 -46t54.5 -32.5t78.5 -12.5q37 0 73 9.5t66 27.5t51 44.5t27 61.5q7 42 -5 68t-36.5 41t-57.5 21t-68 9q-43 4 -86.5 13t-76 29.5t-49.5 55.5t-7 90q8 46 35.5 82.5t66 61t84 37.5t90.5 13t87 -12t72.5 -37t45.5 -63.5t6 -90.5q-2 -5 -6 -5h-60
q-6 0 -4 5q6 35 -3 62t-30 45t-51.5 27t-66.5 9q-34 0 -67 -9.5t-60 -27t-45.5 -42.5t-23.5 -55q-4 -22 -0.5 -43t20 -38t50 -29.5t90.5 -17.5q45 -4 90 -12t79 -29t51 -58t6 -100q-8 -45 -34 -82.5t-65.5 -64.5t-90 -41.5t-107.5 -14.5q-60 0 -106 16t-75 44t-41 64.5
t-5 78.5q2 5 6 5h60q6 0 4 -5z" />
    <glyph glyph-name="T" unicode="T" horiz-adv-x="557" 
d="M316 642q0 5 -4 5h-201q-5 0 -5 5l9 47q0 5 6 5h482q4 0 4 -5l-9 -47q0 -5 -5 -5h-201q-6 0 -6 -5l-113 -637q0 -5 -6 -5h-60q-4 0 -4 5z" />
    <glyph glyph-name="U" unicode="U" horiz-adv-x="636" 
d="M643 704q6 0 4 -5l-82 -465q-9 -51 -35.5 -95.5t-65.5 -77.5t-87 -52t-99 -19t-93 19t-69.5 52t-39 77.5t-2.5 95.5l82 465q2 5 6 5h60q6 0 4 -5l-82 -465q-6 -36 2 -69.5t27.5 -59t49 -40.5t66.5 -15q36 0 70.5 15t62.5 40.5t47.5 59t25.5 69.5l82 465q2 5 6 5h60z" />
    <glyph glyph-name="V" unicode="V" horiz-adv-x="682" 
d="M301 64q1 -4 4.5 -4t5.5 4l318 635q2 5 8 5h64q5 0 3 -5l-353 -694q-2 -5 -7 -5h-100q-3 0 -5 5l-107 694q-2 5 5 5h64q4 0 6 -5z" />
    <glyph glyph-name="W" unicode="W" horiz-adv-x="882" 
d="M598 65q0 -5 4 -5t6 5l228 634q2 5 8 5h63q5 0 3 -5l-260 -694q-2 -5 -7 -5h-105q-3 0 -5 5l-21 635q0 5 -4 5t-6 -5l-245 -635q-2 -5 -7 -5h-105q-3 0 -5 5l-14 694q-2 5 5 5h63q4 0 6 -5l4 -634q0 -5 4 -5t6 5l238 634q2 5 8 5h117q4 0 6 -5z" />
    <glyph glyph-name="X" unicode="X" horiz-adv-x="647" 
d="M126 699q-3 5 4 5h70q3 0 6 -5l138 -288q1 -3 4.5 -3t5.5 3l240 288q3 5 8 5h70q5 0 2 -5l-291 -341q-5 -5 -2 -10l170 -343q3 -5 -4 -5h-69q-4 0 -7 5l-138 289q-3 7 -10 0l-240 -289q-3 -5 -9 -5h-69q-5 0 -2 5l292 343q5 5 2 10z" />
    <glyph glyph-name="Y" unicode="Y" horiz-adv-x="674" 
d="M228 704q5 0 8 -5l134 -309q4 -6 8 0l246 309q3 5 9 5h69q3 0 1 -5l-301 -377q-4 -5 -4.5 -8t-2.5 -8l-53 -301q0 -5 -6 -5h-60q-4 0 -4 5l53 301q1 4 1 7.5t-2 8.5l-167 377q-2 2 -0.5 3.5t3.5 1.5h68z" />
    <glyph glyph-name="Z" unicode="Z" horiz-adv-x="581" 
d="M117 699q0 5 6 5h481q4 0 4 -5l-9 -50q-2 -5 -7 -10l-501 -571q-2 -3 -1 -5.5t4 -2.5h396q6 0 4 -5l-9 -50q0 -5 -6 -5h-480q-4 0 -4 5l8 50q1 4 7 10l502 571q2 2 1 5t-4 3h-397q-6 0 -4 5z" />
    <glyph glyph-name="bracketleft" unicode="[" horiz-adv-x="374" 
d="M239 -138q5 0 4 -4l-9 -51q0 -5 -6 -5h-228q-3 0 -3 5l156 892q2 5 6 5h228q6 0 4 -5l-9 -51q0 -4 -5 -4h-158q-6 0 -6 -5l-136 -772q-2 -5 4 -5h158z" />
    <glyph glyph-name="backslash" unicode="\" horiz-adv-x="381" 
d="M115 697q0 7 7 7h57q2 0 4 -3l114 -694q0 -7 -7 -7h-64q-3 0 -4 3z" />
    <glyph glyph-name="bracketright" unicode="]" horiz-adv-x="374" 
d="M169 -138q4 0 6 5l136 772q0 5 -4 5h-158q-5 0 -5 4l9 51q2 5 6 5h228q6 0 4 -5l-157 -892q0 -5 -6 -5h-228q-3 0 -3 5l8 51q1 4 6 4h158z" />
    <glyph glyph-name="asciicircum" unicode="^" horiz-adv-x="526" 
d="M323 640q-1 4 -4.5 4t-5.5 -4l-168 -275q-3 -5 -8 -5h-63q-6 0 -3 5l207 334q2 5 7 5h90q3 0 5 -5l89 -334q0 -5 -5 -5h-63q-6 0 -6 5z" />
    <glyph glyph-name="underscore" unicode="_" horiz-adv-x="546" 
d="M34 0q-4 0 -4 5l11 60q0 5 6 5h440q4 0 4 -5l-11 -60q0 -5 -6 -5h-440z" />
    <glyph glyph-name="grave" unicode="`" horiz-adv-x="294" 
d="M200 576q-8 0 -10 7l-52 114q-2 3 0.5 5t5.5 2h67q9 0 9 -7l29 -114q2 -7 -6 -7h-43z" />
    <glyph glyph-name="a" unicode="a" horiz-adv-x="590" 
d="M89 335q8 46 31 80t56 56.5t74.5 33.5t86.5 11q103 0 155 -45t36 -135l-58 -331q0 -5 -6 -5h-50q-2 0 -4 5l-2 45q0 4 -3 4t-6 -2q-6 -6 -21.5 -16t-39 -19.5t-55.5 -17.5t-71 -9q-99 0 -143.5 43t-32.5 111q12 69 72.5 109.5t167.5 40.5h125q12 0 21.5 0.5t16.5 4.5
t11.5 12.5t7.5 24.5q4 19 3.5 40.5t-12.5 39t-40.5 29t-81.5 11.5q-75 0 -116 -30.5t-52 -90.5q0 -5 -6 -5h-60q-4 0 -4 5zM440 229q0 5 -5 5h-166q-48 0 -78.5 -8t-48.5 -20.5t-25.5 -29t-10.5 -32.5q-3 -17 1 -34t18 -30.5t38 -21.5t60 -8q49 0 86.5 14.5t63.5 37t41.5 50
t20.5 53.5z" />
    <glyph glyph-name="b" unicode="b" horiz-adv-x="622" 
d="M165 699q2 5 6 5h60q6 0 4 -5l-45 -255q-1 -3 2.5 -4t6.5 3q4 5 17.5 17t36 24.5t54.5 22t74 9.5q57 0 97.5 -19t65 -54t32 -83.5t-2.5 -106.5q-11 -59 -34.5 -107t-60 -83t-84.5 -54t-106 -19q-42 0 -71 9.5t-47.5 22t-27 24t-10.5 15.5t-5 3t-5 -4l-19 -55q-3 -5 -6 -5
h-50q-6 0 -4 5zM503 253q8 45 2.5 82.5t-24 64t-49 41.5t-72.5 15t-76 -15t-59.5 -41.5t-42.5 -64t-25 -82.5t-4.5 -82.5t20 -64t45.5 -41.5t71 -15t77.5 15t63 41.5t46.5 64t27 82.5z" />
    <glyph glyph-name="c" unicode="c" horiz-adv-x="565" 
d="M444 171q3 5 7 5h59q6 0 4 -5q-8 -26 -27.5 -57.5t-51 -59t-76.5 -46t-103 -18.5q-59 0 -101.5 19t-68 53.5t-34 83t2.5 107.5q10 59 35 107.5t63 83t87.5 53.5t108.5 19q58 0 96.5 -18.5t60.5 -46t30 -59t7 -57.5q0 -5 -6 -5h-59q-3 0 -5 5q-5 57 -38 89t-96 32
q-42 0 -77.5 -15t-63.5 -41.5t-46.5 -64t-26.5 -82.5t-2.5 -82.5t24 -64t48.5 -41.5t72 -15q63 0 107.5 32t69.5 89z" />
    <glyph glyph-name="d" unicode="d" horiz-adv-x="622" 
d="M489 5q-2 -5 -6 -5h-50q-4 0 -4 5l-1 55q0 3 -2.5 4t-5.5 -3t-16 -15.5t-36 -24t-55.5 -22t-74.5 -9.5q-59 0 -100 19t-64.5 54t-30.5 83t4 107q10 58 34.5 106.5t61 83.5t84 54t104.5 19q42 0 70.5 -9.5t46.5 -22t27 -24.5t12 -17q2 -4 5 -3t4 4l45 255q2 5 6 5h60
q6 0 4 -5zM117 253q-8 -45 -2.5 -82.5t23.5 -64t48.5 -41.5t72.5 -15t76 15t59.5 41.5t43 64t25.5 82.5t4 82.5t-20.5 64t-45.5 41.5t-71 15t-77.5 -15t-63 -41.5t-46 -64t-26.5 -82.5z" />
    <glyph glyph-name="e" unicode="e" horiz-adv-x="589" 
d="M141 227q-4 0 -6 -5q-6 -33 0 -64t23.5 -55t46 -38.5t67.5 -14.5q30 0 55 7t45 18t34.5 25t24.5 28q2 5 9 5h64q6 0 5 -5q-35 -69 -101 -103.5t-147 -34.5q-54 0 -95.5 19t-67.5 54t-35 83t2 107q10 59 35.5 107.5t63 83.5t86 54t104.5 19t97.5 -19.5t66 -54t32.5 -83.5
t-2 -107q-1 -5 -2.5 -12t-3.5 -9q-2 -5 -7 -5h-394zM479 292q4 27 0 56t-19.5 53.5t-43.5 40t-72 15.5q-43 0 -77.5 -17.5t-59.5 -42.5t-40 -54t-19 -51q-2 -5 4 -5h321q4 0 6 5z" />
    <glyph glyph-name="f" unicode="f" horiz-adv-x="356" 
d="M181 506q4 0 6 5l11 66q11 58 47 92.5t111 34.5h55q4 0 4 -5l-9 -50q-2 -5 -6 -5h-54q-32 0 -52 -17.5t-26 -49.5l-11 -66q-2 -5 4 -5h115q4 0 4 -5l-9 -50q-2 -5 -6 -5h-115q-4 0 -6 -5l-77 -436q0 -5 -6 -5h-60q-4 0 -4 5l77 436q2 5 -4 5h-95q-6 0 -4 5l9 50q0 5 6 5
h95z" />
    <glyph glyph-name="g" unicode="g" horiz-adv-x="630" 
d="M519 36v-1l-2 -14q-20 -108 -93.5 -168.5t-184.5 -60.5q-47 0 -84.5 11.5t-63 31.5t-38.5 46.5t-11 55.5q0 5 6 5h58q4 0 6 -5q1 -15 10 -30t26 -27t42.5 -20t59.5 -8q49 0 83.5 14t57.5 37.5t36 54t20 63.5l7 39q0 2 -2.5 3.5t-6.5 -1.5q-10 -9 -26 -21.5t-38.5 -24
t-51.5 -19t-66 -7.5q-53 0 -93.5 19t-65.5 54t-34 83t2 107q10 58 35 106.5t62 83.5t84.5 54t102.5 19q37 0 64.5 -9t46 -21t29.5 -24t16 -18q6 -6 10 2l19 55q3 5 6 5h50q6 0 4 -5zM142 253q-8 -45 -2.5 -82.5t23.5 -64t48.5 -41.5t72.5 -15t76 15t59.5 41.5t43 64
t25.5 82.5t4 82.5t-20.5 64t-45.5 41.5t-71 15t-77.5 -15t-63 -41.5t-46 -64t-26.5 -82.5z" />
    <glyph glyph-name="h" unicode="h" horiz-adv-x="598" 
d="M473 282q6 33 3.5 64t-16.5 55.5t-41.5 39.5t-70.5 15q-84 0 -127.5 -41.5t-59.5 -131.5l-49 -278q0 -5 -6 -5h-60q-4 0 -4 5l123 694q0 5 6 5h60q4 0 4 -5l-43 -243q-1 -4 2.5 -4.5t5.5 1.5q7 6 20.5 17t33 21t45.5 17.5t59 7.5q57 0 96.5 -19t62 -50.5t29 -74
t-2.5 -90.5l-49 -277q0 -5 -6 -5h-60q-4 0 -4 5z" />
    <glyph glyph-name="i" unicode="i" horiz-adv-x="266" 
d="M206 506q4 0 4 -5l-88 -496q0 -5 -6 -5h-60q-4 0 -4 5l88 496q0 5 6 5h60zM251 704q4 0 4 -5l-14 -80q-2 -5 -6 -5h-80q-6 0 -4 5l14 80q0 5 6 5h80z" />
    <glyph glyph-name="j" unicode="j" horiz-adv-x="311" 
d="M173 -71q-12 -66 -51.5 -96.5t-106.5 -30.5h-54q-4 0 -4 5l9 50q2 5 6 5h53q32 0 52 17.5t26 49.5l101 572q0 5 5 5h60q5 0 5 -5zM314 704q6 0 4 -5l-14 -80q0 -5 -6 -5h-80q-4 0 -4 5l14 80q2 5 6 5h80z" />
    <glyph glyph-name="k" unicode="k" horiz-adv-x="587" 
d="M376 352q-2 -2 -2 -3v-3l138 -341q3 -5 -4 -5h-63q-3 0 -6 5l-121 297l-3 3t-6 -2l-158 -118q-6 -5 -7 -10l-30 -170q0 -5 -6 -5h-60q-4 0 -4 5l123 694q0 5 6 5h60q4 0 4 -5l-75 -423q0 -2 1.5 -3.5t5.5 1.5l306 227q6 5 11 5h89q6 0 1 -5z" />
    <glyph glyph-name="l" unicode="l" horiz-adv-x="246" 
d="M231 704q4 0 4 -5l-123 -694q0 -5 -6 -5h-60q-4 0 -4 5l123 694q0 5 6 5h60z" />
    <glyph glyph-name="m" unicode="m" horiz-adv-x="882" 
d="M427 282q6 34 7 65.5t-9.5 55.5t-34.5 38.5t-67 14.5q-41 0 -69 -14.5t-47.5 -38.5t-30.5 -55.5t-17 -65.5l-48 -277q-2 -5 -6 -5h-60q-6 0 -4 5l87 496q2 5 6 5h49q5 0 5 -5v-55q0 -5 3.5 -5.5t6.5 3.5q4 4 15 16t29 24.5t43.5 22t58.5 9.5q41 0 68.5 -8.5t44.5 -21.5
t26 -27t14 -26q2 -4 5 -3.5t5 3.5q35 46 77 65t99 19q54 0 88 -16t51.5 -46t20 -73.5t-7.5 -99.5l-48 -277h1q-2 -5 -6 -5h-60q-6 0 -4 5l48 277q6 33 6 65t-10.5 56.5t-34 39.5t-64.5 15q-43 0 -72 -14.5t-47.5 -39t-29.5 -56.5t-17 -66l-48 -277q-2 -5 -6 -5h-60
q-6 0 -4 5z" />
    <glyph glyph-name="n" unicode="n" horiz-adv-x="608" 
d="M480 272q6 37 4 70t-16 58.5t-41.5 40.5t-70.5 15q-84 0 -128 -47t-60 -137l-47 -267q-2 -5 -6 -5h-60q-6 0 -4 5l87 496q2 5 6 5h49q5 0 5 -5v-55q0 -5 3.5 -5t6.5 3q6 7 21 19t37 24t50 20.5t61 8.5q57 0 95 -17.5t58.5 -49.5t25 -77t-5.5 -100l-47 -267q-2 -5 -6 -5
h-60q-6 0 -4 5z" />
    <glyph glyph-name="o" unicode="o" horiz-adv-x="592" 
d="M551 253q-11 -59 -36 -107t-63.5 -83t-88 -54t-107.5 -19q-59 0 -101.5 19t-68 54t-34 83t2.5 107q10 59 35 107.5t63 83t87.5 53.5t108.5 19q58 0 101 -19t68.5 -54t34 -83.5t-1.5 -106.5zM481 253q8 45 2.5 82.5t-24 64t-48.5 41.5t-72 15t-77.5 -15t-63.5 -41.5
t-46.5 -64t-26.5 -82.5t-2.5 -82.5t24 -64t48.5 -41.5t72 -15t77.5 15t63 41.5t46.5 64t27 82.5z" />
    <glyph glyph-name="p" unicode="p" horiz-adv-x="622" 
d="M147 501q0 5 6 5h50q2 0 4 -5v-55q0 -3 3 -4t6 3t16 15.5t35.5 24t55 22t74.5 9.5q58 0 99.5 -19t65.5 -54t30.5 -83.5t-3.5 -106.5q-10 -59 -34.5 -107t-61 -83t-84 -54t-104.5 -19q-42 0 -70.5 9.5t-47 22t-27.5 24.5t-11 17q-2 4 -5.5 3t-4.5 -4l-45 -255q0 -5 -5 -5
h-60q-5 0 -5 5zM519 253q8 45 2.5 82.5t-23.5 64t-48.5 41.5t-72.5 15t-76 -15t-60 -41.5t-43 -64t-25 -82.5t-4 -82.5t20 -64t45 -41.5t71 -15t77.5 15t63.5 41.5t46.5 64t26.5 82.5z" />
    <glyph glyph-name="q" unicode="q" horiz-adv-x="622" 
d="M470 -193q0 -5 -5 -5h-60q-5 0 -5 5l45 255q1 3 -2.5 4t-5.5 -3q-5 -5 -18 -17t-35.5 -24.5t-54.5 -22t-74 -9.5q-57 0 -97.5 19t-65 54t-32 83t2.5 107q10 58 34 106.5t60 83.5t83.5 54t106.5 19q42 0 71.5 -9.5t47.5 -22t27 -24t11 -15.5t4.5 -3t4.5 4l20 55q2 5 6 5
h50q4 0 4 -5zM133 253q-8 -45 -2.5 -82.5t23.5 -64t48.5 -41.5t72.5 -15t76 15t60 41.5t43 64t25 82.5t4 82.5t-20 64t-45 41.5t-71 15t-77.5 -15t-63.5 -41.5t-46.5 -64t-26.5 -82.5z" />
    <glyph glyph-name="r" unicode="r" horiz-adv-x="389" 
d="M138 501q2 5 6 5h50q4 0 4 -5v-55q0 -5 3.5 -5t6.5 3q6 6 18.5 18t32 24t46.5 21t62 9h42q4 0 4 -5l-11 -60q0 -5 -6 -5h-42q-84 0 -127 -43t-59 -131l-47 -267q-2 -5 -6 -5h-60q-6 0 -4 5z" />
    <glyph glyph-name="s" unicode="s" horiz-adv-x="540" 
d="M110 171q-3 -17 0 -38t16.5 -39.5t41 -31t72.5 -12.5q18 0 44.5 2.5t52.5 12.5t46.5 29t26.5 51q4 27 -7 42.5t-31.5 24.5t-47 13t-52.5 7q-33 3 -69 9t-64.5 20t-44 41t-7.5 72q5 30 25 56t50.5 45t69 30t80.5 11q46 0 84 -11t64 -33t37 -56.5t3 -80.5q0 -5 -6 -5h-60
q-4 0 -4 5q11 62 -24 91.5t-104 29.5q-61 0 -100 -24.5t-45 -57.5q-4 -22 3 -36.5t23.5 -23.5t41.5 -14t58 -8q45 -4 84.5 -10.5t67 -21.5t40.5 -42t5 -73q-14 -81 -81.5 -118t-169.5 -37q-57 0 -96 15t-61.5 39.5t-30 57.5t-1.5 69q2 5 6 5h60q6 0 4 -5z" />
    <glyph glyph-name="t" unicode="t" horiz-adv-x="370" 
d="M78 446q-6 0 -4 5l8 50q2 5 6 5h95q6 0 6 5l23 128q0 5 6 5h60q4 0 4 -5l-23 -128q0 -5 4 -5h115q6 0 4 -5l-8 -50q-2 -5 -6 -5h-115q-6 0 -6 -5l-55 -314q-8 -39 7 -53t47 -14h54q4 0 4 -5l-9 -50q-2 -5 -6 -5h-55q-75 0 -99.5 30.5t-12.5 96.5l55 314q0 5 -4 5h-95z
" />
    <glyph glyph-name="u" unicode="u" horiz-adv-x="598" 
d="M142 234q-6 -37 -4 -70t16 -58.5t41 -40.5t70 -15q84 0 128.5 47t60.5 137l47 267q2 5 6 5h60q6 0 4 -5l-87 -496q-2 -5 -6 -5h-49q-5 0 -5 5l-1 55q0 5 -3.5 5t-5.5 -3q-7 -7 -22 -19t-36.5 -24t-49.5 -20.5t-61 -8.5q-57 0 -95 17.5t-58.5 49.5t-25 76.5t5.5 100.5
l47 267q2 5 6 5h60q6 0 4 -5z" />
    <glyph glyph-name="v" unicode="v" horiz-adv-x="536" 
d="M464 501q2 5 7 5h63q6 0 4 -5l-256 -496q-2 -5 -7 -5h-90q-3 0 -5 5l-80 496q-2 5 4 5h63q5 0 7 -5l62 -437q1 -5 5 -4.5t5 4.5z" />
    <glyph glyph-name="w" unicode="w" horiz-adv-x="766" 
d="M516 65q-1 -5 3.5 -5t6.5 5l173 436q2 5 7 5h58q6 0 4 -5l-206 -496q-2 -5 -7 -5h-91q-3 0 -5 5l-31 436q0 5 -4 5t-6 -5l-185 -436q-2 -5 -7 -5h-91q-3 0 -5 5l-30 496q-2 5 4 5h58q5 0 7 -5l19 -436q-1 -5 3.5 -5t6.5 5l177 436q2 5 7 5h104q5 0 7 -5z" />
    <glyph glyph-name="x" unicode="x" horiz-adv-x="548" 
d="M492 501q2 2 3 3.5t5 1.5h62q7 0 2 -5l-224 -246q-5 -5 -2 -10l138 -240q2 -2 0.5 -3.5t-3.5 -1.5h-66q-4 0 -4.5 1.5t-2.5 3.5l-109 187q-3 7 -10 0l-175 -187l-3.5 -3.5t-5.5 -1.5h-66q-2 0 -2.5 1.5t1.5 3.5l222 240q5 5 2 10l-136 246q-5 5 2 5h62q4 0 5 -1.5t3 -3.5
l111 -194q5 -7 10 0z" />
    <glyph glyph-name="y" unicode="y" horiz-adv-x="552" 
d="M490 501q3 5 8 5h63q6 0 3 -5l-255 -497l-39 -75q-15 -31 -29 -55t-31.5 -40t-40.5 -24t-56 -8h-103q-6 0 -4 5l9 50q0 5 6 5h102q16 0 27 4.5t19.5 13t15.5 21t15 28.5q6 12 9.5 27t-1.5 44l-82 501q0 5 5 5h63q6 0 6 -5l63 -437q1 -4 4.5 -4t5.5 4z" />
    <glyph glyph-name="z" unicode="z" horiz-adv-x="487" 
d="M103 501q0 5 5 5h361q5 0 5 -5l-9 -50q-1 -2 -3 -5t-4 -5l-356 -373q-3 -3 -1 -5.5t4 -2.5h300q4 0 4 -5l-9 -50q0 -5 -6 -5h-387q-4 0 -4 5l9 50q0 2 2.5 5t4.5 5l355 373q3 3 1.5 5.5t-3.5 2.5h-274q-6 0 -4 5z" />
    <glyph glyph-name="braceleft" unicode="{" horiz-adv-x="451" 
d="M311 -193q0 -5 -6 -5h-55q-36 0 -58 8.5t-33 24t-13 36.5t2 45l45 254q4 22 -8.5 37.5t-34.5 15.5h-55q-5 0 -5 5l9 50q2 5 6 5h55q21 0 39.5 15.5t23.5 38.5l44 253q4 22 13.5 42.5t26 36.5t41.5 25.5t61 9.5h55q6 0 4 -5l-9 -51q0 -4 -5 -4h-54q-22 0 -41 -16t-23 -38
l-39 -223q-6 -32 -13.5 -51t-16.5 -30.5t-19 -17.5t-20 -10q-5 -2 -5.5 -5t3.5 -5q8 -4 15.5 -10t13 -17.5t6.5 -31t-4 -49.5l-40 -224q-4 -22 9.5 -38t35.5 -16h54q5 0 4 -4z" />
    <glyph glyph-name="bar" unicode="|" horiz-adv-x="216" 
d="M4 -198q-3 0 -3 5l157 892q2 5 5 5h61q6 0 4 -5l-157 -892q0 -5 -6 -5h-61z" />
    <glyph glyph-name="braceright" unicode="}" horiz-adv-x="451" 
d="M25 -142q1 4 6 4h54q22 0 40.5 16t22.5 38l40 224q5 30 13 49.5t17.5 31t19.5 17.5t19 10q4 2 4.5 5t-2.5 5q-9 4 -17 10t-13 17.5t-6 30.5t5 51l39 223q4 22 -9 38t-35 16h-54q-5 0 -5 4l9 51q2 5 6 5h55q36 0 57.5 -9.5t33 -25.5t13.5 -36.5t-2 -42.5l-44 -253
q-5 -23 8.5 -38.5t34.5 -15.5h55q6 0 4 -5l-9 -50q0 -5 -5 -5h-55q-22 0 -40.5 -15.5t-22.5 -37.5l-45 -254q-4 -24 -13.5 -45t-26 -36.5t-41.5 -24t-61 -8.5h-55q-4 0 -4 5z" />
    <glyph glyph-name="asciitilde" unicode="~" horiz-adv-x="530" 
d="M507 311q-4 -22 -15.5 -41.5t-29 -33.5t-38.5 -22.5t-43 -8.5q-32 0 -62.5 11.5t-61.5 25.5q-29 14 -55 23.5t-48 9.5q-14 0 -27.5 -10.5t-16.5 -24.5l-5 -30q0 -5 -6 -5l-56 20q-6 0 -4 5l1 10q4 23 16 42.5t29 34t38 23t44 8.5q30 0 62.5 -12.5t61.5 -25.5
q27 -12 54.5 -22.5t48.5 -10.5q14 0 27.5 10t15.5 24l6 32q0 5 6 5l56 -20q6 0 4 -5z" />
    <glyph glyph-name="DEL" horiz-adv-x="280" 
 />
    <glyph glyph-name="nonbreakingspace" unicode="&#xa0;" horiz-adv-x="280" 
 />
    <glyph glyph-name="exclamdown" unicode="&#xa1;" horiz-adv-x="257" 
d="M155.011 496.025q5.99902 0 3.99902 -4.99902l-41.9951 -292.965l-33.9951 -192.977q0 -4.99902 -6 -4.99902h-63.9922q-3.99902 0 -3.99902 4.99902l33.9961 192.977l61.9922 292.965q2 4.99902 5.99902 4.99902h43.9951zM220.002 704q4 0 4 -4.99902l-17.998 -99.9883
q-2 -4.99902 -5.99902 -4.99902h-99.9873q-6 0 -4 4.99902l17.998 99.9883q0 4.99902 5.99902 4.99902h99.9873z" />
    <glyph glyph-name="cent" unicode="&#xa2;" horiz-adv-x="552" 
d="M444 171q3 5 7 5h59q6 0 4 -5q-8 -24 -24.5 -52.5t-43.5 -54.5t-65 -45.5t-87 -25.5l-15 -88q-2 -5 -6 -5h-61q-5 0 -3 5l15 87q-102 11 -145.5 81t-23.5 180q9 54 31.5 100t56 80t77 55t96.5 26l15 86q2 5 5 5h61q6 0 4 -5l-15 -87q47 -6 77.5 -25.5t48.5 -45.5
t25 -54.5t6 -52.5q0 -5 -6 -5h-59q-3 0 -5 5q-5 57 -38 89t-96 32q-42 0 -77.5 -15t-63.5 -41.5t-46.5 -64t-26.5 -82.5t-2.5 -82.5t24 -64t48.5 -41.5t72 -15q63 0 107.5 32t69.5 89z" />
    <glyph glyph-name="sterling" unicode="&#xa3;" horiz-adv-x="665" 
d="M633 511q0 -5 -6 -5h-60q-4 0 -4 5q13 72 -19 107.5t-95 35.5q-35 0 -61.5 -11.5t-45.5 -30.5t-31 -43.5t-17 -51.5l-20 -117q-2 -5 4 -5h122q4 0 4 -5l-9 -50q-2 -5 -6 -5h-122q-4 0 -6 -5l-36 -203q-6 -38 -23 -59q-2 -2 -1.5 -5t4.5 -3h274q5 0 5 5l24 131q0 5 5 5h60
q5 0 5 -5l-34 -191q-2 -5 -6 -5h-505q-6 0 -4 5l9 51q0 2 5 4h35q32 0 51 14t26 53l36 203q2 5 -4 5h-95q-6 0 -4 5l9 50q0 5 6 5h95q4 0 6 5l20 117q7 41 26.5 77t49.5 62.5t70.5 42t89.5 15.5q46 0 82.5 -12t59.5 -37t31.5 -63.5t-0.5 -90.5z" />
    <glyph glyph-name="currency" unicode="&#xa4;" horiz-adv-x="665" 
d="M527 351q8 45 2 82.5t-24 64t-48.5 41.5t-72.5 15t-77.5 -15t-63 -41.5t-46 -64t-26.5 -82.5t-2.5 -82.5t23.5 -64t48.5 -41.5t72.5 -15t77.5 15t63 41.5t46.5 64t27 82.5zM24 119q-5 3 1 7l81 69q4 4 2 8q-11 31 -13.5 68t5.5 79q8 41 23 78.5t37 67.5q4 5 1 9l-57 70
q-5 3 1 7l63 53q3 5 7 0l51 -64q5 -5 11 -2q33 20 73 32t85 12q88 0 140 -43q7 -5 13 1l76 64q3 5 7 0l43 -53q5 -3 -1 -7l-82 -70q-5 -3 -3 -10q11 -31 13.5 -67t-5.5 -78q-15 -85 -61 -148q-2 -4 1 -7l58 -69q5 -3 -1 -7l-63 -53q-4 -5 -7 0l-53 64q-5 5 -12 0
q-68 -43 -156 -43q-89 0 -143 43q-5 4 -9 0l-76 -64q-4 -5 -7 0z" />
    <glyph glyph-name="yen" unicode="&#xa5;" horiz-adv-x="645" 
d="M259 101q2 5 -4 5h-183q-4 0 -4 5l11 60q0 5 6 5h183q5 0 5 5l23 131q2 5 -4 5h-183q-4 0 -4 5l11 60q0 5 6 5h135q3 0 4 2t1 4l-135 306q-2 2 -0.5 3.5t3.5 1.5h68q5 0 8 -5l135 -309q3 -5 6 0l247 309q3 5 9 5h69q3 0 1 -5l-244 -305q-2 -2 -1 -4.5t3 -2.5h136
q4 0 4 -5l-11 -60q0 -5 -6 -5h-182q-4 0 -6 -5l-23 -131q0 -5 5 -5h182q4 0 4 -5l-11 -60q0 -5 -6 -5h-182q-4 0 -6 -5l-17 -96q0 -5 -6 -5h-60q-4 0 -4 5z" />
    <glyph glyph-name="brokenbar" unicode="&#xa6;" horiz-adv-x="216" 
d="M4 -198q-3 0 -3 5l71 401q0 5 5 5h61q4 0 4 -5l-71 -401q0 -5 -6 -5h-61zM91 293q-5 0 -3 5l70 401q2 5 5 5h61q6 0 4 -5l-70 -401q-2 -5 -6 -5h-61z" />
    <glyph glyph-name="section" unicode="&#xa7;" horiz-adv-x="645" 
d="M66 294q10 55 42 94t73 62q4 2 4 7q-13 36 -4 85q6 33 25 64t48 55t66.5 38.5t79.5 14.5q46 0 81.5 -14.5t58.5 -40.5t31.5 -64t0.5 -84q0 -5 -6 -5h-60q-4 0 -4 5q6 31 2 57t-18 45t-38 30t-58 11q-30 0 -54.5 -11.5t-42.5 -28t-28.5 -36.5t-13.5 -36q-3 -14 -2.5 -31
t9.5 -33.5t30 -32t60 -25.5q43 -12 87 -25t77.5 -35.5t51 -57.5t8.5 -90q-10 -56 -41.5 -94t-72.5 -61q-2 -1 -4 -3t0 -6q5 -18 6.5 -38t-3.5 -46q-6 -33 -25 -64t-48 -55t-66.5 -38.5t-79.5 -14.5q-46 0 -81.5 14.5t-59 40.5t-32 63.5t-0.5 84.5q2 5 6 5h60q6 0 4 -5
q-11 -62 17 -102.5t96 -40.5q30 0 54.5 11.5t42.5 28t28.5 36t13.5 36.5q3 14 2.5 31t-10 33.5t-30.5 31.5t-60 26q-43 12 -86.5 25t-77.5 35.5t-51.5 57.5t-7.5 90zM302 156q35 -9 64.5 -22t50.5 -32q29 14 53 41t32 69q6 34 -9.5 57t-41.5 39t-57.5 25.5t-57.5 16.5
q-35 9 -65 22t-51 32q-29 -15 -52.5 -41.5t-31.5 -68.5q-6 -34 9.5 -57t41.5 -39t57.5 -25.5t57.5 -16.5z" />
    <glyph glyph-name="dieresis" unicode="&#xa8;" horiz-adv-x="439" 
d="M201 704q4 0 4 -5l-14 -80q-2 -5 -6 -5h-80q-6 0 -4 5l14 80q0 5 6 5h80zM420 704q4 0 4 -5l-14 -80q-2 -5 -6 -5h-80q-6 0 -4 5l14 80q0 5 6 5h80z" />
    <glyph glyph-name="copyright" unicode="&#xa9;" horiz-adv-x="801" 
d="M765 353q-13 -73 -52 -137t-95 -112t-125 -76t-142 -28q-72 0 -131 28t-98 76t-55 112t-3 137q13 72 51.5 136t94.5 112t125 75.5t141 27.5q73 0 132 -27.5t98 -75.5t55.5 -112t3.5 -136zM735 353q12 66 -3.5 124.5t-51.5 102t-90 69t-120 25.5t-128.5 -25.5t-113.5 -69
t-86.5 -102t-47.5 -124.5t3 -125t51 -102.5t89.5 -69t119.5 -25.5t129 25.5t114.5 69t87 102.5t47.5 125zM516 270q1 3 5 3h51q4 0 4 -5q-3 -15 -18.5 -37.5t-42 -44t-63 -36.5t-81.5 -15t-77.5 16t-52 45t-25.5 68.5t3 87.5q8 48 28 87.5t49.5 68.5t68 45t83.5 16
q47 0 78 -16.5t49.5 -38.5t25 -45t4.5 -35q0 -3 -4 -3h-53q-2 0 -3 3q-2 10 -6.5 24t-16.5 27.5t-32 23t-51 9.5q-62 0 -104 -44t-56 -122t12.5 -122t88.5 -44q31 0 54 8.5t39.5 21.5t26.5 27.5t16 26.5z" />
    <glyph glyph-name="ordfeminine" unicode="&#xaa;" horiz-adv-x="364" 
d="M149.058 615.893q4.32031 24.8389 16.7393 43.1982q12.4199 18.3594 30.2393 30.5088t40.2285 18.0889q22.4092 5.94043 46.708 5.94043q55.6172 0 83.6963 -24.2988q28.0791 -24.2998 19.4395 -72.8975l-31.3184 -178.732q0 -2.7002 -3.24023 -2.7002h-26.999
q-1.08008 0 -2.16016 2.7002l-1.08008 24.2988q0 2.16016 -1.61914 2.16016q-1.62012 0 -3.24023 -1.08008q-3.24023 -3.24023 -11.6094 -8.63965q-8.37012 -5.40039 -21.0596 -10.5303q-12.6895 -5.12891 -29.9688 -9.44922q-17.2793 -4.31934 -38.3379 -4.85938
q-53.458 0 -77.4873 23.2188t-17.5488 59.9375q6.47949 37.2588 39.1484 59.1279q32.668 21.8691 90.4463 21.8691h67.4971q6.47949 0 11.6094 0.269531q5.12988 0.270508 8.91016 2.42969q3.7793 2.16016 6.20898 6.75q2.43066 4.58984 4.0498 13.2295
q2.16016 10.2598 1.89062 21.8691q-0.270508 11.6094 -6.75 21.0596q-6.47949 9.44922 -21.8691 15.6592t-44.0078 6.20996q-40.499 0 -62.6377 -16.4697q-22.1396 -16.4697 -28.0791 -48.8682q0 -2.7002 -3.24023 -2.7002h-32.3984q-2.16016 0 -2.16016 2.7002z
M338.59 558.655q0 2.69922 -2.69922 2.69922h-89.6367q-25.9189 0 -42.3877 -4.31934q-16.4697 -4.32031 -26.1895 -11.0693q-9.71973 -6.75 -13.7695 -15.6602q-4.0498 -8.90918 -5.66992 -17.5488q-1.61914 -9.17969 0.540039 -18.3594q2.16016 -9.17969 9.71973 -16.4688
q7.55957 -7.29004 20.5195 -11.6104q12.959 -4.31934 32.3984 -4.31934q26.459 0 46.708 7.8291q20.249 7.83008 34.2891 19.9795q14.0391 12.1494 22.4092 26.999q8.36914 14.8496 11.0693 28.8887z" />
    <glyph glyph-name="guillemotleft" unicode="&#xab;" horiz-adv-x="591" 
d="M168 258q-4 -4 -2 -9l169 -242q2 -7 -6 -7h-74q-4 0 -4 3l-169 246q-2 5 2 9l255 245q1 3 5 3h74q3 0 4.5 -2.5t-0.5 -4.5zM353 258q-4 -4 -2 -9l169 -242q2 -7 -6 -7h-74q-4 0 -4 3l-169 246q-2 5 2 9l255 245q1 3 5 3h74q3 0 4.5 -2.5t-0.5 -4.5z" />
    <glyph glyph-name="logicalnot" unicode="&#xac;" horiz-adv-x="651" 
d="M551 5q-2 -5 -6 -5h-60q-6 0 -4 5l36 208q2 5 -4 5h-425q-4 0 -4 5l11 60q0 5 6 5h495q4 0 4 -5z" />
    <glyph glyph-name="uni00AD" unicode="&#xad;" horiz-adv-x="526" 
d="M425 5q0 -5 -6 -5h-411q-4 0 -4 5l123 694q0 5 6 5h411q4 0 4 -5zM508 681h-346l119 -306zM392 24l-120 305l-226 -305h346zM409 48l107 608q-56 -75 -114 -152t-112 -152zM264 352l-120 305l-107 -610z" />
    <glyph glyph-name="registered" unicode="&#xae;" horiz-adv-x="801" 
d="M765 353q-13 -73 -52 -137t-95 -112t-125 -76t-142 -28q-72 0 -131 28t-98 76t-55 112t-3 137q13 72 51.5 136t94.5 112t125 76t141 28q73 0 132 -28t98 -76t55.5 -112t3.5 -136zM735 353q12 66 -3.5 124.5t-51.5 102.5t-90 69.5t-120 25.5t-128.5 -25.5t-113.5 -69.5
t-86.5 -102.5t-47.5 -124.5t3 -125t51 -102.5t89.5 -69t119.5 -25.5t129 25.5t114.5 69t87 102.5t47.5 125zM285 558q0 5 6 5h207q25 0 45.5 -10t34 -27.5t19.5 -40.5t1 -50q-7 -39 -31 -69t-59 -44q-6 -2 -3 -7l46 -168q2 -3 -0.5 -4.5t-4.5 -1.5h-47q-7 0 -9 5l-41 159
q0 4 -6 4h-142q-3 0 -4 -3l-28 -160q0 -5 -6 -5h-47q-4 0 -4 5zM339 512q-6 0 -6 -5l-25 -142q-2 -5 4 -5h145q14 0 28 6t25.5 16.5t19.5 24t11 28.5q5 31 -12.5 54t-46.5 23h-143z" />
    <glyph glyph-name="macron" unicode="&#xaf;" horiz-adv-x="345" 
d="M82 576q-5 0 -3 5l7 40q2 5 5 5h246q6 0 4 -5l-7 -40q-2 -5 -6 -5h-246z" />
    <glyph glyph-name="degree" unicode="&#xb0;" horiz-adv-x="419" 
d="M81 552q6 33 24 62.5t43.5 51.5t57.5 35t65 13t60.5 -13t45.5 -35t25.5 -51.5t1.5 -62.5t-24 -62.5t-43.5 -51.5t-57.5 -34.5t-65 -12.5t-60.5 12.5t-45.5 34.5t-25.5 51.5t-1.5 62.5zM146 552q-7 -40 16 -68t63 -28q20 0 39 7.5t34.5 20.5t26.5 30.5t14 37.5
q4 20 -0.5 38t-15.5 31t-27.5 20.5t-36.5 7.5t-38.5 -7.5t-34 -20.5t-26 -31t-14.5 -38z" />
    <glyph glyph-name="plusminus" unicode="&#xb1;" horiz-adv-x="622" 
d="M330 203q0 -5 -6 -5h-60q-4 0 -4 5l37 208q0 5 -4 5h-203q-6 0 -4 5l10 60q2 5 6 5h203q6 0 6 5l37 208q0 5 6 5h60q4 0 4 -5l-37 -208q0 -5 4 -5h213q6 0 4 -5l-10 -60q-2 -5 -6 -5h-213q-6 0 -6 -5zM16 0q-4 0 -4 5l11 60q0 5 6 5h496q4 0 4 -5l-11 -60q0 -5 -6 -5
h-496z" />
    <glyph glyph-name="twosuperior" unicode="&#xb2;" horiz-adv-x="388" 
d="M151.478 593.929q4.85938 27.5391 18.0889 48.3281t31.8594 34.2881q18.6289 13.5 41.3076 20.25q22.6797 6.74902 46.9785 6.74902q29.1592 0 50.2178 -8.36914q21.0596 -8.37012 34.0186 -22.9492q12.96 -14.5791 17.5498 -34.5586t0.80957 -43.1982
q-3.23926 -19.4395 -12.1494 -35.9082q-8.90918 -16.4697 -20.5195 -30.2393q-11.6094 -13.7695 -24.2988 -24.8389t-23.4893 -19.709l-158.753 -128.515q-2.16016 -1.62012 -1.35059 -3.24023q0.810547 -1.62012 2.43066 -1.62012h192.771q2.16016 0 2.16016 -2.69922
l-4.85938 -26.999q-1.08008 -2.7002 -3.24023 -2.7002h-246.77q-3.24023 0 -2.16016 2.7002l5.39941 29.6982q0 1.62012 3.24023 3.78027l186.832 153.354q6.47949 5.39941 17.0098 14.5791q10.5293 9.17969 20.7891 20.5195t18.6289 24.5693
q8.37012 13.2295 10.5303 27.2686q2.15918 12.4199 -0.270508 25.9189t-10.7998 24.8389q-8.36914 11.3398 -22.9492 18.6289q-14.5791 7.29004 -36.7178 7.29004q-16.1992 0 -31.5889 -5.39941q-15.3896 -5.40039 -28.3486 -15.3896q-12.96 -9.98926 -22.1396 -24.2988
t-12.4189 -32.1289q0 -2.7002 -3.24023 -2.7002h-32.3984q-2.16016 0 -2.16016 2.7002z" />
    <glyph glyph-name="threesuperior" unicode="&#xb3;" horiz-adv-x="385" 
d="M143.478 593.929q4.85938 28.0791 17.5488 48.8682q12.6904 20.7891 31.0488 34.2881q18.3594 13.5 41.0391 19.9795q22.6787 6.47949 47.5176 6.47949q26.459 0 46.9785 -8.36914q20.5186 -8.37012 33.748 -22.6797q13.2295 -14.3086 18.6299 -33.748
q5.39941 -19.4395 1.61914 -41.5781q-3.7793 -20.5195 -14.0391 -35.6387t-22.1387 -25.1094q-11.8799 -9.98926 -22.1396 -15.1191t-13.499 -5.66992q-2.16016 -0.540039 -2.7002 -2.42969t1.62012 -2.96973q6.47949 -2.16016 16.4688 -8.91016
q9.99023 -6.74902 18.6299 -18.3594q8.63965 -11.6094 13.7695 -27.5381q5.12988 -15.9297 1.34961 -36.9893q-4.31934 -24.2988 -17.2793 -44.0078q-12.959 -19.709 -32.3984 -33.4785t-44.2783 -21.0596q-24.8389 -7.28906 -52.918 -7.28906h-0.540039
q-29.1592 0 -50.2178 7.8291q-21.0596 7.83008 -34.0186 22.4092q-12.96 14.5791 -17.2793 34.8291q-4.32031 20.249 0 44.5479q1.08008 2.7002 3.23926 2.7002h32.3994q3.23926 0 2.15918 -2.7002q-5.93945 -33.4785 11.6104 -55.3477q17.5488 -21.8691 57.5068 -21.8691
h0.540039q19.9795 0 37.7988 5.12988t31.3184 14.5791q13.5 9.4502 22.4092 22.9492q8.91016 13.499 12.1494 30.7783q3.24023 17.8193 -1.0791 32.1289q-4.32031 14.3096 -14.8496 24.0293t-26.1895 15.1191q-15.6592 5.40039 -35.0986 5.40039h-25.3789
q-2.15918 0 -2.15918 2.69922l4.85938 26.999q1.08008 2.7002 3.24023 2.7002h25.3789q36.7178 0 62.9072 18.8994q26.1885 18.8984 32.1289 50.7578q2.15918 14.5791 -1.35059 27.8086t-12.4189 23.4893q-8.91016 10.2598 -23.2197 16.4688
q-14.3086 6.20996 -32.668 6.20996q-16.7393 0 -32.3984 -4.85938q-15.6602 -4.86035 -28.0791 -14.3096q-12.4199 -9.4502 -21.3291 -24.0293q-8.91016 -14.5791 -12.1494 -34.0186q-1.08008 -2.7002 -3.24023 -2.7002h-32.3984q-3.24023 0 -2.16016 2.7002z" />
    <glyph glyph-name="acute" unicode="&#xb4;" horiz-adv-x="294" 
d="M121 576q-3 0 -4.5 2t0.5 5l69 114q2 2 4 4.5t7 2.5h67q3 0 5 -2t-1 -5l-92 -114q-2 -2 -5 -4.5t-7 -2.5h-43z" />
    <glyph glyph-name="mu" unicode="&#xb5;" 
d="M425 5q0 -5 -6 -5h-411q-4 0 -4 5l123 694q0 5 6 5h411q4 0 4 -5zM508 681h-346l119 -306zM392 24l-120 305l-226 -305h346zM409 48l107 608q-56 -75 -114 -152t-112 -152zM264 352l-120 305l-107 -610z" />
    <glyph glyph-name="paragraph" unicode="&#xb6;" horiz-adv-x="544" 
d="M258 311q2 5 -4 5q-38 0 -68.5 15.5t-50.5 42t-28 61.5t-1 75q7 38 26.5 72.5t48 61t64 42.5t74.5 18h213q6 0 4 -5l-157 -892q0 -5 -6 -5h-60q-4 0 -4 5l147 832q0 5 -4 5h-60q-6 0 -6 -5l-147 -832q0 -5 -6 -5h-60q-4 0 -4 5z" />
    <glyph glyph-name="periodcentered" unicode="&#xb7;" horiz-adv-x="235" 
d="M45 276q-6 0 -4 5l26 151q2 5 6 5h149q6 0 4 -5l-26 -151q-2 -5 -6 -5h-149z" />
    <glyph glyph-name="cedilla" unicode="&#xb8;" horiz-adv-x="285" 
d="M205 3q7 0 4 -5l-68 -43q-3 -2 -3 -5t4 -3q13 0 26 -4t23 -13t15 -23t2 -34q-5 -31 -35 -56t-79 -25q-45 0 -62.5 25.5t-12.5 55.5q2 5 6 5h33q6 0 4 -5q-3 -16 8 -29.5t31 -13.5q24 0 39 13.5t18 29.5q3 14 -1 23.5t-11 15t-16.5 8t-17.5 2.5q-13 0 -16 3l-6 8
q-3 4 -2 7t3 5l51 36q4 2 3.5 5.5t-4.5 3.5q-8 0 -7 6.5t9 6.5h62v0z" />
    <glyph glyph-name="onesuperior" unicode="&#xb9;" horiz-adv-x="283" 
d="M146.678 626.928q1.08008 2.7002 3.24023 2.7002h68.5771q15.6592 0 28.3486 10.7988q12.6895 10.7998 15.3896 26.459l5.93945 32.3994l0.540039 2.15918q0 2.7002 3.24023 2.7002h32.3984q2.16016 0 2.16016 -2.7002l-66.418 -374.744q0 -2.7002 -3.23926 -2.7002
h-32.3984q-2.16016 0 -2.16016 2.7002l44.8184 251.63q1.0791 7.55957 -3.50977 13.2295q-4.58984 5.66895 -12.1504 5.66895h-86.9365q-3.23926 0 -2.15918 2.7002z" />
    <glyph glyph-name="ordmasculine" unicode="&#xba;" horiz-adv-x="384" 
d="M398.528 572.614q-5.94043 -31.8584 -19.4395 -57.7773q-13.5 -25.9189 -34.2891 -44.8184t-47.5176 -29.1592q-26.7295 -10.2588 -58.0479 -10.2588q-31.8584 0 -54.8076 10.2588q-22.9492 10.2598 -36.7188 29.1592t-18.3594 44.8184t1.35059 57.7773
q5.39941 31.8584 18.8984 58.0479q13.5 26.1885 34.0186 44.8184q20.5195 18.6289 47.248 28.8887q26.7295 10.2598 58.5879 10.2598q31.3193 0 54.5381 -10.2598t36.9883 -29.1592t18.3594 -45.0879t-0.80957 -57.5078zM360.729 572.614q4.31934 24.2988 1.34961 44.5488
q-2.96973 20.249 -12.959 34.5586q-9.99023 14.3086 -26.1895 22.4082q-16.1992 8.10059 -38.8779 8.10059q-22.6797 0 -41.8486 -8.10059q-19.1689 -8.09961 -34.2881 -22.4082q-15.1201 -14.3096 -25.1094 -34.5586q-9.98926 -20.25 -14.3096 -44.5488
q-4.31934 -24.2988 -1.34961 -44.5479t12.959 -34.5586q9.99023 -14.3096 26.1895 -22.4092t38.8779 -8.09961q22.6797 0 41.8486 8.09961t34.0186 22.4092t25.1094 34.5586q10.2588 20.249 14.5791 44.5479z" />
    <glyph glyph-name="guillemotright" unicode="&#xbb;" horiz-adv-x="591" 
d="M124 499q0 7 6 7h74q3 0 5 -3l169 -245q2 -3 1.5 -4.5t-3.5 -4.5l-255 -246q-3 -3 -6 -3h-74q-6 0 -4 7l255 242q4 4 2 9zM309 499q0 7 6 7h74q3 0 5 -3l169 -245q2 -3 1.5 -4.5t-3.5 -4.5l-255 -246q-3 -3 -6 -3h-74q-6 0 -4 7l255 242q4 4 2 9z" />
    <glyph glyph-name="onequarter" unicode="&#xbc;" horiz-adv-x="751" 
d="M622 702q2 2 5 2h44q8 0 2 -8l-548 -694q-2 -2 -5 -2h-42q-8 0 -2 8zM116 628q0 3 3 3h69q15 0 28 10.5t15 26.5l6 32l1 2q0 3 3 3h32q3 0 3 -3l-67 -374q0 -3 -3 -3h-33q-2 0 -2 3l45 251q3 19 -16 19h-86q-3 0 -3 3zM365 122q1 1 1 2t2 3l203 250q3 3 5 3h38q2 0 2 -3
l-44 -250q-2 -3 2 -3h64q4 0 2 -2l-5 -28q0 -2 -3 -2h-64q-3 0 -3 -3l-15 -86q0 -3 -3 -3h-33q-2 0 -2 3l16 86q0 3 -3 3h-163q-2 0 -2 2zM410 127q-3 -3 1 -3h120q3 0 3 3l33 186q1 3 -1 3.5t-4 -2.5z" />
    <glyph glyph-name="onehalf" unicode="&#xbd;" horiz-adv-x="767" 
d="M582 702q2 2 5 2h44q8 0 2 -8l-548 -694q-2 -2 -5 -2h-42q-8 0 -2 8zM116 627q0 3 3 3h69q15 0 28 10.5t15 26.5l6 32l1 2q0 3 3 3h32q3 0 3 -3l-67 -374q0 -3 -3 -3h-33q-2 0 -2 3l45 251q3 19 -16 19h-86q-3 0 -3 3zM442 276q10 56 50 83t89 27q58 0 84 -31.5t18 -78.5
q-3 -19 -12 -35.5t-20.5 -30t-24 -24.5t-23.5 -20l-159 -129q-2 -2 -1.5 -3.5t2.5 -1.5h193q2 0 2 -2l-5 -27q0 -3 -3 -3h-247q-2 0 -2 3l5 29q0 2 4 4l187 154q6 5 16.5 14t21 20.5t19 24.5t10.5 27q2 12 -0.5 26t-11 25t-23 18.5t-36.5 7.5q-32 0 -60 -20.5t-35 -56.5
q0 -3 -3 -3h-32q-3 0 -3 3z" />
    <glyph glyph-name="threequarters" unicode="&#xbe;" horiz-adv-x="795" 
d="M675 702q2 2 5 2h44q8 0 2 -8l-548 -694q-2 -2 -5 -2h-42q-8 0 -2 8zM112 594q10 57 48.5 83.5t89.5 26.5q26 0 46.5 -8.5t34 -22.5t19 -34t1.5 -42q-4 -21 -14.5 -36t-22 -24.5t-22 -14.5t-13.5 -6q-2 -1 -2.5 -3t1.5 -3q6 -2 16 -9t19 -18.5t14 -27.5t1 -37
q-8 -48 -49.5 -76.5t-97.5 -28.5q-59 0 -84.5 30t-17.5 79q1 3 3 3h33q2 0 2 -3q-6 -34 11 -55.5t58 -21.5t69.5 19.5t34.5 53.5q7 36 -16 56.5t-61 20.5h-25q-3 0 -3 3l5 27l3 3h26q36 0 62.5 18.5t32.5 50.5q5 29 -13.5 51.5t-56.5 22.5q-34 0 -60.5 -19t-33.5 -58
q0 -3 -3 -3h-32q-3 0 -3 3zM409 122q1 1 1 2t2 3l203 250q3 3 5 3h38q2 0 2 -3l-44 -250q-2 -3 2 -3h64q4 0 2 -2l-5 -28q0 -2 -3 -2h-64q-3 0 -3 -3l-15 -86q0 -3 -3 -3h-33q-2 0 -2 3l16 86q0 3 -3 3h-163q-2 0 -2 2zM454 127q-3 -3 1 -3h120q3 0 3 3l33 186q1 3 -1 3.5
t-4 -2.5z" />
    <glyph glyph-name="questiondown" unicode="&#xbf;" horiz-adv-x="526" 
d="M565.012 193.062q-7 -41.9951 -28.9971 -78.9902q-21.9971 -36.9961 -55.4932 -64.4922q-33.4961 -27.4971 -76.9902 -43.4951q-43.4951 -15.998 -93.4883 -15.998q-111.986 0 -162.48 54.9932q-50.4941 54.9941 -33.4961 146.982q7.99902 46.9941 27.4971 75.9902
q19.4971 28.9971 46.4941 48.9941q26.9961 19.998 59.9922 36.4961t69.9912 38.4951q13.999 6.99902 22.498 15.498t11.498 24.4971l9.99902 58.9932q2 4.99902 5.99902 4.99902h59.9932q5.99902 0 3.99902 -4.99902l-11.998 -69.9922q-5 -28.9961 -26.9971 -48.4941
q-21.9971 -19.4971 -56.9932 -39.4951q-45.9941 -24.9961 -74.4902 -42.4941q-28.4971 -17.498 -44.4951 -32.4961t-22.9971 -30.4961t-9.99902 -35.4961q-4.99902 -28.9961 0.5 -54.9932t21.9971 -45.4941q16.498 -19.498 44.9951 -30.4971
q28.4961 -10.998 69.4912 -10.998q35.9961 0 65.9922 12.998t52.4932 32.9961t36.9961 45.9941q14.498 25.9971 18.4971 50.9941q0 4.99902 6 4.99902h59.9922q4 0 4 -4.99902zM486.021 704q5.99902 0 3.99902 -4.99902l-17.998 -99.9883q0 -4.99902 -4.99902 -4.99902
h-99.9883q-4.99902 0 -4.99902 4.99902l17.998 99.9883q1.99902 4.99902 5.99902 4.99902h99.9883z" />
    <glyph glyph-name="Agrave" unicode="&#xc0;" horiz-adv-x="682" 
d="M483 158q0 5 -6 5h-308q-5 0 -8 -5l-77 -153q-2 -5 -8 -5h-64q-5 0 -3 5l353 694q2 5 7 5h100q3 0 5 -5l107 -694q2 -5 -5 -5h-64q-4 0 -6 5zM197 228q-3 -5 3 -5h269q4 0 4 5l-61 412q-1 4 -4.5 4t-5.5 -4zM413 774q-8 0 -10 7l-52 114q-2 3 0.5 5t5.5 2h67q9 0 9 -7
l29 -114q2 -7 -6 -7h-43z" />
    <glyph glyph-name="Aacute" unicode="&#xc1;" horiz-adv-x="682" 
d="M483 158q0 5 -6 5h-308q-5 0 -8 -5l-77 -153q-2 -5 -8 -5h-64q-5 0 -3 5l353 694q2 5 7 5h100q3 0 5 -5l107 -694q2 -5 -5 -5h-64q-4 0 -6 5zM197 228q-3 -5 3 -5h269q4 0 4 5l-61 412q-1 4 -4.5 4t-5.5 -4zM404 774q-3 0 -4.5 2t0.5 5l69 114q2 2 4 4.5t7 2.5h67
q3 0 5 -2t-1 -5l-92 -114q-2 -2 -5 -4.5t-7 -2.5h-43z" />
    <glyph glyph-name="Acircumflex" unicode="&#xc2;" horiz-adv-x="682" 
d="M483 158q0 5 -6 5h-308q-5 0 -8 -5l-77 -153q-2 -5 -8 -5h-64q-5 0 -3 5l353 694q2 5 7 5h100q3 0 5 -5l107 -694q2 -5 -5 -5h-64q-4 0 -6 5zM197 228q-3 -5 3 -5h269q4 0 4 5l-61 412q-1 4 -4.5 4t-5.5 -4zM479 774q-4 0 -5 3l-23 62q-1 3 -4.5 3t-5.5 -3l-45 -62
q-2 -3 -5 -3h-47q-3 0 -4.5 2t0.5 5l72 117q1 4 5 4h80q4 0 5 -4l30 -117q2 -7 -6 -7h-47z" />
    <glyph glyph-name="Atilde" unicode="&#xc3;" horiz-adv-x="682" 
d="M483 158q0 5 -6 5h-308q-5 0 -8 -5l-77 -153q-2 -5 -8 -5h-64q-5 0 -3 5l353 694q2 5 7 5h100q3 0 5 -5l107 -694q2 -5 -5 -5h-64q-4 0 -6 5zM197 228q-3 -5 3 -5h269q4 0 4 5l-61 412q-1 4 -4.5 4t-5.5 -4zM276 792q2 13 10 28t21 28t31.5 21.5t42.5 8.5q22 0 37 -7
t27 -16t23.5 -16t26.5 -7q7 0 20.5 8t18.5 33q2 5 6 5h48q6 0 4 -5l-2 -14q-2 -13 -10 -28t-21 -27.5t-31.5 -21t-42.5 -8.5q-20 0 -35.5 7t-29 16t-25.5 16t-24 7q-7 0 -20.5 -8t-18.5 -33q-2 -5 -6 -5h-48q-6 0 -4 5z" />
    <glyph glyph-name="Adieresis" unicode="&#xc4;" horiz-adv-x="682" 
d="M483 158q0 5 -6 5h-308q-5 0 -8 -5l-77 -153q-2 -5 -8 -5h-64q-5 0 -3 5l353 694q2 5 7 5h100q3 0 5 -5l107 -694q2 -5 -5 -5h-64q-4 0 -6 5zM197 228q-3 -5 3 -5h269q4 0 4 5l-61 412q-1 4 -4.5 4t-5.5 -4zM376 864q4 0 4 -5l-14 -80q-2 -5 -6 -5h-80q-6 0 -4 5l14 80
q0 5 6 5h80zM595 864q4 0 4 -5l-14 -80q-2 -5 -6 -5h-80q-6 0 -4 5l14 80q0 5 6 5h80z" />
    <glyph glyph-name="Aring" unicode="&#xc5;" horiz-adv-x="682" 
d="M483 158q0 5 -6 5h-308q-5 0 -8 -5l-77 -153q-2 -5 -8 -5h-64q-5 0 -3 5l353 694q2 5 7 5h100q3 0 5 -5l107 -694q2 -5 -5 -5h-64q-4 0 -6 5zM197 228q-3 -5 3 -5h269q4 0 4 5l-61 412q-1 4 -4.5 4t-5.5 -4zM534 823q-3 -18 -13 -34t-24.5 -27.5t-31.5 -18.5t-35 -7
q-36 0 -57 25.5t-14 61.5q3 18 12.5 34t23.5 28t31 19t35 7q36 0 57.5 -26t15.5 -62zM495 823q3 20 -9 34.5t-32 14.5q-21 0 -38 -14.5t-20 -34.5q-4 -21 8 -35.5t33 -14.5q20 0 37 14.5t21 35.5z" />
    <glyph glyph-name="AE" unicode="&#xc6;" horiz-adv-x="1003" 
d="M433 0q-4 0 -4 5l27 153q2 5 -4 5h-263q-5 0 -8 -5l-6 -9l-107 -144q-2 -5 -8 -5h-63q-5 0 -3 5l512 694q2 5 7 5h515q4 0 4 -5l-9 -50q-2 -5 -6 -5h-400q-4 0 -6 -5l-43 -246q-2 -5 4 -5h357q6 0 4 -5l-9 -50q0 -5 -6 -5h-357q-4 0 -6 -5l-45 -258q-2 -5 4 -5h400
q6 0 4 -5l-9 -50q0 -5 -6 -5h-470zM541 638q1 3 -1.5 3t-4.5 -3l-302 -410q-3 -5 3 -5h228q3 0 5 5z" />
    <glyph glyph-name="Ccedilla" unicode="&#xc7;" horiz-adv-x="638" 
d="M542 193q3 5 8 5h59q6 0 4 -5q-4 -18 -22.5 -47t-50 -59t-76 -55.5t-99.5 -35.5l-65 -41q-2 -2 -2 -5t4 -3q13 0 26 -4t23 -13t15 -23t2 -34q-5 -31 -35 -56t-79 -25q-45 0 -62.5 25.5t-12.5 55.5q0 5 6 5h33q4 0 4 -5q-3 -16 7.5 -29.5t30.5 -13.5q24 0 39.5 13.5
t18.5 29.5q3 14 -1 23.5t-11.5 15t-17 8t-17.5 2.5q-13 0 -15 3l-7 8q-3 4 -2 7t3 5l52 36q3 2 2.5 5.5t-4.5 3.5h-3q-73 0 -125.5 27t-83.5 75t-40 114.5t5 145.5t47 145.5t81.5 114.5t111.5 75t138 27q70 0 117 -24.5t74.5 -57.5t38.5 -67t8 -54q0 -5 -6 -5h-59q-4 0 -6 5
q-2 16 -12 40t-30.5 47t-53.5 39.5t-81 16.5q-118 0 -193.5 -79.5t-101.5 -222.5q-25 -143 22.5 -222.5t165.5 -79.5q48 0 87 16.5t67.5 39.5t47 47t26.5 40z" />
    <glyph glyph-name="Egrave" unicode="&#xc8;" horiz-adv-x="627" 
d="M50 0q-4 0 -4 5l123 694q0 5 6 5h470q4 0 4 -5l-9 -50q-2 -5 -6 -5h-400q-4 0 -6 -5l-43 -242q0 -5 5 -5h357q4 0 4 -5l-9 -50q-2 -5 -6 -5h-357q-4 0 -6 -5l-46 -262q-2 -5 4 -5h400q6 0 4 -5l-9 -50q0 -5 -6 -5h-470zM395 774q-8 0 -10 7l-52 114q-2 3 0.5 5t5.5 2h67
q9 0 9 -7l29 -114q2 -7 -6 -7h-43z" />
    <glyph glyph-name="Eacute" unicode="&#xc9;" horiz-adv-x="627" 
d="M50 0q-4 0 -4 5l123 694q0 5 6 5h470q4 0 4 -5l-9 -50q-2 -5 -6 -5h-400q-4 0 -6 -5l-43 -242q0 -5 5 -5h357q4 0 4 -5l-9 -50q-2 -5 -6 -5h-357q-4 0 -6 -5l-46 -262q-2 -5 4 -5h400q6 0 4 -5l-9 -50q0 -5 -6 -5h-470zM336 774q-3 0 -4.5 2t0.5 5l69 114q2 2 4 4.5
t7 2.5h67q3 0 5 -2t-1 -5l-92 -114q-2 -2 -5 -4.5t-7 -2.5h-43z" />
    <glyph glyph-name="Ecircumflex" unicode="&#xca;" horiz-adv-x="627" 
d="M50 0q-4 0 -4 5l123 694q0 5 6 5h470q4 0 4 -5l-9 -50q-2 -5 -6 -5h-400q-4 0 -6 -5l-43 -242q0 -5 5 -5h357q4 0 4 -5l-9 -50q-2 -5 -6 -5h-357q-4 0 -6 -5l-46 -262q-2 -5 4 -5h400q6 0 4 -5l-9 -50q0 -5 -6 -5h-470zM461 774q-4 0 -5 3l-23 62q-1 3 -4.5 3t-5.5 -3
l-45 -62q-2 -3 -5 -3h-47q-3 0 -4.5 2t0.5 5l72 117q1 4 5 4h80q4 0 5 -4l30 -117q2 -7 -6 -7h-47z" />
    <glyph glyph-name="Edieresis" unicode="&#xcb;" horiz-adv-x="627" 
d="M50 0q-4 0 -4 5l123 694q0 5 6 5h470q4 0 4 -5l-9 -50q-2 -5 -6 -5h-400q-4 0 -6 -5l-43 -242q0 -5 5 -5h357q4 0 4 -5l-9 -50q-2 -5 -6 -5h-357q-4 0 -6 -5l-46 -262q-2 -5 4 -5h400q6 0 4 -5l-9 -50q0 -5 -6 -5h-470zM359 864q4 0 4 -5l-14 -80q-2 -5 -6 -5h-80
q-6 0 -4 5l14 80q0 5 6 5h80zM578 864q4 0 4 -5l-14 -80q-2 -5 -6 -5h-80q-6 0 -4 5l14 80q0 5 6 5h80z" />
    <glyph glyph-name="Igrave" unicode="&#xcc;" horiz-adv-x="246" 
d="M231 704q4 0 4 -5l-123 -694q0 -5 -6 -5h-60q-4 0 -4 5l123 694q0 5 6 5h60zM192 774q-8 0 -10 7l-52 114q-2 3 0.5 5t5.5 2h67q9 0 9 -7l29 -114q2 -7 -6 -7h-43z" />
    <glyph glyph-name="Iacute" unicode="&#xcd;" horiz-adv-x="246" 
d="M231 704q4 0 4 -5l-123 -694q0 -5 -6 -5h-60q-4 0 -4 5l123 694q0 5 6 5h60zM186 774q-3 0 -4.5 2t0.5 5l69 114q2 2 4 4.5t7 2.5h67q3 0 5 -2t-1 -5l-92 -114q-2 -2 -5 -4.5t-7 -2.5h-43z" />
    <glyph glyph-name="Icircumflex" unicode="&#xce;" horiz-adv-x="246" 
d="M231 704q4 0 4 -5l-123 -694q0 -5 -6 -5h-60q-4 0 -4 5l123 694q0 5 6 5h60zM262 774q-4 0 -5 3l-23 62q-1 3 -4.5 3t-5.5 -3l-45 -62q-2 -3 -5 -3h-47q-3 0 -4.5 2t0.5 5l72 117q1 4 5 4h80q4 0 5 -4l30 -117q2 -7 -6 -7h-47z" />
    <glyph glyph-name="Idieresis" unicode="&#xcf;" horiz-adv-x="246" 
d="M231 704q4 0 4 -5l-123 -694q0 -5 -6 -5h-60q-4 0 -4 5l123 694q0 5 6 5h60zM159 864q4 0 4 -5l-14 -80q-2 -5 -6 -5h-80q-6 0 -4 5l14 80q0 5 6 5h80zM378 864q4 0 4 -5l-14 -80q-2 -5 -6 -5h-80q-6 0 -4 5l14 80q0 5 6 5h80z" />
    <glyph glyph-name="Eth" unicode="&#xd0;" horiz-adv-x="703" 
d="M100 318q0 5 -5 5h-65q-4 0 -4 5l11 60q0 5 6 5h65q4 0 6 5l53 301q0 5 6 5h254q78 0 131.5 -27t84 -74.5t38 -113t-6.5 -144.5q-14 -80 -44.5 -143.5t-77 -108.5t-109.5 -69t-141 -24h-254q-4 0 -4 5zM175 323q-5 0 -5 -5l-45 -253q-2 -5 4 -5h184q112 0 186.5 71.5
t99.5 213.5q12 69 6 124.5t-29.5 94t-63.5 59.5t-96 21h-184q-4 0 -6 -5l-42 -241q-2 -5 4 -5h180q4 0 4 -5l-11 -60q0 -5 -6 -5h-180z" />
    <glyph glyph-name="Ntilde" unicode="&#xd1;" horiz-adv-x="705" 
d="M690 704q4 0 4 -5l-123 -694q0 -5 -6 -5h-112q-4 0 -6 5l-213 635q-2 6 -5.5 4t-4.5 -5l-112 -634q0 -5 -6 -5h-60q-4 0 -4 5l123 694q0 5 6 5h115q2 0 4 -5l212 -636q2 -4 5.5 -3t4.5 4l112 635q0 5 6 5h60zM293 792q2 13 10 28t21 28t31.5 21.5t42.5 8.5q22 0 37 -7
t27 -16t23.5 -16t26.5 -7q7 0 20.5 8t18.5 33q2 5 6 5h48q6 0 4 -5l-2 -14q-2 -13 -10 -28t-21 -27.5t-31.5 -21t-42.5 -8.5q-20 0 -35.5 7t-29 16t-25.5 16t-24 7q-7 0 -20.5 -8t-18.5 -33q-2 -5 -6 -5h-48q-6 0 -4 5z" />
    <glyph glyph-name="Ograve" unicode="&#xd2;" horiz-adv-x="744" 
d="M324 -10q-78 0 -132.5 26.5t-85.5 74.5t-39 114.5t6 146.5q14 79 45.5 145.5t79 114.5t111.5 75t142 27t132.5 -27t85.5 -75t39.5 -114.5t-5.5 -145.5q-14 -80 -45.5 -146.5t-79.5 -114.5t-112 -74.5t-142 -26.5zM334 50q118 0 193 79.5t101 222.5q25 143 -22 222.5
t-165 79.5t-193 -79.5t-100 -222.5q-26 -143 21 -222.5t165 -79.5zM484 774q-8 0 -10 7l-52 114q-2 3 0.5 5t5.5 2h67q9 0 9 -7l29 -114q2 -7 -6 -7h-43z" />
    <glyph glyph-name="Oacute" unicode="&#xd3;" horiz-adv-x="744" 
d="M324 -10q-78 0 -132.5 26.5t-85.5 74.5t-39 114.5t6 146.5q14 79 45.5 145.5t79 114.5t111.5 75t142 27t132.5 -27t85.5 -75t39.5 -114.5t-5.5 -145.5q-14 -80 -45.5 -146.5t-79.5 -114.5t-112 -74.5t-142 -26.5zM334 50q118 0 193 79.5t101 222.5q25 143 -22 222.5
t-165 79.5t-193 -79.5t-100 -222.5q-26 -143 21 -222.5t165 -79.5zM435 774q-3 0 -4.5 2t0.5 5l69 114q2 2 4 4.5t7 2.5h67q3 0 5 -2t-1 -5l-92 -114q-2 -2 -5 -4.5t-7 -2.5h-43z" />
    <glyph glyph-name="Ocircumflex" unicode="&#xd4;" horiz-adv-x="744" 
d="M324 -10q-78 0 -132.5 26.5t-85.5 74.5t-39 114.5t6 146.5q14 79 45.5 145.5t79 114.5t111.5 75t142 27t132.5 -27t85.5 -75t39.5 -114.5t-5.5 -145.5q-14 -80 -45.5 -146.5t-79.5 -114.5t-112 -74.5t-142 -26.5zM334 50q118 0 193 79.5t101 222.5q25 143 -22 222.5
t-165 79.5t-193 -79.5t-100 -222.5q-26 -143 21 -222.5t165 -79.5zM520 774q-4 0 -5 3l-23 62q-1 3 -4.5 3t-5.5 -3l-45 -62q-2 -3 -5 -3h-47q-3 0 -4.5 2t0.5 5l72 117q1 4 5 4h80q4 0 5 -4l30 -117q2 -7 -6 -7h-47z" />
    <glyph glyph-name="Otilde" unicode="&#xd5;" horiz-adv-x="744" 
d="M324 -10q-78 0 -132.5 26.5t-85.5 74.5t-39 114.5t6 146.5q14 79 45.5 145.5t79 114.5t111.5 75t142 27t132.5 -27t85.5 -75t39.5 -114.5t-5.5 -145.5q-14 -80 -45.5 -146.5t-79.5 -114.5t-112 -74.5t-142 -26.5zM334 50q118 0 193 79.5t101 222.5q25 143 -22 222.5
t-165 79.5t-193 -79.5t-100 -222.5q-26 -143 21 -222.5t165 -79.5zM317 792q2 13 10 28t21 28t31.5 21.5t42.5 8.5q22 0 37 -7t27 -16t23.5 -16t26.5 -7q7 0 20.5 8t18.5 33q2 5 6 5h48q6 0 4 -5l-2 -14q-2 -13 -10 -28t-21 -27.5t-31.5 -21t-42.5 -8.5q-20 0 -35.5 7
t-29 16t-25.5 16t-24 7q-7 0 -20.5 -8t-18.5 -33q-2 -5 -6 -5h-48q-6 0 -4 5z" />
    <glyph glyph-name="Odieresis" unicode="&#xd6;" horiz-adv-x="744" 
d="M324 -10q-78 0 -132.5 26.5t-85.5 74.5t-39 114.5t6 146.5q14 79 45.5 145.5t79 114.5t111.5 75t142 27t132.5 -27t85.5 -75t39.5 -114.5t-5.5 -145.5q-14 -80 -45.5 -146.5t-79.5 -114.5t-112 -74.5t-142 -26.5zM334 50q118 0 193 79.5t101 222.5q25 143 -22 222.5
t-165 79.5t-193 -79.5t-100 -222.5q-26 -143 21 -222.5t165 -79.5zM399 864q4 0 4 -5l-14 -80q-2 -5 -6 -5h-80q-6 0 -4 5l14 80q0 5 6 5h80zM618 864q4 0 4 -5l-14 -80q-2 -5 -6 -5h-80q-6 0 -4 5l14 80q0 5 6 5h80z" />
    <glyph glyph-name="multiply" unicode="&#xd7;" horiz-adv-x="472" 
d="M484 504q5 3 7 0l39 -47q3 -3 -1 -7l-231 -196q-4 -4 -1 -7l161 -195q4 -4 -1 -7l-52 -44q-4 -4 -7 0l-161 196q-3 3 -7 0l-227 -195q-5 -3 -6 0l-38 47q-3 3 1 7l226 194q3 3 2 8l-160 191q-2 4 2 7l50 44q5 3 8 0l159 -192q2 -4 7 0z" />
    <glyph glyph-name="Oslash" unicode="&#xd8;" horiz-adv-x="744" 
d="M692 579q-4 -3 -2 -8q19 -45 21.5 -100t-8.5 -119q-14 -80 -45.5 -146t-79 -113.5t-111 -74t-141.5 -26.5l-2 -2q-76 0 -128 24t-84 68q-4 4 -10 0l-47 -40q-4 -4 -7 0l-30 36q-2 4 1 7l59 50q3 2 3 7q-30 89 -8 210q14 79 45.5 145.5t79 114.5t111.5 75t142 27
q70 0 120.5 -21t82.5 -60q5 -5 10 0l42 36q5 3 7 0l33 -39q2 -4 -2 -7zM337 52q118 0 191.5 78.5t99.5 221.5q8 48 10 90t-9 75q-3 7 -9 1l-451 -379q-4 -4 -1 -7q46 -82 166 -82zM148 352q-8 -45 -9.5 -82.5t5.5 -69.5q2 -8 8 -2l445 378q5 4 1 8q-49 70 -157 70
q-118 0 -193 -79.5t-100 -222.5z" />
    <glyph glyph-name="Ugrave" unicode="&#xd9;" horiz-adv-x="636" 
d="M643 704q6 0 4 -5l-82 -465q-9 -51 -35.5 -95.5t-65.5 -77.5t-87 -52t-99 -19t-93 19t-69.5 52t-39 77.5t-2.5 95.5l82 465q2 5 6 5h60q6 0 4 -5l-82 -465q-6 -36 2 -69.5t27.5 -59t49 -40.5t66.5 -15q36 0 70.5 15t62.5 40.5t47.5 59t25.5 69.5l82 465q2 5 6 5h60z
M400 774q-8 0 -10 7l-52 114q-2 3 0.5 5t5.5 2h67q9 0 9 -7l29 -114q2 -7 -6 -7h-43z" />
    <glyph glyph-name="Uacute" unicode="&#xda;" horiz-adv-x="636" 
d="M643 704q6 0 4 -5l-82 -465q-9 -51 -35.5 -95.5t-65.5 -77.5t-87 -52t-99 -19t-93 19t-69.5 52t-39 77.5t-2.5 95.5l82 465q2 5 6 5h60q6 0 4 -5l-82 -465q-6 -36 2 -69.5t27.5 -59t49 -40.5t66.5 -15q36 0 70.5 15t62.5 40.5t47.5 59t25.5 69.5l82 465q2 5 6 5h60z
M341 774q-3 0 -4.5 2t0.5 5l69 114q2 2 4 4.5t7 2.5h67q3 0 5 -2t-1 -5l-92 -114q-2 -2 -5 -4.5t-7 -2.5h-43z" />
    <glyph glyph-name="Ucircumflex" unicode="&#xdb;" horiz-adv-x="636" 
d="M643 704q6 0 4 -5l-82 -465q-9 -51 -35.5 -95.5t-65.5 -77.5t-87 -52t-99 -19t-93 19t-69.5 52t-39 77.5t-2.5 95.5l82 465q2 5 6 5h60q6 0 4 -5l-82 -465q-6 -36 2 -69.5t27.5 -59t49 -40.5t66.5 -15q36 0 70.5 15t62.5 40.5t47.5 59t25.5 69.5l82 465q2 5 6 5h60z
M456 774q-4 0 -5 3l-23 62q-1 3 -4.5 3t-5.5 -3l-45 -62q-2 -3 -5 -3h-47q-3 0 -4.5 2t0.5 5l72 117q1 4 5 4h80q4 0 5 -4l30 -117q2 -7 -6 -7h-47z" />
    <glyph glyph-name="Udieresis" unicode="&#xdc;" horiz-adv-x="636" 
d="M643 704q6 0 4 -5l-82 -465q-9 -51 -35.5 -95.5t-65.5 -77.5t-87 -52t-99 -19t-93 19t-69.5 52t-39 77.5t-2.5 95.5l82 465q2 5 6 5h60q6 0 4 -5l-82 -465q-6 -36 2 -69.5t27.5 -59t49 -40.5t66.5 -15q36 0 70.5 15t62.5 40.5t47.5 59t25.5 69.5l82 465q2 5 6 5h60z
M353 864q4 0 4 -5l-14 -80q-2 -5 -6 -5h-80q-6 0 -4 5l14 80q0 5 6 5h80zM572 864q4 0 4 -5l-14 -80q-2 -5 -6 -5h-80q-6 0 -4 5l14 80q0 5 6 5h80z" />
    <glyph glyph-name="Yacute" unicode="&#xdd;" horiz-adv-x="674" 
d="M228 704q5 0 8 -5l134 -309q4 -6 8 0l246 309q3 5 9 5h69q3 0 1 -5l-301 -377q-4 -5 -4.5 -8t-2.5 -8l-53 -301q0 -5 -6 -5h-60q-4 0 -4 5l53 301q1 4 1 7.5t-2 8.5l-167 377q-2 2 -0.5 3.5t3.5 1.5h68zM380 774q-3 0 -4.5 2t0.5 5l69 114q2 2 4 4.5t7 2.5h67q3 0 5 -2
t-1 -5l-92 -114q-2 -2 -5 -4.5t-7 -2.5h-43z" />
    <glyph glyph-name="Thorn" unicode="&#xde;" horiz-adv-x="632" 
d="M231 704q4 0 4 -5l-26 -148q-2 -5 4 -5h254q40 0 71.5 -15.5t51.5 -42t28.5 -62t1.5 -74.5q-7 -40 -27.5 -75t-50.5 -61.5t-67 -42t-77 -15.5h-254q-4 0 -6 -5l-26 -148q0 -5 -6 -5h-60q-4 0 -4 5l123 694q0 5 6 5h60zM202 486q-4 0 -6 -5l-45 -258q-2 -5 4 -5h254
q24 0 47 11t42.5 29.5t33 43t18.5 50.5q4 26 -1 50.5t-17.5 43t-32 29.5t-43.5 11h-254z" />
    <glyph glyph-name="germandbls" unicode="&#xdf;" horiz-adv-x="598" 
d="M213 45q2 5 6 5h39q84 0 133 35.5t62 109.5q6 36 -4 62.5t-30.5 43.5t-46.5 25.5t-51 8.5h-23q-5 0 -5 5l9 50q2 5 6 5h23q25 0 52 7t50 22.5t40 41t24 62.5q10 58 -29.5 93t-116.5 35q-33 0 -59.5 -13t-45.5 -34t-31 -48t-17 -55l-89 -501q0 -5 -6 -5h-60q-4 0 -4 5
l89 501q9 53 32.5 92t55.5 65t69.5 38.5t75.5 12.5q60 0 101 -15t64.5 -40.5t31 -59.5t1.5 -71q-4 -23 -15 -46.5t-28 -45t-40.5 -39t-51.5 -27.5q-5 -2 -6 -6t4 -5q16 -3 37 -14t37.5 -30.5t25 -49t1.5 -70.5q-17 -98 -84.5 -151.5t-190.5 -53.5h-39q-6 0 -4 5z" />
    <glyph glyph-name="agrave" unicode="&#xe0;" horiz-adv-x="628" 
d="M101 335q8 46 31 80t56 56.5t74.5 33.5t86.5 11q103 0 155 -45t36 -135l-58 -331q0 -5 -6 -5h-50q-2 0 -4 5l-2 45q0 4 -3 4t-6 -2q-6 -6 -21.5 -16t-39 -19.5t-55.5 -17.5t-71 -9q-99 0 -143.5 43t-32.5 111q12 69 72.5 109.5t167.5 40.5h125q12 0 21.5 0.5t16.5 4.5
t11.5 12.5t7.5 24.5q4 19 3.5 40.5t-12.5 39t-40.5 29t-81.5 11.5q-75 0 -116 -30.5t-52 -90.5q0 -5 -6 -5h-60q-4 0 -4 5zM452 229q0 5 -5 5h-166q-48 0 -78.5 -8t-48.5 -20.5t-25.5 -29t-10.5 -32.5q-3 -17 1 -34t18 -30.5t38 -21.5t60 -8q49 0 86.5 14.5t63.5 37t41.5 50
t20.5 53.5zM362 576q-8 0 -10 7l-52 114q-2 3 0.5 5t5.5 2h67q9 0 9 -7l29 -114q2 -7 -6 -7h-43z" />
    <glyph glyph-name="aacute" unicode="&#xe1;" horiz-adv-x="628" 
d="M101 335q8 46 31 80t56 56.5t74.5 33.5t86.5 11q103 0 155 -45t36 -135l-58 -331q0 -5 -6 -5h-50q-2 0 -4 5l-2 45q0 4 -3 4t-6 -2q-6 -6 -21.5 -16t-39 -19.5t-55.5 -17.5t-71 -9q-99 0 -143.5 43t-32.5 111q12 69 72.5 109.5t167.5 40.5h125q12 0 21.5 0.5t16.5 4.5
t11.5 12.5t7.5 24.5q4 19 3.5 40.5t-12.5 39t-40.5 29t-81.5 11.5q-75 0 -116 -30.5t-52 -90.5q0 -5 -6 -5h-60q-4 0 -4 5zM452 229q0 5 -5 5h-166q-48 0 -78.5 -8t-48.5 -20.5t-25.5 -29t-10.5 -32.5q-3 -17 1 -34t18 -30.5t38 -21.5t60 -8q49 0 86.5 14.5t63.5 37t41.5 50
t20.5 53.5zM293 576q-3 0 -4.5 2t0.5 5l69 114q2 2 4 4.5t7 2.5h67q3 0 5 -2t-1 -5l-92 -114q-2 -2 -5 -4.5t-7 -2.5h-43z" />
    <glyph glyph-name="acircumflex" unicode="&#xe2;" horiz-adv-x="616" 
d="M89 335q8 46 31 80t56 56.5t74.5 33.5t86.5 11q103 0 155 -45t36 -135l-58 -331q0 -5 -6 -5h-50q-2 0 -4 5l-2 45q0 4 -3 4t-6 -2q-6 -6 -21.5 -16t-39 -19.5t-55.5 -17.5t-71 -9q-99 0 -143.5 43t-32.5 111q12 69 72.5 109.5t167.5 40.5h125q12 0 21.5 0.5t16.5 4.5
t11.5 12.5t7.5 24.5q4 19 3.5 40.5t-12.5 39t-40.5 29t-81.5 11.5q-75 0 -116 -30.5t-52 -90.5q0 -5 -6 -5h-60q-4 0 -4 5zM440 229q0 5 -5 5h-166q-48 0 -78.5 -8t-48.5 -20.5t-25.5 -29t-10.5 -32.5q-3 -17 1 -34t18 -30.5t38 -21.5t60 -8q49 0 86.5 14.5t63.5 37t41.5 50
t20.5 53.5zM391 576q-4 0 -5 3l-23 62q-1 3 -4.5 3t-5.5 -3l-45 -62q-2 -3 -5 -3h-47q-3 0 -4.5 2t0.5 5l72 117q1 4 5 4h80q4 0 5 -4l30 -117q2 -7 -6 -7h-47z" />
    <glyph glyph-name="atilde" unicode="&#xe3;" horiz-adv-x="616" 
d="M89 335q8 46 31 80t56 56.5t74.5 33.5t86.5 11q103 0 155 -45t36 -135l-58 -331q0 -5 -6 -5h-50q-2 0 -4 5l-2 45q0 4 -3 4t-6 -2q-6 -6 -21.5 -16t-39 -19.5t-55.5 -17.5t-71 -9q-99 0 -143.5 43t-32.5 111q12 69 72.5 109.5t167.5 40.5h125q12 0 21.5 0.5t16.5 4.5
t11.5 12.5t7.5 24.5q4 19 3.5 40.5t-12.5 39t-40.5 29t-81.5 11.5q-75 0 -116 -30.5t-52 -90.5q0 -5 -6 -5h-60q-4 0 -4 5zM440 229q0 5 -5 5h-166q-48 0 -78.5 -8t-48.5 -20.5t-25.5 -29t-10.5 -32.5q-3 -17 1 -34t18 -30.5t38 -21.5t60 -8q49 0 86.5 14.5t63.5 37t41.5 50
t20.5 53.5zM212 618q2 13 10 28t21 28t31.5 21.5t42.5 8.5q22 0 37 -7t27 -16t23.5 -16t26.5 -7q7 0 20.5 8t18.5 33q2 5 6 5h48q6 0 4 -5l-2 -14q-2 -13 -10 -28t-21 -27.5t-31.5 -21t-42.5 -8.5q-20 0 -35.5 7t-29 16t-25.5 16t-24 7q-7 0 -20.5 -8t-18.5 -33q-2 -5 -6 -5
h-48q-6 0 -4 5z" />
    <glyph glyph-name="adieresis" unicode="&#xe4;" horiz-adv-x="628" 
d="M101 335q8 46 31 80t56 56.5t74.5 33.5t86.5 11q103 0 155 -45t36 -135l-58 -331q0 -5 -6 -5h-50q-2 0 -4 5l-2 45q0 4 -3 4t-6 -2q-6 -6 -21.5 -16t-39 -19.5t-55.5 -17.5t-71 -9q-99 0 -143.5 43t-32.5 111q12 69 72.5 109.5t167.5 40.5h125q12 0 21.5 0.5t16.5 4.5
t11.5 12.5t7.5 24.5q4 19 3.5 40.5t-12.5 39t-40.5 29t-81.5 11.5q-75 0 -116 -30.5t-52 -90.5q0 -5 -6 -5h-60q-4 0 -4 5zM452 229q0 5 -5 5h-166q-48 0 -78.5 -8t-48.5 -20.5t-25.5 -29t-10.5 -32.5q-3 -17 1 -34t18 -30.5t38 -21.5t60 -8q49 0 86.5 14.5t63.5 37t41.5 50
t20.5 53.5zM328 704q4 0 4 -5l-14 -80q-2 -5 -6 -5h-80q-6 0 -4 5l14 80q0 5 6 5h80zM547 704q4 0 4 -5l-14 -80q-2 -5 -6 -5h-80q-6 0 -4 5l14 80q0 5 6 5h80z" />
    <glyph glyph-name="aring" unicode="&#xe5;" horiz-adv-x="628" 
d="M101 335q8 46 31 80t56 56.5t74.5 33.5t86.5 11q103 0 155 -45t36 -135l-58 -331q0 -5 -6 -5h-50q-2 0 -4 5l-2 45q0 4 -3 4t-6 -2q-6 -6 -21.5 -16t-39 -19.5t-55.5 -17.5t-71 -9q-99 0 -143.5 43t-32.5 111q12 69 72.5 109.5t167.5 40.5h125q12 0 21.5 0.5t16.5 4.5
t11.5 12.5t7.5 24.5q4 19 3.5 40.5t-12.5 39t-40.5 29t-81.5 11.5q-75 0 -116 -30.5t-52 -90.5q0 -5 -6 -5h-60q-4 0 -4 5zM452 229q0 5 -5 5h-166q-48 0 -78.5 -8t-48.5 -20.5t-25.5 -29t-10.5 -32.5q-3 -17 1 -34t18 -30.5t38 -21.5t60 -8q49 0 86.5 14.5t63.5 37t41.5 50
t20.5 53.5zM474 627q-3 -18 -13 -34t-24.5 -27.5t-31.5 -18.5t-35 -7q-36 0 -57 25.5t-14 61.5q3 18 12.5 34t23.5 28t31 19t35 7q36 0 57.5 -26t15.5 -62zM435 627q3 20 -9 34.5t-32 14.5q-21 0 -38 -14.5t-20 -34.5q-4 -21 8 -35.5t33 -14.5q20 0 37 14.5t21 35.5z" />
    <glyph glyph-name="ae" unicode="&#xe6;" horiz-adv-x="982" 
d="M100 340q8 43 30.5 76t55.5 55.5t74.5 33.5t86.5 11q68 0 114.5 -19.5t66.5 -59.5q4 -7 11 -1q41 35 89.5 58t108.5 23q56 0 97.5 -18t66.5 -52t33 -81.5t-2 -105.5q-1 -5 -2.5 -12t-3.5 -9q-2 -5 -7 -5h-394q-5 0 -5 -5q-6 -33 -0.5 -65t22.5 -57.5t45.5 -41t67.5 -15.5
q30 0 55 7t45 18t34.5 25t24.5 28q2 5 9 5h64q6 0 5 -5q-35 -69 -101 -103.5t-147 -34.5q-65 0 -109.5 26t-69.5 72q-5 7 -10 0q-18 -20 -44 -38q-8 -6 -23.5 -15.5t-39.5 -19t-55.5 -17t-70.5 -8.5q-99 0 -143.5 43t-32.5 111q12 69 72.5 109.5t167.5 40.5h125
q12 0 21.5 0.5t16.5 4.5t11.5 12.5t7.5 24.5q4 19 3.5 40.5t-12.5 39t-40.5 29t-81.5 11.5q-75 0 -116 -30.5t-51 -85.5q0 -5 -6 -5h-60q-4 0 -4 5zM450 229q0 5 -5 5h-166q-48 0 -78.5 -8t-48.5 -20.5t-25.5 -29t-10.5 -32.5q-3 -17 1 -34t18 -30.5t38 -21.5t60 -8
q49 0 86.5 14.5t63.5 37t41.5 50t20.5 53.5zM863 299q5 27 0.5 55t-20 51t-44 37.5t-72.5 14.5q-43 0 -77.5 -16.5t-59 -40.5t-39.5 -51.5t-19 -49.5q-2 -5 4 -5h321q4 0 6 5z" />
    <glyph glyph-name="ccedilla" unicode="&#xe7;" horiz-adv-x="552" 
d="M462 171q3 5 7 5h59q6 0 4 -5q-8 -24 -24.5 -52.5t-43 -54t-63.5 -45.5t-85 -26l-60 -38q-2 -2 -2 -5t4 -3q13 0 26 -4t23 -13t15 -23t2 -34q-6 -31 -36 -56t-79 -25q-45 0 -62.5 25.5t-11.5 55.5q0 5 5 5h33q5 0 5 -5q-3 -16 7.5 -29.5t30.5 -13.5q24 0 39.5 13.5
t18.5 29.5q2 14 -2 23.5t-11 15t-16.5 8t-17.5 2.5q-13 0 -15 3l-7 8q-3 4 -2 7t3 5l52 36q3 2 2.5 5.5t-4.5 3.5h-4q-54 0 -92.5 20t-61 55.5t-29 83.5t3.5 104q10 59 35 107.5t63 83t87.5 53.5t108.5 19q58 0 96 -18.5t60 -46t30.5 -59t7.5 -57.5q-2 -5 -6 -5h-59
q-5 0 -5 5q-5 57 -38.5 89t-96.5 32q-42 0 -77.5 -15t-63 -41.5t-46 -64t-26.5 -82.5t-2.5 -82.5t23.5 -64t48.5 -41.5t72.5 -15q63 0 107.5 32t69.5 89z" />
    <glyph glyph-name="egrave" unicode="&#xe8;" horiz-adv-x="589" 
d="M141 227q-4 0 -6 -5q-6 -33 0 -64t23.5 -55t46 -38.5t67.5 -14.5q30 0 55 7t45 18t34.5 25t24.5 28q2 5 9 5h64q6 0 5 -5q-35 -69 -101 -103.5t-147 -34.5q-54 0 -95.5 19t-67.5 54t-35 83t2 107q10 59 35.5 107.5t63 83.5t86 54t104.5 19t97.5 -19.5t66 -54t32.5 -83.5
t-2 -107q-1 -5 -2.5 -12t-3.5 -9q-2 -5 -7 -5h-394zM479 292q4 27 0 56t-19.5 53.5t-43.5 40t-72 15.5q-43 0 -77.5 -17.5t-59.5 -42.5t-40 -54t-19 -51q-2 -5 4 -5h321q4 0 6 5zM350 576q-8 0 -10 7l-52 114q-2 3 0.5 5t5.5 2h67q9 0 9 -7l29 -114q2 -7 -6 -7h-43z" />
    <glyph glyph-name="eacute" unicode="&#xe9;" horiz-adv-x="589" 
d="M141 227q-4 0 -6 -5q-6 -33 0 -64t23.5 -55t46 -38.5t67.5 -14.5q30 0 55 7t45 18t34.5 25t24.5 28q2 5 9 5h64q6 0 5 -5q-35 -69 -101 -103.5t-147 -34.5q-54 0 -95.5 19t-67.5 54t-35 83t2 107q10 59 35.5 107.5t63 83.5t86 54t104.5 19t97.5 -19.5t66 -54t32.5 -83.5
t-2 -107q-1 -5 -2.5 -12t-3.5 -9q-2 -5 -7 -5h-394zM479 292q4 27 0 56t-19.5 53.5t-43.5 40t-72 15.5q-43 0 -77.5 -17.5t-59.5 -42.5t-40 -54t-19 -51q-2 -5 4 -5h321q4 0 6 5zM291 576q-3 0 -4.5 2t0.5 5l69 114q2 2 4 4.5t7 2.5h67q3 0 5 -2t-1 -5l-92 -114
q-2 -2 -5 -4.5t-7 -2.5h-43z" />
    <glyph glyph-name="ecircumflex" unicode="&#xea;" horiz-adv-x="589" 
d="M141 227q-4 0 -6 -5q-6 -33 0 -64t23.5 -55t46 -38.5t67.5 -14.5q30 0 55 7t45 18t34.5 25t24.5 28q2 5 9 5h64q6 0 5 -5q-35 -69 -101 -103.5t-147 -34.5q-54 0 -95.5 19t-67.5 54t-35 83t2 107q10 59 35.5 107.5t63 83.5t86 54t104.5 19t97.5 -19.5t66 -54t32.5 -83.5
t-2 -107q-1 -5 -2.5 -12t-3.5 -9q-2 -5 -7 -5h-394zM479 292q4 27 0 56t-19.5 53.5t-43.5 40t-72 15.5q-43 0 -77.5 -17.5t-59.5 -42.5t-40 -54t-19 -51q-2 -5 4 -5h321q4 0 6 5zM408 576q-4 0 -5 3l-23 62q-1 3 -4.5 3t-5.5 -3l-45 -62q-2 -3 -5 -3h-47q-3 0 -4.5 2t0.5 5
l72 117q1 4 5 4h80q4 0 5 -4l30 -117q2 -7 -6 -7h-47z" />
    <glyph glyph-name="edieresis" unicode="&#xeb;" horiz-adv-x="589" 
d="M141 227q-4 0 -6 -5q-6 -33 0 -64t23.5 -55t46 -38.5t67.5 -14.5q30 0 55 7t45 18t34.5 25t24.5 28q2 5 9 5h64q6 0 5 -5q-35 -69 -101 -103.5t-147 -34.5q-54 0 -95.5 19t-67.5 54t-35 83t2 107q10 59 35.5 107.5t63 83.5t86 54t104.5 19t97.5 -19.5t66 -54t32.5 -83.5
t-2 -107q-1 -5 -2.5 -12t-3.5 -9q-2 -5 -7 -5h-394zM479 292q4 27 0 56t-19.5 53.5t-43.5 40t-72 15.5q-43 0 -77.5 -17.5t-59.5 -42.5t-40 -54t-19 -51q-2 -5 4 -5h321q4 0 6 5zM306 704q4 0 4 -5l-14 -80q-2 -5 -6 -5h-80q-6 0 -4 5l14 80q0 5 6 5h80zM525 704q4 0 4 -5
l-14 -80q-2 -5 -6 -5h-80q-6 0 -4 5l14 80q0 5 6 5h80z" />
    <glyph glyph-name="igrave" unicode="&#xec;" horiz-adv-x="266" 
d="M214 506q5 0 5 -5l-88 -496q0 -5 -6 -5h-60q-4 0 -4 5l88 496q0 5 5 5h60zM179 576q-8 0 -10 7l-52 114q-2 3 0.5 5t5.5 2h67q9 0 9 -7l29 -114q2 -7 -6 -7h-43z" />
    <glyph glyph-name="iacute" unicode="&#xed;" horiz-adv-x="266" 
d="M214 506q5 0 5 -5l-88 -496q0 -5 -6 -5h-60q-4 0 -4 5l88 496q0 5 5 5h60zM165 576q-3 0 -4.5 2t0.5 5l69 114q2 2 4 4.5t7 2.5h67q3 0 5 -2t-1 -5l-92 -114q-2 -2 -5 -4.5t-7 -2.5h-43z" />
    <glyph glyph-name="icircumflex" unicode="&#xee;" horiz-adv-x="266" 
d="M214 506q5 0 5 -5l-88 -496q0 -5 -6 -5h-60q-4 0 -4 5l88 496q0 5 5 5h60zM237 576q-4 0 -5 3l-23 62q-1 3 -4.5 3t-5.5 -3l-45 -62q-2 -3 -5 -3h-47q-3 0 -4.5 2t0.5 5l72 117q1 4 5 4h80q4 0 5 -4l30 -117q2 -7 -6 -7h-47z" />
    <glyph glyph-name="idieresis" unicode="&#xef;" horiz-adv-x="266" 
d="M214 506q5 0 5 -5l-88 -496q0 -5 -6 -5h-60q-4 0 -4 5l88 496q0 5 5 5h60zM145 704q4 0 4 -5l-14 -80q-2 -5 -6 -5h-80q-6 0 -4 5l14 80q0 5 6 5h80zM364 704q4 0 4 -5l-14 -80q-2 -5 -6 -5h-80q-6 0 -4 5l14 80q0 5 6 5h80z" />
    <glyph glyph-name="eth" unicode="&#xf0;" horiz-adv-x="603" 
d="M396 558q-1 7 -6 5l-86 -42q-6 -4 -10 2l-14 40q-2 5 2 8l88 43q4 2 4 4v4l-28 76q-2 6 5 6h62q6 0 7 -5l17 -47q1 -4 8 -2l85 42q4 4 8 -2l14 -41q2 -4 -2 -8l-86 -42q-8 -2 -6 -7l74 -207q11 -31 15 -68.5t-3 -78.5q-10 -54 -34.5 -99.5t-62 -78.5t-87 -51.5
t-107.5 -18.5q-59 0 -102 18.5t-69 51.5t-35 78.5t1 99.5q10 55 36 101.5t63.5 79.5t83.5 51.5t97 18.5q31 0 55.5 -7t36.5 -13q4 -2 5.5 0t0.5 4zM118 238q-15 -87 21 -137.5t125 -50.5q88 0 141.5 50.5t68.5 137.5t-20 139t-123 52q-89 0 -143.5 -52t-69.5 -139z" />
    <glyph glyph-name="ntilde" unicode="&#xf1;" horiz-adv-x="608" 
d="M480 272q6 37 4 70t-16 58.5t-41.5 40.5t-70.5 15q-84 0 -128 -47t-60 -137l-47 -267q-2 -5 -6 -5h-60q-6 0 -4 5l87 496q2 5 6 5h49q5 0 5 -5v-55q0 -5 3.5 -5t6.5 3q6 7 21 19t37 24t50 20.5t61 8.5q57 0 95 -17.5t58.5 -49.5t25 -77t-5.5 -100l-47 -267q-2 -5 -6 -5
h-60q-6 0 -4 5zM219 618q2 13 10 28t21 28t31.5 21.5t42.5 8.5q22 0 37 -7t27 -16t23.5 -16t26.5 -7q7 0 20.5 8t18.5 33q2 5 6 5h48q6 0 4 -5l-2 -14q-2 -13 -10 -28t-21 -27.5t-31.5 -21t-42.5 -8.5q-20 0 -35.5 7t-29 16t-25.5 16t-24 7q-7 0 -20.5 -8t-18.5 -33
q-2 -5 -6 -5h-48q-6 0 -4 5z" />
    <glyph glyph-name="ograve" unicode="&#xf2;" horiz-adv-x="592" 
d="M551 253q-11 -59 -36 -107t-63.5 -83t-88 -54t-107.5 -19q-59 0 -101.5 19t-68 54t-34 83t2.5 107q10 59 35 107.5t63 83t87.5 53.5t108.5 19q58 0 101 -19t68.5 -54t34 -83.5t-1.5 -106.5zM481 253q8 45 2.5 82.5t-24 64t-48.5 41.5t-72 15t-77.5 -15t-63.5 -41.5
t-46.5 -64t-26.5 -82.5t-2.5 -82.5t24 -64t48.5 -41.5t72 -15t77.5 15t63 41.5t46.5 64t27 82.5zM364 576q-8 0 -10 7l-52 114q-2 3 0.5 5t5.5 2h67q9 0 9 -7l29 -114q2 -7 -6 -7h-43z" />
    <glyph glyph-name="oacute" unicode="&#xf3;" horiz-adv-x="592" 
d="M551 253q-11 -59 -36 -107t-63.5 -83t-88 -54t-107.5 -19q-59 0 -101.5 19t-68 54t-34 83t2.5 107q10 59 35 107.5t63 83t87.5 53.5t108.5 19q58 0 101 -19t68.5 -54t34 -83.5t-1.5 -106.5zM481 253q8 45 2.5 82.5t-24 64t-48.5 41.5t-72 15t-77.5 -15t-63.5 -41.5
t-46.5 -64t-26.5 -82.5t-2.5 -82.5t24 -64t48.5 -41.5t72 -15t77.5 15t63 41.5t46.5 64t27 82.5zM295 576q-3 0 -4.5 2t0.5 5l69 114q2 2 4 4.5t7 2.5h67q3 0 5 -2t-1 -5l-92 -114q-2 -2 -5 -4.5t-7 -2.5h-43z" />
    <glyph glyph-name="ocircumflex" unicode="&#xf4;" horiz-adv-x="592" 
d="M551 253q-11 -59 -36 -107t-63.5 -83t-88 -54t-107.5 -19q-59 0 -101.5 19t-68 54t-34 83t2.5 107q10 59 35 107.5t63 83t87.5 53.5t108.5 19q58 0 101 -19t68.5 -54t34 -83.5t-1.5 -106.5zM481 253q8 45 2.5 82.5t-24 64t-48.5 41.5t-72 15t-77.5 -15t-63.5 -41.5
t-46.5 -64t-26.5 -82.5t-2.5 -82.5t24 -64t48.5 -41.5t72 -15t77.5 15t63 41.5t46.5 64t27 82.5zM410 576q-4 0 -5 3l-23 62q-1 3 -4.5 3t-5.5 -3l-45 -62q-2 -3 -5 -3h-47q-3 0 -4.5 2t0.5 5l72 117q1 4 5 4h80q4 0 5 -4l30 -117q2 -7 -6 -7h-47z" />
    <glyph glyph-name="otilde" unicode="&#xf5;" horiz-adv-x="592" 
d="M551 253q-11 -59 -36 -107t-63.5 -83t-88 -54t-107.5 -19q-59 0 -101.5 19t-68 54t-34 83t2.5 107q10 59 35 107.5t63 83t87.5 53.5t108.5 19q58 0 101 -19t68.5 -54t34 -83.5t-1.5 -106.5zM481 253q8 45 2.5 82.5t-24 64t-48.5 41.5t-72 15t-77.5 -15t-63.5 -41.5
t-46.5 -64t-26.5 -82.5t-2.5 -82.5t24 -64t48.5 -41.5t72 -15t77.5 15t63 41.5t46.5 64t27 82.5zM211 618q2 13 10 28t21 28t31.5 21.5t42.5 8.5q22 0 37 -7t27 -16t23.5 -16t26.5 -7q7 0 20.5 8t18.5 33q2 5 6 5h48q6 0 4 -5l-2 -14q-2 -13 -10 -28t-21 -27.5t-31.5 -21
t-42.5 -8.5q-20 0 -35.5 7t-29 16t-25.5 16t-24 7q-7 0 -20.5 -8t-18.5 -33q-2 -5 -6 -5h-48q-6 0 -4 5z" />
    <glyph glyph-name="odieresis" unicode="&#xf6;" horiz-adv-x="592" 
d="M551 253q-11 -59 -36 -107t-63.5 -83t-88 -54t-107.5 -19q-59 0 -101.5 19t-68 54t-34 83t2.5 107q10 59 35 107.5t63 83t87.5 53.5t108.5 19q58 0 101 -19t68.5 -54t34 -83.5t-1.5 -106.5zM481 253q8 45 2.5 82.5t-24 64t-48.5 41.5t-72 15t-77.5 -15t-63.5 -41.5
t-46.5 -64t-26.5 -82.5t-2.5 -82.5t24 -64t48.5 -41.5t72 -15t77.5 15t63 41.5t46.5 64t27 82.5zM300 704q4 0 4 -5l-14 -80q-2 -5 -6 -5h-80q-6 0 -4 5l14 80q0 5 6 5h80zM519 704q4 0 4 -5l-14 -80q-2 -5 -6 -5h-80q-6 0 -4 5l14 80q0 5 6 5h80z" />
    <glyph glyph-name="divide" unicode="&#xf7;" horiz-adv-x="235" 
d="M29 0q-4 0 -4 5l18 100q0 5 6 5h100q4 0 4 -5l-18 -100q0 -5 -6 -5h-100zM99 396q-6 0 -4 5l18 100q0 5 5 5h100q5 0 5 -5l-18 -100q-2 -5 -6 -5h-100zM-117 218q-6 0 -4 5l10 60q2 5 6 5h496q6 0 4 -5l-10 -60q-2 -5 -6 -5h-496z" />
    <glyph glyph-name="oslash" unicode="&#xf8;" horiz-adv-x="592" 
d="M539 420q-4 -4 -2 -8q31 -66 14 -159q-11 -59 -36 -107t-63.5 -83t-88 -54t-107.5 -19q-51 0 -88.5 13.5t-64.5 39.5q-4 3 -7 0l-48 -41q-5 -4 -7 0l-29 36q-3 3 1 7l52 44q4 4 1 8q-13 32 -16 71.5t5 84.5q10 59 35 107.5t63 83t87.5 53.5t108.5 19q95 0 149 -51
q2 -2 5 -2t5 3l45 38q3 3 7 0l29 -36q2 -4 -2 -7zM481 253q10 61 -4 106q-2 7 -7 2l-308 -262q-5 -3 -2 -8q20 -20 46 -30.5t61 -10.5q42 0 77.5 15t63 41.5t46.5 64t27 82.5zM125 253q-5 -30 -4.5 -55.5t5.5 -48.5q1 -2 3.5 -2.5t5.5 2.5l307 261q6 4 2 8q-38 38 -105 38
q-42 0 -77.5 -15t-63.5 -41.5t-46.5 -64t-26.5 -82.5z" />
    <glyph glyph-name="ugrave" unicode="&#xf9;" horiz-adv-x="578" 
d="M162 234q-6 -37 -4 -70t16 -58.5t41 -40.5t70 -15q84 0 128.5 47t60.5 137l47 267q2 5 6 5h60q6 0 4 -5l-87 -496q-2 -5 -6 -5h-49q-5 0 -5 5l-1 55q0 5 -3.5 5t-5.5 -3q-7 -7 -22 -19t-36.5 -24t-49.5 -20.5t-61 -8.5q-57 0 -95 17.5t-58.5 49.5t-25 76.5t5.5 100.5
l47 267q2 5 6 5h60q6 0 4 -5zM365 576q-8 0 -10 7l-52 114q-2 3 0.5 5t5.5 2h67q9 0 9 -7l29 -114q2 -7 -6 -7h-43z" />
    <glyph glyph-name="uacute" unicode="&#xfa;" horiz-adv-x="578" 
d="M162 234q-6 -37 -4 -70t16 -58.5t41 -40.5t70 -15q84 0 128.5 47t60.5 137l47 267q2 5 6 5h60q6 0 4 -5l-87 -496q-2 -5 -6 -5h-49q-5 0 -5 5l-1 55q0 5 -3.5 5t-5.5 -3q-7 -7 -22 -19t-36.5 -24t-49.5 -20.5t-61 -8.5q-57 0 -95 17.5t-58.5 49.5t-25 76.5t5.5 100.5
l47 267q2 5 6 5h60q6 0 4 -5zM296 576q-3 0 -4.5 2t0.5 5l69 114q2 2 4 4.5t7 2.5h67q3 0 5 -2t-1 -5l-92 -114q-2 -2 -5 -4.5t-7 -2.5h-43z" />
    <glyph glyph-name="ucircumflex" unicode="&#xfb;" horiz-adv-x="588" 
d="M132 234q-6 -37 -4 -70t16 -58.5t41 -40.5t70 -15q84 0 128.5 47t60.5 137l47 267q2 5 6 5h60q6 0 4 -5l-87 -496q-2 -5 -6 -5h-49q-5 0 -5 5l-1 55q0 5 -3.5 5t-5.5 -3q-7 -7 -22 -19t-36.5 -24t-49.5 -20.5t-61 -8.5q-57 0 -95 17.5t-58.5 49.5t-25 76.5t5.5 100.5
l47 267q2 5 6 5h60q6 0 4 -5zM398 576q-4 0 -5 3l-23 62q-1 3 -4.5 3t-5.5 -3l-45 -62q-2 -3 -5 -3h-47q-3 0 -4.5 2t0.5 5l72 117q1 4 5 4h80q4 0 5 -4l30 -117q2 -7 -6 -7h-47z" />
    <glyph glyph-name="udieresis" unicode="&#xfc;" horiz-adv-x="623" 
d="M162 234q-6 -37 -4 -70t16 -58.5t41 -40.5t70 -15q84 0 128.5 47t60.5 137l47 267q2 5 6 5h60q6 0 4 -5l-87 -496q-2 -5 -6 -5h-49q-5 0 -5 5l-1 55q0 5 -3.5 5t-5.5 -3q-7 -7 -22 -19t-36.5 -24t-49.5 -20.5t-61 -8.5q-57 0 -95 17.5t-58.5 49.5t-25 76.5t5.5 100.5
l47 267q2 5 6 5h60q6 0 4 -5zM320 704q4 0 4 -5l-14 -80q-2 -5 -6 -5h-80q-6 0 -4 5l14 80q0 5 6 5h80zM539 704q4 0 4 -5l-14 -80q-2 -5 -6 -5h-80q-6 0 -4 5l14 80q0 5 6 5h80z" />
    <glyph glyph-name="yacute" unicode="&#xfd;" horiz-adv-x="552" 
d="M490 501q3 5 8 5h63q6 0 3 -5l-255 -497l-39 -75q-15 -31 -29 -55t-31.5 -40t-40.5 -24t-56 -8h-103q-6 0 -4 5l9 50q0 5 6 5h102q16 0 27 4.5t19.5 13t15.5 21t15 28.5q6 12 9.5 27t-1.5 44l-82 501q0 5 5 5h63q6 0 6 -5l63 -437q1 -4 4.5 -4t5.5 4zM263 576
q-3 0 -4.5 2t0.5 5l69 114q2 2 4 4.5t7 2.5h67q3 0 5 -2t-1 -5l-92 -114q-2 -2 -5 -4.5t-7 -2.5h-43z" />
    <glyph glyph-name="thorn" unicode="&#xfe;" horiz-adv-x="622" 
d="M173 699q2 5 6 5h60q6 0 4 -5l-42 -243q-1 -2 1.5 -3t4.5 1q8 6 23.5 16.5t37.5 20.5t50 17.5t61 7.5q57 0 99 -19t68.5 -54t35.5 -83.5t-1 -106.5q-11 -59 -36 -107t-63.5 -83t-88 -54t-107.5 -19q-34 0 -59.5 7t-43.5 17t-29.5 20t-17.5 16q-4 5 -7 0l-43 -243
q-2 -5 -6 -5h-60q-4 0 -4 5zM511 253q8 45 2.5 82.5t-23.5 64t-48.5 41.5t-72.5 15t-76 -15t-60 -41.5t-43 -64t-25 -82.5t-4 -82.5t20 -64t45 -41.5t71 -15t77.5 15t63.5 41.5t46.5 64t26.5 82.5z" />
    <glyph glyph-name="ydieresis" unicode="&#xff;" horiz-adv-x="552" 
d="M490 501q3 5 8 5h63q6 0 3 -5l-255 -497l-39 -75q-15 -31 -29 -55t-31.5 -40t-40.5 -24t-56 -8h-103q-6 0 -4 5l9 50q0 5 6 5h102q16 0 27 4.5t19.5 13t15.5 21t15 28.5q6 12 9.5 27t-1.5 44l-82 501q0 5 5 5h63q6 0 6 -5l63 -437q1 -4 4.5 -4t5.5 4zM299 704q4 0 4 -5
l-14 -80q-2 -5 -6 -5h-80q-6 0 -4 5l14 80q0 5 6 5h80zM518 704q4 0 4 -5l-14 -80q-2 -5 -6 -5h-80q-6 0 -4 5l14 80q0 5 6 5h80z" />
    <glyph glyph-name="Amacron" unicode="&#x100;" horiz-adv-x="682" 
d="M483 158q0 5 -6 5h-308q-5 0 -8 -5l-77 -153q-2 -5 -8 -5h-64q-5 0 -3 5l353 694q2 5 7 5h100q3 0 5 -5l107 -694q2 -5 -5 -5h-64q-4 0 -6 5zM197 228q-3 -5 3 -5h269q4 0 4 5l-61 412q-1 4 -4.5 4t-5.5 -4zM294 774q-5 0 -3 5l7 40q2 5 5 5h246q6 0 4 -5l-7 -40
q-2 -5 -6 -5h-246z" />
    <glyph glyph-name="amacron" unicode="&#x101;" horiz-adv-x="616" 
d="M89 335q8 46 31 80t56 56.5t74.5 33.5t86.5 11q103 0 155 -45t36 -135l-58 -331q0 -5 -6 -5h-50q-2 0 -4 5l-2 45q0 4 -3 4t-6 -2q-6 -6 -21.5 -16t-39 -19.5t-55.5 -17.5t-71 -9q-99 0 -143.5 43t-32.5 111q12 69 72.5 109.5t167.5 40.5h125q12 0 21.5 0.5t16.5 4.5
t11.5 12.5t7.5 24.5q4 19 3.5 40.5t-12.5 39t-40.5 29t-81.5 11.5q-75 0 -116 -30.5t-52 -90.5q0 -5 -6 -5h-60q-4 0 -4 5zM440 229q0 5 -5 5h-166q-48 0 -78.5 -8t-48.5 -20.5t-25.5 -29t-10.5 -32.5q-3 -17 1 -34t18 -30.5t38 -21.5t60 -8q49 0 86.5 14.5t63.5 37t41.5 50
t20.5 53.5zM217 576q-5 0 -3 5l7 40q2 5 5 5h246q6 0 4 -5l-7 -40q-2 -5 -6 -5h-246z" />
    <glyph glyph-name="Abreve" unicode="&#x102;" horiz-adv-x="682" 
d="M483 158q0 5 -6 5h-308q-5 0 -8 -5l-77 -153q-2 -5 -8 -5h-64q-5 0 -3 5l353 694q2 5 7 5h100q3 0 5 -5l107 -694q2 -5 -5 -5h-64q-4 0 -6 5zM197 228q-3 -5 3 -5h269q4 0 4 5l-61 412q-1 4 -4.5 4t-5.5 -4zM566 902q6 0 4 -5q-11 -63 -50.5 -93t-94.5 -30
q-54 0 -84 30.5t-19 92.5q2 5 6 5h42q6 0 4 -5q-2 -11 -1 -23.5t7 -23.5t18.5 -18.5t34.5 -7.5t37 7.5t25 18.5t15 23.5t7 23.5q2 5 6 5h43z" />
    <glyph glyph-name="abreve" unicode="&#x103;" horiz-adv-x="575" 
d="M89 335q8 46 31 80t56 56.5t74.5 33.5t86.5 11q103 0 155 -45t36 -135l-58 -331q0 -5 -6 -5h-50q-2 0 -4 5l-2 45q0 4 -3 4t-6 -2q-6 -6 -21.5 -16t-39 -19.5t-55.5 -17.5t-71 -9q-99 0 -143.5 43t-32.5 111q12 69 72.5 109.5t167.5 40.5h125q12 0 21.5 0.5t16.5 4.5
t11.5 12.5t7.5 24.5q4 19 3.5 40.5t-12.5 39t-40.5 29t-81.5 11.5q-75 0 -116 -30.5t-52 -90.5q0 -5 -6 -5h-60q-4 0 -4 5zM440 229q0 5 -5 5h-166q-48 0 -78.5 -8t-48.5 -20.5t-25.5 -29t-10.5 -32.5q-3 -17 1 -34t18 -30.5t38 -21.5t60 -8q49 0 86.5 14.5t63.5 37t41.5 50
t20.5 53.5zM488 704q6 0 4 -5q-11 -63 -50.5 -93t-94.5 -30q-54 0 -84 30.5t-19 92.5q2 5 6 5h42q6 0 4 -5q-2 -11 -1 -23.5t7 -23.5t18.5 -18.5t34.5 -7.5t37 7.5t25 18.5t15 23.5t7 23.5q2 5 6 5h43z" />
    <glyph glyph-name="Aogonek" unicode="&#x104;" horiz-adv-x="682" 
d="M416 -98q6 37 32.5 64t60.5 36q5 2 5.5 4.5t-0.5 4.5l-22 147q0 5 -6 5h-308q-5 0 -8 -5l-77 -153q-2 -5 -8 -5h-64q-5 0 -3 5l352 694q3 5 7 5h100q5 0 5 -5l108 -694q2 -5 -5 -5h-15q-31 -1 -55 -21t-30 -51q-5 -32 13.5 -49t50.5 -17h11q6 0 4 -5l-9 -50q0 -5 -6 -5
h-21q-59 0 -89 28t-23 72zM205 228q-2 -5 4 -5h269q5 0 3 5l-60 412q-1 4 -4.5 4t-5.5 -4z" />
    <glyph glyph-name="aogonek" unicode="&#x105;" horiz-adv-x="616" 
d="M89 335q8 46 31 80t56 56.5t74.5 33.5t86.5 11q103 0 155 -45t36 -135l-58 -330q-1 -6 -7 -6q-9 0 -24.5 -6t-30.5 -15.5t-27 -23t-15 -28.5q-6 -32 12.5 -48.5t50.5 -16.5h11q6 0 4 -5l-9 -50q0 -5 -5 -5h-21q-59 0 -88.5 30t-23.5 74q3 14 13 28.5t25 27.5t33 23t36 15
q6 1 6 6l-2 44q0 4 -3 4t-6 -2q-6 -6 -21.5 -16t-39 -19.5t-55.5 -17.5t-71 -9q-99 0 -143.5 43t-32.5 111q12 69 72.5 109.5t167.5 40.5h125q12 0 21.5 0.5t16.5 4.5t11.5 12.5t7.5 24.5q4 19 3.5 40.5t-12.5 39t-40.5 29t-81.5 11.5q-75 0 -116 -30.5t-52 -90.5
q0 -5 -6 -5h-60q-4 0 -4 5zM440 229q0 5 -5 5h-166q-48 0 -78.5 -8t-48.5 -20.5t-25.5 -29t-10.5 -32.5q-3 -17 1 -34t18 -30.5t38 -21.5t60 -8q49 0 86.5 14.5t63.5 37t41.5 50t20.5 53.5z" />
    <glyph glyph-name="Cacute" unicode="&#x106;" horiz-adv-x="698" 
d="M573 193q3 5 8 5h59q6 0 4 -5q-5 -20 -27.5 -54t-62 -67t-94.5 -57.5t-125 -24.5q-75 0 -128.5 26.5t-85.5 74.5t-41 114.5t5 146.5q14 79 46.5 145.5t81 114.5t111.5 75t138 27q70 0 117 -24.5t74.5 -57.5t38.5 -67t9 -54q-2 -5 -6 -5h-59q-6 0 -6 5q-3 16 -13 40
t-30.5 47t-53.5 39.5t-81 16.5q-118 0 -193.5 -79.5t-100.5 -222.5q-26 -143 21.5 -222.5t165.5 -79.5q48 0 87 16.5t67.5 39.5t47 47t26.5 40zM412 774q-3 0 -4.5 2t0.5 5l69 114q2 2 4 4.5t7 2.5h67q3 0 5 -2t-1 -5l-92 -114q-2 -2 -5 -4.5t-7 -2.5h-43z" />
    <glyph glyph-name="cacute" unicode="&#x107;" horiz-adv-x="560" 
d="M444 171q3 5 7 5h59q6 0 4 -5q-8 -26 -27.5 -57.5t-51 -59t-76.5 -46t-103 -18.5q-59 0 -101.5 19t-68 53.5t-34 83t2.5 107.5q10 59 35 107.5t63 83t87.5 53.5t108.5 19q58 0 96.5 -18.5t60.5 -46t30 -59t7 -57.5q0 -5 -6 -5h-59q-3 0 -5 5q-5 57 -38 89t-96 32
q-42 0 -77.5 -15t-63.5 -41.5t-46.5 -64t-26.5 -82.5t-2.5 -82.5t24 -64t48.5 -41.5t72 -15q63 0 107.5 32t69.5 89zM297 576q-3 0 -4.5 2t0.5 5l69 114q2 2 4 4.5t7 2.5h67q3 0 5 -2t-1 -5l-92 -114q-2 -2 -5 -4.5t-7 -2.5h-43z" />
    <glyph glyph-name="Ccircumflex" unicode="&#x108;" horiz-adv-x="698" 
d="M573 193q3 5 8 5h59q6 0 4 -5q-5 -20 -27.5 -54t-62 -67t-94.5 -57.5t-125 -24.5q-75 0 -128.5 26.5t-85.5 74.5t-41 114.5t5 146.5q14 79 46.5 145.5t81 114.5t111.5 75t138 27q70 0 117 -24.5t74.5 -57.5t38.5 -67t9 -54q-2 -5 -6 -5h-59q-6 0 -6 5q-3 16 -13 40
t-30.5 47t-53.5 39.5t-81 16.5q-118 0 -193.5 -79.5t-100.5 -222.5q-26 -143 21.5 -222.5t165.5 -79.5q48 0 87 16.5t67.5 39.5t47 47t26.5 40zM527 774q-4 0 -5 3l-23 62q-1 3 -4.5 3t-5.5 -3l-45 -62q-2 -3 -5 -3h-47q-3 0 -4.5 2t0.5 5l72 117q1 4 5 4h80q4 0 5 -4
l30 -117q2 -7 -6 -7h-47z" />
    <glyph glyph-name="ccircumflex" unicode="&#x109;" horiz-adv-x="560" 
d="M444 171q3 5 7 5h59q6 0 4 -5q-8 -26 -27.5 -57.5t-51 -59t-76.5 -46t-103 -18.5q-59 0 -101.5 19t-68 53.5t-34 83t2.5 107.5q10 59 35 107.5t63 83t87.5 53.5t108.5 19q58 0 96.5 -18.5t60.5 -46t30 -59t7 -57.5q0 -5 -6 -5h-59q-3 0 -5 5q-5 57 -38 89t-96 32
q-42 0 -77.5 -15t-63.5 -41.5t-46.5 -64t-26.5 -82.5t-2.5 -82.5t24 -64t48.5 -41.5t72 -15q63 0 107.5 32t69.5 89zM394 576q-4 0 -5 3l-23 62q-1 3 -4.5 3t-5.5 -3l-45 -62q-2 -3 -5 -3h-47q-3 0 -4.5 2t0.5 5l72 117q1 4 5 4h80q4 0 5 -4l30 -117q2 -7 -6 -7h-47z" />
    <glyph glyph-name="Cdotaccent" unicode="&#x10a;" horiz-adv-x="698" 
d="M573 193q3 5 8 5h59q6 0 4 -5q-5 -20 -27.5 -54t-62 -67t-94.5 -57.5t-125 -24.5q-75 0 -128.5 26.5t-85.5 74.5t-41 114.5t5 146.5q14 79 46.5 145.5t81 114.5t111.5 75t138 27q70 0 117 -24.5t74.5 -57.5t38.5 -67t9 -54q-2 -5 -6 -5h-59q-6 0 -6 5q-3 16 -13 40
t-30.5 47t-53.5 39.5t-81 16.5q-118 0 -193.5 -79.5t-100.5 -222.5q-26 -143 21.5 -222.5t165.5 -79.5q48 0 87 16.5t67.5 39.5t47 47t26.5 40zM409 759q-4 0 -4 5l23 132q2 5 6 5h129q6 0 4 -5l-23 -132q0 -5 -6 -5h-129z" />
    <glyph glyph-name="cdotaccent" unicode="&#x10b;" horiz-adv-x="560" 
d="M444 171q3 5 7 5h59q6 0 4 -5q-8 -26 -27.5 -57.5t-51 -59t-76.5 -46t-103 -18.5q-59 0 -101.5 19t-68 53.5t-34 83t2.5 107.5q10 59 35 107.5t63 83t87.5 53.5t108.5 19q58 0 96.5 -18.5t60.5 -46t30 -59t7 -57.5q0 -5 -6 -5h-59q-3 0 -5 5q-5 57 -38 89t-96 32
q-42 0 -77.5 -15t-63.5 -41.5t-46.5 -64t-26.5 -82.5t-2.5 -82.5t24 -64t48.5 -41.5t72 -15q63 0 107.5 32t69.5 89zM283 562q-6 0 -4 5l23 132q0 5 6 5h129q4 0 4 -5l-23 -132q-2 -5 -6 -5h-129z" />
    <glyph glyph-name="Ccaron" unicode="&#x10c;" horiz-adv-x="698" 
d="M573 193q3 5 8 5h59q6 0 4 -5q-5 -20 -27.5 -54t-62 -67t-94.5 -57.5t-125 -24.5q-75 0 -128.5 26.5t-85.5 74.5t-41 114.5t5 146.5q14 79 46.5 145.5t81 114.5t111.5 75t138 27q70 0 117 -24.5t74.5 -57.5t38.5 -67t9 -54q-2 -5 -6 -5h-59q-6 0 -6 5q-3 16 -13 40
t-30.5 47t-53.5 39.5t-81 16.5q-118 0 -193.5 -79.5t-100.5 -222.5q-26 -143 21.5 -222.5t165.5 -79.5q48 0 87 16.5t67.5 39.5t47 47t26.5 40zM586 902q3 0 4.5 -2t-0.5 -5l-72 -117q-1 -4 -5 -4h-80q-4 0 -5 4l-30 117q-2 7 6 7h47q3 0 5 -3l23 -62q1 -3 4.5 -3t5.5 3
l45 62q1 3 5 3h47z" />
    <glyph glyph-name="ccaron" unicode="&#x10d;" horiz-adv-x="560" 
d="M444 171q3 5 7 5h59q6 0 4 -5q-8 -26 -27.5 -57.5t-51 -59t-76.5 -46t-103 -18.5q-59 0 -101.5 19t-68 53.5t-34 83t2.5 107.5q10 59 35 107.5t63 83t87.5 53.5t108.5 19q58 0 96.5 -18.5t60.5 -46t30 -59t7 -57.5q0 -5 -6 -5h-59q-3 0 -5 5q-5 57 -38 89t-96 32
q-42 0 -77.5 -15t-63.5 -41.5t-46.5 -64t-26.5 -82.5t-2.5 -82.5t24 -64t48.5 -41.5t72 -15q63 0 107.5 32t69.5 89zM453 704q3 0 4.5 -2t-0.5 -5l-72 -117q-1 -4 -5 -4h-80q-4 0 -5 4l-30 117q-2 7 6 7h47q3 0 5 -3l23 -62q1 -3 4.5 -3t5.5 3l45 62q1 3 5 3h47z" />
    <glyph glyph-name="Dcaron" unicode="&#x10e;" horiz-adv-x="703" 
d="M48 0q-4 0 -4 5l123 694q0 5 6 5h254q78 0 131.5 -27t84 -74.5t38 -113t-6.5 -144.5q-14 -80 -44.5 -143.5t-77 -108.5t-109.5 -69t-141 -24h-254zM232 644q-4 0 -6 -5l-101 -574q-2 -5 4 -5h184q112 0 186.5 71.5t99.5 213.5q12 69 6 124.5t-29.5 94t-63.5 59.5t-96 21
h-184zM536 902q3 0 4.5 -2t-0.5 -5l-72 -117q-1 -4 -5 -4h-80q-4 0 -5 4l-30 117q-2 7 6 7h47q3 0 5 -3l23 -62q1 -3 4.5 -3t5.5 3l45 62q1 3 5 3h47z" />
    <glyph glyph-name="dcaron" unicode="&#x10f;" horiz-adv-x="692" 
d="M598 625q-4 0 -4 5l12 69q2 5 6 5h68q6 0 4 -5l-12 -71q-6 -34 -30 -55.5t-57 -21.5q-4 0 -4 5l5 29q2 5 6 5q9 0 19.5 7t13.5 23q0 5 -5 5h-22zM434 5q-2 -5 -6 -5h-50q-4 0 -4 5l-1 55q0 3 -2.5 4t-5.5 -3t-16 -15.5t-36 -24t-55.5 -22t-74.5 -9.5q-59 0 -100 19
t-64.5 54t-30.5 83t4 107q10 58 34.5 106.5t61 83.5t84 54t104.5 19q42 0 70.5 -9.5t46.5 -22t27 -24.5t12 -17q2 -4 5 -3t4 4l45 255q2 5 6 5h60q6 0 4 -5zM62 253q-8 -45 -2.5 -82.5t23.5 -64t48.5 -41.5t72.5 -15t76 15t59.5 41.5t43 64t25.5 82.5t4 82.5t-20.5 64
t-45.5 41.5t-71 15t-77.5 -15t-63 -41.5t-46 -64t-26.5 -82.5z" />
    <glyph glyph-name="Dcroat" unicode="&#x110;" horiz-adv-x="703" 
d="M100 318q0 5 -5 5h-65q-4 0 -4 5l11 60q0 5 6 5h65q4 0 6 5l53 301q0 5 6 5h254q78 0 131.5 -27t84 -74.5t38 -113t-6.5 -144.5q-14 -80 -44.5 -143.5t-77 -108.5t-109.5 -69t-141 -24h-254q-4 0 -4 5zM175 323q-5 0 -5 -5l-45 -253q-2 -5 4 -5h184q112 0 186.5 71.5
t99.5 213.5q12 69 6 124.5t-29.5 94t-63.5 59.5t-96 21h-184q-4 0 -6 -5l-42 -241q-2 -5 4 -5h180q4 0 4 -5l-11 -60q0 -5 -6 -5h-180z" />
    <glyph glyph-name="dcroat" unicode="&#x111;" horiz-adv-x="622" 
d="M549 571q2 5 -4 5h-130q-6 0 -4 5l7 41q0 5 5 5h130q6 0 6 5l13 67q0 5 6 5h60q4 0 4 -5l-13 -67q0 -5 4 -5h64q5 0 5 -5l-7 -41q-2 -5 -6 -5h-64q-4 0 -6 -5l-100 -566q0 -5 -5 -5h-50q-3 0 -5 5v55q0 3 -3 4t-6 -3t-16 -15.5t-35.5 -24t-55 -22t-74.5 -9.5
q-59 0 -100 19t-65 54t-30.5 83t3.5 107q10 58 34.5 106.5t61 83.5t84 54t104.5 19q42 0 70.5 -9.5t47 -22t27.5 -24.5t12 -17q2 -4 5 -3t4 4zM147 253q-8 -45 -2.5 -82.5t23.5 -64t48.5 -41.5t72.5 -15t76 15t60 41.5t43 64t25 82.5t4 82.5t-20 64t-45 41.5t-71 15
t-77.5 -15t-63.5 -41.5t-46.5 -64t-26.5 -82.5z" />
    <glyph glyph-name="Emacron" unicode="&#x112;" horiz-adv-x="627" 
d="M50 0q-4 0 -4 5l123 694q0 5 6 5h470q4 0 4 -5l-9 -50q-2 -5 -6 -5h-400q-4 0 -6 -5l-43 -242q0 -5 5 -5h357q4 0 4 -5l-9 -50q-2 -5 -6 -5h-357q-4 0 -6 -5l-46 -262q-2 -5 4 -5h400q6 0 4 -5l-9 -50q0 -5 -6 -5h-470zM297 774q-5 0 -3 5l7 40q2 5 5 5h246q6 0 4 -5
l-7 -40q-2 -5 -6 -5h-246z" />
    <glyph glyph-name="emacron" unicode="&#x113;" horiz-adv-x="589" 
d="M141 227q-4 0 -6 -5q-6 -33 0 -64t23.5 -55t46 -38.5t67.5 -14.5q30 0 55 7t45 18t34.5 25t24.5 28q2 5 9 5h64q6 0 5 -5q-35 -69 -101 -103.5t-147 -34.5q-54 0 -95.5 19t-67.5 54t-35 83t2 107q10 59 35.5 107.5t63 83.5t86 54t104.5 19t97.5 -19.5t66 -54t32.5 -83.5
t-2 -107q-1 -5 -2.5 -12t-3.5 -9q-2 -5 -7 -5h-394zM479 292q4 27 0 56t-19.5 53.5t-43.5 40t-72 15.5q-43 0 -77.5 -17.5t-59.5 -42.5t-40 -54t-19 -51q-2 -5 4 -5h321q4 0 6 5zM254 576q-5 0 -3 5l7 40q2 5 5 5h246q6 0 4 -5l-7 -40q-2 -5 -6 -5h-246z" />
    <glyph glyph-name="Ebreve" unicode="&#x114;" horiz-adv-x="627" 
d="M50 0q-4 0 -4 5l123 694q0 5 6 5h470q4 0 4 -5l-9 -50q-2 -5 -6 -5h-400q-4 0 -6 -5l-43 -242q0 -5 5 -5h357q4 0 4 -5l-9 -50q-2 -5 -6 -5h-357q-4 0 -6 -5l-46 -262q-2 -5 4 -5h400q6 0 4 -5l-9 -50q0 -5 -6 -5h-470zM548 902q6 0 4 -5q-11 -63 -50.5 -93t-94.5 -30
q-54 0 -84 30.5t-19 92.5q2 5 6 5h42q6 0 4 -5q-2 -11 -1 -23.5t7 -23.5t18.5 -18.5t34.5 -7.5t37 7.5t25 18.5t15 23.5t7 23.5q2 5 6 5h43z" />
    <glyph glyph-name="ebreve" unicode="&#x115;" horiz-adv-x="589" 
d="M141 227q-4 0 -6 -5q-6 -33 0 -64t23.5 -55t46 -38.5t67.5 -14.5q30 0 55 7t45 18t34.5 25t24.5 28q2 5 9 5h64q6 0 5 -5q-35 -69 -101 -103.5t-147 -34.5q-54 0 -95.5 19t-67.5 54t-35 83t2 107q10 59 35.5 107.5t63 83.5t86 54t104.5 19t97.5 -19.5t66 -54t32.5 -83.5
t-2 -107q-1 -5 -2.5 -12t-3.5 -9q-2 -5 -7 -5h-394zM479 292q4 27 0 56t-19.5 53.5t-43.5 40t-72 15.5q-43 0 -77.5 -17.5t-59.5 -42.5t-40 -54t-19 -51q-2 -5 4 -5h321q4 0 6 5zM505 704q6 0 4 -5q-11 -63 -50.5 -93t-94.5 -30q-54 0 -84 30.5t-19 92.5q2 5 6 5h42
q6 0 4 -5q-2 -11 -1 -23.5t7 -23.5t18.5 -18.5t34.5 -7.5t37 7.5t25 18.5t15 23.5t7 23.5q2 5 6 5h43z" />
    <glyph glyph-name="Edotaccent" unicode="&#x116;" horiz-adv-x="627" 
d="M50 0q-4 0 -4 5l123 694q0 5 6 5h470q4 0 4 -5l-9 -50q-2 -5 -6 -5h-400q-4 0 -6 -5l-43 -242q0 -5 5 -5h357q4 0 4 -5l-9 -50q-2 -5 -6 -5h-357q-4 0 -6 -5l-46 -262q-2 -5 4 -5h400q6 0 4 -5l-9 -50q0 -5 -6 -5h-470zM344 759q-4 0 -4 5l23 132q2 5 6 5h129q6 0 4 -5
l-23 -132q0 -5 -6 -5h-129z" />
    <glyph glyph-name="edotaccent" unicode="&#x117;" horiz-adv-x="589" 
d="M141 227q-4 0 -6 -5q-6 -33 0 -64t23.5 -55t46 -38.5t67.5 -14.5q30 0 55 7t45 18t34.5 25t24.5 28q2 5 9 5h64q6 0 5 -5q-35 -69 -101 -103.5t-147 -34.5q-54 0 -95.5 19t-67.5 54t-35 83t2 107q10 59 35.5 107.5t63 83.5t86 54t104.5 19t97.5 -19.5t66 -54t32.5 -83.5
t-2 -107q-1 -5 -2.5 -12t-3.5 -9q-2 -5 -7 -5h-394zM479 292q4 27 0 56t-19.5 53.5t-43.5 40t-72 15.5q-43 0 -77.5 -17.5t-59.5 -42.5t-40 -54t-19 -51q-2 -5 4 -5h321q4 0 6 5zM298 562q-6 0 -4 5l23 132q0 5 6 5h129q4 0 4 -5l-23 -132q-2 -5 -6 -5h-129z" />
    <glyph glyph-name="Eogonek" unicode="&#x118;" horiz-adv-x="627" 
d="M518 0q-31 -1 -55 -21.5t-30 -51.5q-5 -32 13.5 -48.5t50.5 -16.5h8q6 0 4 -5l-9 -50q0 -5 -6 -5h-18q-59 0 -88 30.5t-23 73.5q4 27 19.5 48.5t41.5 35.5q4 2 4.5 6t-4.5 4h-367q-4 0 -4 5l122 694q2 5 6 5h470q6 0 4 -5l-8 -50q-2 -5 -6 -5h-400q-6 0 -6 -5l-43 -242
q0 -5 4 -5h357q6 0 4 -5l-8 -50q-2 -5 -6 -5h-357q-6 0 -6 -5l-46 -262q-2 -5 4 -5h400q4 0 4 -5l-9 -50q0 -5 -6 -5h-11z" />
    <glyph glyph-name="eogonek" unicode="&#x119;" horiz-adv-x="589" 
d="M150 227q-6 0 -6 -5q-6 -33 -0.5 -64t23 -55t46 -38.5t67.5 -14.5q30 0 55.5 7t45 18t34.5 25t24 28q4 5 9 5h64q7 0 5 -5q-16 -32 -39 -55t-52 -43q-14 -10 -30.5 -22t-31 -26t-25 -29t-13.5 -30q-6 -32 13 -46.5t51 -14.5h38q6 0 4 -5l-9 -50q0 -5 -5 -5h-48
q-33 0 -55.5 9t-36 23.5t-18.5 33t-2 38.5q4 26 15 45t26 31q4 3 3 6t-5 3q-8 -1 -13.5 -1h-13.5q-54 0 -95.5 19t-67.5 54t-35 83t1 107t36 107.5t63.5 83.5t86 54t104.5 19t97 -19.5t66 -54t32.5 -83.5t-2.5 -107q-1 -5 -2.5 -12t-3.5 -9q-2 -5 -6 -5h-394zM487 292
q5 27 1 56t-19.5 53.5t-44 40t-72.5 15.5q-43 0 -77.5 -17.5t-59.5 -42.5t-40 -54t-19 -51q-2 -5 4 -5h321q4 0 6 5z" />
    <glyph glyph-name="Ecaron" unicode="&#x11a;" horiz-adv-x="627" 
d="M50 0q-4 0 -4 5l123 694q0 5 6 5h470q4 0 4 -5l-9 -50q-2 -5 -6 -5h-400q-4 0 -6 -5l-43 -242q0 -5 5 -5h357q4 0 4 -5l-9 -50q-2 -5 -6 -5h-357q-4 0 -6 -5l-46 -262q-2 -5 4 -5h400q6 0 4 -5l-9 -50q0 -5 -6 -5h-470zM516 902q3 0 4.5 -2t-0.5 -5l-72 -117q-1 -4 -5 -4
h-80q-4 0 -5 4l-30 117q-2 7 6 7h47q3 0 5 -3l23 -62q1 -3 4.5 -3t5.5 3l45 62q1 3 5 3h47z" />
    <glyph glyph-name="ecaron" unicode="&#x11b;" horiz-adv-x="589" 
d="M141 227q-4 0 -6 -5q-6 -33 0 -64t23.5 -55t46 -38.5t67.5 -14.5q30 0 55 7t45 18t34.5 25t24.5 28q2 5 9 5h64q6 0 5 -5q-35 -69 -101 -103.5t-147 -34.5q-54 0 -95.5 19t-67.5 54t-35 83t2 107q10 59 35.5 107.5t63 83.5t86 54t104.5 19t97.5 -19.5t66 -54t32.5 -83.5
t-2 -107q-1 -5 -2.5 -12t-3.5 -9q-2 -5 -7 -5h-394zM479 292q4 27 0 56t-19.5 53.5t-43.5 40t-72 15.5q-43 0 -77.5 -17.5t-59.5 -42.5t-40 -54t-19 -51q-2 -5 4 -5h321q4 0 6 5zM437 704q3 0 4.5 -2t-0.5 -5l-72 -117q-1 -4 -5 -4h-80q-4 0 -5 4l-30 117q-2 7 6 7h47
q3 0 5 -3l23 -62q1 -3 4.5 -3t5.5 3l45 62q1 3 5 3h47z" />
    <glyph glyph-name="Gcircumflex" unicode="&#x11c;" horiz-adv-x="764" 
d="M615 317q2 5 -4 5h-224q-4 0 -4 5l9 50q0 5 6 5h294q4 0 4 -5l-66 -372q0 -5 -6 -5h-49q-4 0 -5 5l5 85q0 5 -3 5t-5 -3q-15 -17 -41 -35t-58.5 -33t-69.5 -24.5t-74 -9.5q-79 0 -133.5 26.5t-85 74.5t-38.5 114.5t6 146.5q14 79 46.5 145.5t81.5 114.5t112 75t138 27
q65 0 111 -17.5t76 -46t44.5 -65t16.5 -74.5q0 -5 -5 -5h-57q-6 0 -7 5q-14 78 -64 110.5t-125 32.5q-118 0 -193 -79.5t-100 -222.5q-26 -143 21 -222.5t165 -79.5q61 0 108.5 20t82 53t55.5 74.5t29 84.5zM520 774q-4 0 -5 3l-23 62q-1 3 -4.5 3t-5.5 -3l-45 -62
q-2 -3 -5 -3h-47q-3 0 -4.5 2t0.5 5l72 117q1 4 5 4h80q4 0 5 -4l30 -117q2 -7 -6 -7h-47z" />
    <glyph glyph-name="gcircumflex" unicode="&#x11d;" horiz-adv-x="630" 
d="M519 36v-1l-2 -14q-20 -108 -93.5 -168.5t-184.5 -60.5q-47 0 -84.5 11.5t-63 31.5t-38.5 46.5t-11 55.5q0 5 6 5h58q4 0 6 -5q1 -15 10 -30t26 -27t42.5 -20t59.5 -8q49 0 83.5 14t57.5 37.5t36 54t20 63.5l7 39q0 2 -2.5 3.5t-6.5 -1.5q-10 -9 -26 -21.5t-38.5 -24
t-51.5 -19t-66 -7.5q-53 0 -93.5 19t-65.5 54t-34 83t2 107q10 58 35 106.5t62 83.5t84.5 54t102.5 19q37 0 64.5 -9t46 -21t29.5 -24t16 -18q6 -6 10 2l19 55q3 5 6 5h50q6 0 4 -5zM142 253q-8 -45 -2.5 -82.5t23.5 -64t48.5 -41.5t72.5 -15t76 15t59.5 41.5t43 64
t25.5 82.5t4 82.5t-20.5 64t-45.5 41.5t-71 15t-77.5 -15t-63 -41.5t-46 -64t-26.5 -82.5zM419 576q-4 0 -5 3l-23 62q-1 3 -4.5 3t-5.5 -3l-45 -62q-2 -3 -5 -3h-47q-3 0 -4.5 2t0.5 5l72 117q1 4 5 4h80q4 0 5 -4l30 -117q2 -7 -6 -7h-47z" />
    <glyph glyph-name="Gbreve" unicode="&#x11e;" horiz-adv-x="764" 
d="M615 317q2 5 -4 5h-224q-4 0 -4 5l9 50q0 5 6 5h294q4 0 4 -5l-66 -372q0 -5 -6 -5h-49q-4 0 -5 5l5 85q0 5 -3 5t-5 -3q-15 -17 -41 -35t-58.5 -33t-69.5 -24.5t-74 -9.5q-79 0 -133.5 26.5t-85 74.5t-38.5 114.5t6 146.5q14 79 46.5 145.5t81.5 114.5t112 75t138 27
q65 0 111 -17.5t76 -46t44.5 -65t16.5 -74.5q0 -5 -5 -5h-57q-6 0 -7 5q-14 78 -64 110.5t-125 32.5q-118 0 -193 -79.5t-100 -222.5q-26 -143 21 -222.5t165 -79.5q61 0 108.5 20t82 53t55.5 74.5t29 84.5zM607 902q6 0 4 -5q-11 -63 -50.5 -93t-94.5 -30q-54 0 -84 30.5
t-19 92.5q2 5 6 5h42q6 0 4 -5q-2 -11 -1 -23.5t7 -23.5t18.5 -18.5t34.5 -7.5t37 7.5t25 18.5t15 23.5t7 23.5q2 5 6 5h43z" />
    <glyph glyph-name="gbreve" unicode="&#x11f;" horiz-adv-x="630" 
d="M519 36v-1l-2 -14q-20 -108 -93.5 -168.5t-184.5 -60.5q-47 0 -84.5 11.5t-63 31.5t-38.5 46.5t-11 55.5q0 5 6 5h58q4 0 6 -5q1 -15 10 -30t26 -27t42.5 -20t59.5 -8q49 0 83.5 14t57.5 37.5t36 54t20 63.5l7 39q0 2 -2.5 3.5t-6.5 -1.5q-10 -9 -26 -21.5t-38.5 -24
t-51.5 -19t-66 -7.5q-53 0 -93.5 19t-65.5 54t-34 83t2 107q10 58 35 106.5t62 83.5t84.5 54t102.5 19q37 0 64.5 -9t46 -21t29.5 -24t16 -18q6 -6 10 2l19 55q3 5 6 5h50q6 0 4 -5zM142 253q-8 -45 -2.5 -82.5t23.5 -64t48.5 -41.5t72.5 -15t76 15t59.5 41.5t43 64
t25.5 82.5t4 82.5t-20.5 64t-45.5 41.5t-71 15t-77.5 -15t-63 -41.5t-46 -64t-26.5 -82.5zM516 704q6 0 4 -5q-11 -63 -50.5 -93t-94.5 -30q-54 0 -84 30.5t-19 92.5q2 5 6 5h42q6 0 4 -5q-2 -11 -1 -23.5t7 -23.5t18.5 -18.5t34.5 -7.5t37 7.5t25 18.5t15 23.5t7 23.5
q2 5 6 5h43z" />
    <glyph glyph-name="Gdotaccent" unicode="&#x120;" horiz-adv-x="764" 
d="M615 317q2 5 -4 5h-224q-4 0 -4 5l9 50q0 5 6 5h294q4 0 4 -5l-66 -372q0 -5 -6 -5h-49q-4 0 -5 5l5 85q0 5 -3 5t-5 -3q-15 -17 -41 -35t-58.5 -33t-69.5 -24.5t-74 -9.5q-79 0 -133.5 26.5t-85 74.5t-38.5 114.5t6 146.5q14 79 46.5 145.5t81.5 114.5t112 75t138 27
q65 0 111 -17.5t76 -46t44.5 -65t16.5 -74.5q0 -5 -5 -5h-57q-6 0 -7 5q-14 78 -64 110.5t-125 32.5q-118 0 -193 -79.5t-100 -222.5q-26 -143 21 -222.5t165 -79.5q61 0 108.5 20t82 53t55.5 74.5t29 84.5zM392 759q-4 0 -4 5l23 132q2 5 6 5h129q6 0 4 -5l-23 -132
q0 -5 -6 -5h-129z" />
    <glyph glyph-name="gdotaccent" unicode="&#x121;" horiz-adv-x="630" 
d="M519 36v-1l-2 -14q-20 -108 -93.5 -168.5t-184.5 -60.5q-47 0 -84.5 11.5t-63 31.5t-38.5 46.5t-11 55.5q0 5 6 5h58q4 0 6 -5q1 -15 10 -30t26 -27t42.5 -20t59.5 -8q49 0 83.5 14t57.5 37.5t36 54t20 63.5l7 39q0 2 -2.5 3.5t-6.5 -1.5q-10 -9 -26 -21.5t-38.5 -24
t-51.5 -19t-66 -7.5q-53 0 -93.5 19t-65.5 54t-34 83t2 107q10 58 35 106.5t62 83.5t84.5 54t102.5 19q37 0 64.5 -9t46 -21t29.5 -24t16 -18q6 -6 10 2l19 55q3 5 6 5h50q6 0 4 -5zM142 253q-8 -45 -2.5 -82.5t23.5 -64t48.5 -41.5t72.5 -15t76 15t59.5 41.5t43 64
t25.5 82.5t4 82.5t-20.5 64t-45.5 41.5t-71 15t-77.5 -15t-63 -41.5t-46 -64t-26.5 -82.5zM298 562q-6 0 -4 5l23 132q0 5 6 5h129q4 0 4 -5l-23 -132q-2 -5 -6 -5h-129z" />
    <glyph glyph-name="uni0122" unicode="&#x122;" horiz-adv-x="764" 
d="M624 317q2 5 -4 5h-224q-6 0 -4 5l9 50q0 5 6 5h294q4 0 4 -5l-66 -372q0 -5 -6 -5h-49q-5 0 -5 5l5 85q0 5 -3 5t-6 -3q-15 -17 -41 -35t-58 -33t-69.5 -24.5t-74.5 -9.5q-79 0 -133 26.5t-85 74.5t-39 114.5t6 146.5q14 79 47 145.5t81.5 114.5t112 75t138.5 27
q65 0 111 -17.5t75.5 -46t44 -65t16.5 -74.5q1 -5 -5 -5h-57q-5 0 -7 5q-14 78 -63.5 110.5t-124.5 32.5q-118 0 -193 -79.5t-101 -222.5q-25 -143 22 -222.5t165 -79.5q61 0 108.5 20t82 53t55.5 74.5t29 84.5zM277 -134q-5 0 -5 5l13 69q0 5 5 5h68q5 0 5 -5l-13 -71
q-6 -34 -29.5 -55.5t-56.5 -21.5q-5 0 -5 5l6 29q0 5 5 5q9 0 19.5 7t13.5 23q0 5 -4 5h-22z" />
    <glyph glyph-name="uni0123" unicode="&#x123;" horiz-adv-x="630" 
d="M511 36v-1l-3 -14q-19 -108 -92.5 -168.5t-184.5 -60.5q-47 0 -84.5 11.5t-63 31.5t-38.5 46.5t-11 55.5q0 5 5 5h58q5 0 7 -5q1 -15 10 -30t26 -27t42.5 -20t59.5 -8q49 0 83.5 14t57.5 37.5t36 54t19 63.5l7 39q1 2 -2 3.5t-6 -1.5q-10 -9 -26 -21.5t-38.5 -24
t-51.5 -19t-66 -7.5q-53 0 -93.5 19t-65.5 54t-34 83t1 107q10 58 35.5 106.5t62.5 83.5t84.5 54t102.5 19q37 0 64.5 -9t46 -21t29.5 -24t16 -18q2 -3 5 -2t4 4l20 55q3 5 6 5h50q6 0 4 -5zM133 253q-8 -45 -2.5 -82.5t23.5 -64t48.5 -41.5t72.5 -15t76 15t60 41.5t43 64
t25 82.5t4 82.5t-20 64t-45 41.5t-71 15t-77.5 -15t-63.5 -41.5t-46.5 -64t-26.5 -82.5zM343 625q-6 0 -4 5l12 69q0 5 6 5h68q4 0 4 -5l-13 -71q-6 -34 -29.5 -55.5t-56.5 -21.5q-6 0 -4 5l5 29q0 5 6 5q9 0 19 7t13 23q0 5 -4 5h-22z" />
    <glyph glyph-name="Hcircumflex" unicode="&#x124;" horiz-adv-x="685" 
d="M485 0q-4 0 -4 5l57 322q2 5 -4 5h-359q-4 0 -6 -5l-57 -322q0 -5 -6 -5h-60q-4 0 -4 5l123 694q0 5 6 5h60q4 0 4 -5l-54 -302q0 -5 5 -5h359q5 0 5 5l54 302q0 5 6 5h60q4 0 4 -5l-123 -694q0 -5 -6 -5h-60zM470 774q-4 0 -5 3l-23 62q-1 3 -4.5 3t-5.5 -3l-45 -62
q-2 -3 -5 -3h-47q-3 0 -4.5 2t0.5 5l72 117q1 4 5 4h80q4 0 5 -4l30 -117q2 -7 -6 -7h-47z" />
    <glyph glyph-name="hcircumflex" unicode="&#x125;" horiz-adv-x="598" 
d="M473 282q6 33 3.5 64t-16.5 55.5t-41.5 39.5t-70.5 15q-84 0 -127.5 -41.5t-59.5 -131.5l-49 -278q0 -5 -6 -5h-60q-4 0 -4 5l123 694q0 5 6 5h60q4 0 4 -5l-43 -243q-1 -4 2.5 -4.5t5.5 1.5q7 6 20.5 17t33 21t45.5 17.5t59 7.5q57 0 96.5 -19t62 -50.5t29 -74
t-2.5 -90.5l-49 -277q0 -5 -6 -5h-60q-4 0 -4 5zM251 774q-4 0 -5 3l-23 62q-1 3 -4.5 3t-5.5 -3l-45 -62q-2 -3 -5 -3h-47q-3 0 -4.5 2t0.5 5l72 117q1 4 5 4h80q4 0 5 -4l30 -117q2 -7 -6 -7h-47z" />
    <glyph glyph-name="Hbar" unicode="&#x126;" horiz-adv-x="685" 
d="M141 564q0 5 -4 5h-58q-5 0 -3 5l7 40q0 5 5 5h58q5 0 5 5l14 75q0 5 6 5h60q4 0 4 -5l-14 -75q0 -5 5 -5h359q5 0 5 5l14 75q0 5 6 5h61q4 0 4 -5l-14 -75q0 -5 5 -5h56q4 0 4 -5l-7 -40q-2 -5 -6 -5h-56q-6 0 -6 -5l-99 -559q0 -5 -6 -5h-61q-4 0 -4 5l57 322q2 5 -4 5
h-359q-4 0 -6 -4l-57 -323q0 -5 -6 -5h-60q-4 0 -4 5zM580 564q0 5 -4 5h-359q-6 0 -6 -5l-30 -167q0 -5 5 -5h359q5 0 5 5z" />
    <glyph glyph-name="hbar" unicode="&#x127;" horiz-adv-x="598" 
d="M473 282q6 33 3.5 64t-16.5 55.5t-41.5 39.5t-70.5 15q-84 0 -127.5 -41.5t-59.5 -131.5l-49 -278q0 -5 -6 -5h-60q-4 0 -4 5l100 566q2 5 -4 5h-64q-5 0 -3 5l7 41q2 5 5 5h64q4 0 6 5l12 67q0 5 6 5h60q4 0 4 -5l-12 -67q-2 -5 4 -5h160q6 0 4 -5l-7 -41q-2 -5 -6 -5
h-160q-4 0 -6 -5l-20 -115q-1 -4 2.5 -4.5t5.5 1.5q7 6 20.5 17t33 21t45.5 17.5t59 7.5q57 0 96.5 -19t62 -50.5t29 -74t-2.5 -90.5l-49 -277q0 -5 -6 -5h-60q-4 0 -4 5z" />
    <glyph glyph-name="Itilde" unicode="&#x128;" horiz-adv-x="246" 
d="M231 704q4 0 4 -5l-123 -694q0 -5 -6 -5h-60q-4 0 -4 5l123 694q0 5 6 5h60zM59 792q2 13 10 28t21 28t31.5 21.5t42.5 8.5q22 0 37 -7t27 -16t23.5 -16t26.5 -7q7 0 20.5 8t18.5 33q2 5 6 5h48q6 0 4 -5l-2 -14q-2 -13 -10 -28t-21 -27.5t-31.5 -21t-42.5 -8.5
q-20 0 -35.5 7t-29 16t-25.5 16t-24 7q-7 0 -20.5 -8t-18.5 -33q-2 -5 -6 -5h-48q-6 0 -4 5z" />
    <glyph glyph-name="itilde" unicode="&#x129;" horiz-adv-x="266" 
d="M214 506q5 0 5 -5l-88 -496q0 -5 -6 -5h-60q-4 0 -4 5l88 496q0 5 5 5h60zM38 618q2 13 10 28t21 28t31.5 21.5t42.5 8.5q22 0 37 -7t27 -16t23.5 -16t26.5 -7q7 0 20.5 8t18.5 33q2 5 6 5h48q6 0 4 -5l-2 -14q-2 -13 -10 -28t-21 -27.5t-31.5 -21t-42.5 -8.5
q-20 0 -35.5 7t-29 16t-25.5 16t-24 7q-7 0 -20.5 -8t-18.5 -33q-2 -5 -6 -5h-48q-6 0 -4 5z" />
    <glyph glyph-name="Imacron" unicode="&#x12a;" horiz-adv-x="246" 
d="M231 704q4 0 4 -5l-123 -694q0 -5 -6 -5h-60q-4 0 -4 5l123 694q0 5 6 5h60zM88 774q-5 0 -3 5l7 40q2 5 5 5h246q6 0 4 -5l-7 -40q-2 -5 -6 -5h-246z" />
    <glyph glyph-name="imacron" unicode="&#x12b;" horiz-adv-x="266" 
d="M214 506q5 0 5 -5l-88 -496q0 -5 -6 -5h-60q-4 0 -4 5l88 496q0 5 5 5h60zM72 576q-5 0 -3 5l7 40q2 5 5 5h246q6 0 4 -5l-7 -40q-2 -5 -6 -5h-246z" />
    <glyph glyph-name="Iogonek" unicode="&#x12e;" horiz-adv-x="246" 
d="M262 704q4 0 4 -5l-123 -694q0 -5 -5 -5h-6q-32 0 -57.5 -20.5t-30.5 -50.5q-6 -32 12.5 -49.5t50.5 -17.5h11q6 0 4 -5l-9 -50q0 -5 -5 -5h-21q-59 0 -88.5 27.5t-23.5 71.5q6 38 31 63.5t60 36.5q7 3 8 6l122 692q0 5 6 5h60z" />
    <glyph glyph-name="iogonek" unicode="&#x12f;" horiz-adv-x="266" 
d="M282 704q4 0 4 -5l-14 -80q-2 -5 -6 -5h-80q-6 0 -4 5l14 80q0 5 6 5h80zM237 506q4 0 4 -5l-88 -496q0 -5 -5 -5h-6q-32 0 -57.5 -20.5t-30.5 -50.5q-6 -32 12.5 -49.5t50.5 -17.5h11q6 0 4 -5l-9 -50q0 -5 -5 -5h-21q-59 0 -88.5 27.5t-23.5 71.5q6 38 31 63.5t60 36.5
q7 3 8 6l87 494q0 5 6 5h60z" />
    <glyph glyph-name="Idotaccent" unicode="&#x130;" horiz-adv-x="246" 
d="M231 704q4 0 4 -5l-123 -694q0 -5 -6 -5h-60q-4 0 -4 5l123 694q0 5 6 5h60zM144 759q-4 0 -4 5l23 132q2 5 6 5h129q6 0 4 -5l-23 -132q0 -5 -6 -5h-129z" />
    <glyph glyph-name="dotlessi" unicode="&#x131;" horiz-adv-x="266" 
d="M214 506q5 0 5 -5l-88 -496q0 -5 -6 -5h-60q-4 0 -4 5l88 496q0 5 5 5h60z" />
    <glyph glyph-name="IJ" unicode="&#x132;" 
d="M425 5q0 -5 -6 -5h-411q-4 0 -4 5l123 694q0 5 6 5h411q4 0 4 -5zM508 681h-346l119 -306zM392 24l-120 305l-226 -305h346zM409 48l107 608q-56 -75 -114 -152t-112 -152zM264 352l-120 305l-107 -610z" />
    <glyph glyph-name="ij" unicode="&#x133;" 
d="M425 5q0 -5 -6 -5h-411q-4 0 -4 5l123 694q0 5 6 5h411q4 0 4 -5zM508 681h-346l119 -306zM392 24l-120 305l-226 -305h346zM409 48l107 608q-56 -75 -114 -152t-112 -152zM264 352l-120 305l-107 -610z" />
    <glyph glyph-name="Jcircumflex" unicode="&#x134;" horiz-adv-x="477" 
d="M86 193q-5 -26 -6 -51.5t8 -45.5t30.5 -33t63.5 -13t69 12.5t43.5 33t24 45.5t12.5 50l89 508q2 5 6 5h60q6 0 4 -5l-89 -508q-8 -42 -21.5 -78.5t-39.5 -64t-67 -43t-102 -15.5q-57 0 -91 15.5t-50.5 43t-18.5 64.5t5 80l9 53q2 5 6 5h60q6 0 4 -5l-9 -53v0zM506 774
q-4 0 -5 3l-23 62q-1 3 -4.5 3t-5.5 -3l-45 -62q-2 -3 -5 -3h-47q-3 0 -4.5 2t0.5 5l72 117q1 4 5 4h80q4 0 5 -4l30 -117q2 -7 -6 -7h-47z" />
    <glyph glyph-name="jcircumflex" unicode="&#x135;" horiz-adv-x="311" 
d="M181 -71q-11 -66 -50.5 -96.5t-106.5 -30.5h-54q-6 0 -4 5l9 50q0 5 6 5h53q32 0 52 17.5t25 49.5l101 572q2 5 6 5h60q6 0 4 -5zM307 576q-4 0 -5 3l-23 62q-1 3 -4.5 3t-5.5 -3l-45 -62q-2 -3 -5 -3h-47q-3 0 -4.5 2t0.5 5l72 117q1 4 5 4h80q4 0 5 -4l30 -117
q2 -7 -6 -7h-47z" />
    <glyph glyph-name="uni0136" unicode="&#x136;" horiz-adv-x="635" 
d="M495 0q-5 0 -7 5l-181 375q-2 4 -6 0l-126 -105q-6 -5 -8 -13l-45 -257q-2 -5 -6 -5h-60q-6 0 -4 5l122 694q0 5 6 5h60q4 0 4 -5l-58 -327q0 -7 6 -2l395 329q5 5 10 5h79q6 0 1 -5l-307 -259q-5 -5 -3 -11l203 -424q2 -5 -4 -5h-71zM220 -134q-6 0 -4 5l12 69q2 5 6 5
h68q6 0 4 -5l-12 -71q-6 -34 -30 -55.5t-57 -21.5q-6 0 -4 5l5 29q0 5 6 5q9 0 19 7t13 23q2 5 -4 5h-22z" />
    <glyph glyph-name="uni0137" unicode="&#x137;" horiz-adv-x="587" 
d="M385 352q-3 -2 -1 -6l138 -341q2 -5 -4 -5h-63q-4 0 -6 5l-122 297l-3 3t-6 -2l-158 -118l-4.5 -4.5t-2.5 -5.5l-29 -170q-2 -5 -6 -5h-60q-6 0 -4 5l122 694q0 5 6 5h60q4 0 4 -5l-75 -423q0 -2 1.5 -3.5t5.5 1.5l306 227q6 5 11 5h89q6 0 1 -5zM209 -134q-6 0 -4 5
l12 69q2 5 6 5h68q6 0 4 -5l-12 -71q-6 -34 -30 -55.5t-57 -21.5q-6 0 -4 5l5 29q0 5 6 5q9 0 19 7t13 23q2 5 -4 5h-22z" />
    <glyph glyph-name="kgreenlandic" unicode="&#x138;" horiz-adv-x="587" 
d="M384 352q-1 -1 -1 -6l138 -341q3 -5 -4 -5h-63q-3 0 -6 5l-122 297q-2 6 -8 1l-158 -118q-6 -5 -7 -10l-30 -170q0 -5 -6 -5h-60q-4 0 -4 5l88 496q0 5 5 5h60q5 0 5 -5l-40 -225q-1 -2 1 -3.5t6 1.5l306 227q5 5 10 5h89q7 0 2 -5z" />
    <glyph glyph-name="Lacute" unicode="&#x139;" horiz-adv-x="560" 
d="M46 0q-4 0 -4 5l123 694q0 5 6 5h60q4 0 4 -5l-112 -634q-2 -5 4 -5h364q6 0 4 -5l-9 -50q0 -5 -6 -5h-434zM181 774q-3 0 -4.5 2t0.5 5l69 114q2 2 4 4.5t7 2.5h67q3 0 5 -2t-1 -5l-92 -114q-2 -2 -5 -4.5t-7 -2.5h-43z" />
    <glyph glyph-name="lacute" unicode="&#x13a;" horiz-adv-x="246" 
d="M231 704q4 0 4 -5l-123 -694q0 -5 -6 -5h-60q-4 0 -4 5l123 694q0 5 6 5h60zM179 774q-3 0 -4.5 2t0.5 5l69 114q2 2 4 4.5t7 2.5h67q3 0 5 -2t-1 -5l-92 -114q-2 -2 -5 -4.5t-7 -2.5h-43z" />
    <glyph glyph-name="uni013B" unicode="&#x13b;" horiz-adv-x="560" 
d="M56 0q-6 0 -4 5l122 694q0 5 6 5h60q4 0 4 -5l-112 -634q0 -5 4 -5h364q6 0 4 -5l-8 -50q-2 -5 -6 -5h-434zM237 -134q-6 0 -4 5l12 69q2 5 6 5h68q6 0 4 -5l-12 -71q-6 -34 -30 -55.5t-57 -21.5q-6 0 -4 5l5 29q0 5 6 5q9 0 19 7t13 23q2 5 -4 5h-22z" />
    <glyph glyph-name="uni013C" unicode="&#x13c;" horiz-adv-x="246" 
d="M240 704q4 0 4 -5l-122 -694q-2 -5 -6 -5h-60q-6 0 -4 5l122 694q0 5 6 5h60zM28 -134q-6 0 -4 5l12 69q2 5 6 5h68q6 0 4 -5l-12 -71q-6 -34 -30 -55.5t-57 -21.5q-6 0 -4 5l5 29q0 5 6 5q9 0 19 7t13 23q2 5 -4 5h-22z" />
    <glyph glyph-name="Lcaron" unicode="&#x13d;" horiz-adv-x="560" 
d="M212 625q-4 0 -4 5l12 69q2 5 6 5h68q6 0 4 -5l-12 -71q-6 -34 -30 -55.5t-57 -21.5q-4 0 -4 5l5 29q2 5 6 5q9 0 19.5 7t13.5 23q0 5 -5 5h-22zM-9 0q-4 0 -4 5l123 694q0 5 6 5h60q4 0 4 -5l-112 -634q-2 -5 4 -5h364q6 0 4 -5l-9 -50q0 -5 -6 -5h-434z" />
    <glyph glyph-name="lcaron" unicode="&#x13e;" horiz-adv-x="311" 
d="M212 625q-4 0 -4 5l12 69q2 5 6 5h68q6 0 4 -5l-12 -71q-6 -34 -30 -55.5t-57 -21.5q-4 0 -4 5l5 29q2 5 6 5q9 0 19.5 7t13.5 23q0 5 -5 5h-22zM176 704q4 0 4 -5l-123 -694q0 -5 -6 -5h-60q-4 0 -4 5l123 694q0 5 6 5h60z" />
    <glyph glyph-name="Ldot" unicode="&#x13f;" horiz-adv-x="560" 
d="M46 0q-4 0 -4 5l123 694q0 5 6 5h60q4 0 4 -5l-112 -634q-2 -5 4 -5h364q6 0 4 -5l-9 -50q0 -5 -6 -5h-434zM207 276q-6 0 -4 5l26 151q2 5 6 5h149q6 0 4 -5l-26 -151q-2 -5 -6 -5h-149z" />
    <glyph glyph-name="ldot" unicode="&#x140;" horiz-adv-x="391" 
d="M231 704q4 0 4 -5l-123 -694q0 -5 -6 -5h-60q-4 0 -4 5l123 694q0 5 6 5h60zM211 276q-6 0 -4 5l26 151q2 5 6 5h149q6 0 4 -5l-26 -151q-2 -5 -6 -5h-149z" />
    <glyph glyph-name="Lslash" unicode="&#x141;" horiz-adv-x="560" 
d="M79 213q1 3 -1 5t-5 0l-66 -39q-2 -2 -4.5 -0.5t-1.5 3.5l10 59q0 3 4 5l74 45q4 2 5 6l71 402q0 5 6 5h60q4 0 4 -5l-61 -347q-1 -3 1.5 -4.5t5.5 0.5l65 40q2 2 4.5 0.5t1.5 -3.5l-11 -64q0 -3 -4 -5l-75 -45q-2 -2 -2.5 -3l-1.5 -3l-35 -200q-2 -5 4 -5h364q6 0 4 -5
l-9 -50q0 -5 -6 -5h-434q-4 0 -4 5z" />
    <glyph glyph-name="lslash" unicode="&#x142;" horiz-adv-x="246" 
d="M79 213q1 4 -2 5t-5 -1l-65 -38q-2 -2 -4.5 -0.5t-1.5 3.5l10 59q0 3 4 5l74 46q4 3 5 7l71 400q0 5 6 5h60q4 0 4 -5l-61 -346q-1 -3 2 -4.5t5 0.5l65 40q2 2 4.5 0.5t2.5 -3.5l-12 -66q0 -3 -4 -5l-75 -44q-2 -2 -2.5 -3l-1.5 -3l-46 -260q0 -5 -6 -5h-60q-4 0 -4 5z
" />
    <glyph glyph-name="Nacute" unicode="&#x143;" horiz-adv-x="705" 
d="M690 704q4 0 4 -5l-123 -694q0 -5 -6 -5h-112q-4 0 -6 5l-213 635q-2 6 -5.5 4t-4.5 -5l-112 -634q0 -5 -6 -5h-60q-4 0 -4 5l123 694q0 5 6 5h115q2 0 4 -5l212 -636q2 -4 5.5 -3t4.5 4l112 635q0 5 6 5h60zM405 774q-3 0 -4.5 2t0.5 5l69 114q2 2 4 4.5t7 2.5h67
q3 0 5 -2t-1 -5l-92 -114q-2 -2 -5 -4.5t-7 -2.5h-43z" />
    <glyph glyph-name="nacute" unicode="&#x144;" horiz-adv-x="608" 
d="M480 272q6 37 4 70t-16 58.5t-41.5 40.5t-70.5 15q-84 0 -128 -47t-60 -137l-47 -267q-2 -5 -6 -5h-60q-6 0 -4 5l87 496q2 5 6 5h49q5 0 5 -5v-55q0 -5 3.5 -5t6.5 3q6 7 21 19t37 24t50 20.5t61 8.5q57 0 95 -17.5t58.5 -49.5t25 -77t-5.5 -100l-47 -267q-2 -5 -6 -5
h-60q-6 0 -4 5zM311 576q-3 0 -4.5 2t0.5 5l69 114q2 2 4 4.5t7 2.5h67q3 0 5 -2t-1 -5l-92 -114q-2 -2 -5 -4.5t-7 -2.5h-43z" />
    <glyph glyph-name="uni0145" unicode="&#x145;" horiz-adv-x="705" 
d="M699 704q4 0 4 -5l-122 -694q-2 -5 -6 -5h-112q-6 0 -6 5l-214 635q-2 6 -5.5 4t-4.5 -5l-111 -634q-2 -5 -6 -5h-60q-6 0 -4 5l122 694q0 5 6 5h115q2 0 4 -5l212 -636q2 -4 5.5 -3t4.5 4l112 635q0 5 6 5h60zM267 -134q-6 0 -4 5l12 69q2 5 6 5h68q6 0 4 -5l-12 -71
q-6 -34 -30 -55.5t-57 -21.5q-6 0 -4 5l5 29q0 5 6 5q9 0 19 7t13 23q2 5 -4 5h-22z" />
    <glyph glyph-name="uni0146" unicode="&#x146;" horiz-adv-x="608" 
d="M489 272q6 37 4 70t-16 58.5t-41.5 40.5t-70.5 15q-84 0 -128 -47t-60 -137l-47 -267q-2 -5 -6 -5h-60q-6 0 -4 5l87 496q2 5 6 5h49q5 0 5 -5l1 -55q0 -5 3.5 -5t5.5 3q7 7 21.5 19t36.5 24t50 20.5t61 8.5q57 0 95 -17.5t58.5 -49.5t25 -77t-5.5 -100l-47 -267
q-2 -5 -6 -5h-60q-6 0 -4 5zM225 -134q-4 0 -4 5l12 69q2 5 6 5h68q6 0 4 -5l-12 -71q-6 -34 -30 -55.5t-57 -21.5q-4 0 -4 5l5 29q2 5 6 5q9 0 19.5 7t12.5 23q2 5 -4 5h-22z" />
    <glyph glyph-name="Ncaron" unicode="&#x147;" horiz-adv-x="705" 
d="M690 704q4 0 4 -5l-123 -694q0 -5 -6 -5h-112q-4 0 -6 5l-213 635q-2 6 -5.5 4t-4.5 -5l-112 -634q0 -5 -6 -5h-60q-4 0 -4 5l123 694q0 5 6 5h115q2 0 4 -5l212 -636q2 -4 5.5 -3t4.5 4l112 635q0 5 6 5h60zM556 902q3 0 4.5 -2t-0.5 -5l-72 -117q-1 -4 -5 -4h-80
q-4 0 -5 4l-30 117q-2 7 6 7h47q3 0 5 -3l23 -62q1 -3 4.5 -3t5.5 3l45 62q1 3 5 3h47z" />
    <glyph glyph-name="ncaron" unicode="&#x148;" horiz-adv-x="608" 
d="M480 272q6 37 4 70t-16 58.5t-41.5 40.5t-70.5 15q-84 0 -128 -47t-60 -137l-47 -267q-2 -5 -6 -5h-60q-6 0 -4 5l87 496q2 5 6 5h49q5 0 5 -5v-55q0 -5 3.5 -5t6.5 3q6 7 21 19t37 24t50 20.5t61 8.5q57 0 95 -17.5t58.5 -49.5t25 -77t-5.5 -100l-47 -267q-2 -5 -6 -5
h-60q-6 0 -4 5zM477 704q3 0 4.5 -2t-0.5 -5l-72 -117q-1 -4 -5 -4h-80q-4 0 -5 4l-30 117q-2 7 6 7h47q3 0 5 -3l23 -62q1 -3 4.5 -3t5.5 3l45 62q1 3 5 3h47z" />
    <glyph glyph-name="napostrophe" unicode="&#x149;" horiz-adv-x="608" 
d="M132 625q-4 0 -4 5l12 69q2 5 6 5h68q6 0 4 -5l-12 -71q-6 -34 -30 -55.5t-57 -21.5q-4 0 -4 5l5 29q2 5 6 5q9 0 19.5 7t13.5 23q0 5 -5 5h-22zM425 272q6 37 4 70t-16 58.5t-41.5 40.5t-70.5 15q-84 0 -128 -47t-60 -137l-47 -267q-2 -5 -6 -5h-60q-6 0 -4 5l87 496
q2 5 6 5h49q5 0 5 -5v-55q0 -5 3.5 -5t6.5 3q6 7 21 19t37 24t50 20.5t61 8.5q57 0 95 -17.5t58.5 -49.5t25 -77t-5.5 -100l-47 -267q-2 -5 -6 -5h-60q-6 0 -4 5z" />
    <glyph glyph-name="Omacron" unicode="&#x14c;" horiz-adv-x="744" 
d="M324 -10q-78 0 -132.5 26.5t-85.5 74.5t-39 114.5t6 146.5q14 79 45.5 145.5t79 114.5t111.5 75t142 27t132.5 -27t85.5 -75t39.5 -114.5t-5.5 -145.5q-14 -80 -45.5 -146.5t-79.5 -114.5t-112 -74.5t-142 -26.5zM334 50q118 0 193 79.5t101 222.5q25 143 -22 222.5
t-165 79.5t-193 -79.5t-100 -222.5q-26 -143 21 -222.5t165 -79.5zM345 774q-5 0 -3 5l7 40q2 5 5 5h246q6 0 4 -5l-7 -40q-2 -5 -6 -5h-246z" />
    <glyph glyph-name="omacron" unicode="&#x14d;" horiz-adv-x="592" 
d="M551 253q-11 -59 -36 -107t-63.5 -83t-88 -54t-107.5 -19q-59 0 -101.5 19t-68 54t-34 83t2.5 107q10 59 35 107.5t63 83t87.5 53.5t108.5 19q58 0 101 -19t68.5 -54t34 -83.5t-1.5 -106.5zM481 253q8 45 2.5 82.5t-24 64t-48.5 41.5t-72 15t-77.5 -15t-63.5 -41.5
t-46.5 -64t-26.5 -82.5t-2.5 -82.5t24 -64t48.5 -41.5t72 -15t77.5 15t63 41.5t46.5 64t27 82.5zM235 576q-5 0 -3 5l7 40q2 5 5 5h246q6 0 4 -5l-7 -40q-2 -5 -6 -5h-246z" />
    <glyph glyph-name="Obreve" unicode="&#x14e;" horiz-adv-x="744" 
d="M324 -10q-78 0 -132.5 26.5t-85.5 74.5t-39 114.5t6 146.5q14 79 45.5 145.5t79 114.5t111.5 75t142 27t132.5 -27t85.5 -75t39.5 -114.5t-5.5 -145.5q-14 -80 -45.5 -146.5t-79.5 -114.5t-112 -74.5t-142 -26.5zM334 50q118 0 193 79.5t101 222.5q25 143 -22 222.5
t-165 79.5t-193 -79.5t-100 -222.5q-26 -143 21 -222.5t165 -79.5zM607 902q6 0 4 -5q-11 -63 -50.5 -93t-94.5 -30q-54 0 -84 30.5t-19 92.5q2 5 6 5h42q6 0 4 -5q-2 -11 -1 -23.5t7 -23.5t18.5 -18.5t34.5 -7.5t37 7.5t25 18.5t15 23.5t7 23.5q2 5 6 5h43z" />
    <glyph glyph-name="obreve" unicode="&#x14f;" horiz-adv-x="592" 
d="M551 253q-11 -59 -36 -107t-63.5 -83t-88 -54t-107.5 -19q-59 0 -101.5 19t-68 54t-34 83t2.5 107q10 59 35 107.5t63 83t87.5 53.5t108.5 19q58 0 101 -19t68.5 -54t34 -83.5t-1.5 -106.5zM481 253q8 45 2.5 82.5t-24 64t-48.5 41.5t-72 15t-77.5 -15t-63.5 -41.5
t-46.5 -64t-26.5 -82.5t-2.5 -82.5t24 -64t48.5 -41.5t72 -15t77.5 15t63 41.5t46.5 64t27 82.5zM497 704q6 0 4 -5q-11 -63 -50.5 -93t-94.5 -30q-54 0 -84 30.5t-19 92.5q2 5 6 5h42q6 0 4 -5q-2 -11 -1 -23.5t7 -23.5t18.5 -18.5t34.5 -7.5t37 7.5t25 18.5t15 23.5
t7 23.5q2 5 6 5h43z" />
    <glyph glyph-name="Ohungarumlaut" unicode="&#x150;" horiz-adv-x="727" 
d="M324 -10q-78 0 -132.5 26.5t-85.5 74.5t-39 114.5t6 146.5q14 79 45.5 145.5t79 114.5t111.5 75t142 27t132.5 -27t85.5 -75t39.5 -114.5t-5.5 -145.5q-14 -80 -45.5 -146.5t-79.5 -114.5t-112 -74.5t-142 -26.5zM334 50q118 0 193 79.5t101 222.5q25 143 -22 222.5
t-165 79.5t-193 -79.5t-100 -222.5q-26 -143 21 -222.5t165 -79.5zM306 762q-5 0 -3 5l52 132q0 5 7 5h89q3 0 3 -5l-52 -132q-2 -5 -7 -5h-89zM526 762q-5 0 -3 5l52 132q0 5 7 5h89q3 0 3 -5l-52 -132q-2 -5 -7 -5h-89z" />
    <glyph glyph-name="ohungarumlaut" unicode="&#x151;" horiz-adv-x="592" 
d="M551 253q-11 -59 -36 -107t-63.5 -83t-88 -54t-107.5 -19q-59 0 -101.5 19t-68 54t-34 83t2.5 107q10 59 35 107.5t63 83t87.5 53.5t108.5 19q58 0 101 -19t68.5 -54t34 -83.5t-1.5 -106.5zM481 253q8 45 2.5 82.5t-24 64t-48.5 41.5t-72 15t-77.5 -15t-63.5 -41.5
t-46.5 -64t-26.5 -82.5t-2.5 -82.5t24 -64t48.5 -41.5t72 -15t77.5 15t63 41.5t46.5 64t27 82.5zM204 562q-5 0 -3 5l52 132q0 5 7 5h89q3 0 3 -5l-52 -132q-2 -5 -7 -5h-89zM424 562q-5 0 -3 5l52 132q0 5 7 5h89q3 0 3 -5l-52 -132q-2 -5 -7 -5h-89z" />
    <glyph glyph-name="OE" unicode="&#x152;" horiz-adv-x="1092" 
d="M532 0q-4 0 -4 5l16 89q-46 -50 -105 -77t-134 -27t-125.5 26.5t-79 74.5t-34.5 114.5t8 146.5q14 79 43.5 145.5t74.5 114.5t105 75t135 27t124.5 -27.5t78.5 -77.5l16 90q0 5 6 5h450q4 0 4 -5l-9 -50q-2 -5 -6 -5h-380q-4 0 -6 -5l-43 -246q-2 -5 4 -5h337q6 0 4 -5
l-9 -50q0 -5 -6 -5h-337q-4 0 -6 -5l-45 -258q-2 -5 4 -5h380q6 0 4 -5l-9 -50q0 -5 -6 -5h-450zM315 50q51 0 95.5 20.5t80 59.5t60.5 95t38 127q25 143 -19.5 222.5t-147.5 79.5q-51 0 -95.5 -20.5t-80 -59.5t-60.5 -95t-37 -127q-26 -143 18.5 -222.5t147.5 -79.5z" />
    <glyph glyph-name="oe" unicode="&#x153;" horiz-adv-x="1018" 
d="M560 227q-4 0 -6 -5q-6 -33 0 -64t23.5 -55t46 -38.5t67.5 -14.5q30 0 55 7t45 18t34.5 25t24.5 28q2 5 9 5h64q6 0 5 -5q-35 -69 -101 -103.5t-147 -34.5q-69 0 -115.5 29t-68.5 81q-40 -52 -98.5 -81t-131.5 -29q-59 0 -101.5 19t-68 54t-34 83t2.5 107q10 59 35 107.5
t63 83t87.5 53.5t108.5 19q72 0 120 -29t70 -80q40 51 97 80.5t127 29.5q56 0 97.5 -19.5t66 -54t32.5 -83.5t-2 -107q-1 -5 -2.5 -12t-3.5 -9q-2 -5 -7 -5h-394zM491 253q8 45 2.5 82.5t-24 64t-48.5 41.5t-72 15t-77.5 -15t-63.5 -41.5t-46.5 -64t-26.5 -82.5t-2.5 -82.5
t24 -64t48.5 -41.5t72 -15t77.5 15t63 41.5t46.5 64t27 82.5zM898 292q4 27 0 56t-19.5 53.5t-43.5 40t-72 15.5q-43 0 -77.5 -17.5t-59.5 -42.5t-40 -54t-19 -51q-2 -5 4 -5h321q4 0 6 5z" />
    <glyph glyph-name="Racute" unicode="&#x154;" horiz-adv-x="650" 
d="M46 0q-4 0 -4 5l123 694q0 5 6 5h294q43 0 76.5 -15.5t54.5 -43.5t29 -65.5t0 -81.5q-6 -35 -20.5 -65.5t-35 -56t-46 -43.5t-54.5 -27q-6 -2 -4 -8q19 -75 39.5 -146.5t40.5 -146.5q2 -5 -5 -5h-59q-4 0 -6 5l-77 282q-1 5 -6 5h-224q-4 0 -6 -5l-50 -282q0 -5 -6 -5
h-60zM230 644q-4 0 -6 -5l-50 -282q0 -5 5 -5h214q31 0 59 12.5t49 33.5t35 47t19 53t0 53t-19 47t-37.5 33.5t-54.5 12.5h-214zM338 774q-3 0 -4.5 2t0.5 5l69 114q2 2 4 4.5t7 2.5h67q3 0 5 -2t-1 -5l-92 -114q-2 -2 -5 -4.5t-7 -2.5h-43z" />
    <glyph glyph-name="racute" unicode="&#x155;" horiz-adv-x="389" 
d="M138 501q2 5 6 5h50q4 0 4 -5v-55q0 -5 3.5 -5t6.5 3q6 6 18.5 18t32 24t46.5 21t62 9h42q4 0 4 -5l-11 -60q0 -5 -6 -5h-42q-84 0 -127 -43t-59 -131l-47 -267q-2 -5 -6 -5h-60q-6 0 -4 5zM201 576q-3 0 -4.5 2t0.5 5l69 114q2 2 4 4.5t7 2.5h67q3 0 5 -2t-1 -5
l-92 -114q-2 -2 -5 -4.5t-7 -2.5h-43z" />
    <glyph glyph-name="uni0156" unicode="&#x156;" horiz-adv-x="650" 
d="M56 0q-6 0 -4 5l122 694q0 5 6 5h294q43 0 76.5 -15.5t54.5 -43.5t29 -65.5t0 -81.5q-6 -35 -20.5 -65.5t-34.5 -56t-46 -43.5t-54 -27q-7 -2 -5 -8q19 -75 40 -146.5t41 -146.5q0 -5 -5 -5h-59q-6 0 -6 5l-78 282q-1 5 -6 5h-224q-4 0 -6 -5l-49 -282q-2 -5 -6 -5h-60z
M239 644q-4 0 -6 -5l-49 -282q-2 -5 4 -5h214q31 0 59 12.5t49 33.5t35 47t19 53t0 53t-19 47t-37.5 33.5t-54.5 12.5h-214zM267 -134q-6 0 -4 5l12 69q2 5 6 5h68q6 0 4 -5l-12 -71q-6 -34 -30 -55.5t-57 -21.5q-6 0 -4 5l5 29q0 5 6 5q9 0 19 7t13 23q2 5 -4 5h-22z" />
    <glyph glyph-name="uni0157" unicode="&#x157;" horiz-adv-x="389" 
d="M147 501q2 5 6 5h50q4 0 4 -5l1 -55q0 -5 3.5 -5t5.5 3q6 6 18.5 18t32 24t46.5 21t62 9h42q6 0 4 -5l-11 -60q0 -5 -5 -5h-42q-84 0 -127.5 -43t-59.5 -131l-47 -267q-2 -5 -6 -5h-60q-6 0 -4 5zM36 -134q-4 0 -4 5l12 69q2 5 6 5h68q6 0 4 -5l-12 -71q-6 -34 -30 -55.5
t-57 -21.5q-4 0 -4 5l5 29q2 5 6 5q9 0 19.5 7t12.5 23q2 5 -4 5h-22z" />
    <glyph glyph-name="Rcaron" unicode="&#x158;" horiz-adv-x="670" 
d="M46 0q-4 0 -4 5l123 694q0 5 6 5h294q43 0 76.5 -15.5t54.5 -43.5t29 -65.5t0 -81.5q-6 -35 -20.5 -65.5t-35 -56t-46 -43.5t-54.5 -27q-6 -2 -4 -8q19 -75 39.5 -146.5t40.5 -146.5q2 -5 -5 -5h-59q-4 0 -6 5l-77 282q-1 5 -6 5h-224q-4 0 -6 -5l-50 -282q0 -5 -6 -5
h-60zM230 644q-4 0 -6 -5l-50 -282q0 -5 5 -5h214q31 0 59 12.5t49 33.5t35 47t19 53t0 53t-19 47t-37.5 33.5t-54.5 12.5h-214zM496 902q3 0 4.5 -2t-0.5 -5l-72 -117q-1 -4 -5 -4h-80q-4 0 -5 4l-30 117q-2 7 6 7h47q3 0 5 -3l23 -62q1 -3 4.5 -3t5.5 3l45 62q1 3 5 3h47z
" />
    <glyph glyph-name="rcaron" unicode="&#x159;" horiz-adv-x="389" 
d="M138 501q2 5 6 5h50q4 0 4 -5v-55q0 -5 3.5 -5t6.5 3q6 6 18.5 18t32 24t46.5 21t62 9h42q4 0 4 -5l-11 -60q0 -5 -6 -5h-42q-84 0 -127 -43t-59 -131l-47 -267q-2 -5 -6 -5h-60q-6 0 -4 5zM387 704q3 0 4.5 -2t-0.5 -5l-72 -117q-1 -4 -5 -4h-80q-4 0 -5 4l-30 117
q-2 7 6 7h47q3 0 5 -3l23 -62q1 -3 4.5 -3t5.5 3l45 62q1 3 5 3h47z" />
    <glyph glyph-name="Sacute" unicode="&#x15a;" horiz-adv-x="620" 
d="M105 193q-5 -26 4 -52t30 -46t54.5 -32.5t78.5 -12.5q37 0 73 9.5t66 27.5t51 44.5t27 61.5q7 42 -5 68t-36.5 41t-57.5 21t-68 9q-43 4 -86.5 13t-76 29.5t-49.5 55.5t-7 90q8 46 35.5 82.5t66 61t84 37.5t90.5 13t87 -12t72.5 -37t45.5 -63.5t6 -90.5q-2 -5 -6 -5h-60
q-6 0 -4 5q6 35 -3 62t-30 45t-51.5 27t-66.5 9q-34 0 -67 -9.5t-60 -27t-45.5 -42.5t-23.5 -55q-4 -22 -0.5 -43t20 -38t50 -29.5t90.5 -17.5q45 -4 90 -12t79 -29t51 -58t6 -100q-8 -45 -34 -82.5t-65.5 -64.5t-90 -41.5t-107.5 -14.5q-60 0 -106 16t-75 44t-41 64.5
t-5 78.5q2 5 6 5h60q6 0 4 -5zM333 774q-3 0 -4.5 2t0.5 5l69 114q2 2 4 4.5t7 2.5h67q3 0 5 -2t-1 -5l-92 -114q-2 -2 -5 -4.5t-7 -2.5h-43z" />
    <glyph glyph-name="sacute" unicode="&#x15b;" horiz-adv-x="540" 
d="M110 171q-3 -17 0 -38t16.5 -39.5t41 -31t72.5 -12.5q18 0 44.5 2.5t52.5 12.5t46.5 29t26.5 51q4 27 -7 42.5t-31.5 24.5t-47 13t-52.5 7q-33 3 -69 9t-64.5 20t-44 41t-7.5 72q5 30 25 56t50.5 45t69 30t80.5 11q46 0 84 -11t64 -33t37 -56.5t3 -80.5q0 -5 -6 -5h-60
q-4 0 -4 5q11 62 -24 91.5t-104 29.5q-61 0 -100 -24.5t-45 -57.5q-4 -22 3 -36.5t23.5 -23.5t41.5 -14t58 -8q45 -4 84.5 -10.5t67 -21.5t40.5 -42t5 -73q-14 -81 -81.5 -118t-169.5 -37q-57 0 -96 15t-61.5 39.5t-30 57.5t-1.5 69q2 5 6 5h60q6 0 4 -5zM267 576
q-3 0 -4.5 2t0.5 5l69 114q2 2 4 4.5t7 2.5h67q3 0 5 -2t-1 -5l-92 -114q-2 -2 -5 -4.5t-7 -2.5h-43z" />
    <glyph glyph-name="Scircumflex" unicode="&#x15c;" horiz-adv-x="620" 
d="M105 193q-5 -26 4 -52t30 -46t54.5 -32.5t78.5 -12.5q37 0 73 9.5t66 27.5t51 44.5t27 61.5q7 42 -5 68t-36.5 41t-57.5 21t-68 9q-43 4 -86.5 13t-76 29.5t-49.5 55.5t-7 90q8 46 35.5 82.5t66 61t84 37.5t90.5 13t87 -12t72.5 -37t45.5 -63.5t6 -90.5q-2 -5 -6 -5h-60
q-6 0 -4 5q6 35 -3 62t-30 45t-51.5 27t-66.5 9q-34 0 -67 -9.5t-60 -27t-45.5 -42.5t-23.5 -55q-4 -22 -0.5 -43t20 -38t50 -29.5t90.5 -17.5q45 -4 90 -12t79 -29t51 -58t6 -100q-8 -45 -34 -82.5t-65.5 -64.5t-90 -41.5t-107.5 -14.5q-60 0 -106 16t-75 44t-41 64.5
t-5 78.5q2 5 6 5h60q6 0 4 -5zM448 774q-4 0 -5 3l-23 62q-1 3 -4.5 3t-5.5 -3l-45 -62q-2 -3 -5 -3h-47q-3 0 -4.5 2t0.5 5l72 117q1 4 5 4h80q4 0 5 -4l30 -117q2 -7 -6 -7h-47z" />
    <glyph glyph-name="scircumflex" unicode="&#x15d;" horiz-adv-x="540" 
d="M110 171q-3 -17 0 -38t16.5 -39.5t41 -31t72.5 -12.5q18 0 44.5 2.5t52.5 12.5t46.5 29t26.5 51q4 27 -7 42.5t-31.5 24.5t-47 13t-52.5 7q-33 3 -69 9t-64.5 20t-44 41t-7.5 72q5 30 25 56t50.5 45t69 30t80.5 11q46 0 84 -11t64 -33t37 -56.5t3 -80.5q0 -5 -6 -5h-60
q-4 0 -4 5q11 62 -24 91.5t-104 29.5q-61 0 -100 -24.5t-45 -57.5q-4 -22 3 -36.5t23.5 -23.5t41.5 -14t58 -8q45 -4 84.5 -10.5t67 -21.5t40.5 -42t5 -73q-14 -81 -81.5 -118t-169.5 -37q-57 0 -96 15t-61.5 39.5t-30 57.5t-1.5 69q2 5 6 5h60q6 0 4 -5zM374 576q-4 0 -5 3
l-23 62q-1 3 -4.5 3t-5.5 -3l-45 -62q-2 -3 -5 -3h-47q-3 0 -4.5 2t0.5 5l72 117q1 4 5 4h80q4 0 5 -4l30 -117q2 -7 -6 -7h-47z" />
    <glyph glyph-name="Scedilla" unicode="&#x15e;" horiz-adv-x="620" 
d="M114 193q-5 -26 4 -52t30 -46t54.5 -32.5t78.5 -12.5q37 0 73 9.5t66 27.5t51 44.5t27 61.5q7 42 -5 68t-36.5 41t-58 21t-67.5 9q-44 4 -87 13t-75.5 29.5t-49.5 55.5t-7 90q8 46 35.5 82.5t66 61t84 37.5t90.5 13t87 -12t72.5 -37t45 -63.5t5.5 -90.5q0 -5 -6 -5h-60
q-4 0 -4 5q6 35 -3 62t-29.5 45t-51 27t-66.5 9q-34 0 -67 -9.5t-60 -27t-45.5 -42.5t-23.5 -55q-4 -22 -1 -43t20 -38t50.5 -29.5t89.5 -17.5q45 -4 90 -12t79.5 -29t51.5 -58t6 -100q-7 -39 -27 -72t-51 -58.5t-70.5 -43t-85.5 -24.5l-64 -40q-2 -2 -2 -5t4 -3q13 0 26 -4
t23 -13t15 -23t2 -34q-5 -31 -35 -56t-79 -25q-45 0 -62.5 25.5t-12.5 55.5q0 5 6 5h33q4 0 4 -5q-3 -16 7.5 -29.5t30.5 -13.5q24 0 39.5 13.5t18.5 29.5q3 14 -1 23.5t-11.5 15t-17 8t-17.5 2.5q-13 0 -15 3l-7 8q-3 4 -2 7t3 5l52 36q3 2 2.5 5.5t-4.5 3.5h-3
q-59 0 -104 16.5t-74 44t-40.5 64t-4.5 78.5q2 5 6 5h60q6 0 4 -5z" />
    <glyph glyph-name="scedilla" unicode="&#x15f;" horiz-adv-x="540" 
d="M119 171q-3 -17 0 -38t16.5 -39.5t41 -31t72.5 -12.5q18 0 44.5 2.5t52 12.5t46 29t26.5 51q5 27 -6 42.5t-31.5 24.5t-47 13t-52.5 7q-33 3 -69 9t-64.5 20t-44 41t-7.5 72q5 30 25 56t50.5 45t69 30t80.5 11q46 0 84 -11t64 -33t37 -56.5t3 -80.5q-2 -5 -6 -5h-60
q-6 0 -4 5q10 61 -25.5 91t-103.5 30q-61 0 -99.5 -24.5t-44.5 -57.5q-4 -22 3 -36.5t23.5 -23.5t41.5 -14t57 -8q45 -4 84.5 -10.5t67.5 -21.5t40.5 -42t4.5 -73q-12 -69 -61.5 -105.5t-127.5 -45.5l-61 -39q-2 -2 -2 -5t4 -3q13 0 26 -4t23 -13t15 -23t2 -34
q-6 -31 -36 -56t-79 -25q-45 0 -62.5 25.5t-11.5 55.5q0 5 5 5h33q5 0 5 -5q-3 -16 7.5 -29.5t30.5 -13.5q24 0 39.5 13.5t18.5 29.5q2 14 -2 23.5t-11 15t-16.5 8t-17.5 2.5q-13 0 -15 3l-7 8q-3 4 -2 7t3 5l52 36q2 2 2 5.5t-5 3.5q-57 0 -95.5 15t-61.5 39.5t-30 57.5
t-1 69q2 5 6 5h60q6 0 4 -5z" />
    <glyph glyph-name="Scaron" unicode="&#x160;" horiz-adv-x="620" 
d="M105 193q-5 -26 4 -52t30 -46t54.5 -32.5t78.5 -12.5q37 0 73 9.5t66 27.5t51 44.5t27 61.5q7 42 -5 68t-36.5 41t-57.5 21t-68 9q-43 4 -86.5 13t-76 29.5t-49.5 55.5t-7 90q8 46 35.5 82.5t66 61t84 37.5t90.5 13t87 -12t72.5 -37t45.5 -63.5t6 -90.5q-2 -5 -6 -5h-60
q-6 0 -4 5q6 35 -3 62t-30 45t-51.5 27t-66.5 9q-34 0 -67 -9.5t-60 -27t-45.5 -42.5t-23.5 -55q-4 -22 -0.5 -43t20 -38t50 -29.5t90.5 -17.5q45 -4 90 -12t79 -29t51 -58t6 -100q-8 -45 -34 -82.5t-65.5 -64.5t-90 -41.5t-107.5 -14.5q-60 0 -106 16t-75 44t-41 64.5
t-5 78.5q2 5 6 5h60q6 0 4 -5zM511 902q3 0 4.5 -2t-0.5 -5l-72 -117q-1 -4 -5 -4h-80q-4 0 -5 4l-30 117q-2 7 6 7h47q3 0 5 -3l23 -62q1 -3 4.5 -3t5.5 3l45 62q1 3 5 3h47z" />
    <glyph glyph-name="scaron" unicode="&#x161;" horiz-adv-x="540" 
d="M110 171q-3 -17 0 -38t16.5 -39.5t41 -31t72.5 -12.5q18 0 44.5 2.5t52.5 12.5t46.5 29t26.5 51q4 27 -7 42.5t-31.5 24.5t-47 13t-52.5 7q-33 3 -69 9t-64.5 20t-44 41t-7.5 72q5 30 25 56t50.5 45t69 30t80.5 11q46 0 84 -11t64 -33t37 -56.5t3 -80.5q0 -5 -6 -5h-60
q-4 0 -4 5q11 62 -24 91.5t-104 29.5q-61 0 -100 -24.5t-45 -57.5q-4 -22 3 -36.5t23.5 -23.5t41.5 -14t58 -8q45 -4 84.5 -10.5t67 -21.5t40.5 -42t5 -73q-14 -81 -81.5 -118t-169.5 -37q-57 0 -96 15t-61.5 39.5t-30 57.5t-1.5 69q2 5 6 5h60q6 0 4 -5zM424 704
q3 0 4.5 -2t-0.5 -5l-72 -117q-1 -4 -5 -4h-80q-4 0 -5 4l-30 117q-2 7 6 7h47q3 0 5 -3l23 -62q1 -3 4.5 -3t5.5 3l45 62q1 3 5 3h47z" />
    <glyph glyph-name="uni0162" unicode="&#x162;" horiz-adv-x="557" 
d="M192 -134q-4 0 -4 5l12 69q2 5 6 5h68q6 0 4 -5l-12 -71q-6 -34 -30 -55.5t-57 -21.5q-4 0 -4 5l5 29q2 5 6 5q9 0 19.5 7t13.5 23q0 5 -5 5h-22zM327 642q0 5 -4 5h-201q-5 0 -5 5l9 47q0 5 6 5h482q4 0 4 -5l-9 -47q0 -5 -5 -5h-201q-6 0 -6 -5l-113 -637q0 -5 -6 -5
h-60q-4 0 -4 5z" />
    <glyph glyph-name="uni0163" unicode="&#x163;" horiz-adv-x="370" 
d="M106 -134q-4 0 -4 5l12 69q2 5 6 5h68q6 0 4 -5l-12 -71q-6 -34 -30 -55.5t-57 -21.5q-4 0 -4 5l5 29q2 5 6 5q9 0 19.5 7t13.5 23q0 5 -5 5h-22zM89 446q-6 0 -4 5l8 50q2 5 6 5h95q6 0 6 5l23 128q0 5 6 5h60q4 0 4 -5l-23 -128q0 -5 4 -5h115q6 0 4 -5l-8 -50
q-2 -5 -6 -5h-115q-6 0 -6 -5l-55 -314q-8 -39 7 -53t47 -14h54q4 0 4 -5l-9 -50q-2 -5 -6 -5h-55q-75 0 -99.5 30.5t-12.5 96.5l55 314q0 5 -4 5h-95z" />
    <glyph glyph-name="Tcaron" unicode="&#x164;" horiz-adv-x="557" 
d="M316 642q0 5 -4 5h-201q-5 0 -5 5l9 47q0 5 6 5h482q4 0 4 -5l-9 -47q0 -5 -5 -5h-201q-6 0 -6 -5l-113 -637q0 -5 -6 -5h-60q-4 0 -4 5zM480 902q3 0 4.5 -2t-0.5 -5l-72 -117q-1 -4 -5 -4h-80q-4 0 -5 4l-30 117q-2 7 6 7h47q3 0 5 -3l23 -62q1 -3 4.5 -3t5.5 3l45 62
q1 3 5 3h47z" />
    <glyph glyph-name="tcaron" unicode="&#x165;" horiz-adv-x="370" 
d="M273 625q-4 0 -4 5l12 69q2 5 6 5h68q6 0 4 -5l-12 -71q-6 -34 -30 -55.5t-57 -21.5q-4 0 -4 5l5 29q2 5 6 5q9 0 19.5 7t13.5 23q0 5 -5 5h-22zM23 446q-6 0 -4 5l8 50q2 5 6 5h95q6 0 6 5l23 128q0 5 6 5h60q4 0 4 -5l-23 -128q0 -5 4 -5h115q6 0 4 -5l-8 -50
q-2 -5 -6 -5h-115q-6 0 -6 -5l-55 -314q-8 -39 7 -53t47 -14h54q4 0 4 -5l-9 -50q-2 -5 -6 -5h-55q-75 0 -99.5 30.5t-12.5 96.5l55 314q0 5 -4 5h-95z" />
    <glyph glyph-name="Tbar" unicode="&#x166;" horiz-adv-x="557" 
d="M316 643q-2 4 -4 4h-201q-5 0 -5 5l9 47q0 5 6 5h482q4 0 4 -5l-9 -47q0 -5 -5 -5h-201q-6 0 -6 -5l-23 -131q-2 -5 4 -5h173q4 0 4 -5l-7 -41q-2 -5 -6 -5h-173q-6 0 -6 -5l-79 -445q0 -5 -6 -5h-60q-4 0 -4 5l79 445q0 5 -4 5h-164q-6 0 -4 5l7 41q0 5 6 5h164q4 0 6 5
z" />
    <glyph glyph-name="tbar" unicode="&#x167;" horiz-adv-x="370" 
d="M78 446q-6 0 -4 5l8 50q2 5 6 5h95q6 0 6 5l23 128q0 5 6 5h60q4 0 4 -5l-23 -128q0 -5 4 -5h115q6 0 4 -5l-8 -50q-2 -5 -6 -5h-115q-6 0 -6 -5l-55 -314q-8 -39 7 -53t47 -14h54q4 0 4 -5l-9 -50q-2 -5 -6 -5h-55q-75 0 -99.5 30.5t-12.5 96.5l55 314q0 5 -4 5h-95z
M65 273q-3 0 -3 5l7 40q2 5 5 5h246q6 0 4 -5l-7 -40q0 -5 -6 -5h-246z" />
    <glyph glyph-name="Utilde" unicode="&#x168;" horiz-adv-x="636" 
d="M643 704q6 0 4 -5l-82 -465q-9 -51 -35.5 -95.5t-65.5 -77.5t-87 -52t-99 -19t-93 19t-69.5 52t-39 77.5t-2.5 95.5l82 465q2 5 6 5h60q6 0 4 -5l-82 -465q-6 -36 2 -69.5t27.5 -59t49 -40.5t66.5 -15q36 0 70.5 15t62.5 40.5t47.5 59t25.5 69.5l82 465q2 5 6 5h60z
M263 792q2 13 10 28t21 28t31.5 21.5t42.5 8.5q22 0 37 -7t27 -16t23.5 -16t26.5 -7q7 0 20.5 8t18.5 33q2 5 6 5h48q6 0 4 -5l-2 -14q-2 -13 -10 -28t-21 -27.5t-31.5 -21t-42.5 -8.5q-20 0 -35.5 7t-29 16t-25.5 16t-24 7q-7 0 -20.5 -8t-18.5 -33q-2 -5 -6 -5h-48
q-6 0 -4 5z" />
    <glyph glyph-name="utilde" unicode="&#x169;" horiz-adv-x="598" 
d="M142 234q-6 -37 -4 -70t16 -58.5t41 -40.5t70 -15q84 0 128.5 47t60.5 137l47 267q2 5 6 5h60q6 0 4 -5l-87 -496q-2 -5 -6 -5h-49q-5 0 -5 5l-1 55q0 5 -3.5 5t-5.5 -3q-7 -7 -22 -19t-36.5 -24t-49.5 -20.5t-61 -8.5q-57 0 -95 17.5t-58.5 49.5t-25 76.5t5.5 100.5
l47 267q2 5 6 5h60q6 0 4 -5zM214 618q2 13 10 28t21 28t31.5 21.5t42.5 8.5q22 0 37 -7t27 -16t23.5 -16t26.5 -7q7 0 20.5 8t18.5 33q2 5 6 5h48q6 0 4 -5l-2 -14q-2 -13 -10 -28t-21 -27.5t-31.5 -21t-42.5 -8.5q-20 0 -35.5 7t-29 16t-25.5 16t-24 7q-7 0 -20.5 -8
t-18.5 -33q-2 -5 -6 -5h-48q-6 0 -4 5z" />
    <glyph glyph-name="Umacron" unicode="&#x16a;" horiz-adv-x="636" 
d="M643 704q6 0 4 -5l-82 -465q-9 -51 -35.5 -95.5t-65.5 -77.5t-87 -52t-99 -19t-93 19t-69.5 52t-39 77.5t-2.5 95.5l82 465q2 5 6 5h60q6 0 4 -5l-82 -465q-6 -36 2 -69.5t27.5 -59t49 -40.5t66.5 -15q36 0 70.5 15t62.5 40.5t47.5 59t25.5 69.5l82 465q2 5 6 5h60z
M291 774q-5 0 -3 5l7 40q2 5 5 5h246q6 0 4 -5l-7 -40q-2 -5 -6 -5h-246z" />
    <glyph glyph-name="umacron" unicode="&#x16b;" horiz-adv-x="598" 
d="M142 234q-6 -37 -4 -70t16 -58.5t41 -40.5t70 -15q84 0 128.5 47t60.5 137l47 267q2 5 6 5h60q6 0 4 -5l-87 -496q-2 -5 -6 -5h-49q-5 0 -5 5l-1 55q0 5 -3.5 5t-5.5 -3q-7 -7 -22 -19t-36.5 -24t-49.5 -20.5t-61 -8.5q-57 0 -95 17.5t-58.5 49.5t-25 76.5t5.5 100.5
l47 267q2 5 6 5h60q6 0 4 -5zM228 576q-5 0 -3 5l7 40q2 5 5 5h246q6 0 4 -5l-7 -40q-2 -5 -6 -5h-246z" />
    <glyph glyph-name="Ubreve" unicode="&#x16c;" horiz-adv-x="636" 
d="M643 704q6 0 4 -5l-82 -465q-9 -51 -35.5 -95.5t-65.5 -77.5t-87 -52t-99 -19t-93 19t-69.5 52t-39 77.5t-2.5 95.5l82 465q2 5 6 5h60q6 0 4 -5l-82 -465q-6 -36 2 -69.5t27.5 -59t49 -40.5t66.5 -15q36 0 70.5 15t62.5 40.5t47.5 59t25.5 69.5l82 465q2 5 6 5h60z
M543 902q6 0 4 -5q-11 -63 -50.5 -93t-94.5 -30q-54 0 -84 30.5t-19 92.5q2 5 6 5h42q6 0 4 -5q-2 -11 -1 -23.5t7 -23.5t18.5 -18.5t34.5 -7.5t37 7.5t25 18.5t15 23.5t7 23.5q2 5 6 5h43z" />
    <glyph glyph-name="ubreve" unicode="&#x16d;" horiz-adv-x="598" 
d="M142 234q-6 -37 -4 -70t16 -58.5t41 -40.5t70 -15q84 0 128.5 47t60.5 137l47 267q2 5 6 5h60q6 0 4 -5l-87 -496q-2 -5 -6 -5h-49q-5 0 -5 5l-1 55q0 5 -3.5 5t-5.5 -3q-7 -7 -22 -19t-36.5 -24t-49.5 -20.5t-61 -8.5q-57 0 -95 17.5t-58.5 49.5t-25 76.5t5.5 100.5
l47 267q2 5 6 5h60q6 0 4 -5zM490 704q6 0 4 -5q-11 -63 -50.5 -93t-94.5 -30q-54 0 -84 30.5t-19 92.5q2 5 6 5h42q6 0 4 -5q-2 -11 -1 -23.5t7 -23.5t18.5 -18.5t34.5 -7.5t37 7.5t25 18.5t15 23.5t7 23.5q2 5 6 5h43z" />
    <glyph glyph-name="Uring" unicode="&#x16e;" horiz-adv-x="636" 
d="M643 704q6 0 4 -5l-82 -465q-9 -51 -35.5 -95.5t-65.5 -77.5t-87 -52t-99 -19t-93 19t-69.5 52t-39 77.5t-2.5 95.5l82 465q2 5 6 5h60q6 0 4 -5l-82 -465q-6 -36 2 -69.5t27.5 -59t49 -40.5t66.5 -15q36 0 70.5 15t62.5 40.5t47.5 59t25.5 69.5l82 465q2 5 6 5h60z
M509 823q-3 -18 -13 -34t-24.5 -27.5t-31.5 -18.5t-35 -7q-36 0 -57 25.5t-14 61.5q3 18 12.5 34t23.5 28t31 19t35 7q36 0 57.5 -26t15.5 -62zM470 823q3 20 -9 34.5t-32 14.5q-21 0 -38 -14.5t-20 -34.5q-4 -21 8 -35.5t33 -14.5q20 0 37 14.5t21 35.5z" />
    <glyph glyph-name="uring" unicode="&#x16f;" horiz-adv-x="598" 
d="M142 234q-6 -37 -4 -70t16 -58.5t41 -40.5t70 -15q84 0 128.5 47t60.5 137l47 267q2 5 6 5h60q6 0 4 -5l-87 -496q-2 -5 -6 -5h-49q-5 0 -5 5l-1 55q0 5 -3.5 5t-5.5 -3q-7 -7 -22 -19t-36.5 -24t-49.5 -20.5t-61 -8.5q-57 0 -95 17.5t-58.5 49.5t-25 76.5t5.5 100.5
l47 267q2 5 6 5h60q6 0 4 -5zM446 625q-3 -18 -13 -34t-24.5 -27.5t-31.5 -18.5t-35 -7q-36 0 -57 25.5t-14 61.5q3 18 12.5 34t23.5 28t31 19t35 7q36 0 57.5 -26t15.5 -62zM407 625q3 20 -9 34.5t-32 14.5q-21 0 -38 -14.5t-20 -34.5q-4 -21 8 -35.5t33 -14.5
q20 0 37 14.5t21 35.5z" />
    <glyph glyph-name="Uhungarumlaut" unicode="&#x170;" horiz-adv-x="636" 
d="M643 704q6 0 4 -5l-82 -465q-9 -51 -35.5 -95.5t-65.5 -77.5t-87 -52t-99 -19t-93 19t-69.5 52t-39 77.5t-2.5 95.5l82 465q2 5 6 5h60q6 0 4 -5l-82 -465q-6 -36 2 -69.5t27.5 -59t49 -40.5t66.5 -15q36 0 70.5 15t62.5 40.5t47.5 59t25.5 69.5l82 465q2 5 6 5h60z
M250 760q-5 0 -3 5l52 132q0 5 7 5h89q3 0 3 -5l-52 -132q-2 -5 -7 -5h-89zM470 760q-5 0 -3 5l52 132q0 5 7 5h89q3 0 3 -5l-52 -132q-2 -5 -7 -5h-89z" />
    <glyph glyph-name="uhungarumlaut" unicode="&#x171;" horiz-adv-x="598" 
d="M142 234q-6 -37 -4 -70t16 -58.5t41 -40.5t70 -15q84 0 128.5 47t60.5 137l47 267q2 5 6 5h60q6 0 4 -5l-87 -496q-2 -5 -6 -5h-49q-5 0 -5 5l-1 55q0 5 -3.5 5t-5.5 -3q-7 -7 -22 -19t-36.5 -24t-49.5 -20.5t-61 -8.5q-57 0 -95 17.5t-58.5 49.5t-25 76.5t5.5 100.5
l47 267q2 5 6 5h60q6 0 4 -5zM177 562q-5 0 -3 5l52 132q0 5 7 5h89q3 0 3 -5l-52 -132q-2 -5 -7 -5h-89zM397 562q-5 0 -3 5l52 132q0 5 7 5h89q3 0 3 -5l-52 -132q-2 -5 -7 -5h-89z" />
    <glyph glyph-name="Uogonek" unicode="&#x172;" horiz-adv-x="636" 
d="M651 704q6 0 4 -5l-82 -465q-12 -72 -57.5 -127.5t-107.5 -88.5q-26 -14 -49 -33.5t-28 -46.5q-7 -38 11.5 -57t50.5 -19h11q6 0 4 -5l-9 -50q0 -5 -6 -5h-21q-33 0 -55.5 8.5t-36 23t-18.5 32.5t-2 37q5 28 17 47t27 32q4 3 3 6.5t-5 2.5q-6 -1 -9 -1h-7q-51 0 -93 19
t-69.5 52t-39 77.5t-2.5 95.5l82 465q2 5 6 5h60q6 0 4 -5l-82 -465q-6 -36 2 -69.5t27.5 -59t49 -40.5t66.5 -15q36 0 70.5 15t62.5 40.5t47.5 59t25.5 69.5l82 465q2 5 6 5h60z" />
    <glyph glyph-name="uogonek" unicode="&#x173;" horiz-adv-x="598" 
d="M150 234q-6 -37 -4 -70t16 -58.5t41 -40.5t71 -15q84 0 128 47t60 137l47 267q2 5 6 5h60q6 0 4 -5l-87 -496q-2 -5 -6 -5h-17q-30 -2 -53.5 -22t-28.5 -49q-5 -32 13.5 -49.5t50.5 -17.5h11q4 0 4 -5l-9 -50q-2 -5 -6 -5h-21q-59 0 -89 27.5t-24 71.5q7 40 35.5 67
t73.5 38q6 2 5 8l1 46q0 5 -3.5 5t-6.5 -3q-6 -7 -21 -19t-37 -24t-50 -20.5t-61 -8.5q-57 0 -95 17.5t-58.5 49.5t-25 76.5t5.5 100.5l47 267q2 5 6 5h60q6 0 4 -5z" />
    <glyph glyph-name="Wcircumflex" unicode="&#x174;" horiz-adv-x="882" 
d="M598 65q0 -5 4 -5t6 5l228 634q2 5 8 5h63q5 0 3 -5l-260 -694q-2 -5 -7 -5h-105q-3 0 -5 5l-21 635q0 5 -4 5t-6 -5l-245 -635q-2 -5 -7 -5h-105q-3 0 -5 5l-14 694q-2 5 5 5h63q4 0 6 -5l4 -634q0 -5 4 -5t6 5l238 634q2 5 8 5h117q4 0 6 -5zM569 774q-4 0 -5 3l-23 62
q-1 3 -4.5 3t-5.5 -3l-45 -62q-2 -3 -5 -3h-47q-3 0 -4.5 2t0.5 5l72 117q1 4 5 4h80q4 0 5 -4l30 -117q2 -7 -6 -7h-47z" />
    <glyph glyph-name="wcircumflex" unicode="&#x175;" horiz-adv-x="766" 
d="M516 65q-1 -5 3.5 -5t6.5 5l173 436q2 5 7 5h58q6 0 4 -5l-206 -496q-2 -5 -7 -5h-91q-3 0 -5 5l-31 436q0 5 -4 5t-6 -5l-185 -436q-2 -5 -7 -5h-91q-3 0 -5 5l-30 496q-2 5 4 5h58q5 0 7 -5l19 -436q-1 -5 3.5 -5t6.5 5l177 436q2 5 7 5h104q5 0 7 -5zM487 576
q-4 0 -5 3l-23 62q-1 3 -4.5 3t-5.5 -3l-45 -62q-2 -3 -5 -3h-47q-3 0 -4.5 2t0.5 5l72 117q1 4 5 4h80q4 0 5 -4l30 -117q2 -7 -6 -7h-47z" />
    <glyph glyph-name="Ycircumflex" unicode="&#x176;" horiz-adv-x="674" 
d="M228 704q5 0 8 -5l134 -309q4 -6 8 0l246 309q3 5 9 5h69q3 0 1 -5l-301 -377q-4 -5 -4.5 -8t-2.5 -8l-53 -301q0 -5 -6 -5h-60q-4 0 -4 5l53 301q1 4 1 7.5t-2 8.5l-167 377q-2 2 -0.5 3.5t3.5 1.5h68zM475 774q-4 0 -5 3l-23 62q-1 3 -4.5 3t-5.5 -3l-45 -62
q-2 -3 -5 -3h-47q-3 0 -4.5 2t0.5 5l72 117q1 4 5 4h80q4 0 5 -4l30 -117q2 -7 -6 -7h-47z" />
    <glyph glyph-name="ycircumflex" unicode="&#x177;" horiz-adv-x="552" 
d="M490 501q3 5 8 5h63q6 0 3 -5l-255 -497l-39 -75q-15 -31 -29 -55t-31.5 -40t-40.5 -24t-56 -8h-103q-6 0 -4 5l9 50q0 5 6 5h102q16 0 27 4.5t19.5 13t15.5 21t15 28.5q6 12 9.5 27t-1.5 44l-82 501q0 5 5 5h63q6 0 6 -5l63 -437q1 -4 4.5 -4t5.5 4zM380 576q-4 0 -5 3
l-23 62q-1 3 -4.5 3t-5.5 -3l-45 -62q-2 -3 -5 -3h-47q-3 0 -4.5 2t0.5 5l72 117q1 4 5 4h80q4 0 5 -4l30 -117q2 -7 -6 -7h-47z" />
    <glyph glyph-name="Ydieresis" unicode="&#x178;" horiz-adv-x="674" 
d="M228 704q5 0 8 -5l134 -309q4 -6 8 0l246 309q3 5 9 5h69q3 0 1 -5l-301 -377q-4 -5 -4.5 -8t-2.5 -8l-53 -301q0 -5 -6 -5h-60q-4 0 -4 5l53 301q1 4 1 7.5t-2 8.5l-167 377q-2 2 -0.5 3.5t3.5 1.5h68zM372 864q4 0 4 -5l-14 -80q-2 -5 -6 -5h-80q-6 0 -4 5l14 80
q0 5 6 5h80zM591 864q4 0 4 -5l-14 -80q-2 -5 -6 -5h-80q-6 0 -4 5l14 80q0 5 6 5h80z" />
    <glyph glyph-name="Zacute" unicode="&#x179;" horiz-adv-x="581" 
d="M117 699q0 5 6 5h481q4 0 4 -5l-9 -50q-2 -5 -7 -10l-501 -571q-2 -3 -1 -5.5t4 -2.5h396q6 0 4 -5l-9 -50q0 -5 -6 -5h-480q-4 0 -4 5l8 50q1 4 7 10l502 571q2 2 1 5t-4 3h-397q-6 0 -4 5zM313 774q-3 0 -4.5 2t0.5 5l69 114q2 2 4 4.5t7 2.5h67q3 0 5 -2t-1 -5
l-92 -114q-2 -2 -5 -4.5t-7 -2.5h-43z" />
    <glyph glyph-name="zacute" unicode="&#x17a;" horiz-adv-x="487" 
d="M103 501q0 5 5 5h361q5 0 5 -5l-9 -50q-1 -2 -3 -5t-4 -5l-356 -373q-3 -3 -1 -5.5t4 -2.5h300q4 0 4 -5l-9 -50q0 -5 -6 -5h-387q-4 0 -4 5l9 50q0 2 2.5 5t4.5 5l355 373q3 3 1.5 5.5t-3.5 2.5h-274q-6 0 -4 5zM219 576q-3 0 -4.5 2t0.5 5l69 114q2 2 4 4.5t7 2.5h67
q3 0 5 -2t-1 -5l-92 -114q-2 -2 -5 -4.5t-7 -2.5h-43z" />
    <glyph glyph-name="Zdotaccent" unicode="&#x17b;" horiz-adv-x="581" 
d="M117 699q0 5 6 5h481q4 0 4 -5l-9 -50q-2 -5 -7 -10l-501 -571q-2 -3 -1 -5.5t4 -2.5h396q6 0 4 -5l-9 -50q0 -5 -6 -5h-480q-4 0 -4 5l8 50q1 4 7 10l502 571q2 2 1 5t-4 3h-397q-6 0 -4 5zM295 759q-4 0 -4 5l23 132q2 5 6 5h129q6 0 4 -5l-23 -132q0 -5 -6 -5h-129z
" />
    <glyph glyph-name="zdotaccent" unicode="&#x17c;" horiz-adv-x="487" 
d="M103 501q0 5 5 5h361q5 0 5 -5l-9 -50q-1 -2 -3 -5t-4 -5l-356 -373q-3 -3 -1 -5.5t4 -2.5h300q4 0 4 -5l-9 -50q0 -5 -6 -5h-387q-4 0 -4 5l9 50q0 2 2.5 5t4.5 5l355 373q3 3 1.5 5.5t-3.5 2.5h-274q-6 0 -4 5zM216 562q-6 0 -4 5l23 132q0 5 6 5h129q4 0 4 -5
l-23 -132q-2 -5 -6 -5h-129z" />
    <glyph glyph-name="Zcaron" unicode="&#x17d;" horiz-adv-x="581" 
d="M117 699q0 5 6 5h481q4 0 4 -5l-9 -50q-2 -5 -7 -10l-501 -571q-2 -3 -1 -5.5t4 -2.5h396q6 0 4 -5l-9 -50q0 -5 -6 -5h-480q-4 0 -4 5l8 50q1 4 7 10l502 571q2 2 1 5t-4 3h-397q-6 0 -4 5zM482 902q3 0 4.5 -2t-0.5 -5l-72 -117q-1 -4 -5 -4h-80q-4 0 -5 4l-30 117
q-2 7 6 7h47q3 0 5 -3l23 -62q1 -3 4.5 -3t5.5 3l45 62q1 3 5 3h47z" />
    <glyph glyph-name="zcaron" unicode="&#x17e;" horiz-adv-x="487" 
d="M103 501q0 5 5 5h361q5 0 5 -5l-9 -50q-1 -2 -3 -5t-4 -5l-356 -373q-3 -3 -1 -5.5t4 -2.5h300q4 0 4 -5l-9 -50q0 -5 -6 -5h-387q-4 0 -4 5l9 50q0 2 2.5 5t4.5 5l355 373q3 3 1.5 5.5t-3.5 2.5h-274q-6 0 -4 5zM404 704q3 0 4.5 -2t-0.5 -5l-72 -117q-1 -4 -5 -4h-80
q-4 0 -5 4l-30 117q-2 7 6 7h47q3 0 5 -3l23 -62q1 -3 4.5 -3t5.5 3l45 62q1 3 5 3h47z" />
    <glyph glyph-name="longs" unicode="&#x17f;" horiz-adv-x="356" 
d="M181 506q4 0 6 5l11 66q11 58 47 92.5t111 34.5h55q4 0 4 -5l-9 -50q-2 -5 -6 -5h-54q-32 0 -52 -17.5t-26 -49.5l-101 -572q0 -5 -6 -5h-60q-4 0 -4 5l77 436q2 5 -4 5h-95q-6 0 -4 5l9 50q0 5 6 5h95z" />
    <glyph glyph-name="florin" unicode="&#x192;" horiz-adv-x="514" 
d="M312 506q5 0 7 5l24 66q22 58 64.5 92.5t117.5 34.5h55q6 0 3 -5l-18 -50q-2 -5 -6 -5h-54q-32 0 -56 -17.5t-36 -49.5l-24 -66q-2 -5 3 -5h115q4 0 4 -5l-19 -50q-3 -5 -7 -5h-115q-5 0 -7 -5l-162 -436v-1l-27 -75q-25 -66 -70 -96.5t-111 -30.5h-55q-5 0 -3 5l19 50
q2 5 6 5h53q32 0 55 17.5t36 49.5l189 512q2 5 -3 5h-95q-6 0 -3 5l19 50q0 5 6 5h95z" />
    <glyph glyph-name="uni0218" unicode="&#x218;" horiz-adv-x="620" 
d="M114 193q-5 -26 4 -52t30 -46t54.5 -32.5t78.5 -12.5q37 0 73 9.5t66 27.5t51 44.5t27 61.5q7 42 -5 68t-36.5 41t-58 21t-67.5 9q-44 4 -87 13t-75.5 29.5t-49.5 55.5t-7 90q8 46 35.5 82.5t66 61t84 37.5t90.5 13t87 -12t72.5 -37t45 -63.5t5.5 -90.5q0 -5 -6 -5h-60
q-4 0 -4 5q6 35 -3 62t-29.5 45t-51 27t-66.5 9q-34 0 -67 -9.5t-60 -27t-45.5 -42.5t-23.5 -55q-4 -22 -1 -43t20 -38t50.5 -29.5t89.5 -17.5q45 -4 90 -12t79.5 -29t51.5 -58t6 -100q-8 -45 -34.5 -82.5t-66 -64.5t-90 -41.5t-107.5 -14.5q-60 0 -105.5 16t-75 44
t-41 64.5t-4.5 78.5q2 5 6 5h60q6 0 4 -5zM223 -134q-5 0 -5 5l13 69q0 5 5 5h68q5 0 5 -5l-13 -71q-6 -34 -29.5 -55.5t-56.5 -21.5q-5 0 -5 5l6 29q0 5 5 5q9 0 19.5 7t13.5 23q0 5 -4 5h-22z" />
    <glyph glyph-name="uni0219" unicode="&#x219;" horiz-adv-x="540" 
d="M119 171q-3 -17 0 -38t16.5 -39.5t41 -31t72.5 -12.5q18 0 44.5 2.5t52 12.5t46 29t26.5 51q5 27 -6 42.5t-31.5 24.5t-47 13t-52.5 7q-33 3 -69 9t-64.5 20t-44 41t-7.5 72q5 30 25 56t50.5 45t69 30t80.5 11q46 0 84 -11t64 -33t37 -56.5t3 -80.5q-2 -5 -6 -5h-60
q-6 0 -4 5q10 61 -25.5 91t-103.5 30q-61 0 -99.5 -24.5t-44.5 -57.5q-4 -22 3 -36.5t23.5 -23.5t41.5 -14t57 -8q45 -4 84.5 -10.5t67.5 -21.5t40.5 -42t4.5 -73q-14 -81 -81 -118t-169 -37q-57 0 -96 15t-61.5 39.5t-30 57.5t-1.5 69q2 5 6 5h60q6 0 4 -5zM191 -134
q-4 0 -4 5l12 69q2 5 6 5h68q6 0 4 -5l-12 -71q-6 -34 -30 -55.5t-57 -21.5q-4 0 -4 5l5 29q2 5 6 5q9 0 19.5 7t12.5 23q2 5 -4 5h-22z" />
    <glyph glyph-name="uni021A" unicode="&#x21a;" horiz-adv-x="557" 
d="M192 -134q-4 0 -4 5l12 69q2 5 6 5h68q6 0 4 -5l-12 -71q-6 -34 -30 -55.5t-57 -21.5q-4 0 -4 5l5 29q2 5 6 5q9 0 19.5 7t13.5 23q0 5 -5 5h-22zM327 642q0 5 -4 5h-201q-5 0 -5 5l9 47q0 5 6 5h482q4 0 4 -5l-9 -47q0 -5 -5 -5h-201q-6 0 -6 -5l-113 -637q0 -5 -6 -5
h-60q-4 0 -4 5z" />
    <glyph glyph-name="uni021B" unicode="&#x21b;" horiz-adv-x="370" 
d="M106 -134q-4 0 -4 5l12 69q2 5 6 5h68q6 0 4 -5l-12 -71q-6 -34 -30 -55.5t-57 -21.5q-4 0 -4 5l5 29q2 5 6 5q9 0 19.5 7t13.5 23q0 5 -5 5h-22zM89 446q-6 0 -4 5l8 50q2 5 6 5h95q6 0 6 5l23 128q0 5 6 5h60q4 0 4 -5l-23 -128q0 -5 4 -5h115q6 0 4 -5l-8 -50
q-2 -5 -6 -5h-115q-6 0 -6 -5l-55 -314q-8 -39 7 -53t47 -14h54q4 0 4 -5l-9 -50q-2 -5 -6 -5h-55q-75 0 -99.5 30.5t-12.5 96.5l55 314q0 5 -4 5h-95z" />
    <glyph glyph-name="circumflex" unicode="&#x2c6;" horiz-adv-x="319" 
d="M233 576q-4 0 -5 3l-23 62q-1 3 -4.5 3t-5.5 -3l-45 -62q-2 -3 -5 -3h-47q-3 0 -4.5 2t0.5 5l72 117q1 4 5 4h80q4 0 5 -4l30 -117q2 -7 -6 -7h-47z" />
    <glyph glyph-name="caron" unicode="&#x2c7;" horiz-adv-x="319" 
d="M302 704q3 0 4.5 -2t-0.5 -5l-72 -117q-1 -4 -5 -4h-80q-4 0 -5 4l-30 117q-2 7 6 7h47q3 0 5 -3l23 -62q1 -3 4.5 -3t5.5 3l45 62q1 3 5 3h47z" />
    <glyph glyph-name="uni02C9" unicode="&#x2c9;" horiz-adv-x="345" 
d="M82 576q-5 0 -3 5l7 40q2 5 5 5h246q6 0 4 -5l-7 -40q-2 -5 -6 -5h-246z" />
    <glyph glyph-name="breve" unicode="&#x2d8;" horiz-adv-x="350" 
d="M344 704q6 0 4 -5q-11 -63 -50.5 -93t-94.5 -30q-54 0 -84 30.5t-19 92.5q2 5 6 5h42q6 0 4 -5q-2 -11 -1 -23.5t7 -23.5t18.5 -18.5t34.5 -7.5t37 7.5t25 18.5t15 23.5t7 23.5q2 5 6 5h43z" />
    <glyph glyph-name="dotaccent" unicode="&#x2d9;" horiz-adv-x="257" 
d="M91 562q-6 0 -4 5l23 132q0 5 6 5h129q4 0 4 -5l-23 -132q-2 -5 -6 -5h-129z" />
    <glyph glyph-name="ring" unicode="&#x2da;" horiz-adv-x="261" 
d="M258 625q-3 -18 -13 -34t-24.5 -27.5t-31.5 -18.5t-35 -7q-36 0 -57 25.5t-14 61.5q3 18 12.5 34t23.5 28t31 19t35 7q36 0 57.5 -26t15.5 -62zM219 625q3 20 -9 34.5t-32 14.5q-21 0 -38 -14.5t-20 -34.5q-4 -21 8 -35.5t33 -14.5q20 0 37 14.5t21 35.5z" />
    <glyph glyph-name="ogonek" unicode="&#x2db;" horiz-adv-x="280" 
d="M215 10q5 0 5 -5q-2 -5 -6 -5h-6q-32 0 -57.5 -20.5t-30.5 -50.5q-5 -32 13 -49.5t50 -17.5h11q6 0 4 -5l-8 -50q-2 -5 -6 -5h-21q-59 0 -89 27.5t-24 71.5q8 50 50.5 80.5t108.5 28.5h6z" />
    <glyph glyph-name="tilde" unicode="&#x2dc;" horiz-adv-x="438" 
d="M104 618q2 13 10 28t21 28t31.5 21.5t42.5 8.5q22 0 37 -7t27 -16t23.5 -16t26.5 -7q7 0 20.5 8t18.5 33q2 5 6 5h48q6 0 4 -5l-2 -14q-2 -13 -10 -28t-21 -27.5t-31.5 -21t-42.5 -8.5q-20 0 -35.5 7t-29 16t-25.5 16t-24 7q-7 0 -20.5 -8t-18.5 -33q-2 -5 -6 -5h-48
q-6 0 -4 5z" />
    <glyph glyph-name="hungarumlaut" unicode="&#x2dd;" horiz-adv-x="439" 
d="M77 562q-5 0 -3 5l52 132q0 5 7 5h89q3 0 3 -5l-52 -132q-2 -5 -7 -5h-89zM297 562q-5 0 -3 5l52 132q0 5 7 5h89q3 0 3 -5l-52 -132q-2 -5 -7 -5h-89z" />
    <glyph glyph-name="uni0394" unicode="&#x394;" horiz-adv-x="683" 
d="M33 0q-4 0 -4 5l10 56q1 2 2.5 5.5t2.5 5.5l319 627q2 5 7 5h101q2 0 4 -5l96 -626q2 -7 1 -12l-10 -56q0 -5 -6 -5h-523zM121 76q-4 -6 3 -6h368q5 0 5 6l-84 564q-1 4 -4.5 4t-5.5 -4z" />
    <glyph glyph-name="uni03A9" unicode="&#x3a9;" 
d="M425 5q0 -5 -6 -5h-411q-4 0 -4 5l123 694q0 5 6 5h411q4 0 4 -5zM508 681h-346l119 -306zM392 24l-120 305l-226 -305h346zM409 48l107 608q-56 -75 -114 -152t-112 -152zM264 352l-120 305l-107 -610z" />
    <glyph glyph-name="uni03BC" unicode="&#x3bc;" 
d="M425 5q0 -5 -6 -5h-411q-4 0 -4 5l123 694q0 5 6 5h411q4 0 4 -5zM508 681h-346l119 -306zM392 24l-120 305l-226 -305h346zM409 48l107 608q-56 -75 -114 -152t-112 -152zM264 352l-120 305l-107 -610z" />
    <glyph glyph-name="pi" unicode="&#x3c0;" 
d="M425 5q0 -5 -6 -5h-411q-4 0 -4 5l123 694q0 5 6 5h411q4 0 4 -5zM508 681h-346l119 -306zM392 24l-120 305l-226 -305h346zM409 48l107 608q-56 -75 -114 -152t-112 -152zM264 352l-120 305l-107 -610z" />
    <glyph glyph-name="Wgrave" unicode="&#x1e80;" horiz-adv-x="882" 
d="M598 65q0 -5 4 -5t6 5l228 634q2 5 8 5h63q5 0 3 -5l-260 -694q-2 -5 -7 -5h-105q-3 0 -5 5l-21 635q0 5 -4 5t-6 -5l-245 -635q-2 -5 -7 -5h-105q-3 0 -5 5l-14 694q-2 5 5 5h63q4 0 6 -5l4 -634q0 -5 4 -5t6 5l238 634q2 5 8 5h117q4 0 6 -5zM513 774q-8 0 -10 7
l-52 114q-2 3 0.5 5t5.5 2h67q9 0 9 -7l29 -114q2 -7 -6 -7h-43z" />
    <glyph glyph-name="wgrave" unicode="&#x1e81;" horiz-adv-x="766" 
d="M516 65q-1 -5 3.5 -5t6.5 5l173 436q2 5 7 5h58q6 0 4 -5l-206 -496q-2 -5 -7 -5h-91q-3 0 -5 5l-31 436q0 5 -4 5t-6 -5l-185 -436q-2 -5 -7 -5h-91q-3 0 -5 5l-30 496q-2 5 4 5h58q5 0 7 -5l19 -436q-1 -5 3.5 -5t6.5 5l177 436q2 5 7 5h104q5 0 7 -5zM388 576
q-8 0 -10 7l-52 114q-2 3 0.5 5t5.5 2h67q9 0 9 -7l29 -114q2 -7 -6 -7h-43z" />
    <glyph glyph-name="Wacute" unicode="&#x1e82;" horiz-adv-x="882" 
d="M598 65q0 -5 4 -5t6 5l228 634q2 5 8 5h63q5 0 3 -5l-260 -694q-2 -5 -7 -5h-105q-3 0 -5 5l-21 635q0 5 -4 5t-6 -5l-245 -635q-2 -5 -7 -5h-105q-3 0 -5 5l-14 694q-2 5 5 5h63q4 0 6 -5l4 -634q0 -5 4 -5t6 5l238 634q2 5 8 5h117q4 0 6 -5zM504 774q-3 0 -4.5 2
t0.5 5l69 114q2 2 4 4.5t7 2.5h67q3 0 5 -2t-1 -5l-92 -114q-2 -2 -5 -4.5t-7 -2.5h-43z" />
    <glyph glyph-name="wacute" unicode="&#x1e83;" horiz-adv-x="766" 
d="M516 65q-1 -5 3.5 -5t6.5 5l173 436q2 5 7 5h58q6 0 4 -5l-206 -496q-2 -5 -7 -5h-91q-3 0 -5 5l-31 436q0 5 -4 5t-6 -5l-185 -436q-2 -5 -7 -5h-91q-3 0 -5 5l-30 496q-2 5 4 5h58q5 0 7 -5l19 -436q-1 -5 3.5 -5t6.5 5l177 436q2 5 7 5h104q5 0 7 -5zM390 576
q-3 0 -4.5 2t0.5 5l69 114q2 2 4 4.5t7 2.5h67q3 0 5 -2t-1 -5l-92 -114q-2 -2 -5 -4.5t-7 -2.5h-43z" />
    <glyph glyph-name="Wdieresis" unicode="&#x1e84;" horiz-adv-x="882" 
d="M598 65q0 -5 4 -5t6 5l228 634q2 5 8 5h63q5 0 3 -5l-260 -694q-2 -5 -7 -5h-105q-3 0 -5 5l-21 635q0 5 -4 5t-6 -5l-245 -635q-2 -5 -7 -5h-105q-3 0 -5 5l-14 694q-2 5 5 5h63q4 0 6 -5l4 -634q0 -5 4 -5t6 5l238 634q2 5 8 5h117q4 0 6 -5zM476 864q4 0 4 -5l-14 -80
q-2 -5 -6 -5h-80q-6 0 -4 5l14 80q0 5 6 5h80zM695 864q4 0 4 -5l-14 -80q-2 -5 -6 -5h-80q-6 0 -4 5l14 80q0 5 6 5h80z" />
    <glyph glyph-name="wdieresis" unicode="&#x1e85;" horiz-adv-x="766" 
d="M516 65q-1 -5 3.5 -5t6.5 5l173 436q2 5 7 5h58q6 0 4 -5l-206 -496q-2 -5 -7 -5h-91q-3 0 -5 5l-31 436q0 5 -4 5t-6 -5l-185 -436q-2 -5 -7 -5h-91q-3 0 -5 5l-30 496q-2 5 4 5h58q5 0 7 -5l19 -436q-1 -5 3.5 -5t6.5 5l177 436q2 5 7 5h104q5 0 7 -5zM364 704
q4 0 4 -5l-14 -80q-2 -5 -6 -5h-80q-6 0 -4 5l14 80q0 5 6 5h80zM583 704q4 0 4 -5l-14 -80q-2 -5 -6 -5h-80q-6 0 -4 5l14 80q0 5 6 5h80z" />
    <glyph glyph-name="endash" unicode="&#x2013;" horiz-adv-x="611" 
d="M94 218q-6 0 -4 5l10 60q2 5 6 5h441q6 0 4 -5l-10 -60q-2 -5 -6 -5h-441z" />
    <glyph glyph-name="emdash" unicode="&#x2014;" horiz-adv-x="863" 
d="M64 218q-6 0 -4 5l10 60q2 5 6 5h737q6 0 4 -5l-10 -60q-2 -5 -6 -5h-737z" />
    <glyph glyph-name="quoteleft" unicode="&#x2018;" horiz-adv-x="246" 
d="M208 576q6 0 4 -5l-21 -120q0 -5 -6 -5h-100q-4 0 -4 5l26 145q3 19 12.5 38.5t25 35t37 25t49.5 9.5q6 0 4 -5l-9 -50q0 -5 -6 -5q-21 0 -35 -13.5t-18 -34.5l-3 -15q0 -5 4 -5h40z" />
    <glyph glyph-name="quoteright" unicode="&#x2019;" horiz-adv-x="246" 
d="M108 574q-6 0 -4 5l21 120q2 5 6 5h100q6 0 4 -5l-26 -145q-3 -19 -12.5 -38.5t-25 -35t-37 -25t-49.5 -9.5q-4 0 -4 5l9 50q2 5 6 5q21 0 35.5 13.5t17.5 34.5l3 15q2 5 -4 5h-40z" />
    <glyph glyph-name="quotesinglbase" unicode="&#x201a;" horiz-adv-x="246" 
d="M57 0q-4 0 -4 5l21 120q2 5 6 5h100q6 0 4 -5l-25 -145q-3 -19 -12.5 -38.5t-25 -35t-37 -25t-49.5 -9.5q-6 0 -4 5l9 50q0 5 5 5q21 0 35.5 13.5t18.5 34.5l3 15q0 5 -5 5h-40z" />
    <glyph glyph-name="quotedblleft" unicode="&#x201c;" horiz-adv-x="386" 
d="M358 576q6 0 4 -5l-21 -120q0 -5 -6 -5h-100q-4 0 -4 5l26 145q3 19 12.5 38.5t25 35t37 25t49.5 9.5q6 0 4 -5l-9 -50q0 -5 -6 -5q-21 0 -35 -13.5t-18 -34.5l-3 -15q0 -5 4 -5h40zM198 576q6 0 4 -5l-21 -120q0 -5 -6 -5h-100q-4 0 -4 5l26 145q3 19 12.5 38.5t25 35
t37 25t49.5 9.5q6 0 4 -5l-9 -50q0 -5 -6 -5q-21 0 -35 -13.5t-18 -34.5l-3 -15q0 -5 4 -5h40z" />
    <glyph glyph-name="quotedblright" unicode="&#x201d;" horiz-adv-x="386" 
d="M98 574q-6 0 -4 5l21 120q2 5 6 5h100q6 0 4 -5l-26 -145q-3 -19 -12.5 -38.5t-25 -35t-37 -25t-49.5 -9.5q-4 0 -4 5l9 50q2 5 6 5q21 0 35.5 13.5t17.5 34.5l3 15q2 5 -4 5h-40zM258 574q-6 0 -4 5l21 120q2 5 6 5h100q6 0 4 -5l-26 -145q-3 -19 -12.5 -38.5t-25 -35
t-37 -25t-49.5 -9.5q-4 0 -4 5l9 50q2 5 6 5q21 0 35.5 13.5t17.5 34.5l3 15q2 5 -4 5h-40z" />
    <glyph glyph-name="quotedblbase" unicode="&#x201e;" horiz-adv-x="386" 
d="M47 0q-4 0 -4 5l21 120q2 5 6 5h100q6 0 4 -5l-25 -145q-3 -19 -12.5 -38.5t-25 -35t-37 -25t-49.5 -9.5q-6 0 -4 5l9 50q0 5 5 5q21 0 35.5 13.5t18.5 34.5l3 15q0 5 -5 5h-40zM207 0q-4 0 -4 5l21 120q2 5 6 5h100q6 0 4 -5l-25 -145q-3 -19 -12.5 -38.5t-25 -35
t-37 -25t-49.5 -9.5q-6 0 -4 5l9 50q0 5 5 5q21 0 35.5 13.5t18.5 34.5l3 15q0 5 -5 5h-40z" />
    <glyph glyph-name="dagger" unicode="&#x2020;" horiz-adv-x="562" 
d="M239 -193q0 -5 -6 -5h-60q-4 0 -4 5l110 624q2 5 -4 5h-203q-6 0 -4 5l11 60q0 5 5 5h203q6 0 6 5l33 188q2 5 6 5h60q6 0 4 -5l-33 -188q0 -5 4 -5h213q5 0 5 -5l-11 -60q-2 -5 -6 -5h-213q-4 0 -6 -5z" />
    <glyph glyph-name="daggerdbl" unicode="&#x2021;" horiz-adv-x="562" 
d="M362 506h218q5 0 5 -5l-11 -60q-2 -5 -6 -5h-218l-64 -361q0 -5 5 -5h213q4 0 4 -5l-11 -60q0 -5 -6 -5h-213q-4 0 -6 -5l-33 -188q0 -5 -6 -5h-60q-4 0 -4 5l33 188q2 5 -4 5h-202q-4 0 -4 5l10 60q0 5 6 5h203q5 0 5 5l64 361h-208q-6 0 -4 5l11 60q0 5 5 5h208l34 193
q2 5 6 5h60q6 0 4 -5z" />
    <glyph glyph-name="bullet" unicode="&#x2022;" horiz-adv-x="702" 
d="M95 253q10 55 39 103t70.5 83.5t93 56t106.5 20.5t99.5 -20.5t73.5 -56t41.5 -83.5t2.5 -103t-39 -103t-71 -83.5t-93.5 -56t-106.5 -20.5t-99 20.5t-73.5 56t-41.5 83.5t-2 103z" />
    <glyph glyph-name="ellipsis" unicode="&#x2026;" horiz-adv-x="571" 
d="M53 0q-6 0 -4 5l17 100q2 5 6 5h100q6 0 4 -5l-17 -100q-2 -5 -6 -5h-100zM216 0q-6 0 -4 5l17 100q2 5 6 5h100q6 0 4 -5l-17 -100q-2 -5 -6 -5h-100zM378 0q-6 0 -4 5l17 100q2 5 6 5h100q6 0 4 -5l-17 -100q-2 -5 -6 -5h-100z" />
    <glyph glyph-name="perthousand" unicode="&#x2030;" horiz-adv-x="1197" 
d="M686 702q2 2 5 2h44q8 0 2 -8l-548 -694q-2 -2 -5 -2h-42q-8 0 -2 8zM766 188q-8 -43 -22 -79.5t-35.5 -62.5t-52 -41t-72.5 -15t-68 15t-38.5 41t-13.5 62.5t7 79.5q7 43 21 80t36 63.5t53 41.5t73 15t67.5 -15t38 -41.5t13 -63.5t-6.5 -80zM714 188q13 75 -2 112.5
t-67 37.5q-53 0 -81 -37.5t-41 -112.5q-13 -72 2 -110t68 -38q52 0 80 38t41 110zM407 514q-8 -43 -21.5 -79.5t-35.5 -62.5t-52.5 -41t-72.5 -15t-67.5 15t-38.5 41t-14 62.5t7 79.5t22 80t35.5 63.5t52.5 41.5t73 15t67.5 -15t38 -41.5t13.5 -63.5t-7 -80zM355 514
q14 75 -1 112.5t-67 37.5q-53 0 -81 -37.5t-42 -112.5q-13 -72 2 -110t68 -38q52 0 80 38t41 110zM1116 188q-8 -43 -22 -79.5t-35.5 -62.5t-52 -41t-72.5 -15t-68 15t-38.5 41t-13.5 62.5t7 79.5q7 43 21 80t36 63.5t53 41.5t73 15t67.5 -15t38 -41.5t13 -63.5t-6.5 -80z
M1064 188q13 75 -2 112.5t-67 37.5q-53 0 -81 -37.5t-41 -112.5q-13 -72 2 -110t68 -38q52 0 80 38t41 110z" />
    <glyph glyph-name="guilsinglleft" unicode="&#x2039;" horiz-adv-x="406" 
d="M167 258q-4 -4 -2 -9l169 -242q2 -2 0.5 -4.5t-4.5 -2.5h-73q-6 0 -7 3l-169 246q-2 5 2 9l255 245q2 3 8 3h74q3 0 3 -2.5t-2 -4.5z" />
    <glyph glyph-name="guilsinglright" unicode="&#x203a;" horiz-adv-x="406" 
d="M124 499q-1 2 -0.5 4.5t3.5 2.5h74q6 0 8 -3l169 -245q2 -3 1.5 -4.5t-3.5 -4.5l-255 -246q-5 -3 -9 -3h-73q-3 0 -3.5 2.5t1.5 4.5l255 242q4 4 2 9z" />
    <glyph glyph-name="fraction" unicode="&#x2044;" horiz-adv-x="637" 
d="M548 702q2 2 5 2h44q8 0 2 -8l-548 -694q-2 -2 -5 -2h-42q-6 0 -2 8z" />
    <glyph glyph-name="franc" unicode="&#x20a3;" 
d="M425 5q0 -5 -6 -5h-411q-4 0 -4 5l123 694q0 5 6 5h411q4 0 4 -5zM508 681h-346l119 -306zM392 24l-120 305l-226 -305h346zM409 48l107 608q-56 -75 -114 -152t-112 -152zM264 352l-120 305l-107 -610z" />
    <glyph glyph-name="lira" unicode="&#x20a4;" 
d="M425 5q0 -5 -6 -5h-411q-4 0 -4 5l123 694q0 5 6 5h411q4 0 4 -5zM508 681h-346l119 -306zM392 24l-120 305l-226 -305h346zM409 48l107 608q-56 -75 -114 -152t-112 -152zM264 352l-120 305l-107 -610z" />
    <glyph glyph-name="peseta" unicode="&#x20a7;" 
d="M425 5q0 -5 -6 -5h-411q-4 0 -4 5l123 694q0 5 6 5h411q4 0 4 -5zM508 681h-346l119 -306zM392 24l-120 305l-226 -305h346zM409 48l107 608q-56 -75 -114 -152t-112 -152zM264 352l-120 305l-107 -610z" />
    <glyph glyph-name="Euro" unicode="&#x20ac;" horiz-adv-x="686" 
d="M134 240q0 7 -6 7h-83q-6 0 -3 5l25 60q2 5 7 5h60q6 0 6 6q1 10 2.5 17.5t3 14.5t3.5 15.5t5 21.5q0 6 -5 6h-76q-5 0 -3 5l25 60q3 5 7 5h68q4 0 7 5q19 54 46.5 98t63.5 76t81 49.5t100 17.5q40 0 68 -8t47 -19.5t30.5 -24t20.5 -22.5q3 -3 2 -9l-27 -59
q-2 -5 -5.5 -5t-4.5 2q-8 15 -20.5 30t-30 27t-40 20t-50.5 8q-71 0 -122.5 -45.5t-83.5 -133.5q-3 -7 5 -7h303q6 0 3 -5l-25 -60q-2 -5 -7 -5h-296q-6 0 -6 -6q-2 -5 -3 -10l-2.5 -12.5t-3.5 -18.5t-5 -29q0 -5 4 -5h276q5 0 3 -5l-25 -60q-3 -5 -7 -5h-251q-2 0 -4.5 -2
t-1.5 -5q-3 -190 142 -190q28 0 56.5 10t55 28t50 43t40.5 55q2 3 5.5 3t2.5 -4l-17 -95q0 -6 -5 -11q-13 -15 -32 -30.5t-44 -28.5t-55.5 -21.5t-66.5 -8.5q-56 0 -96 18t-65 51t-36 79t-10 102z" />
    <glyph glyph-name="uni2113" unicode="&#x2113;" horiz-adv-x="496" 
d="M450 191q6 0 4 -5l-5 -28q-6 -33 -23.5 -62t-43 -50t-56.5 -33.5t-63 -12.5t-58.5 12t-44 32.5t-25.5 48.5t-3 60q2 5 -4 5q-2 0 -4 -2l-125 -107q-1 -1 -3 -1t-3.5 1.5t-0.5 3.5l13 79q0 4 3 6l139 118q4 4 5 6l50 284q6 33 23.5 62t42.5 50t56 33.5t64 12.5
q32 0 58 -12.5t44 -34.5t25.5 -50.5t1.5 -60.5q-5 -30 -21.5 -59t-44.5 -52l-234 -200l-3 -3t-1 -4l-13 -70q-3 -19 1 -36t14.5 -29.5t25.5 -19.5t34 -7t36.5 7t32 19.5t24.5 29.5t13 36l5 28q2 5 6 5h58zM451 547q3 18 -1.5 34.5t-14.5 29t-25 20t-34 7.5t-36.5 -7
t-32 -19.5t-25 -29.5t-13.5 -36l-37 -207q0 -5 4 -5q2 0 4 1l172 147q33 27 39 65z" />
    <glyph glyph-name="trademark" unicode="&#x2122;" horiz-adv-x="471" 
d="M401 699q3 5 7 5h48q6 0 4 -5l-33 -188q0 -5 -6 -5h-22q-4 0 -4 5l28 157q0 2 -1.5 2.5t-3.5 -2.5l-65 -157q-2 -5 -7 -5h-41q-3 0 -5 5l-9 157q0 3 -2.5 2.5t-2.5 -2.5l-28 -157q0 -5 -6 -5h-22q-4 0 -4 5l33 188q2 5 6 5h48q5 0 5 -5l11 -160q1 -2 2.5 -2t2.5 2z
M186 672q-6 0 -6 -5l-28 -156q0 -5 -6 -5h-22q-4 0 -4 5l28 156q0 5 -4 5h-49q-6 0 -4 5l3 22q2 5 5 5h142q6 0 4 -5l-3 -22q-2 -5 -6 -5h-50z" />
    <glyph glyph-name="Omega" unicode="&#x2126;" 
d="M425 5q0 -5 -6 -5h-411q-4 0 -4 5l123 694q0 5 6 5h411q4 0 4 -5zM508 681h-346l119 -306zM392 24l-120 305l-226 -305h346zM409 48l107 608q-56 -75 -114 -152t-112 -152zM264 352l-120 305l-107 -610z" />
    <glyph glyph-name="estimated" unicode="&#x212e;" horiz-adv-x="528" 
d="M448 128q5 -2 1 -6q-38 -57 -97 -89.5t-121 -32.5q-45 0 -82 17.5t-62 47.5t-35 70t-2 85l9 51q8 45 32.5 85.5t59.5 70.5t78.5 47.5t88.5 17.5t82 -17.5t61.5 -47.5t35 -70.5t2.5 -85.5l-5 -28q-2 -5 -6 -5h-364q-6 0 -6 -5l-26 -146q22 -33 58.5 -52t83.5 -19
q57 0 111 30t91 81q4 4 7 3zM315 476q-47 0 -90 -19.5t-77 -51.5l-25 -145q-2 -5 4 -5h297q4 0 6 5l25 146q-23 32 -58.5 51t-81.5 19z" />
    <glyph glyph-name="arrowleft" unicode="&#x2190;" horiz-adv-x="755" 
d="M83 320q-4 4 -3 10l9 52q1 5 6 10l144 108q8 5 11.5 5.5t11.5 0.5h55q4 0 4.5 -3.5t-2.5 -5.5l-142 -105q-3 -2 -3 -4t2 -2h506q6 0 4 -5l-9 -50q0 -5 -5 -5h-506q-2 0 -3 -2t2 -4l104 -105q2 -2 0.5 -5.5t-5.5 -3.5h-55q-8 0 -12 0.5t-9 5.5z" />
    <glyph glyph-name="arrowup" unicode="&#x2191;" horiz-adv-x="440" 
d="M419 575q4 -6 4 -10t-2 -12l-10 -55q-1 -4 -4 -5t-5 2l-84 123q-2 3 -3.5 2.5t-2.5 -2.5l-108 -613q0 -5 -6 -5h-50q-4 0 -4 5l108 613q1 2 -1 2.5t-5 -2.5l-126 -123q-3 -3 -6.5 -2t-2.5 5l10 55q2 8 2.5 12t7.5 10l130 125q4 4 11 4h52q5 0 9 -4z" />
    <glyph glyph-name="arrowright" unicode="&#x2192;" horiz-adv-x="755" 
d="M527 212q-7 -5 -11 -5.5t-12 -0.5h-55q-4 0 -4.5 3.5t3.5 5.5l142 105q3 2 3 4t-2 2h-506q-5 0 -5 5l9 50q2 5 6 5h506q2 0 3 2t-2 4l-104 105q-3 2 -1.5 5.5t5.5 3.5h55q8 0 12 -0.5t9 -5.5l106 -108q3 -3 2 -10l-9 -52q-1 -6 -5 -10z" />
    <glyph glyph-name="arrowdown" unicode="&#x2193;" horiz-adv-x="440" 
d="M210 4q-4 -4 -11 -4h-52q-5 0 -9 4l-86 125q-4 6 -4 10t2 12l10 55q1 4 4 5t5 -2l84 -123q2 -3 3.5 -2.5t2.5 2.5l108 613q0 5 6 5h50q4 0 4 -5l-108 -613q-1 -2 1 -2.5t5 2.5l126 123q3 3 6.5 2t2.5 -5l-10 -55q-2 -8 -2.5 -12t-7.5 -10z" />
    <glyph glyph-name="carriagereturn" unicode="&#x21b5;" horiz-adv-x="703" 
d="M648 331q-2 -5 -6 -5h-475h-21q-2 0 -3 -2t2 -4l104 -105q3 -2 1.5 -5.5t-5.5 -3.5h-55q-8 0 -12 0.5t-9 5.5l-106 108q-3 3 -2 10l9 52q1 6 6 10l144 108q7 5 11 5.5t12 0.5h55q4 0 4.5 -3.5t-3.5 -5.5l-141 -105q-4 -2 -3.5 -4t2.5 -2h436q5 0 5 5l55 308q0 5 6 5h50
q4 0 4 -5z" />
    <glyph glyph-name="partialdiff" unicode="&#x2202;" 
d="M425 5q0 -5 -6 -5h-411q-4 0 -4 5l123 694q0 5 6 5h411q4 0 4 -5zM508 681h-346l119 -306zM392 24l-120 305l-226 -305h346zM409 48l107 608q-56 -75 -114 -152t-112 -152zM264 352l-120 305l-107 -610z" />
    <glyph glyph-name="Delta" unicode="&#x2206;" horiz-adv-x="683" 
d="M33 0q-4 0 -4 5l10 56q1 2 2.5 5.5t2.5 5.5l319 627q2 5 7 5h101q2 0 4 -5l96 -626q2 -7 1 -12l-10 -56q0 -5 -6 -5h-523zM121 76q-4 -6 3 -6h368q5 0 5 6l-84 564q-1 4 -4.5 4t-5.5 -4z" />
    <glyph glyph-name="product" unicode="&#x220f;" 
d="M425 5q0 -5 -6 -5h-411q-4 0 -4 5l123 694q0 5 6 5h411q4 0 4 -5zM508 681h-346l119 -306zM392 24l-120 305l-226 -305h346zM409 48l107 608q-56 -75 -114 -152t-112 -152zM264 352l-120 305l-107 -610z" />
    <glyph glyph-name="summation" unicode="&#x2211;" 
d="M425 5q0 -5 -6 -5h-411q-4 0 -4 5l123 694q0 5 6 5h411q4 0 4 -5zM508 681h-346l119 -306zM392 24l-120 305l-226 -305h346zM409 48l107 608q-56 -75 -114 -152t-112 -152zM264 352l-120 305l-107 -610z" />
    <glyph glyph-name="minus" unicode="&#x2212;" horiz-adv-x="622" 
d="M64 218q-6 0 -4 5l10 60q2 5 6 5h496q6 0 4 -5l-10 -60q-2 -5 -6 -5h-496z" />
    <glyph glyph-name="uni2215" unicode="&#x2215;" horiz-adv-x="637" 
d="M548 702q2 2 5 2h44q8 0 2 -8l-548 -694q-2 -2 -5 -2h-42q-6 0 -2 8z" />
    <glyph glyph-name="uni2219" unicode="&#x2219;" horiz-adv-x="863" 
 />
    <glyph glyph-name="radical" unicode="&#x221a;" horiz-adv-x="707" 
d="M197 431q0 5 -5 5h-91q-6 0 -4 5l11 60q0 5 5 5h149q3 0 5 -5l40 -432q0 -4 4 -4t6 4l368 818q2 5 5 5h72q7 0 5 -5l-402 -882q-2 -5 -7 -5h-116q-3 0 -5 5z" />
    <glyph glyph-name="infinity" unicode="&#x221e;" horiz-adv-x="921" 
d="M324 192q-24 -16 -53.5 -28t-61.5 -12q-38 0 -68.5 14.5t-50.5 39.5t-28 58.5t-1 71.5q7 37 26.5 70t48 57.5t64 39t73.5 14.5q31 0 60 -11t49 -29l99 -101q35 26 67 50.5t67 50.5q26 18 60.5 29t63.5 11q38 0 68.5 -14.5t50.5 -39t28.5 -57.5t1.5 -70q-7 -38 -27 -71.5
t-48.5 -58.5t-64 -39.5t-73.5 -14.5q-30 0 -56 11.5t-45 28.5q-18 16 -36.5 32.5t-35.5 32.5l-34 33zM727 447q-20 0 -39.5 -5t-33.5 -16l-133 -93q23 -23 50 -44.5t52 -41.5q30 -25 64 -25q24 0 46 9t40 24t30.5 36t16.5 45q8 46 -18.5 78.5t-74.5 32.5zM261 447
q-24 0 -46 -9t-39.5 -24t-30 -35t-16.5 -43q-4 -24 1 -45t17.5 -36t31 -24t42.5 -9q20 0 37.5 6.5t31.5 17.5l137 88l-101 91h1q-11 10 -28 16t-38 6z" />
    <glyph glyph-name="integral" unicode="&#x222b;" 
d="M425 5q0 -5 -6 -5h-411q-4 0 -4 5l123 694q0 5 6 5h411q4 0 4 -5zM508 681h-346l119 -306zM392 24l-120 305l-226 -305h346zM409 48l107 608q-56 -75 -114 -152t-112 -152zM264 352l-120 305l-107 -610z" />
    <glyph glyph-name="approxequal" unicode="&#x2248;" horiz-adv-x="530" 
d="M528 437q-4 -22 -15.5 -41.5t-29 -33.5t-38.5 -22.5t-43 -8.5q-32 0 -62.5 11.5t-61.5 25.5q-29 14 -55 23.5t-48 9.5q-14 0 -27.5 -10.5t-16.5 -24.5l-5 -30q0 -5 -6 -5l-56 20q-6 0 -4 5l1 10q4 23 16 42.5t29 34t38 23t44 8.5q30 0 62.5 -12.5t61.5 -25.5
q27 -12 54.5 -22.5t48.5 -10.5q14 0 27.5 10t15.5 24l6 32q0 5 6 5l56 -20q6 0 4 -5zM488 212q-4 -22 -15.5 -41.5t-28.5 -33.5t-38 -22.5t-43 -8.5q-32 0 -63 11.5t-62 25.5q-29 14 -55 23.5t-48 9.5q-14 0 -27.5 -10.5t-15.5 -24.5l-5 -30q-2 -5 -6 -5l-57 20q-4 0 -4 5
l2 10q4 23 16 42.5t29 34t37.5 23t43.5 8.5q30 0 62.5 -12.5t61.5 -25.5q27 -12 54.5 -22.5t48.5 -10.5q14 0 27.5 10t15.5 24l6 32q0 5 6 5l56 -20q6 0 4 -5z" />
    <glyph glyph-name="notequal" unicode="&#x2260;" horiz-adv-x="550" 
d="M114 98q2 2 2 5t-4 3h-78q-6 0 -4 5l10 60q2 5 6 5h130q6 0 9 5l121 141q3 4 2 6.5t-4 2.5h-230q-5 0 -5 5l11 60q2 5 6 5h284q3 0 5 3l86 99q1 3 5 3h59q2 0 3 -2.5t-1 -4.5l-76 -90q-2 -2 -1 -5t5 -3h75q6 0 4 -5l-11 -60q0 -5 -5 -5h-128q-5 0 -7 -4l-122 -144
q-2 -2 -1 -4.5t4 -2.5h226q6 0 4 -5l-10 -60q-2 -5 -6 -5h-278q-3 0 -7 -4l-83 -99q-3 -3 -6 -3h-66q-2 0 -3 2.5t1 4.5z" />
    <glyph glyph-name="lessequal" unicode="&#x2264;" horiz-adv-x="526" 
d="M-1 0q-6 0 -4 5l9 60q2 5 6 5h446q6 0 4 -5l-10 -60q-2 -5 -6 -5h-445zM138 449q-3 -1 -3.5 -3t2.5 -3l354 -175q4 -1 4 -7l-11 -63q-2 -5 -6 -4l-411 201q-4 2 -4 6l16 90q1 4 6 6l482 201q6 2 4 -4l-11 -63q-2 -6 -6 -7z" />
    <glyph glyph-name="greaterequal" unicode="&#x2265;" horiz-adv-x="526" 
d="M108 624q-6 2 -4 7l11 63q2 5 6 4l410 -201q5 -2 4 -6l-16 -90q0 -5 -6 -6l-481 -201q-6 -2 -4 4l11 63q0 5 6 7l416 175q3 1 3.5 3t-2.5 3zM-1 0q-6 0 -4 5l9 60q2 5 6 5h446q6 0 4 -5l-10 -60q-2 -5 -6 -5h-445z" />
    <glyph glyph-name="lozenge" unicode="&#x25ca;" 
d="M425 5q0 -5 -6 -5h-411q-4 0 -4 5l123 694q0 5 6 5h411q4 0 4 -5zM508 681h-346l119 -306zM392 24l-120 305l-226 -305h346zM409 48l107 608q-56 -75 -114 -152t-112 -152zM264 352l-120 305l-107 -610z" />
    <glyph glyph-name="commaaccent" unicode="&#xf6c3;" horiz-adv-x="266" 
d="M85 198q-6 0 -4 5l17 100q2 5 6 5h100q6 0 4 -5l-18 -104q-9 -54 -38.5 -82.5t-85.5 -28.5q-5 0 -5 5l7 40q2 5 6 5q46 0 55 55q2 5 -4 5h-40z" />
    <glyph glyph-name="apple" unicode="&#xf8ff;" horiz-adv-x="688" 
d="M572 702q-6 -35 -18.5 -66t-46.5 -60q-21 -19 -46 -31.5t-57 -12.5q-1 0 -0.5 0.5t-1.5 0.5q5 32 19 59.5t42 53.5q24 20 51.5 35.5t57.5 20.5zM627 187q-66 -103 -113 -145q-46 -42 -95 -42q-21 0 -54 16q-17 8 -28.5 10.5t-21.5 2.5q-8 0 -22.5 -2.5t-34.5 -10.5
q-19 -8 -33.5 -12t-22.5 -4q-14 0 -27.5 4.5t-24.5 14.5q-29 24 -49.5 59.5t-32 76.5t-14 86t5.5 88q7 39 26.5 77t49.5 68t68 48.5t82 18.5q16 0 32 -4.5t33 -11.5q34 -14 49 -14q14 0 54 14q21 7 38 11.5t30 4.5q24 0 44.5 -5t37.5 -13q33 -16 59 -52q-40 -25 -71.5 -58.5
t-39.5 -81.5t11.5 -86t63.5 -58z" />
    <glyph glyph-name="f_f" unicode="&#xfb00;" horiz-adv-x="682" 
d="M181 506q4 0 6 5l11 66q11 58 47 92.5t111 34.5h55q4 0 4 -5l-9 -50q-2 -5 -6 -5h-54q-32 0 -52 -17.5t-26 -49.5l-11 -66q-2 -5 4 -5h115q4 0 4 -5l-9 -50q-2 -5 -6 -5h-115q-4 0 -6 -5l-77 -436q0 -5 -6 -5h-60q-4 0 -4 5l77 436q2 5 -4 5h-95q-6 0 -4 5l9 50q0 5 6 5
h95zM507 506q4 0 6 5l11 66q11 58 47 92.5t111 34.5h55q4 0 4 -5l-9 -50q-2 -5 -6 -5h-54q-32 0 -52 -17.5t-26 -49.5l-11 -66q-2 -5 4 -5h115q4 0 4 -5l-9 -50q-2 -5 -6 -5h-115q-4 0 -6 -5l-77 -436q0 -5 -6 -5h-60q-4 0 -4 5l77 436q2 5 -4 5h-95q-6 0 -4 5l9 50q0 5 6 5
h95z" />
    <glyph glyph-name="f_f_i" unicode="&#xfb03;" horiz-adv-x="918" 
d="M181 506q4 0 6 5l11 66q11 58 47 92.5t111 34.5h55q4 0 4 -5l-9 -50q-2 -5 -6 -5h-54q-32 0 -52 -17.5t-26 -49.5l-11 -66q-2 -5 4 -5h115q4 0 4 -5l-9 -50q-2 -5 -6 -5h-115q-4 0 -6 -5l-77 -436q0 -5 -6 -5h-60q-4 0 -4 5l77 436q2 5 -4 5h-95q-6 0 -4 5l9 50q0 5 6 5
h95zM507 506q4 0 6 5l11 66q11 58 47 92.5t111 34.5h55q4 0 4 -5l-9 -50q-2 -5 -6 -5h-54q-32 0 -52 -17.5t-26 -49.5l-11 -66q-2 -5 4 -5h115q4 0 4 -5l-9 -50q-2 -5 -6 -5h-115q-4 0 -6 -5l-77 -436q0 -5 -6 -5h-60q-4 0 -4 5l77 436q2 5 -4 5h-95q-6 0 -4 5l9 50q0 5 6 5
h95zM858 506q4 0 4 -5l-88 -496q0 -5 -6 -5h-60q-4 0 -4 5l88 496q0 5 6 5h60zM903 704q4 0 4 -5l-14 -80q-2 -5 -6 -5h-80q-6 0 -4 5l14 80q0 5 6 5h80z" />
    <glyph glyph-name="f_f_l" unicode="&#xfb04;" horiz-adv-x="898" 
d="M181 506q4 0 6 5l11 66q11 58 47 92.5t111 34.5h55q4 0 4 -5l-9 -50q-2 -5 -6 -5h-54q-32 0 -52 -17.5t-26 -49.5l-11 -66q-2 -5 4 -5h115q4 0 4 -5l-9 -50q-2 -5 -6 -5h-115q-4 0 -6 -5l-77 -436q0 -5 -6 -5h-60q-4 0 -4 5l77 436q2 5 -4 5h-95q-6 0 -4 5l9 50q0 5 6 5
h95zM507 506q4 0 6 5l11 66q11 58 47 92.5t111 34.5h55q4 0 4 -5l-9 -50q-2 -5 -6 -5h-54q-32 0 -52 -17.5t-26 -49.5l-11 -66q-2 -5 4 -5h115q4 0 4 -5l-9 -50q-2 -5 -6 -5h-115q-4 0 -6 -5l-77 -436q0 -5 -6 -5h-60q-4 0 -4 5l77 436q2 5 -4 5h-95q-6 0 -4 5l9 50q0 5 6 5
h95zM883 704q4 0 4 -5l-123 -694q0 -5 -6 -5h-60q-4 0 -4 5l123 694q0 5 6 5h60z" />
    <glyph glyph-name="longs_t" unicode="&#xfb05;" 
d="M425 5q0 -5 -6 -5h-411q-4 0 -4 5l123 694q0 5 6 5h411q4 0 4 -5zM508 681h-346l119 -306zM392 24l-120 305l-226 -305h346zM409 48l107 608q-56 -75 -114 -152t-112 -152zM264 352l-120 305l-107 -610z" />
    <glyph glyph-name="parenleft.001" 
d="M425 5q0 -5 -6 -5h-411q-4 0 -4 5l123 694q0 5 6 5h411q4 0 4 -5zM508 681h-346l119 -306zM392 24l-120 305l-226 -305h346zM409 48l107 608q-56 -75 -114 -152t-112 -152zM264 352l-120 305l-107 -610z" />
    <glyph glyph-name="parenright.001" 
d="M425 5q0 -5 -6 -5h-411q-4 0 -4 5l123 694q0 5 6 5h411q4 0 4 -5zM508 681h-346l119 -306zM392 24l-120 305l-226 -305h346zM409 48l107 608q-56 -75 -114 -152t-112 -152zM264 352l-120 305l-107 -610z" />
    <glyph glyph-name="registered.001" horiz-adv-x="801" 
d="M599 458q-7 -42 -38 -75.5t-70 -49.5l54 -195q2 -7 -6 -7h-46q-4 0 -5 3l-51 192h-148l-34 -190q0 -5 -5 -5h-40q-5 0 -5 5q14 82 25 145.5t19.5 110.5t14 80t9.5 54q9 50 11 59q0 5 5 5h203q27 0 49 -10.5t36.5 -28.5t20.5 -42t1 -51zM549 458q6 35 -13.5 58.5
t-51.5 23.5h-157l-29 -163h157q16 0 31.5 6.5t28.5 17.5t22 25.5t12 31.5zM765 353q-13 -73 -52 -137t-95 -112t-125 -76t-142 -28q-72 0 -131 28t-98 76t-55 112t-3 137q13 72 51.5 136t94.5 112t125 76t141 28q73 0 132 -28t98 -76t55.5 -112t3.5 -136zM735 353
q12 66 -3.5 124.5t-51.5 102.5t-90 69.5t-120 25.5t-128.5 -25.5t-113.5 -69.5t-86.5 -102.5t-47.5 -124.5t3 -125t51 -102.5t89.5 -69t119.5 -25.5t129 25.5t114.5 69t87 102.5t47.5 125z" />
    <glyph glyph-name="copyright.001" horiz-adv-x="801" 
d="M447 554q-42 0 -75 -16.5t-56.5 -44.5t-38.5 -64t-22 -75t-4.5 -75t16.5 -64t41 -44.5t69 -16.5q38 0 65.5 9.5t58.5 41.5q2 2 3.5 4.5t4.5 2.5h44q6 0 4 -7q-26 -44 -77 -70.5t-111 -26.5q-53 0 -88.5 21.5t-55.5 56t-24.5 78.5t3.5 90t28 90t52 78.5t75 56t96 21.5
q60 0 101.5 -26.5t52.5 -70.5q0 -7 -6 -7h-44q-3 0 -3.5 2.5t-2.5 4.5q-19 32 -43.5 41.5t-62.5 9.5zM765 353q-13 -73 -52 -137t-95 -112t-125 -76t-142 -28q-72 0 -131 28t-98 76t-55 112t-3 137q13 72 51.5 136t94.5 112t125 76t141 28q73 0 132 -28t98 -76t55.5 -112
t3.5 -136zM735 353q12 66 -3.5 124.5t-51.5 102.5t-90 69.5t-120 25.5t-128.5 -25.5t-113.5 -69.5t-86.5 -102.5t-47.5 -124.5t3 -125t51 -102.5t89.5 -69t119.5 -25.5t129 25.5t114.5 69t87 102.5t47.5 125z" />
    <glyph glyph-name="zero.tnum" horiz-adv-x="640" 
d="M603 351q-14 -78 -38.5 -144.5t-64.5 -114.5t-96 -75t-132 -27t-123 27t-70 75t-25 114.5t12 144.5q14 79 39 145.5t65 115t96.5 75.5t132.5 27t122.5 -27t69.5 -75.5t24.5 -115t-12.5 -145.5zM528 351q13 75 13 131.5t-16.5 94.5t-49.5 57.5t-86 19.5t-93.5 -19.5
t-70.5 -57.5t-50.5 -94.5t-33.5 -131.5q-13 -74 -12.5 -130t17 -94t50 -57.5t86.5 -19.5q106 0 163 76.5t83 224.5z" />
    <glyph glyph-name="two.tnum" horiz-adv-x="640" 
d="M150 511q9 51 33.5 89.5t59 63.5t76.5 37.5t87 12.5q54 0 93 -15.5t63 -42.5t32.5 -64t1.5 -80q-6 -36 -22.5 -66.5t-38 -56t-45 -46t-43.5 -36.5l-294 -238q-4 -3 -2.5 -6t4.5 -3h357q4 0 4 -5l-9 -50q-2 -5 -6 -5h-457q-6 0 -4 5l10 55q0 3 6 7l346 284q12 10 31.5 27
t38.5 38t34.5 45.5t19.5 50.5q4 23 -0.5 48t-20 46t-42.5 34.5t-68 13.5q-30 0 -58.5 -10t-52.5 -28.5t-41 -45t-23 -59.5q0 -5 -6 -5h-60q-4 0 -4 5z" />
    <glyph glyph-name="three.tnum" horiz-adv-x="640" 
d="M138 511q9 52 32.5 90.5t57.5 63.5t76 37t88 12q49 0 87 -15.5t62.5 -42t34.5 -62.5t3 -77q-7 -38 -26 -66t-41 -46.5t-41 -28t-25 -10.5q-4 -1 -5 -4.5t3 -5.5q12 -4 30.5 -16.5t34.5 -34t25.5 -51t2.5 -68.5q-8 -45 -32 -81.5t-60 -62t-82 -39t-98 -13.5h-1
q-54 0 -93 14.5t-63 41.5t-32 64.5t0 82.5q2 5 6 5h60q6 0 4 -5q-11 -62 21.5 -102.5t106.5 -40.5h1q37 0 70 9.5t58 27t41.5 42.5t22.5 57q6 33 -2 59.5t-27.5 44.5t-48.5 28t-65 10h-47q-4 0 -4 5l9 50q2 5 6 5h47q68 0 116.5 35t59.5 94q4 27 -2.5 51.5t-23 43.5
t-43 30.5t-60.5 11.5q-31 0 -60 -9t-52 -26.5t-39.5 -44.5t-22.5 -63q-2 -5 -6 -5h-60q-6 0 -4 5z" />
    <glyph glyph-name="four.tnum" horiz-adv-x="640" 
d="M41 225q2 7 5 10l377 464q3 5 9 5h70q4 0 4 -5l-82 -464q-2 -5 4 -5h118q6 0 4 -5l-9 -50q0 -5 -6 -5h-118q-5 0 -5 -5l-29 -160q0 -5 -6 -5h-60q-4 0 -4 5l29 160q0 5 -5 5h-301q-4 0 -4 5zM124 236q-4 -6 2 -6h222q4 0 6 5l61 345q1 5 -3 6t-7 -4z" />
    <glyph glyph-name="five.tnum" horiz-adv-x="640" 
d="M263 644q-2 0 -4.5 -0.5t-4.5 -5.5q-5 -17 -15 -50.5t-21 -66.5q-12 -40 -26 -83q-2 -5 2 -5.5t6 1.5q19 21 58.5 38t100.5 17q54 0 96 -18t68 -51t36 -78.5t0 -100.5q-10 -59 -34.5 -105.5t-61.5 -78.5t-85.5 -49.5t-106.5 -17.5q-70 0 -112.5 21t-65 52t-28 66t-0.5 64
q0 5 6 5h60q4 0 4 -5q-4 -21 1 -45.5t21.5 -46.5t47 -36.5t77.5 -14.5q38 0 72.5 13t61.5 37.5t46 60t27 80.5q7 41 0.5 75.5t-25 59.5t-48 39t-67.5 14q-54 0 -98 -18.5t-79 -59.5q-5 -5 -9 -5h-57q-6 0 -4 5l106 348q2 5 9 5h366q6 0 4 -5l-9 -50q0 -5 -6 -5h-309z" />
    <glyph glyph-name="six.tnum" horiz-adv-x="640" 
d="M271 474q-1 -2 1 -4.5t7 -0.5q14 6 38 13t55 7q51 0 91 -18.5t65.5 -51.5t35.5 -79.5t0 -101.5q-10 -54 -35 -99.5t-62.5 -78.5t-87 -51.5t-108.5 -18.5t-101.5 18.5t-68.5 51.5t-34.5 78.5t1.5 99.5q7 41 24.5 78.5t39.5 68.5l223 314q4 5 9 5h58q7 0 3 -6zM494 238
q15 86 -21 138.5t-124 52.5t-142 -52t-69 -139t20.5 -137.5t123.5 -50.5q89 0 143 50.5t69 137.5z" />
    <glyph glyph-name="seven.tnum" horiz-adv-x="640" 
d="M614 657q-1 -8 -2.5 -11l-3.5 -7l-355 -634q-2 -5 -7 -5h-65q-5 0 -3 5l353 634q3 5 -3 5h-362q-6 0 -4 5l9 50q0 5 6 5h441q4 0 4 -5z" />
    <glyph glyph-name="eight.tnum" horiz-adv-x="640" 
d="M272 -10q-52 0 -93 13.5t-68.5 39t-39 62t-3.5 81.5q7 42 27 72.5t43.5 51t46.5 31.5t36 15q5 2 5.5 5.5t-3.5 4.5q-9 2 -25 11.5t-30.5 27.5t-22.5 46t-1 66q7 41 29.5 77t56 62.5t77 42t92.5 15.5t87 -15.5t62.5 -42t34.5 -62.5t3 -77q-7 -38 -26 -66t-41 -46.5
t-41 -28t-25 -10.5q-4 -1 -5 -4.5t3 -5.5q12 -4 30.5 -16.5t34.5 -34t25.5 -51t2.5 -68.5q-8 -45 -32 -81.5t-60 -62t-82 -39t-98 -13.5zM282 50q37 0 70 9.5t58 27t41.5 42.5t22.5 57q6 33 -2 59.5t-27.5 44.5t-48.5 28t-65 10t-68 -10t-58 -28t-43.5 -44.5t-23.5 -59.5
q-11 -64 29 -100t115 -36zM212 517q-5 -29 2 -53t24 -41t43.5 -26t60.5 -9q68 0 116.5 35t59.5 94q4 27 -2.5 51.5t-23 43.5t-43 30.5t-60.5 11.5q-35 0 -65 -11.5t-53.5 -30.5t-39 -43.5t-19.5 -51.5z" />
    <glyph glyph-name="nine.tnum" horiz-adv-x="640" 
d="M400 230q1 2 -1 4.5t-7 0.5q-14 -6 -38 -13t-55 -7q-51 0 -91 18.5t-65.5 51.5t-35.5 79t0 102q10 54 35 99.5t62.5 78.5t87 51.5t108.5 18.5q58 0 101 -18.5t69 -51.5t34.5 -78.5t-1.5 -99.5q-7 -41 -24 -78.5t-40 -68.5l-223 -314q-4 -5 -9 -5h-58q-2 0 -3.5 1.5
t0.5 4.5zM177 466q-15 -87 21 -139t125 -52q88 0 141.5 52t68.5 139t-20.5 137.5t-123.5 50.5q-89 0 -143 -50.5t-69 -137.5z" />
    <glyph glyph-name="registered.002" horiz-adv-x="801" 
d="M765 353q-13 -73 -52 -137t-95 -112t-125 -76t-142 -28q-72 0 -131 28t-98 76t-55 112t-3 137q13 72 51.5 136t94.5 112t125 76t141 28q73 0 132 -28t98 -76t55.5 -112t3.5 -136zM735 353q12 66 -3.5 124.5t-51.5 102.5t-90 69.5t-120 25.5t-128.5 -25.5t-113.5 -69.5
t-86.5 -102.5t-47.5 -124.5t3 -125t51 -102.5t89.5 -69t119.5 -25.5t129 25.5t114.5 69t87 102.5t47.5 125zM448 323q0 4 -3 4h-159q-2 0 -4 -4l-37 -214q-2 -3 -5 -3h-42q-4 0 -2 3l85 486q1 3 4 3h227q28 0 50 -11t36 -29.5t20 -43t1 -51.5q-8 -47 -40.5 -83t-77.5 -48
q-7 -2 -4 -6q13 -52 29.5 -108.5t30.5 -108.5q-2 -3 -4 -3h-41q-2 0 -3.5 0.5t-0.5 2.5zM327 556q-4 0 -4 -3l-32 -181q0 -3 3 -3h178q17 0 33 8t29.5 21t23 30t12.5 35q7 37 -12 65t-53 28h-178z" />
    <glyph glyph-name="copyright.002" horiz-adv-x="801" 
d="M765 353q-13 -73 -52 -137t-95 -112t-125 -76t-142 -28q-72 0 -131 28t-98 76t-55 112t-3 137q13 72 51.5 136t94.5 112t125 75.5t141 27.5q73 0 132 -27.5t98 -75.5t55.5 -112t3.5 -136zM735 353q12 66 -3.5 124.5t-51.5 102t-90 69t-120 25.5t-128.5 -25.5t-113.5 -69
t-86.5 -102t-47.5 -124.5t3 -125t51 -102.5t89.5 -69t119.5 -25.5t129 25.5t114.5 69t87 102.5t47.5 125zM535 244q3 3 6 3h41q4 0 3 -3q-3 -14 -19 -38t-44 -47t-66.5 -40t-87.5 -17q-52 0 -89.5 18.5t-60 52.5t-29 80t3.5 102q10 55 33 101.5t57 80.5t78.5 52.5t96.5 18.5
q49 0 81.5 -17t52 -40t27 -47t6.5 -38q-2 -3 -5 -3h-41q-4 0 -4 3q-2 11 -9 28t-21.5 33t-37.5 27.5t-57 11.5q-82 0 -135 -55.5t-71 -155.5q-17 -100 16.5 -155.5t115.5 -55.5q34 0 61 11.5t47 27.5t32.5 33t18.5 28z" />
    <glyph glyph-name="one.tnum" horiz-adv-x="640" 
d="M53 0q-4 0 -4 5l9 50q2 5 6 5h191q4 0 6 5l72 406q2 14 -6.5 24.5t-22.5 10.5h-161q-6 0 -4 5l8 50q2 5 6 5h127q29 0 52.5 20t28.5 49l12 64q0 5 6 5h60q4 0 4 -5l-112 -634q-2 -5 4 -5h169q6 0 4 -5l-9 -50q0 -5 -6 -5h-440z" />
    <glyph glyph-name="dollar.plf" 
d="M425 5q0 -5 -6 -5h-411q-4 0 -4 5l123 694q0 5 6 5h411q4 0 4 -5zM508 681h-346l119 -306zM392 24l-120 305l-226 -305h346zM409 48l107 608q-56 -75 -114 -152t-112 -152zM264 352l-120 305l-107 -610z" />
    <glyph glyph-name="cent.plf" 
d="M425 5q0 -5 -6 -5h-411q-4 0 -4 5l123 694q0 5 6 5h411q4 0 4 -5zM508 681h-346l119 -306zM392 24l-120 305l-226 -305h346zM409 48l107 608q-56 -75 -114 -152t-112 -152zM264 352l-120 305l-107 -610z" />
    <glyph glyph-name="sterling.plf" 
d="M425 5q0 -5 -6 -5h-411q-4 0 -4 5l123 694q0 5 6 5h411q4 0 4 -5zM508 681h-346l119 -306zM392 24l-120 305l-226 -305h346zM409 48l107 608q-56 -75 -114 -152t-112 -152zM264 352l-120 305l-107 -610z" />
    <glyph glyph-name="yen.plf" 
d="M425 5q0 -5 -6 -5h-411q-4 0 -4 5l123 694q0 5 6 5h411q4 0 4 -5zM508 681h-346l119 -306zM392 24l-120 305l-226 -305h346zM409 48l107 608q-56 -75 -114 -152t-112 -152zM264 352l-120 305l-107 -610z" />
    <glyph glyph-name="florin.plf" 
d="M425 5q0 -5 -6 -5h-411q-4 0 -4 5l123 694q0 5 6 5h411q4 0 4 -5zM508 681h-346l119 -306zM392 24l-120 305l-226 -305h346zM409 48l107 608q-56 -75 -114 -152t-112 -152zM264 352l-120 305l-107 -610z" />
    <glyph glyph-name="Euro.plf" 
d="M425 5q0 -5 -6 -5h-411q-4 0 -4 5l123 694q0 5 6 5h411q4 0 4 -5zM508 681h-346l119 -306zM392 24l-120 305l-226 -305h346zM409 48l107 608q-56 -75 -114 -152t-112 -152zM264 352l-120 305l-107 -610z" />
    <glyph glyph-name="currency.plf" 
d="M425 5q0 -5 -6 -5h-411q-4 0 -4 5l123 694q0 5 6 5h411q4 0 4 -5zM508 681h-346l119 -306zM392 24l-120 305l-226 -305h346zM409 48l107 608q-56 -75 -114 -152t-112 -152zM264 352l-120 305l-107 -610z" />
    <glyph glyph-name="numbersign.plf" 
d="M425 5q0 -5 -6 -5h-411q-4 0 -4 5l123 694q0 5 6 5h411q4 0 4 -5zM508 681h-346l119 -306zM392 24l-120 305l-226 -305h346zM409 48l107 608q-56 -75 -114 -152t-112 -152zM264 352l-120 305l-107 -610z" />
    <glyph glyph-name="grave.case" horiz-adv-x="266" 
d="M207 774q-8 0 -10 7l-52 114q-2 3 0.5 5t5.5 2h67q9 0 9 -7l29 -114q2 -7 -6 -7h-43z" />
    <glyph glyph-name="dieresis.case" horiz-adv-x="266" 
d="M129 864q4 0 4 -5l-14 -80q-2 -5 -6 -5h-80q-6 0 -4 5l14 80q0 5 6 5h80zM348 864q4 0 4 -5l-14 -80q-2 -5 -6 -5h-80q-6 0 -4 5l14 80q0 5 6 5h80z" />
    <glyph glyph-name="macron.case" horiz-adv-x="266" 
d="M78 774q-5 0 -3 5l7 40q2 5 5 5h246q6 0 4 -5l-7 -40q-2 -5 -6 -5h-246z" />
    <glyph glyph-name="acute.case" horiz-adv-x="266" 
d="M144 774q-3 0 -4.5 2t0.5 5l69 114q2 2 4 4.5t7 2.5h67q3 0 5 -2t-1 -5l-92 -114q-2 -2 -5 -4.5t-7 -2.5h-43z" />
    <glyph glyph-name="circumflex.case" horiz-adv-x="266" 
d="M241 774q-4 0 -5 3l-23 62q-1 3 -4.5 3t-5.5 -3l-45 -62q-2 -3 -5 -3h-47q-3 0 -4.5 2t0.5 5l72 117q1 4 5 4h80q4 0 5 -4l30 -117q2 -7 -6 -7h-47z" />
    <glyph glyph-name="caron.case" horiz-adv-x="266" 
d="M310 901q3 0 4.5 -2t-0.5 -5l-72 -117q-1 -4 -5 -4h-80q-4 0 -5 4l-30 117q-2 7 6 7h47q3 0 5 -3l23 -62q1 -3 4.5 -3t5.5 3l45 62q1 3 5 3h47z" />
    <glyph glyph-name="breve.case" horiz-adv-x="266" 
d="M339 902q6 0 4 -5q-11 -63 -50.5 -93t-94.5 -30q-54 0 -84 30.5t-19 92.5q2 5 6 5h42q6 0 4 -5q-2 -11 -1 -23.5t7 -23.5t18.5 -18.5t34.5 -7.5t37 7.5t25 18.5t15 23.5t7 23.5q2 5 6 5h43z" />
    <glyph glyph-name="dotaccent.case" horiz-adv-x="266" 
d="M113 759q-4 0 -4 5l23 132q2 5 6 5h129q6 0 4 -5l-23 -132q0 -5 -6 -5h-129z" />
    <glyph glyph-name="ring.case" horiz-adv-x="266" 
d="M294 823q-3 -18 -13 -34t-24.5 -27.5t-31.5 -18.5t-35 -7q-36 0 -57 25.5t-14 61.5q3 18 12.5 34t23.5 28t31 19t35 7q36 0 57.5 -26t15.5 -62zM255 823q3 20 -9 34.5t-32 14.5q-21 0 -38 -14.5t-20 -34.5q-4 -21 8 -35.5t33 -14.5q20 0 37 14.5t21 35.5z" />
    <glyph glyph-name="tilde.case" horiz-adv-x="266" 
d="M49 792q2 13 10 28t21 28t31.5 21.5t42.5 8.5q22 0 37 -7t27 -16t23.5 -16t26.5 -7q7 0 20.5 8t18.5 33q2 5 6 5h48q6 0 4 -5l-2 -14q-2 -13 -10 -28t-21 -27.5t-31.5 -21t-42.5 -8.5q-20 0 -35.5 7t-29 16t-25.5 16t-24 7q-7 0 -20.5 -8t-18.5 -33q-2 -5 -6 -5h-48
q-6 0 -4 5z" />
    <glyph glyph-name="hungarumlaut.case" horiz-adv-x="266" 
d="M27 760q-5 0 -3 5l52 132q0 5 7 5h89q3 0 3 -5l-52 -132q-2 -5 -7 -5h-89zM247 760q-5 0 -3 5l52 132q0 5 7 5h89q3 0 3 -5l-52 -132q-2 -5 -7 -5h-89z" />
    <glyph glyph-name="caron.salt" horiz-adv-x="319" 
d="M301 704q3 0 4.5 -2t-0.5 -5l-72 -117q-1 -4 -5 -4h-80q-4 0 -5 4l-30 117q-2 7 6 7h47q3 0 5 -3l23 -62q1 -3 4.5 -3t5.5 3l45 62q1 3 5 3h47z" />
    <glyph glyph-name="commaaccent.salt" horiz-adv-x="266" 
d="M85 198q-6 0 -4 5l17 100q2 5 6 5h100q6 0 4 -5l-18 -104q-9 -54 -38.5 -82.5t-85.5 -28.5q-5 0 -5 5l7 40q2 5 6 5q46 0 55 55q2 5 -4 5h-40z" />
    <glyph glyph-name="_0127" horiz-adv-x="526" 
d="M425 5q0 -5 -6 -5h-411q-4 0 -4 5l123 694q0 5 6 5h411q4 0 4 -5zM508 681h-346l119 -306zM392 24l-120 305l-226 -305h346zM409 48l107 608q-56 -75 -114 -152t-112 -152zM264 352l-120 305l-107 -610z" />
    </font>
</defs>
</svg>
