<?xml version="1.0" standalone="no"?>
<!DOCTYPE svg PUBLIC "-//W3C//DTD SVG 1.1//EN" "http://www.w3.org/Graphics/SVG/1.1/DTD/svg11.dtd" >
<svg xmlns="http://www.w3.org/2000/svg" xmlns:xlink="http://www.w3.org/1999/xlink" version="1.1">
<metadata>
Created by FontForge 20160405 at Mon Jan 21 16:24:25 2019
 By www-data
Copyright (c) 2008 by Stefan Gandl. All rights reserved.
</metadata>
<defs>
<font id="NBInternationalPro-Italic" horiz-adv-x="516" >
  <font-face 
    font-family="NB International"
    font-weight="400"
    font-style="italic"
    font-stretch="normal"
    units-per-em="1000"
    panose-1="2 11 5 3 4 1 0 10 0 4"
    ascent="800"
    descent="-200"
    x-height="506"
    cap-height="704"
    bbox="-65.5714 -208 1138 944"
    underline-thickness="85"
    underline-position="-217"
    unicode-range="U+0009-FB05"
  />
<missing-glyph 
d="M425 5q0 -5 -6 -5h-411q-4 0 -4 5l123 694q0 5 6 5h411q4 0 4 -5zM508 681h-346l119 -306zM392 24l-120 305l-226 -305h346zM409 48l107 608q-56 -75 -114 -152t-112 -152zM264 352l-120 305l-107 -610z" />
    <glyph glyph-name="fi" unicode="fi" horiz-adv-x="586" 
d="M404 624q0 -5 -5 -5h-66q-23 0 -37.5 -13.5t-18.5 -36.5l-10 -58q-2 -5 4 -5h108q4 0 4 -5l-12 -65q0 -5 -6 -5h-108q-5 0 -5 -5l-75 -421q0 -5 -6 -5h-85q-4 0 -4 5l75 421q0 5 -5 5h-89q-4 0 -4 5l12 65q0 5 6 5h89q4 0 6 5l13 75q21 121 162 118h67q4 0 4 -5zM457 5
q0 -5 -6 -5h-85q-4 0 -4 5l88 496q0 5 6 5h85q4 0 4 -5zM571 594q0 -5 -6 -5h-105q-4 0 -4 5l19 105q0 5 6 5h105q4 0 4 -5z" />
    <glyph glyph-name="fl" unicode="fl" horiz-adv-x="590" 
d="M404 624q0 -5 -5 -5h-66q-23 0 -37.5 -13.5t-18.5 -36.5l-10 -58q-2 -5 4 -5h108q4 0 4 -5l-12 -65q0 -5 -6 -5h-108q-5 0 -5 -5l-75 -421q0 -5 -6 -5h-85q-4 0 -4 5l75 421q0 5 -5 5h-89q-4 0 -4 5l12 65q0 5 6 5h89q4 0 6 5l13 75q21 121 162 118h67q4 0 4 -5zM462 5
q0 -5 -6 -5h-85q-4 0 -4 5l123 694q0 5 6 5h85q4 0 4 -5z" />
    <glyph glyph-name=".notdef" 
d="M425 5q0 -5 -6 -5h-411q-4 0 -4 5l123 694q0 5 6 5h411q4 0 4 -5zM508 681h-346l119 -306zM392 24l-120 305l-226 -305h346zM409 48l107 608q-56 -75 -114 -152t-112 -152zM264 352l-120 305l-107 -610z" />
    <glyph glyph-name=".null" horiz-adv-x="25" 
 />
    <glyph glyph-name=".null" horiz-adv-x="25" 
 />
    <glyph glyph-name="nonmarkingreturn" unicode="&#xd;" horiz-adv-x="35" 
 />
    <glyph glyph-name="HT" unicode="&#x9;" horiz-adv-x="285" 
 />
    <glyph glyph-name="LF" unicode="&#xa;" horiz-adv-x="285" 
 />
    <glyph glyph-name="DLE" horiz-adv-x="285" 
 />
    <glyph glyph-name="DC1" horiz-adv-x="285" 
 />
    <glyph glyph-name="DC2" horiz-adv-x="285" 
 />
    <glyph glyph-name="DC3" horiz-adv-x="285" 
 />
    <glyph glyph-name="DC4" horiz-adv-x="285" 
 />
    <glyph glyph-name="RS" horiz-adv-x="35" 
 />
    <glyph glyph-name="US" horiz-adv-x="35" 
 />
    <glyph glyph-name="space" unicode=" " horiz-adv-x="256" 
 />
    <glyph glyph-name="exclam" unicode="!" horiz-adv-x="239" 
d="M75 208q-6 0 -4 5l42 293l34 193q0 5 6 5h84q4 0 4 -5l-34 -193l-62 -293q-2 -5 -6 -5h-64zM10 0q-4 0 -4 5l22 122q0 5 6 5h120q4 0 4 -5l-22 -122q0 -5 -6 -5h-120z" />
    <glyph glyph-name="quotedbl" unicode="&#x22;" horiz-adv-x="381" 
d="M254 431q-5 0 -5 5l9 105l28 158q0 5 6 5h80q4 0 4 -5l-28 -158l-29 -105q0 -5 -5 -5h-60zM84 431q-5 0 -5 5l9 105l28 158q0 5 6 5h80q4 0 4 -5l-28 -158l-29 -105q0 -5 -5 -5h-60z" />
    <glyph glyph-name="numbersign" unicode="#" horiz-adv-x="601" 
d="M208 402q3 6 -4 6h-136q-4 0 -4 5l11 59q0 5 6 5h154q5 0 6 4l87 220q1 3 6 3h55q3 0 4 -2.5t-1 -4.5l-84 -214q-2 -2 0 -4t4 -2h102q5 0 6 5l87 219q1 3 6 3h55q3 0 4 -2.5t-1 -4.5l-84 -214q-3 -6 4 -6h99q4 0 4 -5l-11 -59q0 -5 -6 -5h-117q-4 0 -6 -5l-46 -110
q-3 -6 4 -6h144q6 0 4 -5l-10 -59q-2 -5 -6 -5h-162q-3 0 -6 -4l-84 -211q-2 -3 -6 -3h-54q-3 0 -4 2.5t1 4.5l82 206q3 5 -3 5h-105q-3 0 -6 -5l-84 -210q-2 -3 -6 -3h-54q-3 0 -4 2.5t1 4.5l81 205q2 6 -4 6h-92q-6 0 -4 5l10 59q2 5 6 5h110q4 0 7 5zM281 408q-4 0 -6 -5
l-46 -109q-2 -7 4 -7h104q3 0 6 5l44 110q4 6 -3 6h-103z" />
    <glyph glyph-name="dollar" unicode="$" horiz-adv-x="630" 
d="M288 317q1 3 -2 3q-38 6 -74 17.5t-63 33t-40 56t-4 86.5q8 44 32 79t57.5 60.5t75 40.5t83.5 19q4 0 6 5l14 80q2 5 5 5h69q6 0 4 -5l-15 -84q0 -3 3 -4q37 -6 69 -21.5t54.5 -40t33 -58.5t4.5 -78q-2 -5 -6 -5h-90q-6 0 -4 5q7 38 -13.5 68t-61.5 42q-4 1 -6 -4
l-36 -208q-2 -5 4 -5q42 -7 80 -19t64.5 -35t38 -60t1.5 -92q-6 -35 -24 -69t-49.5 -62.5t-77 -48.5t-106.5 -26q-5 0 -6 -4l-14 -83q-2 -5 -6 -5h-69q-5 0 -3 5l14 82q2 5 -4 5q-54 5 -93 23t-62.5 45t-32 61.5t-1.5 71.5q0 5 5 5h89q7 0 5 -6q-3 -16 1.5 -34t17.5 -34
t34 -28.5t52 -17.5q6 -1 6 5zM329 79q60 10 97.5 43.5t44.5 75.5q5 27 -1 46t-20.5 32t-35 20t-44.5 12q-4 1 -6 -3l-39 -221q0 -6 4 -5zM338 626q-51 -8 -88 -39t-45 -74q-5 -25 1.5 -42t20.5 -28t33.5 -17.5t40.5 -9.5q4 -1 6 4l35 202q1 2 -0.5 3.5t-3.5 0.5z" />
    <glyph glyph-name="percent" unicode="%" horiz-adv-x="852" 
d="M673 702q2 2 5 2h70q8 0 2 -8l-548 -694q-2 -2 -5 -2h-68q-8 0 -2 8zM766 190q-8 -43 -21.5 -79.5t-35.5 -63.5t-52.5 -42t-72.5 -15t-67.5 15t-38 42t-14 63.5t6.5 79.5q7 42 21 78.5t36 63.5t53 42t73 15t67.5 -15t38 -42t13 -63.5t-6.5 -78.5zM702 190
q11 66 -1.5 101.5t-57.5 35.5q-46 0 -71 -35.5t-36 -101.5t1 -102t58 -36q45 0 70.5 36t36.5 102zM407 515q-8 -43 -21.5 -79.5t-35.5 -63.5t-52.5 -42t-72.5 -15t-67.5 15t-38 42t-14 63.5t6.5 79.5q7 42 21 78.5t36 63.5t53 42t73 15t67.5 -15t38 -42t13 -63.5t-6.5 -78.5
zM343 515q12 66 -1 101.5t-58 35.5q-46 0 -70.5 -35.5t-36.5 -101.5q-11 -66 1 -102t58 -36q45 0 70.5 36t36.5 102z" />
    <glyph glyph-name="ampersand" unicode="&#x26;" horiz-adv-x="676" 
d="M555 0q-33 0 -57.5 13.5t-47.5 41.5q-1 2 -2 2t-5 -2q-38 -26 -92 -45.5t-114 -19.5q-63 0 -107 19t-69.5 50t-34 71t-0.5 82q6 37 23 67t39 53t47 40.5t48 29.5q11 5 4 12l-20 28q-17 23 -27 48.5t-3 63.5q6 33 24 62t46.5 50.5t65.5 34.5t81 13q42 0 74 -13.5t53 -36
t29.5 -51t2.5 -59.5q-7 -39 -25 -66.5t-43 -46.5t-55 -31.5t-60 -22.5q-7 -2 -4 -9l128 -171q2 -3 4 -2t2 2q7 10 10.5 22.5t5.5 24.5l16 87q0 5 5 5h85q5 0 5 -5l-16 -87q-2 -11 -6.5 -26t-11.5 -31.5t-15.5 -33t-18.5 -29.5q-4 -6 -1 -8l13 -13q12 -9 18 -14t23 -4
q6 0 4 -5l-15 -85q0 -5 -6 -5zM253 80q37 0 70 8.5t68 32.5q5 5 1 9l-156 211q-2 3 -8 1q-17 -8 -33.5 -18.5t-31 -25.5t-25.5 -34t-15 -42q-6 -31 1 -57t24 -45t43.5 -29.5t61.5 -10.5zM340 634q-42 0 -74 -21t-39 -59q-5 -26 7 -51t41 -57q3 -3 8 -1q8 2 14 5q5 2 10 3.5
t7 2.5q19 8 37 15.5t32.5 18t25 26t14.5 38.5q7 38 -17.5 59t-65.5 21z" />
    <glyph glyph-name="quotesingle" unicode="'" horiz-adv-x="222" 
d="M84 431q-5 0 -5 5l9 105l28 158q0 5 6 5h80q4 0 4 -5l-28 -158l-29 -105q0 -5 -5 -5h-60z" />
    <glyph glyph-name="parenleft" unicode="(" horiz-adv-x="255" 
d="M111 253q-21 -121 -9.5 -234t57.5 -212q3 -5 -4 -5h-67q-5 0 -6 5q-19 41 -33 93t-20.5 110.5t-5.5 120.5t12 122q10 60 31 122t48 120.5t59.5 110.5t65.5 93q4 5 8 5h67q7 0 2 -5q-81 -99 -132.5 -212t-72.5 -234z" />
    <glyph glyph-name="parenright" unicode=")" horiz-adv-x="255" 
d="M163 253q21 121 9 234t-58 212q-2 5 4 5h67q5 0 6 -5q19 -41 33 -93t20.5 -110.5t5.5 -120.5t-11 -122q-11 -60 -32 -122t-48 -120.5t-59.5 -110.5t-65.5 -93q-4 -5 -8 -5h-66q-5 0 -2 5q80 99 132 212t73 234z" />
    <glyph glyph-name="asterisk" unicode="*" horiz-adv-x="493" 
d="M166 542l-46 16q-5 2 -2 6l28 57q2 5 7 3l46 -15l48 -24q8 -4 8 4l5 59l9 51q0 5 5 5h60q5 0 5 -5l-9 -51l-18 -59q-2 -7 1.5 -6t5.5 2l58 24l50 15q5 2 7 -3l8 -57q0 -5 -4 -6l-52 -16l-67 -14q-5 -2 -2 -6l34 -44l22 -43q3 -3 -2 -7l-54 -35q-4 -2 -8 2l-22 40l-18 46
q-2 8 -8 0l-35 -47l-36 -40q-6 -4 -9 -2l-41 35q-5 3 0 7l37 43l49 45q4 4 -1 6zM255 582h-2l2 -1v1zM310 581l2 1h-2v-1z" />
    <glyph glyph-name="plus" unicode="+" horiz-adv-x="633" 
d="M326 5q0 -5 -6 -5h-84q-4 0 -4 5l35 198q2 5 -4 5h-191q-6 0 -4 5l14 80q0 5 6 5h191q4 0 6 5l35 198q0 5 5 5h84q5 0 5 -5l-35 -198q-2 -5 4 -5h202q4 0 4 -5l-14 -80q-2 -5 -6 -5h-202q-4 0 -6 -5z" />
    <glyph glyph-name="comma" unicode="," horiz-adv-x="271" 
d="M57 0q-4 0 -4 5l22 122q0 5 5 5h120q5 0 5 -5l-22 -121q-10 -57 -51 -93t-97 -36q-4 0 -4 5l10 55q2 5 6 5q15 0 34 13.5t24 39.5q2 5 -4 5h-44z" />
    <glyph glyph-name="hyphen" unicode="-" horiz-adv-x="588" 
d="M139 208q-6 0 -4 5l14 80q0 5 6 5h313q4 0 4 -5l-14 -80q-2 -5 -6 -5h-313z" />
    <glyph glyph-name="period" unicode="." horiz-adv-x="271" 
d="M52 0q-6 0 -4 5l21 122q2 5 6 5h120q6 0 4 -5l-21 -122q-2 -5 -6 -5h-120z" />
    <glyph glyph-name="slash" unicode="/" horiz-adv-x="525" 
d="M144 3q-2 -3 -6 -3h-74q-3 0 -4 2.5t1 4.5l355 694q1 3 6 3h75q3 0 4 -2.5t-1 -4.5z" />
    <glyph glyph-name="zero" unicode="0" horiz-adv-x="645" 
d="M613 352q-14 -77 -39 -143.5t-64.5 -115.5t-95.5 -76.5t-132 -27.5t-122.5 27.5t-69 76.5t-24.5 115.5t12 143.5q13 77 38 143.5t65 115t96 76t132 27.5t122.5 -27.5t69 -76t24 -115t-11.5 -143.5zM513 352q12 66 12 118t-14 87t-42.5 53.5t-74.5 18.5q-92 0 -142 -72
t-73 -205q-12 -66 -12 -117.5t13.5 -87.5t42 -54.5t74.5 -18.5q91 0 142 73t74 205z" />
    <glyph glyph-name="one" unicode="1" horiz-adv-x="398" 
d="M294 699q0 5 6 5h85q4 0 4 -5l-123 -694q0 -5 -6 -5h-85q-4 0 -4 5l83 471q3 15 -5.5 22.5t-19.5 7.5h-153q-6 0 -4 5l12 70q0 5 6 5h124q25 0 45 16.5t25 41.5z" />
    <glyph glyph-name="two" unicode="2" horiz-adv-x="568" 
d="M16 75q1 2 2.5 6.5t4.5 6.5l325 271q10 8 27 22.5t34.5 33.5t31.5 41.5t18 45.5q3 19 -1 41.5t-16.5 41.5t-35.5 31.5t-58 12.5q-29 0 -54 -10t-44.5 -26.5t-32.5 -37.5t-17 -44q0 -5 -6 -5h-85q-4 0 -4 5q8 45 31 82.5t57.5 64t78 41.5t91.5 15q54 0 93.5 -17
t63.5 -45.5t32.5 -67.5t1.5 -82q-7 -38 -25 -70t-40.5 -58t-45 -45.5l-37.5 -32.5l-256 -203q-2 -2 -2 -5t5 -3h322q6 0 4 -5l-13 -75q-2 -5 -6 -5h-452q-6 0 -4 5z" />
    <glyph glyph-name="three" unicode="3" horiz-adv-x="580" 
d="M262 400q2 5 6 5h35q28 0 53 8.5t44.5 23t32.5 35t17 44.5q4 22 -1.5 42.5t-19.5 36t-36 25t-51 9.5q-27 0 -52 -10.5t-44.5 -27t-32.5 -37.5t-16 -43q-2 -5 -6 -5h-85q-6 0 -4 5q7 44 30 81t57 64t77 42.5t91 15.5q50 0 88.5 -15t63 -41.5t34 -63t2.5 -78.5
q-6 -35 -23 -61.5t-36.5 -44.5t-37.5 -27.5t-27 -12.5q-5 -1 -6 -5t4 -5q12 -4 29.5 -16.5t32 -33.5t22.5 -51t1 -69q-8 -44 -31 -80.5t-58 -63t-82 -41.5t-103 -15t-95 16t-62.5 43.5t-31.5 64t-1 76.5q0 5 6 5h85q4 0 4 -5q-4 -20 0.5 -40.5t18 -37t36 -27t55.5 -10.5
q31 0 59 9t50 24.5t36.5 36.5t18.5 45q10 59 -25 94.5t-96 35.5h-35q-6 0 -4 5l13 75v0z" />
    <glyph glyph-name="four" unicode="4" horiz-adv-x="632" 
d="M562 704q4 0 4 -5l-79 -448q-2 -5 4 -5h111q4 0 4 -5l-13 -75q-2 -5 -6 -5h-111q-4 0 -6 -5l-27 -151q0 -5 -6 -5h-85q-4 0 -4 5l27 151q2 5 -4 5h-329q-6 0 -4 5l12 70q2 8 3 10.5t3 4.5l411 448q3 4 6 4.5t5 0.5h84zM167 253q-2 -2 -0.5 -4.5t4.5 -2.5h215q4 0 6 5
l52 294q0 4 -4 4t-6 -3z" />
    <glyph glyph-name="five" unicode="5" horiz-adv-x="599" 
d="M201 697q2 7 8 7h375q6 0 4 -5l-13 -75q-2 -5 -6 -5h-294q-4 0 -6 -5q-5 -16 -13.5 -43.5t-16.5 -54.5q-10 -32 -21 -67q-2 -5 0.5 -5.5t7.5 2.5q6 4 17.5 11.5t28.5 14.5t38 12t45 5q55 0 96.5 -18t68 -50.5t36 -78t0.5 -100.5q-11 -59 -35.5 -105.5t-61.5 -79
t-85.5 -50t-106.5 -17.5q-69 0 -112 22t-65.5 53.5t-28 66t-1.5 58.5q2 5 6 5h92q6 0 4 -5q-2 -13 1.5 -32.5t16.5 -38t37.5 -31.5t64.5 -13q33 0 62 11.5t53 33t40.5 52.5t23.5 70q6 35 0 65t-22 51.5t-41 33.5t-58 12q-53 0 -88.5 -16.5t-64.5 -52.5q-5 -5 -12 -5h-78
q-6 0 -4 5z" />
    <glyph glyph-name="six" unicode="6" horiz-adv-x="608" 
d="M295 481q-2 -3 0 -6t6 -1q2 2 20 6.5t41 4.5q51 0 91 -17.5t66 -50t36 -78t0 -100.5q-9 -54 -34 -100t-63 -79.5t-88 -52t-108 -18.5q-59 0 -101.5 18.5t-68.5 52t-34.5 79.5t0.5 100q8 41 25.5 78t38.5 67l222 315q4 5 8 5h88q2 0 4 -1t0 -4zM455 239q14 75 -15 120
t-105 45q-75 0 -119 -45t-58 -120q-13 -75 15.5 -120t103.5 -45q76 0 120.5 45t57.5 120z" />
    <glyph glyph-name="seven" unicode="7" horiz-adv-x="526" 
d="M558 632q-2 -8 -3 -11t-3 -7l-336 -609q-2 -5 -7 -5h-92q-5 0 -3 5l344 609q2 5 -3 5h-349q-5 0 -5 5l14 75q0 5 6 5h445q4 0 4 -5z" />
    <glyph glyph-name="eight" unicode="8" horiz-adv-x="611" 
d="M264 -10q-56 0 -98 15t-68 41.5t-36 63t-2 80.5q7 41 25.5 71t40.5 50.5t43.5 32.5t35.5 16q5 1 6 5t-4 5q-8 3 -23 12.5t-28.5 27.5t-21 44.5t-1.5 61.5q7 42 30 78.5t57 63t77.5 41.5t93.5 15t88.5 -15t63 -41.5t34 -63t2.5 -78.5q-6 -35 -23 -61.5t-36.5 -44.5
t-37.5 -27.5t-27 -12.5q-5 -1 -6 -5t4 -5q12 -4 29.5 -16t32 -32.5t22.5 -50.5t1 -71q-8 -44 -31 -80.5t-58 -63t-82 -41.5t-103 -15zM279 75q31 0 59 9t50 24.5t36.5 36.5t18.5 45q10 59 -25 94.5t-96 35.5q-30 0 -58 -9t-50.5 -26t-38 -41t-20.5 -54q-8 -49 27 -82t97 -33
zM484 516q4 22 -1.5 42.5t-19.5 36t-36 25t-51 9.5t-54.5 -9.5t-45 -25t-32 -36t-16.5 -42.5q-8 -48 22 -79.5t87 -31.5q28 0 53 8.5t44.5 23t32.5 35t17 44.5z" />
    <glyph glyph-name="nine" unicode="9" horiz-adv-x="608" 
d="M357 222q2 3 0 6t-6 1q-2 -2 -19.5 -6.5t-40.5 -4.5q-51 0 -91.5 17.5t-66.5 50t-36 77.5t0 101q9 54 34 100t63 79.5t87.5 52t108.5 18.5q58 0 101 -18.5t69 -52t34.5 -79.5t-0.5 -100q-8 -41 -25.5 -78t-38.5 -67l-222 -315q-4 -5 -8 -5h-88q-2 0 -4 1t0 4zM197 464
q-14 -75 15 -120t105 -45q75 0 119 45t58 120q13 75 -15.5 120t-103.5 45q-76 0 -120.5 -45t-57.5 -120z" />
    <glyph glyph-name="colon" unicode=":" horiz-adv-x="271" 
d="M35 0q-4 0 -4 5l22 122q0 5 5 5h120q5 0 5 -5l-22 -122q0 -5 -6 -5h-120zM101 374q-6 0 -4 5l22 122q0 5 5 5h120q5 0 5 -5l-22 -122q-2 -5 -6 -5h-120z" />
    <glyph glyph-name="semicolon" unicode=";" horiz-adv-x="271" 
d="M41 0q-6 0 -4 5l21 122q2 5 6 5h120q6 0 4 -5l-21 -121q-11 -57 -51.5 -93t-96.5 -36q-6 0 -4 5l10 55q0 5 5 5q15 0 34.5 13.5t24.5 39.5q0 5 -4 5h-44zM107 374q-5 0 -5 5l22 122q2 5 6 5h120q6 0 4 -5l-22 -122q0 -5 -5 -5h-120z" />
    <glyph glyph-name="less" unicode="&#x3c;" horiz-adv-x="531" 
d="M47 307q2 4 4 5l482 193q8 3 6 -5l-13 -78q-1 -3 -4 -4l-401 -164q-2 -1 -2.5 -3t1.5 -3l344 -160q2 -1 2 -4l-14 -78q0 -3 -2.5 -5t-5.5 0l-414 189q-4 2 -2 5l9 56z" />
    <glyph glyph-name="equal" unicode="=" horiz-adv-x="584" 
d="M53 101q-6 0 -4 5l14 80q0 5 6 5h448q4 0 4 -5l-14 -80q-2 -5 -6 -5h-448zM91 318q-4 0 -4 5l14 79q2 5 6 5h448q6 0 4 -5l-14 -79q0 -5 -6 -5h-448z" />
    <glyph glyph-name="greater" unicode="&#x3e;" horiz-adv-x="531" 
d="M495 251l-9 -56q-2 -4 -4 -5l-482 -189q-5 -3 -5 5l13 78q0 2 4 4l400 160q2 1 2.5 3t-1.5 3l-343 164q-3 2 -2 4l13 78q1 3 3.5 5t4.5 0l414 -193q4 -2 2 -5z" />
    <glyph glyph-name="question" unicode="?" horiz-adv-x="531" 
d="M85 521q7 42 29.5 77.5t56.5 61t77 40t92 14.5q54 0 94.5 -16t66 -44t35 -65.5t2.5 -79.5q-8 -43 -26 -73t-44 -52t-58.5 -39t-68.5 -34q-11 -5 -15 -10t-8 -16l-12 -71q-2 -5 -6 -5h-85q-6 0 -4 5l14 79q11 66 89 96q39 15 63 29.5t38 29t20 29.5t9 32q4 21 -1 42.5
t-19.5 39t-39 28t-59.5 10.5q-30 0 -55 -9t-44 -24t-30.5 -34.5t-15.5 -40.5l-2 -10q0 -5 -6 -5h-85q-4 0 -4 5zM160 0q-6 0 -4 5l21 122q2 5 6 5h120q6 0 4 -5l-21 -122q-2 -5 -6 -5h-120z" />
    <glyph glyph-name="at" unicode="@" horiz-adv-x="1006" 
d="M371 -208q-99 0 -173.5 36t-116.5 101t-47 155.5t35 199.5q37 106 100 186.5t142.5 134.5t170 81.5t182.5 27.5q83 0 153.5 -30t113 -87.5t51 -142.5t-31.5 -195q-27 -75 -64 -126.5t-76 -83t-77 -45.5t-67 -14q-21 0 -35 9t-21.5 21.5t-10.5 25.5t-3 21q0 2 -2.5 3
t-5.5 -2q-38 -40 -88.5 -59t-95.5 -19q-59 0 -97 19.5t-56.5 54t-17.5 83t21 106.5q23 66 58.5 115.5t80 82t96 49t106.5 16.5q25 0 44.5 -6.5t33 -15.5t21 -18.5t10.5 -15.5q2 -4 6 -3t6 5l21 39q2 5 8 5h74q6 0 4 -5l-145 -380q-3 -7 -4 -15.5t1.5 -16t9.5 -12.5t20 -5
q24 0 49.5 14.5t50.5 41t47 63.5t39 83q34 94 27.5 165t-44 119t-101 72.5t-144.5 24.5q-97 0 -178 -34t-145 -89.5t-109 -125.5t-70 -141q-28 -78 -26 -152t34.5 -131.5t96 -92.5t159.5 -35q35 0 76 7t82.5 19t82 27.5t74.5 32.5q6 4 4 -3v1l-24 -63q-2 -5 -6 -8
q-23 -14 -58 -27.5t-76 -24t-86 -17t-89 -6.5zM348 253q-30 -81 -12 -131t91 -50t126.5 50t83.5 131q33 91 15.5 136t-90.5 45q-36 0 -68.5 -13t-60 -37t-49 -57.5t-36.5 -73.5z" />
    <glyph glyph-name="A" unicode="A" horiz-adv-x="702" 
d="M497 704q3 0 5 -5l110 -694q1 -2 -1.5 -3.5t-4.5 -1.5h-94q-2 0 -4 5l-20 143q-1 5 -7 5h-290q-4 0 -6 -5l-73 -143q-2 -5 -6 -5h-93q-6 0 -5 5l359 694q2 5 7 5h123zM470 233q6 0 4 5l-52 366q-1 5 -4.5 5t-5.5 -5l-183 -366q-2 -5 4 -5h237z" />
    <glyph glyph-name="B" unicode="B" horiz-adv-x="665" 
d="M160 699q0 5 6 5h333q41 0 72 -16t50.5 -43t26 -63.5t-0.5 -77.5q-4 -25 -14.5 -46t-25 -38t-30.5 -29t-32 -18q-4 -2 -4.5 -5t2.5 -5q16 -7 30.5 -23.5t24 -39t13 -48.5t-0.5 -52q-8 -45 -30 -81.5t-54 -63t-72 -41t-85 -14.5h-328q-4 0 -4 5zM193 320q-4 0 -6 -5
l-40 -225q0 -5 4 -5h219q27 0 51.5 9.5t44 25.5t32.5 36.5t17 43.5q4 22 -1.5 43.5t-18.5 38.5t-32.5 27.5t-43.5 10.5h-226zM552 504q4 22 1 43t-13.5 37.5t-29 26t-45.5 9.5h-219q-6 0 -6 -5l-36 -205q-2 -5 4 -5h219q19 1 40 8.5t38.5 20t30 30.5t16.5 40z" />
    <glyph glyph-name="C" unicode="C" horiz-adv-x="703" 
d="M557 215q2 5 8 5h88q5 0 4 -5q-4 -25 -26.5 -63t-63 -74t-100 -62t-137.5 -26q-83 0 -138 26.5t-85 74.5t-36.5 114.5t7.5 146.5q14 79 47 145.5t81.5 114.5t112 75t138.5 27q82 0 132.5 -27.5t77.5 -64.5t34.5 -74.5t4.5 -58.5q-1 -5 -6 -5h-88q-6 0 -6 5
q-3 16 -10.5 40t-25 46t-48.5 38t-80 16q-106 0 -173.5 -73t-90.5 -204q-23 -130 19.5 -203.5t147.5 -73.5q45 0 80 14.5t61.5 35.5t44 45.5t26.5 44.5z" />
    <glyph glyph-name="D" unicode="D" horiz-adv-x="708" 
d="M156 699q0 5 6 5h258q78 0 132 -27t84.5 -74.5t38.5 -113t-6 -144.5q-14 -80 -44.5 -143.5t-77.5 -108.5t-110 -69t-142 -24h-258q-4 0 -4 5zM242 619q-6 0 -6 -5l-93 -524q0 -5 4 -5h163q101 0 168.5 66t90.5 194q11 63 5.5 113.5t-26.5 86t-57 55t-86 19.5h-163z" />
    <glyph glyph-name="E" unicode="E" horiz-adv-x="632" 
d="M155 699q0 5 6 5h481q4 0 4 -5l-14 -75q0 -5 -5 -5h-386q-6 0 -6 -5l-36 -204q-2 -5 4 -5h345q6 0 4 -5l-13 -75q-2 -5 -6 -5h-345q-4 0 -6 -5l-40 -225q0 -5 4 -5h386q5 0 5 -5l-14 -75q0 -5 -6 -5h-481q-4 0 -4 5l123 694v0z" />
    <glyph glyph-name="F" unicode="F" horiz-adv-x="562" 
d="M161 699q0 5 6 5h445q4 0 4 -5l-14 -75q0 -5 -5 -5h-350q-6 0 -6 -5l-36 -204q-2 -5 4 -5h309q6 0 4 -5l-13 -75q-2 -5 -6 -5h-309q-4 0 -6 -5l-55 -310q0 -5 -6 -5h-85q-4 0 -4 5l123 694v0z" />
    <glyph glyph-name="G" unicode="G" horiz-adv-x="743" 
d="M629 5q0 -5 -6 -5h-73q-5 0 -5 6l2 70q1 3 -2.5 4t-6.5 -2q-14 -16 -37.5 -31.5t-53 -28t-63.5 -20.5t-68 -8q-83 0 -138 26.5t-85 74.5t-36.5 114.5t7.5 146.5q14 79 47 145.5t81.5 114.5t112 75t138.5 27q67 0 113 -17.5t75.5 -46t44 -65t18.5 -74.5q0 -5 -6 -5h-93
q-5 0 -5 5q-13 59 -56 88.5t-106 29.5q-106 0 -173.5 -73t-90.5 -204q-23 -130 19.5 -203.5t147.5 -73.5q106 0 170.5 54.5t85.5 175.5q2 5 -4 5h-206q-6 0 -4 5l13 75q2 5 6 5h301q6 0 4 -5l-68 -385v0z" />
    <glyph glyph-name="H" unicode="H" horiz-adv-x="678" 
d="M668 704q4 0 4 -5l-123 -694q0 -5 -6 -5h-85q-4 0 -4 5l55 310q2 5 -4 5h-317q-4 0 -6 -4l-55 -311q0 -5 -6 -5h-85q-4 0 -4 5l123 694q0 5 6 5h85q4 0 4 -5l-51 -289q-2 -5 4 -5h317q4 0 6 5l51 289q0 5 6 5h85z" />
    <glyph glyph-name="I" unicode="I" horiz-adv-x="256" 
d="M246 704q4 0 4 -5l-123 -694q0 -5 -6 -5h-85q-4 0 -4 5l123 694q0 5 6 5h85z" />
    <glyph glyph-name="J" unicode="J" horiz-adv-x="482" 
d="M105 251q6 0 4 -5l-8 -48q-4 -21 -5 -43t6.5 -39.5t26 -29t54.5 -11.5q35 0 58 11.5t36.5 29t20.5 39.5t11 43l88 501q2 5 6 5h85q6 0 4 -5l-88 -501q-8 -43 -23.5 -81t-43 -66t-69 -44.5t-101.5 -16.5q-55 0 -90 16.5t-53 44.5t-21.5 66t3.5 81l8 48q2 5 6 5h85z" />
    <glyph glyph-name="K" unicode="K" horiz-adv-x="643" 
d="M295 358q-2 4 -6 0l-106 -89q-4 -3 -6 -8l-45 -256q0 -5 -6 -5h-85q-4 0 -4 5l123 694q0 5 6 5h85q4 0 4 -5l-53 -299q-2 -6 4 -2l360 301q5 5 9 5h114q7 0 2 -5l-316 -267q-4 -3 -2 -8l201 -419q2 -2 0 -3.5t-4 -1.5h-99q-2 0 -7 5z" />
    <glyph glyph-name="L" unicode="L" horiz-adv-x="561" 
d="M161 699q0 5 6 5h85q4 0 4 -5l-108 -609q0 -5 4 -5h350q5 0 5 -5l-14 -75q0 -5 -6 -5h-445q-4 0 -4 5z" />
    <glyph glyph-name="M" unicode="M" horiz-adv-x="875" 
d="M695 699q2 5 8 5h162q4 0 4 -5l-123 -694q0 -5 -6 -5h-85q-4 0 -4 5l106 599q1 5 -3.5 5t-6.5 -4l-282 -600q-2 -5 -9 -5h-136q-5 0 -7 5l-70 600q-1 5 -5 4.5t-5 -5.5l-106 -599q0 -5 -6 -5h-85q-4 0 -4 5l123 694q0 5 6 5h162q3 0 6 -5l72 -600q1 -4 4.5 -4t5.5 4z" />
    <glyph glyph-name="N" unicode="N" horiz-adv-x="729" 
d="M719 704q4 0 4 -5l-123 -694q0 -5 -6 -5h-147q-4 0 -7 5l-197 601q-1 3 -5 3t-5 -5l-106 -599q0 -5 -6 -5h-85q-4 0 -4 5l123 694q0 5 6 5h148q3 0 6 -5l197 -600q2 -5 5.5 -4.5t4.5 5.5l106 599q0 5 6 5h85z" />
    <glyph glyph-name="O" unicode="O" horiz-adv-x="732" 
d="M695 352q-14 -80 -45.5 -146.5t-79.5 -114.5t-111.5 -74.5t-142.5 -26.5t-133.5 26.5t-85.5 74.5t-39 114.5t6 146.5q14 79 45.5 145.5t79.5 114.5t111.5 75t142.5 27t133.5 -27t85.5 -75t39 -114.5t-6 -145.5zM331 75q105 0 173.5 73.5t91.5 203.5q22 130 -20.5 203.5
t-147.5 73.5q-106 0 -173.5 -73t-90.5 -204q-23 -130 19.5 -203.5t147.5 -73.5z" />
    <glyph glyph-name="P" unicode="P" horiz-adv-x="622" 
d="M165 699q0 5 6 5h292q41 0 75 -16.5t57 -45.5t32.5 -68t1.5 -84t-31 -83t-56 -66.5t-73 -44.5t-81 -16h-197q-6 0 -6 -5l-48 -270q0 -5 -6 -5h-85q-4 0 -4 5zM251 619q-6 0 -6 -5l-43 -244q-2 -5 4 -5h185q24 0 47.5 10t43 27t33.5 39.5t19 48.5q4 26 -1.5 49.5t-19 41
t-33.5 28t-44 10.5h-185z" />
    <glyph glyph-name="Q" unicode="Q" horiz-adv-x="751" 
d="M505 28q-2 2 -6 0q-76 -38 -168 -38q-79 0 -133.5 26.5t-85.5 74.5t-39 114.5t6 146.5q14 79 45.5 145.5t79.5 114.5t112 75t143 27t133 -27t85 -75t39 -114.5t-6 -145.5q-15 -85 -49.5 -154t-87.5 -118q-4 -4 -1 -7l90 -108q2 -5 -3 -5h-94q-5 0 -7 5zM512 146q2 -3 5 0
q37 38 59.5 89t34.5 117q22 130 -20 203.5t-147 73.5q-106 0 -174 -73t-91 -204q-23 -130 19.5 -203.5t147.5 -73.5q54 0 96 19q5 2 2 7l-87 103q-2 2 -0.5 3.5t3.5 1.5h96q2 0 3.5 -1.5l3.5 -3.5z" />
    <glyph glyph-name="R" unicode="R" horiz-adv-x="629" 
d="M165 699q0 5 6 5h292q41 0 75 -16.5t57 -45.5t32.5 -68t1.5 -84q-6 -33 -20 -62t-34 -54t-45.5 -44t-53.5 -31q-4 -2 -3 -7l77 -287q1 -5 -6 -5h-83q-7 0 -9 5l-72 270q-2 5 -6 5h-183q-6 0 -6 -5l-48 -270q0 -5 -6 -5h-85q-4 0 -4 5zM251 619q-6 0 -6 -5l-43 -244
q-2 -5 4 -5h189q23 1 46 11t42 27t32.5 39t18.5 48q4 26 -1.5 49.5t-19 41t-33.5 28t-44 10.5h-185z" />
    <glyph glyph-name="S" unicode="S" horiz-adv-x="630" 
d="M500 511q4 25 -3.5 46.5t-24.5 37.5t-43.5 25t-59.5 9q-30 0 -57.5 -8.5t-49.5 -24t-37.5 -37t-19.5 -46.5q-6 -31 5.5 -49.5t32 -29.5t47 -16t52.5 -8q48 -6 94 -16.5t79.5 -33t50 -61.5t5.5 -101q-6 -38 -27 -75t-58 -66.5t-91 -48t-127 -18.5q-65 0 -112 16.5
t-76 44.5t-40 64.5t-4 77.5q2 5 6 5h89q7 0 5 -6q-3 -19 3.5 -39.5t24.5 -38t47.5 -28.5t71.5 -11q40 0 72.5 10t57 27t39.5 39t19 47q6 34 -4 55t-31 34t-50 19t-61 9q-41 4 -84.5 14t-77 31.5t-51 58t-7.5 94.5q8 48 35.5 85.5t66.5 63t85 39t92 13.5q48 0 90 -12.5
t72.5 -37.5t45.5 -63.5t8 -89.5q-2 -5 -6 -5h-90q-6 0 -4 5z" />
    <glyph glyph-name="T" unicode="T" horiz-adv-x="562" 
d="M293 615q-2 4 -4 4h-193q-5 0 -5 5l14 75q0 5 6 5h491q4 0 4 -5l-14 -75q0 -5 -5 -5h-193q-6 0 -6 -5l-108 -609q0 -5 -6 -5h-85q-4 0 -4 5z" />
    <glyph glyph-name="U" unicode="U" horiz-adv-x="641" 
d="M159 239q-6 -32 1 -61.5t24.5 -52.5t43.5 -36.5t58 -13.5t62.5 13.5t55.5 36.5t42 52.5t23 61.5l81 460q2 5 6 5h85q6 0 4 -5l-81 -460q-9 -52 -36.5 -97.5t-67 -79t-88.5 -53t-101 -19.5t-94.5 19.5t-70.5 53t-39.5 79t-2.5 97.5l81 460q2 5 6 5h85q6 0 4 -5z" />
    <glyph glyph-name="V" unicode="V" horiz-adv-x="705" 
d="M249 0q-3 0 -5 5l-113 694q-1 3 2 4t5 1h93q2 0 4 -5l90 -600q1 -4 4.5 -4t5.5 4l299 600q2 5 6 5h94q6 0 4 -5l-356 -694q-2 -5 -6 -5h-127z" />
    <glyph glyph-name="W" unicode="W" horiz-adv-x="968" 
d="M673 100q0 -5 4 -5t6 5l216 599q2 5 6 5h91q6 0 5 -5l-261 -694q-2 -5 -7 -5h-152q-2 0 -4 5l-23 598q0 4 -4 4t-6 -4l-235 -598q-2 -5 -6 -5h-152q-3 0 -5 5l-15 694q-1 3 2 4t5 1h91q2 0 4 -5l4 -599q0 -5 4 -5t6 5l230 599q2 5 6 5h168q2 0 4 -5z" />
    <glyph glyph-name="X" unicode="X" horiz-adv-x="666" 
d="M474 0q-3 0 -6 5l-125 264q-3 7 -10 0q-25 -31 -61.5 -75.5t-71.5 -86.5q-40 -49 -85 -102q-3 -5 -9 -5h-101q-5 0 -2 5l291 343q3 5 1 8l-169 343q-3 5 4 5h101q4 0 7 -5l124 -264q3 -7 10 0l219 264q4 5 11 5h99q5 0 2 -5l-291 -343q-3 -5 -1 -8l169 -343q3 -5 -4 -5
h-102z" />
    <glyph glyph-name="Y" unicode="Y" horiz-adv-x="679" 
d="M405 313q-5 -6 -5 -10l-53 -298q0 -5 -6 -5h-85q-4 0 -4 5l53 298q0 2 -3 10l-168 386q-3 5 4 5h101q4 0 7 -5l120 -285q5 -7 10 0l223 285q4 5 11 5h99q5 0 2 -5z" />
    <glyph glyph-name="Z" unicode="Z" horiz-adv-x="585" 
d="M7 75q1 8 2 9.5t3 3.5l474 525q4 6 -1 6h-377q-5 0 -5 5l14 75q0 5 6 5h490q4 0 4 -5l-13 -70q-1 -8 -1.5 -9.5t-2.5 -3.5l-476 -526q-3 -5 1 -5h378q5 0 5 -5l-14 -75q0 -5 -6 -5h-489q-4 0 -4 5z" />
    <glyph glyph-name="bracketleft" unicode="[" horiz-adv-x="339" 
d="M239 -138q5 0 4 -4l-9 -51q0 -5 -6 -5h-228q-3 0 -3 5l156 892q2 5 6 5h228q6 0 4 -5l-9 -51q0 -4 -5 -4h-158q-6 0 -6 -5l-136 -772q-2 -5 4 -5h158z" />
    <glyph glyph-name="backslash" unicode="\" horiz-adv-x="525" 
d="M182 697q0 7 7 7h75q2 0 4 -3l111 -694q0 -7 -7 -7h-74q-3 0 -4 3z" />
    <glyph glyph-name="bracketright" unicode="]" horiz-adv-x="339" 
d="M169 -138q4 0 6 5l136 772q0 5 -4 5h-158q-5 0 -5 4l9 51q2 5 6 5h228q6 0 4 -5l-157 -892q0 -5 -6 -5h-228q-3 0 -3 5l8 51q1 4 6 4h158z" />
    <glyph glyph-name="asciicircum" unicode="^" horiz-adv-x="531" 
d="M385 360q-4 0 -4 3l-66 230q-1 4 -4 4t-6 -4l-146 -230q-3 -3 -6 -3h-90q-8 0 -4 7l208 332q2 5 8 5h110q4 0 6 -5l90 -332q2 -3 -0.5 -5t-5.5 -2h-90z" />
    <glyph glyph-name="underscore" unicode="_" horiz-adv-x="652" 
d="M61 0q-6 0 -4 5l13 75q0 5 6 5h497q4 0 4 -5l-13 -75q-2 -5 -6 -5h-497z" />
    <glyph glyph-name="grave" unicode="`" horiz-adv-x="262" 
d="M175 589q-7 0 -9 7l-55 101q-1 3 1.5 5t5.5 2h87q8 0 8 -7l26 -101q1 -3 -1.5 -5t-5.5 -2h-57z" />
    <glyph glyph-name="a" unicode="a" horiz-adv-x="578" 
d="M393 0q-2 0 -4 5l-3 41q0 4 -2.5 4.5t-4.5 -1.5q-11 -9 -29.5 -19.5t-41 -19.5t-47.5 -14.5t-49 -5.5q-101 0 -143 44.5t-29 115.5q6 33 24.5 60.5t49 48t74 32t98.5 11.5h112q25 0 31 8.5t8 22.5q3 15 2.5 32.5t-11 32t-34.5 24t-69 9.5q-65 0 -98 -26.5t-40 -64.5
q0 -5 -6 -5h-86q-4 0 -4 5q8 44 32 77t58 55t75.5 33t83.5 11q104 0 156 -46.5t36 -138.5l-58 -326q0 -5 -6 -5h-75zM417 222q1 2 -0.5 3.5t-3.5 1.5h-140q-41 -2 -66.5 -9.5t-40.5 -18t-22 -23.5t-9 -26q-3 -14 0 -27t13 -24t29 -17.5t49 -6.5q45 0 78.5 12t56.5 31.5
t36 43t18 46.5z" />
    <glyph glyph-name="b" unicode="b" horiz-adv-x="628" 
d="M47 0q-6 0 -4 5l122 694q2 5 6 5h85q6 0 4 -5l-42 -238q-1 -3 2 -5t8 3t20 14.5t35.5 19t46 16.5t51.5 7q55 0 95.5 -19t65.5 -54t33 -83.5t-2 -106.5q-11 -59 -36 -107t-62 -83t-84.5 -54t-102.5 -19q-19 0 -39 5t-38 13.5t-33 18.5t-23 20q-2 2 -5 2.5t-5 -4.5l-17 -40
q-3 -5 -6 -5h-75zM478 253q7 39 2 71.5t-20.5 56.5t-41.5 37t-62 13q-34 0 -63 -13t-51.5 -37t-37.5 -56.5t-22 -71.5q-14 -78 14 -128t97 -50q36 0 66.5 13t54.5 37t40.5 56.5t23.5 71.5z" />
    <glyph glyph-name="c" unicode="c" horiz-adv-x="588" 
d="M471 335q-3 0 -5 5q-8 45 -39.5 68t-82.5 23q-36 0 -66.5 -13t-54 -37t-39.5 -56.5t-23 -71.5t-2.5 -71.5t20 -56.5t41 -37t61.5 -13q51 0 90.5 23t63.5 68q3 5 7 5h89q6 0 4 -5q-35 -84 -104 -130t-165 -46q-59 0 -101.5 19t-68 54t-33.5 83t3 107q10 59 35 107.5
t62.5 83t87 53.5t108.5 19q96 0 149 -46.5t58 -129.5q0 -5 -6 -5h-89z" />
    <glyph glyph-name="d" unicode="d" horiz-adv-x="617" 
d="M408 0q-4 0 -4 5l-3 40q-1 5 -4 4.5t-6 -2.5q-12 -10 -30.5 -20t-39.5 -18.5t-42.5 -13.5t-40.5 -5q-55 0 -95.5 19t-65.5 54t-33 83t3 107q10 58 35 106.5t62 83.5t84.5 54t102.5 19q26 0 49 -7t40 -16.5t28.5 -19t15.5 -14.5q3 -5 6 -3t4 5l42 238q2 5 6 5h85q6 0 4 -5
l-122 -694q-2 -5 -6 -5h-75zM142 253q-7 -39 -2.5 -71.5t20 -56.5t41.5 -37t62 -13q34 0 63 13t51.5 37t38 56.5t22.5 71.5t3 71.5t-18 56.5t-38.5 37t-58.5 13q-36 0 -66.5 -13t-54.5 -37t-40 -56.5t-23 -71.5z" />
    <glyph glyph-name="e" unicode="e" horiz-adv-x="600" 
d="M166 219q-6 0 -6 -5q-5 -27 0 -52.5t20 -44.5t39.5 -30.5t57.5 -11.5q54 0 86.5 20t53.5 50q2 5 8 5h89q5 0 4 -5q-33 -74 -102 -114.5t-154 -40.5q-56 0 -97.5 19t-67 54t-34 83t2.5 107q10 59 34.5 107.5t62 83t86 53.5t106.5 19t100.5 -19t67.5 -54t32.5 -83.5
t-2.5 -106.5q-3 -16 -8 -29q-3 -5 -6 -5h-373zM457 299q4 21 0 44.5t-17.5 43t-38 32t-61.5 12.5q-36 0 -65.5 -14t-50.5 -34.5t-33.5 -43t-15.5 -40.5q-1 -2 0.5 -3.5t3.5 -1.5h272q4 0 6 5z" />
    <glyph glyph-name="f" unicode="f" horiz-adv-x="365" 
d="M404 624q0 -5 -5 -5h-66q-23 0 -37.5 -13.5t-18.5 -36.5l-10 -58q-2 -5 4 -5h108q4 0 4 -5l-12 -65q0 -5 -6 -5h-108q-5 0 -5 -5l-75 -421q0 -5 -6 -5h-85q-4 0 -4 5l75 421q0 5 -5 5h-89q-4 0 -4 5l12 65q0 5 6 5h89q4 0 6 5l13 75q21 121 162 118h67q4 0 4 -5z" />
    <glyph glyph-name="g" unicode="g" horiz-adv-x="593" 
d="M130 -59q1 -9 7.5 -20t20 -20.5t35 -16.5t52.5 -7q39 0 68.5 12.5t50 32.5t32 45.5t16.5 51.5l5 27q1 3 -2.5 5t-7.5 -3q-5 -5 -19.5 -15t-35.5 -19.5t-46.5 -16.5t-51.5 -7q-51 0 -91 19t-66 54t-35.5 83t1.5 107q10 58 35 106.5t62 83.5t84.5 54t102.5 19q19 0 39 -5
t38 -12.5t32.5 -18t23.5 -20.5q6 -6 10 1l17 40q3 5 6 5h75q6 0 4 -5l-85 -482q-9 -51 -33.5 -92.5t-61 -71.5t-83 -46.5t-99.5 -16.5q-46 0 -83.5 12t-63.5 32.5t-39.5 47.5t-10.5 57q0 5 5 5h87q3 0 5 -5zM158 253q-7 -39 -2.5 -71.5t20 -56.5t41.5 -37t62 -13q34 0 63 13
t51.5 37t38 56.5t22.5 71.5t3 71.5t-18 56.5t-38.5 37t-58.5 13q-36 0 -66.5 -13t-54.5 -37t-40 -56.5t-23 -71.5z" />
    <glyph glyph-name="h" unicode="h" horiz-adv-x="588" 
d="M243 704q4 0 4 -5l-43 -242q-1 -4 3 -5t8 3q27 29 64.5 45t76.5 16q58 0 96 -18.5t59 -50.5t26 -75t-4 -92l-49 -275q0 -5 -6 -5h-85q-4 0 -4 5l49 275q5 28 2.5 55.5t-14.5 48.5t-35 34t-60 13q-32 0 -58.5 -12.5t-47 -33.5t-34 -48.5t-18.5 -56.5l-49 -275q0 -5 -6 -5
h-85q-4 0 -4 5l123 694q0 5 6 5h85z" />
    <glyph glyph-name="i" unicode="i" horiz-adv-x="266" 
d="M137 5q0 -5 -6 -5h-85q-4 0 -4 5l88 496q0 5 6 5h85q4 0 4 -5zM251 594q0 -5 -6 -5h-105q-4 0 -4 5l19 105q0 5 6 5h105q4 0 4 -5z" />
    <glyph glyph-name="j" unicode="j" horiz-adv-x="320" 
d="M318 594q-2 -5 -6 -5h-105q-6 0 -4 5l19 105q0 5 5 5h105q5 0 5 -5zM-30 -118q2 5 6 5h58q30 0 44.5 13.5t18.5 36.5l100 564q0 5 6 5h85q4 0 4 -5l-103 -581q-11 -62 -50 -91t-102 -27h-76q-4 0 -4 5z" />
    <glyph glyph-name="k" unicode="k" horiz-adv-x="588" 
d="M419 0q-5 0 -8 5l-111 273q-1 4 -7 0l-131 -98q-2 -2 -3 -6l-30 -169q0 -5 -6 -5h-85q-4 0 -4 5l123 694q0 5 6 5h85q4 0 4 -5l-69 -392q-1 -2 1.5 -3t4.5 1l265 196q5 4 9.5 4.5t6.5 0.5h123q7 0 2 -5l-214 -158q-4 -4 -1 -8l134 -330q2 -5 -5 -5h-90z" />
    <glyph glyph-name="l" unicode="l" horiz-adv-x="260" 
d="M132 5q0 -5 -6 -5h-85q-4 0 -4 5l123 694q0 5 6 5h85q4 0 4 -5z" />
    <glyph glyph-name="m" unicode="m" horiz-adv-x="892" 
d="M209 506q4 0 4 -5l2 -45q1 -5 5.5 -4t6.5 4q19 27 56 43.5t74 16.5q26 0 45 -3t34 -10t27.5 -18.5t27.5 -28.5q3 -3 5 -3.5t7 3.5q17 16 38 27.5t42.5 19t42.5 10.5t39 3q98 0 136.5 -61.5t18.5 -174.5l-48 -275q-2 -5 -6 -5h-85q-6 0 -4 5l48 275q5 28 6.5 55.5
t-6.5 48.5t-28 34t-57 13q-35 0 -59 -12.5t-40 -33.5t-25 -48.5t-14 -56.5l-48 -275q-1 -2 -3 -4q-1 -1 -3 -1h-85h-1q-3 0 -3 2q-2 1 0 3l48 275q5 29 6 56.5t-7.5 48.5t-28 33.5t-55.5 12.5q-32 0 -55.5 -12.5t-40 -33.5t-27 -48.5t-15.5 -56.5l-48 -275q-2 -5 -6 -5h-85
q-6 0 -4 5l87 496q2 5 6 5h75z" />
    <glyph glyph-name="n" unicode="n" horiz-adv-x="593" 
d="M206 506q4 0 4 -5l2 -45q1 -5 5 -4t6 3q20 22 55.5 41.5t86.5 19.5q54 0 91.5 -18.5t59.5 -50.5t28 -75t-3 -92l-48 -275q-2 -5 -6 -5h-85q-6 0 -4 5l48 275q5 28 3 55.5t-14 48.5t-35 34t-60 13q-32 0 -58.5 -12.5t-47 -33.5t-34.5 -48.5t-19 -56.5l-48 -275
q-2 -5 -6 -5h-85q-6 0 -4 5l87 496q2 5 6 5h75z" />
    <glyph glyph-name="o" unicode="o" horiz-adv-x="609" 
d="M562 253q-11 -59 -36 -107t-63.5 -83t-88 -54t-107.5 -19q-59 0 -101.5 19t-68 54t-34 83t2.5 107q10 59 35 107.5t63 83t87.5 53.5t108.5 19q58 0 101 -19t68.5 -54t34 -83.5t-1.5 -106.5zM467 253q7 39 2 71.5t-20.5 56.5t-41.5 37t-62 13t-66.5 -13t-54.5 -37
t-40 -56.5t-23 -71.5t-2.5 -71.5t20 -56.5t41.5 -37t62 -13t66.5 13t54.5 37t40.5 56.5t23.5 71.5z" />
    <glyph glyph-name="p" unicode="p" horiz-adv-x="617" 
d="M218 506q2 0 4 -5l3 -41q1 -5 4 -4t5 3q12 11 30.5 21t39.5 18t42.5 13t40.5 5q55 0 95.5 -19t65.5 -54t33 -83.5t-2 -106.5q-10 -59 -35 -107t-62 -83t-84.5 -54t-102.5 -19q-26 0 -49 7t-40.5 16.5t-29 19t-14.5 14.5t-6.5 3t-4.5 -5l-42 -238q0 -5 -5 -5h-85
q-5 0 -5 5l123 694q0 5 6 5h75zM484 253q7 39 2 71.5t-20.5 56.5t-41.5 37t-62 13q-34 0 -63 -13t-51.5 -37t-37.5 -56.5t-22 -71.5t-3 -71.5t18 -56.5t38.5 -37t58.5 -13q36 0 66.5 13t54.5 37t40 56.5t23 71.5z" />
    <glyph glyph-name="q" unicode="q" horiz-adv-x="617" 
d="M589 506q4 0 4 -5l-123 -694q0 -5 -5 -5h-85q-5 0 -5 5l42 238q1 3 -1.5 5t-7.5 -3q-6 -5 -20.5 -14.5t-35.5 -19t-46 -16.5t-51 -7q-55 0 -95.5 19t-65.5 54t-33 83t2 107q10 58 35.5 106.5t62.5 83.5t84 54t102 19q19 0 39 -5t38.5 -13t33 -18t22.5 -21q2 -2 5.5 -3
t5.5 4l17 41q2 5 6 5h75zM158 253q-7 -39 -2 -71.5t20.5 -56.5t41.5 -37t62 -13q34 0 63 13t51.5 37t37.5 56.5t22 71.5t3 71.5t-18 56.5t-38.5 37t-58.5 13q-36 0 -66.5 -13t-54.5 -37t-40 -56.5t-23 -71.5z" />
    <glyph glyph-name="r" unicode="r" horiz-adv-x="394" 
d="M343 431q-32 0 -58.5 -12.5t-47 -33.5t-34.5 -48.5t-19 -56.5l-48 -275q-2 -5 -6 -5h-85q-6 0 -4 5l87 496q2 5 6 5h75q4 0 4 -5l2 -45q1 -5 4.5 -4t6.5 3q30 26 62 43.5t70 17.5h51q4 0 4 -5l-13 -75q-2 -5 -6 -5h-51z" />
    <glyph glyph-name="s" unicode="s" horiz-adv-x="544" 
d="M418 335q-4 0 -4 5q8 42 -20 66.5t-89 24.5q-57 0 -86 -20.5t-33 -43.5q-4 -21 6 -33t27 -18t38 -8.5t39 -5.5q37 -5 75 -11t67 -21t44.5 -43t7.5 -76q-8 -43 -30 -73.5t-55 -50t-75 -28.5t-89 -9q-57 0 -97 14t-63.5 38t-32 56t-2.5 68q2 5 6 5h84q7 0 5 -5
q-6 -38 24.5 -64.5t90.5 -26.5q19 0 41.5 2.5t42.5 11t35 23.5t20 39q4 21 -7.5 33.5t-30 19t-39.5 9t-37 4.5q-35 4 -72.5 10.5t-66 22t-44 43t-7.5 74.5q5 31 24 58t49 47t69.5 32t86.5 12q46 0 84.5 -11t64 -33t37 -55t3.5 -77q0 -5 -5 -5h-86z" />
    <glyph glyph-name="t" unicode="t" horiz-adv-x="375" 
d="M298 5q-2 -5 -6 -5h-77q-63 -2 -92 27t-18 91l54 308q0 5 -4 5h-89q-6 0 -4 5l11 65q2 5 6 5h89q4 0 6 5l24 135q0 5 6 5h85q4 0 4 -5l-24 -135q-2 -5 4 -5h108q6 0 4 -5l-11 -65q-2 -5 -6 -5h-108q-6 0 -6 -5l-51 -291q-5 -23 5 -36.5t40 -13.5h59q4 0 4 -5z" />
    <glyph glyph-name="u" unicode="u" horiz-adv-x="579" 
d="M401 0q-4 0 -4 5l-3 45q0 5 -4 4t-6 -3q-9 -10 -23 -20.5t-32.5 -19.5t-40.5 -15t-46 -6q-62 0 -100.5 18.5t-58 50.5t-23 75t4.5 92l49 275q2 5 6 5h85q6 0 4 -5l-49 -275q-5 -29 -3 -56t14 -48t35.5 -34t60.5 -13q31 0 58 12.5t47.5 33.5t34 48.5t18.5 56.5l49 275
q2 5 6 5h85q6 0 4 -5l-87 -496q-2 -5 -6 -5h-75z" />
    <glyph glyph-name="v" unicode="v" horiz-adv-x="588" 
d="M190 0q-3 0 -5 5l-81 496q-1 5 6 5h91q3 0 5 -5l60 -402q1 -4 4.5 -4t5.5 4l203 402q2 5 5 5h91q7 0 5 -5l-257 -496q-2 -5 -6 -5h-127z" />
    <glyph glyph-name="w" unicode="w" horiz-adv-x="830" 
d="M495 0q-2 0 -4 5l-27 399q0 4 -4 4t-6 -4l-166 -399q-2 -5 -6 -5h-127q-3 0 -5 5l-31 496q-1 5 6 5h85q3 0 5 -5l16 -402q0 -4 4 -4t6 4l170 402q2 5 5 5h123q3 0 5 -5l28 -402q0 -4 4 -4t6 4l158 402q2 5 5 5h85q7 0 6 -5l-207 -496q-2 -5 -7 -5h-127z" />
    <glyph glyph-name="x" unicode="x" horiz-adv-x="553" 
d="M382 0q-4 0 -7 5l-96 168q-4 4 -8 0l-157 -168q-5 -5 -9 -5h-99q-6 0 -1 5l223 240q5 5 2 10l-137 246q-3 5 2 5h96q4 0 8 -5l98 -173q3 -7 10 0l160 173q3 5 8 5h96q6 0 3 -5l-227 -246q-4 -5 -2 -10l141 -240q2 -2 0.5 -3.5t-3.5 -1.5h-101z" />
    <glyph glyph-name="y" unicode="y" horiz-adv-x="561" 
d="M2 -118q2 5 6 5h113q45 0 63.5 25.5t11.5 65.5l-4 27l-82 496q0 5 7 5h91q4 0 4 -5l60 -402q1 -4 4.5 -4t5.5 4l203 402q3 5 6 5h91q7 0 4 -5l-259 -501l-44 -87q-17 -30 -32.5 -51.5t-33.5 -34.5t-41 -19t-53 -6h-129q-6 0 -4 5l12 75v0z" />
    <glyph glyph-name="z" unicode="z" horiz-adv-x="498" 
d="M26 80l2.5 5t3.5 5l325 323q2 2 1.5 5t-4.5 3h-252q-4 0 -4 5l14 75q0 5 5 5h369q5 0 5 -5l-14 -75q0 -3 -5 -10l-323 -323q-3 -2 -2 -5t4 -3h274q6 0 4 -5l-13 -75q0 -5 -6 -5h-393q-4 0 -4 5z" />
    <glyph glyph-name="braceleft" unicode="{" horiz-adv-x="488" 
d="M318 -193q0 -5 -6 -5h-55q-71 0 -91.5 35t-7.5 106l40 227q4 22 -8.5 37.5t-34.5 15.5h-55q-5 0 -5 5l9 50q2 5 6 5h55q21 0 39.5 15.5t23.5 38.5l39 225q6 36 17 62.5t28.5 44t42.5 26.5t61 9h55q6 0 4 -5l-9 -51q0 -4 -5 -4h-55q-22 0 -41 -16t-23 -38l-39 -223
q-6 -32 -15 -51.5t-20 -31.5t-22.5 -18.5t-21.5 -10.5q-3 -2 -1 -4q8 -4 17.5 -10.5t16 -18.5t9 -32t-2.5 -50l-40 -224q-4 -22 9.5 -38t35.5 -16h55q5 0 4 -4z" />
    <glyph glyph-name="bar" unicode="|" horiz-adv-x="221" 
d="M0 -198q-2 0 -2 5l156 892q2 5 5 5h69q6 0 4 -5l-157 -892q0 -5 -6 -5h-69z" />
    <glyph glyph-name="braceright" unicode="}" horiz-adv-x="488" 
d="M30 -142q1 4 6 4h55q22 0 40.5 16t22.5 38l40 224q5 30 14.5 50t20.5 32t22.5 18.5t20.5 10.5q5 2 1 4q-9 4 -18 10.5t-15.5 18.5t-9 31.5t3.5 51.5l39 223q4 22 -9 38t-35 16h-55q-5 0 -5 4l9 51q2 5 6 5h55q71 0 91.5 -35.5t7.5 -106.5l-39 -225q-5 -23 8.5 -38.5
t34.5 -15.5h55q6 0 4 -5l-9 -50q0 -5 -5 -5h-55q-22 0 -40.5 -15.5t-22.5 -37.5l-40 -227q-6 -36 -17 -62.5t-28.5 -44t-42.5 -26t-61 -8.5h-55q-4 0 -4 5z" />
    <glyph glyph-name="asciitilde" unicode="~" horiz-adv-x="531" 
d="M505 296q-4 -22 -16 -41.5t-30.5 -33.5t-42.5 -22.5t-52 -8.5q-29 0 -56.5 11t-53 24t-47.5 24t-40 11q-14 0 -27.5 -10.5t-16.5 -24.5l-5 -30q0 -5 -6 -5l-71 20q-5 2 -4 5l4 25q8 46 46 77t95 31q29 0 56.5 -11t53 -24.5t47.5 -24.5t41 -11q14 0 27 10t16 24l5 32
q2 5 6 5l72 -20q4 -2 4 -5z" />
    <glyph glyph-name="DEL" horiz-adv-x="285" 
 />
    <glyph glyph-name="nonbreakingspace" unicode="&#xa0;" horiz-adv-x="285" 
 />
    <glyph glyph-name="exclamdown" unicode="&#xa1;" horiz-adv-x="262" 
d="M166.009 496.025q6 0 4 -4.99902l-41.9951 -292.965l-33.9961 -192.977q0 -4.99902 -5.99902 -4.99902h-83.9893q-4 0 -4 4.99902l33.9961 192.977l61.9922 292.965q2 4.99902 5.99902 4.99902h63.9922zM231.001 704q4 0 4 -4.99902l-21.9971 -121.985q0 -5 -6 -5
h-119.985q-3.99902 0 -3.99902 5l21.9971 121.985q0 4.99902 5.99902 4.99902h119.985z" />
    <glyph glyph-name="cent" unicode="&#xa2;" horiz-adv-x="557" 
d="M458 335q-2 0 -4 5q-14 67 -72 84q-2 1 -5 0t-4 -5l-58 -332q-2 -7 6 -5q68 18 102 84q3 5 6 5h90q6 0 4 -5q-32 -74 -88 -118t-133 -55q-5 0 -6 -4l-15 -84q0 -5 -5 -5h-69q-4 0 -4 5l15 83q0 4 -2 5q-49 6 -84 27t-55.5 55t-26 79t3.5 99t31 99t54.5 78.5t75 55
t93.5 27.5q3 1 4 5l14 84q2 5 5 5h69q6 0 4 -5l-15 -86q0 -2 0.5 -2.5t0.5 -1.5q75 -10 117 -55t47 -117q0 -5 -6 -5h-90zM149 253q-12 -66 7.5 -112t70.5 -60q8 -2 8 5l59 334q2 7 -6 5q-56 -14 -92 -60t-47 -112z" />
    <glyph glyph-name="sterling" unicode="&#xa3;" horiz-adv-x="636" 
d="M6 0q-6 0 -4 5l13 75q2 5 6 5h34q30 0 44 13.5t19 36.5l32 181q0 5 -4 5h-83q-6 0 -4 5l13 75q0 5 6 5h83q5 0 5 5l18 102q9 48 33 85.5t58.5 63t77 39t88.5 13.5q48 0 87 -12.5t65 -37.5t38 -63.5t5 -89.5q0 -5 -6 -5h-90q-4 0 -4 5q9 51 -17 84.5t-93 33.5
q-60 0 -99 -32.5t-48 -83.5l-18 -102q0 -5 5 -5h126q4 0 4 -5l-13 -75q-2 -5 -6 -5h-126q-6 0 -6 -5l-32 -181q-3 -17 -8.5 -27t-12.5 -18q-5 -5 1 -5h268q4 0 6 5l19 106q0 5 5 5h85q5 0 5 -5l-34 -191q-2 -5 -6 -5h-535z" />
    <glyph glyph-name="currency" unicode="&#xa4;" horiz-adv-x="660" 
d="M24 119q-5 3 1 7l81 69q4 4 2 8q-11 31 -13.5 68t5.5 79q8 41 23 78.5t37 67.5q4 5 1 9l-57 70q-5 3 1 7l63 53q3 5 7 0l51 -64q5 -5 11 -2q33 20 73 32t85 12q88 0 140 -43q7 -5 13 1l76 64q3 5 7 0l43 -53q5 -3 -1 -7l-82 -70q-5 -3 -3 -10q11 -31 13.5 -67t-5.5 -78
q-15 -85 -61 -148q-2 -4 1 -7l58 -69q5 -3 -1 -7l-63 -53q-4 -5 -7 0l-53 64q-5 5 -12 0q-68 -43 -156 -43q-89 0 -143 43q-5 4 -9 0l-76 -64q-4 -5 -7 0zM501 350q7 39 2.5 71.5t-20 56.5t-41.5 37t-62 13t-66.5 -13t-54.5 -37t-40.5 -56.5t-23.5 -71.5t-2 -71.5
t20.5 -56.5t41.5 -37t62 -13t66.5 13t54.5 37t40 56.5t23 71.5z" />
    <glyph glyph-name="yen" unicode="&#xa5;" horiz-adv-x="679" 
d="M382 203q0 -5 4 -5h202q6 0 4 -5l-14 -80q0 -5 -5 -5h-202q-6 0 -6 -5l-18 -98q0 -5 -6 -5h-85q-4 0 -4 5l18 98q0 5 -4 5h-190q-5 0 -5 5l14 80q2 5 6 5h190q6 0 6 5l17 95v-1q0 6 -4 6h-190q-6 0 -4 5l14 80q0 5 6 5h136q5 0 3 5l-131 301q-3 5 4 5h101q4 0 7 -5
l121 -286q4 -6 8 0l224 286q4 5 11 5h99q5 0 2 -5l-239 -301q-5 -5 0 -5h151q4 0 4 -5l-14 -80q-2 -5 -6 -5h-202q-4 0 -6 -5z" />
    <glyph glyph-name="brokenbar" unicode="&#xa6;" horiz-adv-x="231" 
d="M97 293q-5 0 -3 5l70 401q2 5 5 5h69q6 0 4 -5l-70 -401q-2 -5 -6 -5h-69zM10 -197q-3 0 -3 5l71 401q2 5 5 5h69q6 0 4 -5l-71 -401q0 -5 -6 -5h-69z" />
    <glyph glyph-name="section" unicode="&#xa7;" horiz-adv-x="635" 
d="M147 -5q-9 -51 22.5 -84.5t98.5 -33.5q60 0 96 25.5t43 60.5q5 31 -9 50.5t-38 31.5t-53 19.5t-53 14.5q-45 12 -87 27.5t-70 41t-37.5 65t10.5 101.5q10 34 31.5 65.5t53.5 54.5q4 4 1 8q-11 20 -14.5 44.5t2.5 56.5q7 40 30.5 72t58 54t77 33.5t88.5 11.5
q48 0 88.5 -12.5t68.5 -37.5t41.5 -63.5t6.5 -89.5q0 -5 -6 -5h-90q-4 0 -4 5q9 51 -22 84.5t-98 33.5q-60 0 -96.5 -25.5t-42.5 -60.5q-6 -31 8.5 -50.5t38.5 -31.5t52.5 -19.5t52.5 -14.5q46 -12 88 -27.5t70 -41t37 -65.5t-10 -101q-12 -35 -32.5 -66.5t-52.5 -54.5
q-5 -3 -2 -8q11 -20 14.5 -44.5t-1.5 -55.5q-7 -41 -30.5 -72.5t-58 -53.5t-77 -33.5t-88.5 -11.5q-48 0 -88.5 12.5t-69 37.5t-42 63.5t-6.5 89.5q2 5 6 5h90q6 0 4 -5zM368 338q-30 8 -64 16.5t-64 21.5q-54 -19 -74 -75q-11 -34 -5.5 -56t22.5 -36.5t43.5 -23.5t56.5 -17
t63 -16.5t64 -21.5q56 18 74 75q11 34 5.5 56t-22.5 36.5t-43 23.5t-56 17z" />
    <glyph glyph-name="dieresis" unicode="&#xa8;" horiz-adv-x="444" 
d="M187 595q0 -5 -6 -5h-105q-4 0 -4 5l19 104q0 5 6 5h105q4 0 4 -5zM431 595q0 -5 -6 -5h-105q-4 0 -4 5l19 104q0 5 6 5h105q4 0 4 -5z" />
    <glyph glyph-name="copyright" unicode="&#xa9;" horiz-adv-x="806" 
d="M765 353q-13 -73 -52 -137t-95 -112t-125 -76t-142 -28q-72 0 -131 28t-98 76t-55 112t-3 137q13 72 51.5 136t94.5 112t125 75.5t141 27.5q73 0 132 -27.5t98 -75.5t55.5 -112t3.5 -136zM735 353q12 66 -3.5 124.5t-51.5 102t-90 69t-120 25.5t-128.5 -25.5t-113.5 -69
t-86.5 -102t-47.5 -124.5t3 -125t51 -102.5t89.5 -69t119.5 -25.5t129 25.5t114.5 69t87 102.5t47.5 125zM516 270q1 3 5 3h51q4 0 4 -5q-3 -15 -18.5 -37.5t-42 -44t-63 -36.5t-81.5 -15t-77.5 16t-52 45t-25.5 68.5t3 87.5q8 48 28 87.5t49.5 68.5t68 45t83.5 16
q47 0 78 -16.5t49.5 -38.5t25 -45t4.5 -35q0 -3 -4 -3h-53q-2 0 -3 3q-2 10 -6.5 24t-16.5 27.5t-32 23t-51 9.5q-62 0 -104 -44t-56 -122t12.5 -122t88.5 -44q31 0 54 8.5t39.5 21.5t26.5 27.5t16 26.5z" />
    <glyph glyph-name="ordfeminine" unicode="&#xaa;" horiz-adv-x="284" 
d="M268.211 430q-1.0791 0 -2.15918 2.7002l-1.62012 22.1387q0 2.16016 -1.34961 2.42969q-1.35059 0.270508 -2.43066 -0.80957q-5.93945 -4.85938 -15.9287 -10.5293q-9.99023 -5.66992 -22.1396 -10.5303q-12.1494 -4.85938 -25.6484 -7.8291
q-13.5 -2.96973 -26.459 -2.96973q-54.5381 0 -77.2168 24.0283q-22.6797 24.0293 -15.6592 62.3682q3.23926 17.8193 13.2285 32.668q9.99023 14.8496 26.459 25.9189q16.4697 11.0703 39.959 17.2793q23.4893 6.20996 53.1875 6.20996h60.4775q13.5 0 16.7393 4.58984
q3.24023 4.58984 4.32031 12.1494q1.61914 8.09961 1.34961 17.5498q-0.269531 9.44922 -5.93945 17.2793q-5.66992 7.8291 -18.6299 12.959q-12.959 5.12988 -37.2578 5.12988q-35.0986 0 -52.918 -14.3096t-21.5996 -34.8281q0 -2.7002 -3.23926 -2.7002h-46.4385
q-2.16016 0 -2.16016 2.7002q4.32031 23.7588 17.2793 41.5781q12.96 17.8193 31.3193 29.6982q18.3594 11.8799 40.7676 17.8193q22.4092 5.94043 45.0889 5.94043q56.1572 0 84.2363 -25.1094q28.0791 -25.1084 19.4395 -74.7871l-31.3193 -176.032
q0 -2.7002 -3.23926 -2.7002h-40.499zM281.171 549.875q0.540039 1.08008 -0.270508 1.88965q-0.80957 0.810547 -1.88965 0.810547h-75.5967q-22.1387 -1.08008 -35.9082 -5.12988t-21.8691 -9.71973t-11.8799 -12.6895t-4.85938 -14.0391q-1.62012 -7.55957 0 -14.5801
q1.61914 -7.01953 7.01953 -12.959q5.39941 -5.94043 15.6592 -9.4502t26.459 -3.50977q24.2988 0 42.3877 6.48047q18.0898 6.47949 30.5088 17.0088q12.4199 10.5293 19.4395 23.2188t9.71973 25.1094z" />
    <glyph glyph-name="guillemotleft" unicode="&#xab;" horiz-adv-x="596" 
d="M168 258q-4 -4 -2 -9l169 -242q2 -7 -6 -7h-74q-4 0 -4 3l-169 246q-2 5 2 9l255 246q1 3 6 3h74q3 0 4 -2.5t-1 -4.5zM353 258q-4 -4 -2 -9l169 -242q2 -7 -6 -7h-74q-4 0 -4 3l-169 246q-2 5 2 9l255 246q1 3 6 3h74q3 0 4 -2.5t-1 -4.5z" />
    <glyph glyph-name="logicalnot" unicode="&#xac;" horiz-adv-x="656" 
d="M598 297q4 0 4 -5l-51 -286q0 -5 -5 -5h-85q-5 0 -5 5l34 191q2 5 -4 5h-401q-6 0 -4 5l15 85q0 5 6 5h496z" />
    <glyph glyph-name="uni00AD" unicode="&#xad;" 
d="M425 5q0 -5 -6 -5h-411q-4 0 -4 5l123 694q0 5 6 5h411q4 0 4 -5zM508 681h-346l119 -306zM392 24l-120 305l-226 -305h346zM409 48l107 608q-56 -75 -114 -152t-112 -152zM264 352l-120 305l-107 -610z" />
    <glyph glyph-name="registered" unicode="&#xae;" horiz-adv-x="806" 
d="M765 353q-13 -73 -52 -137t-95 -112t-125 -76t-142 -28q-72 0 -131 28t-98 76t-55 112t-3 137q13 72 51.5 136t94.5 112t125 76t141 28q73 0 132 -28t98 -76t55.5 -112t3.5 -136zM735 353q12 66 -3.5 124.5t-51.5 102.5t-90 69.5t-120 25.5t-128.5 -25.5t-113.5 -69.5
t-86.5 -102.5t-47.5 -124.5t3 -125t51 -102.5t89.5 -69t119.5 -25.5t129 25.5t114.5 69t87 102.5t47.5 125zM285 558q0 5 6 5h207q25 0 45.5 -10t34 -27.5t19.5 -40.5t1 -50q-7 -39 -31 -69t-59 -44q-6 -2 -3 -7l46 -168q2 -3 -0.5 -4.5t-4.5 -1.5h-47q-7 0 -9 5l-41 159
q0 4 -6 4h-142q-3 0 -4 -3l-28 -160q0 -5 -6 -5h-47q-4 0 -4 5zM339 512q-6 0 -6 -5l-25 -142q-2 -5 4 -5h145q14 0 28 6t25.5 16.5t19.5 24t11 28.5q5 31 -12.5 54t-46.5 23h-143z" />
    <glyph glyph-name="macron" unicode="&#xaf;" horiz-adv-x="350" 
d="M87 589q-3 0 -3 5l11 58q0 5 4 5h246q5 0 5 -5l-11 -58q0 -5 -6 -5h-246z" />
    <glyph glyph-name="degree" unicode="&#xb0;" horiz-adv-x="400" 
d="M82 560q6 32 22.5 60.5t41 49.5t55 33t62.5 12t58.5 -12t43.5 -33t24.5 -49.5t1.5 -60.5t-23 -60t-41.5 -49t-55 -33t-62.5 -12t-58 12t-43.5 33t-24.5 49t-1 60zM144 560q-3 -19 1 -36t14.5 -29.5t26 -19.5t34.5 -7t37.5 7t33 19.5t25 29.5t13.5 36q7 39 -15.5 66
t-61.5 27q-19 0 -37 -7t-32.5 -20t-25 -30t-13.5 -36z" />
    <glyph glyph-name="plusminus" unicode="&#xb1;" horiz-adv-x="652" 
d="M34 0q-5 0 -5 5l14 75q0 5 6 5h497q4 0 4 -5l-14 -75q0 -5 -5 -5h-497zM359 202q0 -5 -6 -5h-84q-4 0 -4 5l35 198q2 5 -4 5h-191q-6 0 -4 5l14 80q0 5 6 5h191q4 0 6 5l35 198q0 5 6 5h84q4 0 4 -5l-35 -198q-2 -5 4 -5h202q4 0 4 -5l-14 -80q-2 -5 -6 -5h-202
q-4 0 -6 -5z" />
    <glyph glyph-name="twosuperior" unicode="&#xb2;" horiz-adv-x="390" 
d="M98.6396 358.498q0.540039 1.08008 1.34961 3.50977q0.810547 2.43066 2.43066 3.50977l175.492 146.335q5.40039 4.31934 14.5801 12.1494q9.17969 7.8291 18.6289 18.0889t17.0088 22.4092q7.56055 12.1494 9.71973 24.5693q1.62012 10.2588 -0.540039 22.4092
q-2.15918 12.1494 -8.90918 22.4082q-6.75 10.2598 -19.1689 17.0098q-12.4199 6.75 -31.3193 6.75q-15.6592 0 -29.1582 -5.40039q-13.5 -5.39941 -24.0293 -14.3096q-10.5293 -8.90918 -17.5498 -20.249q-7.01953 -11.3389 -9.17871 -23.7588q0 -2.7002 -3.24023 -2.7002
h-45.8984q-2.16016 0 -2.16016 2.7002q4.32031 24.2988 16.7402 44.5479q12.4189 20.25 31.0479 34.5586q18.6299 14.3096 42.1191 22.4092q23.4883 8.09961 49.4072 8.09961q29.1592 0 50.4883 -9.17969q21.3291 -9.17871 34.2891 -24.5684
q12.959 -15.3896 17.5488 -36.4482q4.58984 -21.0596 0.80957 -44.2783q-3.7793 -20.5195 -13.499 -37.7988t-21.8691 -31.3184q-12.1494 -14.04 -24.2988 -24.5693l-20.249 -17.5488l-138.234 -109.616q-1.08008 -1.08008 -1.08008 -2.7002q0 -1.61914 2.69922 -1.61914
h173.873q3.24023 0 2.16016 -2.7002l-7.01953 -40.498q-1.08008 -2.7002 -3.24023 -2.7002h-244.069q-3.24023 0 -2.16016 2.7002z" />
    <glyph glyph-name="threesuperior" unicode="&#xb3;" horiz-adv-x="391" 
d="M229.475 533.991q1.08008 2.7002 3.23926 2.7002h18.8994q15.1191 0 28.6191 4.58984q13.499 4.58984 24.0283 12.4189q10.5303 7.83008 17.5498 18.8994t9.17969 24.0293q2.16016 11.8789 -0.810547 22.9492q-2.96973 11.0693 -10.5293 19.4385
q-7.55957 8.37012 -19.4395 13.5q-11.8789 5.12988 -27.5381 5.12988q-14.5801 0 -28.0791 -5.66992q-13.5 -5.66992 -24.0293 -14.5791q-10.5293 -8.91016 -17.5488 -20.25q-7.01953 -11.3389 -8.63965 -23.2188q-1.08008 -2.7002 -3.24023 -2.7002h-45.8984
q-3.23926 0 -2.15918 2.7002q3.7793 23.7588 16.1992 43.7383q12.4189 19.9795 30.7783 34.5586t41.5781 22.9492q23.2197 8.36914 49.1387 8.36914q26.999 0 47.7881 -8.09961t34.0186 -22.4092q13.2295 -14.3086 18.3594 -34.0186q5.12988 -19.709 1.34961 -42.3877
q-3.24023 -18.8994 -12.4199 -33.209t-19.709 -24.0293q-10.5293 -9.71875 -20.249 -14.8486t-14.5791 -6.75q-2.7002 -0.540039 -3.24023 -2.7002t2.16016 -2.69922q6.47949 -2.16016 15.9287 -8.91016q9.4502 -6.75 17.2793 -18.0889q7.83008 -11.3398 12.1504 -27.5391
q4.31934 -16.1992 0.539062 -37.2588q-4.31934 -23.7588 -16.7393 -43.4678q-12.4189 -19.71 -31.3184 -34.0186q-18.8994 -14.3096 -44.2783 -22.4092t-55.6172 -8.09961q-30.2393 0 -51.2979 8.63965q-21.0596 8.63965 -33.749 23.4883q-12.6895 14.8496 -17.0098 34.5586
q-4.31934 19.71 -0.539062 41.3086q0 2.7002 3.23926 2.7002h45.8984q2.16016 0 2.16016 -2.7002q-2.16016 -10.7998 0.269531 -21.8691t9.71973 -19.9795q7.29004 -8.90918 19.4395 -14.5791t29.9688 -5.66992q16.7393 0 31.8584 4.86035q15.1191 4.85938 26.999 13.2295
q11.8789 8.36914 19.709 19.709t9.98926 24.2988q5.40039 31.8584 -13.499 51.0283q-18.8994 19.1689 -51.8379 19.1689h-18.8994q-3.23926 0 -2.16016 2.7002l7.02051 40.498v0z" />
    <glyph glyph-name="acute" unicode="&#xb4;" horiz-adv-x="262" 
d="M97 589q-8 0 -3 7l60 101l4.5 4.5t7.5 2.5h87q8 0 3 -7l-89 -101q-2 -2 -5.5 -4.5t-7.5 -2.5h-57z" />
    <glyph glyph-name="mu" unicode="&#xb5;" 
d="M425 5q0 -5 -6 -5h-411q-4 0 -4 5l123 694q0 5 6 5h411q4 0 4 -5zM508 681h-346l119 -306zM392 24l-120 305l-226 -305h346zM409 48l107 608q-56 -75 -114 -152t-112 -152zM264 352l-120 305l-107 -610z" />
    <glyph glyph-name="paragraph" unicode="&#xb6;" horiz-adv-x="591" 
d="M252 311q2 5 -4 5q-38 0 -68.5 15.5t-50.5 42t-28 61.5t-1 75q7 38 26.5 72.5t48 61t64 42.5t74.5 18h288q6 0 4 -5l-157 -892q0 -5 -6 -5h-85q-4 0 -4 5l144 817q2 5 -4 5h-85q-4 0 -6 -5l-144 -817q0 -5 -6 -5h-85q-4 0 -4 5z" />
    <glyph glyph-name="periodcentered" unicode="&#xb7;" horiz-adv-x="240" 
d="M45 276q-6 0 -4 5l26 151q2 5 6 5h149q6 0 4 -5l-26 -151q-2 -5 -6 -5h-149z" />
    <glyph glyph-name="cedilla" unicode="&#xb8;" horiz-adv-x="308" 
d="M219 5q7 0 4 -5l-69 -45q-2 -2 -2 -5t4 -3q13 0 26 -4t23 -13t15 -23t2 -34q-5 -31 -35 -56t-79 -25q-45 0 -62.5 25.5t-12.5 55.5q2 5 6 5h33q6 0 4 -5q-3 -16 7.5 -29.5t30.5 -13.5q24 0 39.5 13.5t18.5 29.5q3 14 -1 23.5t-11 15t-16.5 8t-17.5 2.5q-13 0 -16 3l-6 8
q-4 4 -2.5 7t3.5 5l57 41q2 6 -4 6q-8 0 -7 6.5t9 6.5h59v0z" />
    <glyph glyph-name="onesuperior" unicode="&#xb9;" horiz-adv-x="294" 
d="M261.754 701.444q0 2.7002 3.23926 2.7002h45.8984q2.16016 0 2.16016 -2.7002l-66.418 -374.744q0 -2.7002 -3.23926 -2.7002h-45.8984q-2.16016 0 -2.16016 2.7002l44.8184 254.329q1.62012 8.09961 -2.96973 12.1494t-10.5293 4.0498h-82.6172
q-3.23926 0 -2.15918 2.7002l6.47949 37.7988q0 2.69922 3.23926 2.69922h66.958q13.499 0 24.2988 8.91016q10.7998 8.90918 13.499 22.4092z" />
    <glyph glyph-name="ordmasculine" unicode="&#xba;" horiz-adv-x="305" 
d="M360.468 563.614q-5.93945 -31.8584 -19.4395 -57.7773q-13.499 -25.9189 -34.2881 -44.8184t-47.5186 -29.1592q-26.7285 -10.2588 -58.0479 -10.2588q-31.8584 0 -54.8076 10.2588q-22.9492 10.2598 -36.7188 29.1592q-13.7686 18.8994 -18.3584 44.8184
t1.34961 57.7773q5.39941 31.8584 18.8994 58.0479q13.499 26.1885 34.0186 44.8184q20.5186 18.6289 47.248 28.8887q26.7285 10.2598 58.5879 10.2598q31.3184 0 54.5371 -10.2598t36.9883 -29.1592t18.3594 -45.0879t-0.80957 -57.5078zM309.17 563.614
q3.7793 21.0596 1.08008 38.6084q-2.7002 17.5498 -11.0703 30.5088q-8.36914 12.96 -22.4082 19.9795q-14.04 7.01953 -33.4795 7.01953q-19.4385 0 -35.9082 -7.01953t-29.4287 -19.9795q-12.959 -12.959 -21.5996 -30.5088q-8.63867 -17.5488 -12.4189 -38.6084
q-3.78027 -21.0586 -1.34961 -38.6084q2.42969 -17.5488 10.7988 -30.5088q8.37012 -12.959 22.4092 -19.9795q14.04 -7.01953 33.4785 -7.01953q19.4395 0 35.9092 7.01953q16.4688 7.02051 29.4287 19.9795q12.959 12.96 21.8691 30.5088q8.90918 17.5498 12.6895 38.6084
z" />
    <glyph glyph-name="guillemotright" unicode="&#xbb;" horiz-adv-x="596" 
d="M124 500q0 7 7 7h74q2 0 4 -3l169 -246q2 -3 1.5 -4.5t-3.5 -4.5l-255 -246q-3 -3 -6 -3h-74q-6 0 -4 7l255 242q4 4 2 9zM309 500q0 7 7 7h74q2 0 4 -3l169 -246q2 -3 1.5 -4.5t-3.5 -4.5l-255 -246q-3 -3 -6 -3h-74q-6 0 -4 7l255 242q4 4 2 9z" />
    <glyph glyph-name="onequarter" unicode="&#xbc;" horiz-adv-x="716" 
d="M608 702q2 2 5 2h54q8 0 2 -8l-548 -694q-2 -2 -5 -2h-52q-8 0 -2 8zM231 702q0 3 3 3h46q2 0 2 -3l-66 -374q0 -3 -4 -3h-46q-2 0 -2 3l45 254q2 8 -2.5 12t-10.5 4h-83q-4 0 -2 3l6 38q0 2 4 2h67q13 0 24 9t13 23zM569 380q3 0 3 -3l-43 -241q-2 -3 2 -3h60q2 0 2 -3
l-7 -40q0 -3 -3 -3h-60q-3 0 -3 -3l-15 -81q0 -3 -3 -3h-46q-2 0 -2 3l14 81q1 3 -2 3h-177q-4 0 -2 3l6 37q1 5 1.5 6l1.5 3l222 241q2 3 6 3h45zM356 137q-2 -4 2 -4h116q2 0 4 3l28 158q0 2 -2 2.5t-4 -1.5z" />
    <glyph glyph-name="onehalf" unicode="&#xbd;" horiz-adv-x="742" 
d="M598 702q2 2 5 2h54q8 0 2 -8l-548 -694q-2 -2 -5 -2h-52q-8 0 -2 8zM231 701q0 3 3 3h46q2 0 2 -3l-66 -374q0 -3 -4 -3h-46q-2 0 -2 3l45 254q2 8 -2.5 12t-10.5 4h-83q-4 0 -2 3l6 38q0 2 4 2h67q13 0 24 9t13 23zM363 40q0 5 3 8l176 146q5 4 14.5 12t18.5 18.5
t17 22.5t10 24q1 10 -1 22.5t-8.5 22.5t-19 17t-31.5 7q-31 0 -53 -19.5t-27 -44.5q0 -3 -3 -3h-46q-2 0 -2 3q4 24 16.5 44.5t31 35t42 22.5t49.5 8q29 0 50.5 -9t34.5 -25t17.5 -36.5t0.5 -44.5q-4 -21 -14 -38t-22 -31t-24 -24.5l-20 -17.5l-138 -110q-1 -1 -1 -2.5
t3 -1.5h173q3 0 3 -3l-7 -40q-2 -3 -4 -3h-244q-2 0 -2 3z" />
    <glyph glyph-name="threequarters" unicode="&#xbe;" horiz-adv-x="779" 
d="M673 702q2 2 5 2h54q8 0 2 -8l-548 -694q-2 -2 -5 -2h-52q-8 0 -2 8zM198 534q1 3 4 3h19q31 0 52.5 17t26.5 43q5 23 -10.5 42t-47.5 19q-30 -1 -52.5 -21t-26.5 -43q0 -3 -3 -3h-46q-2 0 -2 3q4 24 16 44t30.5 34.5t42 23t49.5 8.5q54 0 81.5 -30.5t19.5 -76.5
q-3 -19 -12 -33t-19.5 -24t-20.5 -15.5t-15 -6.5q-2 -1 -2.5 -3t1.5 -3q7 -2 16.5 -9t17 -18t12 -27t0.5 -37q-8 -48 -47.5 -78t-100.5 -30q-30 0 -51 8.5t-34 23.5t-17 34.5t0 41.5q0 2 3 2h46q2 0 2 -2q-5 -23 9.5 -43t49.5 -20q34 0 59 18t30 45q5 32 -14 51t-51 19h-19
q-3 0 -3 2zM632 380q3 0 3 -3l-43 -241q-2 -3 2 -3h60q2 0 2 -3l-7 -40q0 -3 -3 -3h-60q-3 0 -3 -3l-15 -81q0 -3 -3 -3h-46q-2 0 -2 3l14 81q1 3 -2 3h-177q-4 0 -2 3l6 37q1 5 1.5 6l1.5 3l222 241q2 3 6 3h45zM419 137q-2 -4 2 -4h116q2 0 4 3l28 158q0 2 -2 2.5t-4 -1.5
z" />
    <glyph glyph-name="questiondown" unicode="&#xbf;" horiz-adv-x="531" 
d="M481 183q-8 -42 -30.5 -77.5t-56 -61t-76.5 -40t-92 -14.5q-54 0 -94.5 16t-66 44t-35.5 65.5t-2 79.5q8 43 26 73t44 52t58.5 39t68.5 34q11 5 15 10t8 16l12 71q2 5 6 5h85q6 0 4 -5l-14 -79q-11 -66 -89 -96q-39 -15 -63 -29.5t-38 -29t-20 -29.5t-9 -32
q-4 -21 1 -42.5t19.5 -39t39 -28t59.5 -10.5q30 0 55 9t43.5 24t30.5 34.5t16 40.5l2 10q0 5 6 5h85q4 0 4 -5zM406 704q6 0 4 -5l-21 -122q-2 -5 -6 -5h-120q-6 0 -4 5l21 122q2 5 6 5h120z" />
    <glyph glyph-name="Agrave" unicode="&#xc0;" horiz-adv-x="702" 
d="M497 704q3 0 5 -5l110 -694q1 -2 -1.5 -3.5t-4.5 -1.5h-94q-2 0 -4 5l-20 143q-1 5 -7 5h-290q-4 0 -6 -5l-73 -143q-2 -5 -6 -5h-93q-6 0 -5 5l359 694q2 5 7 5h123zM470 233q6 0 4 5l-52 366q-1 5 -4.5 5t-5.5 -5l-183 -366q-2 -5 4 -5h237zM419 783q-7 0 -9 7l-55 101
q-1 3 1.5 5t5.5 2h87q8 0 8 -7l26 -101q1 -3 -1.5 -5t-5.5 -2h-57z" />
    <glyph glyph-name="Aacute" unicode="&#xc1;" horiz-adv-x="702" 
d="M497 704q3 0 5 -5l110 -694q1 -2 -1.5 -3.5t-4.5 -1.5h-94q-2 0 -4 5l-20 143q-1 5 -7 5h-290q-4 0 -6 -5l-73 -143q-2 -5 -6 -5h-93q-6 0 -5 5l359 694q2 5 7 5h123zM470 233q6 0 4 5l-52 366q-1 5 -4.5 5t-5.5 -5l-183 -366q-2 -5 4 -5h237zM421 783q-8 0 -3 7l60 101
l4.5 4.5t7.5 2.5h87q8 0 3 -7l-89 -101q-2 -2 -5.5 -4.5t-7.5 -2.5h-57z" />
    <glyph glyph-name="Acircumflex" unicode="&#xc2;" horiz-adv-x="702" 
d="M497 704q3 0 5 -5l110 -694q1 -2 -1.5 -3.5t-4.5 -1.5h-94q-2 0 -4 5l-20 143q-1 5 -7 5h-290q-4 0 -6 -5l-73 -143q-2 -5 -6 -5h-93q-6 0 -5 5l359 694q2 5 7 5h123zM470 233q6 0 4 5l-52 366q-1 5 -4.5 5t-5.5 -5l-183 -366q-2 -5 4 -5h237zM481 783q-4 0 -7 4l-22 41
q-4 9 -11 0l-36 -41q-2 -3 -4.5 -3.5t-4.5 -0.5h-58q-8 0 -3 7l62 104q3 4 6 4h112q5 0 6 -4l25 -104q1 -3 -1.5 -5t-5.5 -2h-58z" />
    <glyph glyph-name="Atilde" unicode="&#xc3;" horiz-adv-x="702" 
d="M497 704q3 0 5 -5l110 -694q1 -2 -1.5 -3.5t-4.5 -1.5h-94q-2 0 -4 5l-20 143q-1 5 -7 5h-290q-4 0 -6 -5l-73 -143q-2 -5 -6 -5h-93q-6 0 -5 5l359 694q2 5 7 5h123zM470 233q6 0 4 5l-52 366q-1 5 -4.5 5t-5.5 -5l-183 -366q-2 -5 4 -5h237zM278 811q3 13 10.5 28
t21.5 28t35 21.5t51 8.5q22 0 37 -7t26 -16t19 -16t16 -7q3 0 8.5 0.5t11.5 4t11.5 12t8.5 24.5q0 5 6 5h60q4 0 4 -5l-5 -24q-2 -13 -9.5 -28t-22 -27.5t-35.5 -21t-50 -8.5q-20 0 -34.5 7t-26 16t-20 16t-17.5 7q-3 0 -8.5 -0.5t-11.5 -4t-11.5 -12t-8.5 -24.5q0 -5 -6 -5
h-60q-4 0 -4 5z" />
    <glyph glyph-name="Adieresis" unicode="&#xc4;" horiz-adv-x="702" 
d="M497 704q3 0 5 -5l110 -694q1 -2 -1.5 -3.5t-4.5 -1.5h-94q-2 0 -4 5l-20 143q-1 5 -7 5h-290q-4 0 -6 -5l-73 -143q-2 -5 -6 -5h-93q-6 0 -5 5l359 694q2 5 7 5h123zM470 233q6 0 4 5l-52 366q-1 5 -4.5 5t-5.5 -5l-183 -366q-2 -5 4 -5h237zM368 788q0 -5 -5 -5h-105
q-5 0 -5 5l19 105q0 5 6 5h105q4 0 4 -5zM612 788q0 -5 -5 -5h-105q-5 0 -5 5l19 105q0 5 6 5h105q4 0 4 -5z" />
    <glyph glyph-name="Aring" unicode="&#xc5;" horiz-adv-x="702" 
d="M497 704q3 0 5 -5l110 -694q1 -2 -1.5 -3.5t-4.5 -1.5h-94q-2 0 -4 5l-20 143q-1 5 -7 5h-290q-4 0 -6 -5l-73 -143q-2 -5 -6 -5h-93q-6 0 -5 5l359 694q2 5 7 5h123zM470 233q6 0 4 5l-52 366q-1 5 -4.5 5t-5.5 -5l-183 -366q-2 -5 4 -5h237zM547 823q-3 -18 -13 -34
t-24.5 -27.5t-31.5 -18.5t-35 -7q-36 0 -57 25.5t-14 61.5q3 18 12.5 34t23.5 28t31 19t35 7q36 0 57.5 -26t15.5 -62zM504 823q3 19 -7.5 32t-29.5 13t-34.5 -13t-18.5 -32q-4 -19 7 -32t30 -13t34 13t19 32z" />
    <glyph glyph-name="AE" unicode="&#xc6;" horiz-adv-x="1034" 
d="M572 704h1h471q4 0 4 -5l-14 -75q0 -5 -5 -5h-376q-6 0 -6 -5l-37 -209q-2 -5 4 -5h335q6 0 4 -5l-13 -75q-2 -5 -6 -5h-335q-4 0 -6 -5l-39 -220q0 -5 4 -5h376q5 0 5 -5l-14 -75q0 -5 -6 -5h-471h-1q-3 0 -3 5l27 149h-263l-111 -149q-2 -5 -6 -5h-92q-6 0 -5 5
l512 694q2 5 7 5h59zM268 234h217l65 370q-2 10 -7 0z" />
    <glyph glyph-name="Ccedilla" unicode="&#xc7;" horiz-adv-x="703" 
d="M566 215q2 5 8 5h88q5 0 4 -5q-4 -23 -24 -58t-55.5 -69.5t-87 -61.5t-119.5 -34l-60 -37q-2 -2 -2 -5t4 -3q13 0 26 -4t23 -13t15 -23t2 -34q-5 -31 -35 -56t-79 -25q-45 0 -62.5 25.5t-12.5 55.5q0 5 6 5h33q4 0 4 -5q-3 -16 7.5 -29.5t30.5 -13.5q24 0 39.5 13.5
t18.5 29.5q3 14 -1 23.5t-11.5 15t-17 8t-17.5 2.5q-13 0 -15 3l-7 8q-3 4 -2 7t3 5l54 36q2 2 2.5 5.5t-4.5 3.5q-76 0 -127.5 27.5t-80 76t-35.5 115t7 143.5q14 79 47 145.5t82 114.5t112.5 75t138.5 27q54 0 94.5 -13t69 -33.5t46 -45.5t27 -50t11.5 -47t0 -36
q0 -5 -5 -5h-88q-5 0 -7 5q-3 16 -10 40t-24.5 46t-48.5 38t-80 16q-105 0 -173.5 -73.5t-91.5 -203.5t19.5 -203.5t147.5 -73.5q45 0 80.5 14.5t61.5 35.5t44 45.5t27 44.5z" />
    <glyph glyph-name="Egrave" unicode="&#xc8;" horiz-adv-x="632" 
d="M155 699q0 5 6 5h481q4 0 4 -5l-14 -75q0 -5 -5 -5h-386q-6 0 -6 -5l-36 -204q-2 -5 4 -5h345q6 0 4 -5l-13 -75q-2 -5 -6 -5h-345q-4 0 -6 -5l-40 -225q0 -5 4 -5h386q5 0 5 -5l-14 -75q0 -5 -6 -5h-481q-4 0 -4 5l123 694v0zM394 783q-7 0 -9 7l-55 101q-1 3 1.5 5
t5.5 2h87q8 0 8 -7l26 -101q1 -3 -1.5 -5t-5.5 -2h-57z" />
    <glyph glyph-name="Eacute" unicode="&#xc9;" horiz-adv-x="632" 
d="M155 699q0 5 6 5h481q4 0 4 -5l-14 -75q0 -5 -5 -5h-386q-6 0 -6 -5l-36 -204q-2 -5 4 -5h345q6 0 4 -5l-13 -75q-2 -5 -6 -5h-345q-4 0 -6 -5l-40 -225q0 -5 4 -5h386q5 0 5 -5l-14 -75q0 -5 -6 -5h-481q-4 0 -4 5l123 694v0zM356 783q-8 0 -3 7l60 101l4.5 4.5t7.5 2.5
h87q8 0 3 -7l-89 -101q-2 -2 -5.5 -4.5t-7.5 -2.5h-57z" />
    <glyph glyph-name="Ecircumflex" unicode="&#xca;" horiz-adv-x="632" 
d="M155 699q0 5 6 5h481q4 0 4 -5l-14 -75q0 -5 -5 -5h-386q-6 0 -6 -5l-36 -204q-2 -5 4 -5h345q6 0 4 -5l-13 -75q-2 -5 -6 -5h-345q-4 0 -6 -5l-40 -225q0 -5 4 -5h386q5 0 5 -5l-14 -75q0 -5 -6 -5h-481q-4 0 -4 5l123 694v0zM456 783q-4 0 -7 4l-22 41q-4 9 -11 0
l-36 -41q-2 -3 -4.5 -3.5t-4.5 -0.5h-58q-8 0 -3 7l62 104q3 4 6 4h112q5 0 6 -4l25 -104q1 -3 -1.5 -5t-5.5 -2h-58z" />
    <glyph glyph-name="Edieresis" unicode="&#xcb;" horiz-adv-x="632" 
d="M155 699q0 5 6 5h481q4 0 4 -5l-14 -75q0 -5 -5 -5h-386q-6 0 -6 -5l-36 -204q-2 -5 4 -5h345q6 0 4 -5l-13 -75q-2 -5 -6 -5h-345q-4 0 -6 -5l-40 -225q0 -5 4 -5h386q5 0 5 -5l-14 -75q0 -5 -6 -5h-481q-4 0 -4 5l123 694v0zM353 788q0 -5 -5 -5h-105q-5 0 -5 5l19 105
q0 5 6 5h105q4 0 4 -5zM597 788q0 -5 -5 -5h-105q-5 0 -5 5l19 105q0 5 6 5h105q4 0 4 -5z" />
    <glyph glyph-name="Igrave" unicode="&#xcc;" horiz-adv-x="256" 
d="M246 704q4 0 4 -5l-123 -694q0 -5 -6 -5h-85q-4 0 -4 5l123 694q0 5 6 5h85zM177 783q-7 0 -9 7l-55 101q-1 3 1.5 5t5.5 2h87q8 0 8 -7l26 -101q1 -3 -1.5 -5t-5.5 -2h-57z" />
    <glyph glyph-name="Iacute" unicode="&#xcd;" horiz-adv-x="256" 
d="M246 704q4 0 4 -5l-123 -694q0 -5 -6 -5h-85q-4 0 -4 5l123 694q0 5 6 5h85zM184 783q-8 0 -3 7l60 101l4.5 4.5t7.5 2.5h87q8 0 3 -7l-89 -101q-2 -2 -5.5 -4.5t-7.5 -2.5h-57z" />
    <glyph glyph-name="Icircumflex" unicode="&#xce;" horiz-adv-x="256" 
d="M246 704q4 0 4 -5l-123 -694q0 -5 -6 -5h-85q-4 0 -4 5l123 694q0 5 6 5h85zM259 783q-4 0 -7 4l-22 41q-4 9 -11 0l-36 -41q-2 -3 -4.5 -3.5t-4.5 -0.5h-58q-8 0 -3 7l62 104q3 4 6 4h112q5 0 6 -4l25 -104q1 -3 -1.5 -5t-5.5 -2h-58z" />
    <glyph glyph-name="Idieresis" unicode="&#xcf;" horiz-adv-x="256" 
d="M246 704q4 0 4 -5l-123 -694q0 -5 -6 -5h-85q-4 0 -4 5l123 694q0 5 6 5h85zM155 788q0 -5 -5 -5h-105q-5 0 -5 5l19 105q0 5 6 5h105q4 0 4 -5zM399 788q0 -5 -5 -5h-105q-5 0 -5 5l19 105q0 5 6 5h105q4 0 4 -5z" />
    <glyph glyph-name="Eth" unicode="&#xd0;" horiz-adv-x="721" 
d="M98 296q0 5 -4 5h-54q-5 0 -5 5l14 75q0 5 6 5h54q5 0 5 5l55 308q0 5 6 5h258q78 0 132 -27t84.5 -74.5t38.5 -113t-6 -144.5q-14 -80 -44.5 -143.5t-77.5 -108.5t-110 -69t-142 -24h-258q-4 0 -4 5zM199 301q-6 0 -6 -5l-37 -206q0 -5 4 -5h163q101 0 168.5 66
t90.5 194q11 63 5.5 113.5t-26.5 86t-57 55t-86 19.5h-163q-6 0 -6 -5l-40 -223q0 -5 5 -5h154q4 0 4 -5l-14 -75q0 -5 -5 -5h-154z" />
    <glyph glyph-name="Ntilde" unicode="&#xd1;" horiz-adv-x="713" 
d="M719 704q4 0 4 -5l-123 -694q0 -5 -6 -5h-147q-4 0 -7 5l-197 601q-1 3 -5 3t-5 -5l-106 -599q0 -5 -6 -5h-85q-4 0 -4 5l123 694q0 5 6 5h148q3 0 6 -5l197 -600q2 -5 5.5 -4.5t4.5 5.5l106 599q0 5 6 5h85zM309 816q3 13 10.5 28t21.5 28t35 21.5t51 8.5q22 0 37 -7
t26 -16t19 -16t16 -7q3 0 8.5 0.5t11.5 4t11.5 12t8.5 24.5q0 5 6 5h60q4 0 4 -5l-5 -24q-2 -13 -9.5 -28t-22 -27.5t-35.5 -21t-50 -8.5q-20 0 -34.5 7t-26 16t-20 16t-17.5 7q-3 0 -8.5 -0.5t-11.5 -4t-11.5 -12t-8.5 -24.5q0 -5 -6 -5h-60q-4 0 -4 5z" />
    <glyph glyph-name="Ograve" unicode="&#xd2;" horiz-adv-x="732" 
d="M695 352q-14 -80 -45.5 -146.5t-79.5 -114.5t-111.5 -74.5t-142.5 -26.5t-133.5 26.5t-85.5 74.5t-39 114.5t6 146.5q14 79 45.5 145.5t79.5 114.5t111.5 75t142.5 27t133.5 -27t85.5 -75t39 -114.5t-6 -145.5zM331 75q105 0 173.5 73.5t91.5 203.5q22 130 -20.5 203.5
t-147.5 73.5q-106 0 -173.5 -73t-90.5 -204q-23 -130 19.5 -203.5t147.5 -73.5zM464 783q-7 0 -9 7l-55 101q-1 3 1.5 5t5.5 2h87q8 0 8 -7l26 -101q1 -3 -1.5 -5t-5.5 -2h-57z" />
    <glyph glyph-name="Oacute" unicode="&#xd3;" horiz-adv-x="732" 
d="M695 352q-14 -80 -45.5 -146.5t-79.5 -114.5t-111.5 -74.5t-142.5 -26.5t-133.5 26.5t-85.5 74.5t-39 114.5t6 146.5q14 79 45.5 145.5t79.5 114.5t111.5 75t142.5 27t133.5 -27t85.5 -75t39 -114.5t-6 -145.5zM331 75q105 0 173.5 73.5t91.5 203.5q22 130 -20.5 203.5
t-147.5 73.5q-106 0 -173.5 -73t-90.5 -204q-23 -130 19.5 -203.5t147.5 -73.5zM426 783q-8 0 -3 7l60 101l4.5 4.5t7.5 2.5h87q8 0 3 -7l-89 -101q-2 -2 -5.5 -4.5t-7.5 -2.5h-57z" />
    <glyph glyph-name="Ocircumflex" unicode="&#xd4;" horiz-adv-x="732" 
d="M695 352q-14 -80 -45.5 -146.5t-79.5 -114.5t-111.5 -74.5t-142.5 -26.5t-133.5 26.5t-85.5 74.5t-39 114.5t6 146.5q14 79 45.5 145.5t79.5 114.5t111.5 75t142.5 27t133.5 -27t85.5 -75t39 -114.5t-6 -145.5zM331 75q105 0 173.5 73.5t91.5 203.5q22 130 -20.5 203.5
t-147.5 73.5q-106 0 -173.5 -73t-90.5 -204q-23 -130 19.5 -203.5t147.5 -73.5zM526 783q-4 0 -7 4l-22 41q-4 9 -11 0l-36 -41q-2 -3 -4.5 -3.5t-4.5 -0.5h-58q-8 0 -3 7l62 104q3 4 6 4h112q5 0 6 -4l25 -104q1 -3 -1.5 -5t-5.5 -2h-58z" />
    <glyph glyph-name="Otilde" unicode="&#xd5;" horiz-adv-x="732" 
d="M695 352q-14 -80 -45.5 -146.5t-79.5 -114.5t-111.5 -74.5t-142.5 -26.5t-133.5 26.5t-85.5 74.5t-39 114.5t6 146.5q14 79 45.5 145.5t79.5 114.5t111.5 75t142.5 27t133.5 -27t85.5 -75t39 -114.5t-6 -145.5zM331 75q105 0 173.5 73.5t91.5 203.5q22 130 -20.5 203.5
t-147.5 73.5q-106 0 -173.5 -73t-90.5 -204q-23 -130 19.5 -203.5t147.5 -73.5zM323 811q3 13 10.5 28t21.5 28t35 21.5t51 8.5q22 0 37 -7t26 -16t19 -16t16 -7q3 0 8.5 0.5t11.5 4t11.5 12t8.5 24.5q0 5 6 5h60q4 0 4 -5l-5 -24q-2 -13 -9.5 -28t-22 -27.5t-35.5 -21
t-50 -8.5q-20 0 -34.5 7t-26 16t-20 16t-17.5 7q-3 0 -8.5 -0.5t-11.5 -4t-11.5 -12t-8.5 -24.5q0 -5 -6 -5h-60q-4 0 -4 5z" />
    <glyph glyph-name="Odieresis" unicode="&#xd6;" horiz-adv-x="732" 
d="M695 352q-14 -80 -45.5 -146.5t-79.5 -114.5t-111.5 -74.5t-142.5 -26.5t-133.5 26.5t-85.5 74.5t-39 114.5t6 146.5q14 79 45.5 145.5t79.5 114.5t111.5 75t142.5 27t133.5 -27t85.5 -75t39 -114.5t-6 -145.5zM331 75q105 0 173.5 73.5t91.5 203.5q22 130 -20.5 203.5
t-147.5 73.5q-106 0 -173.5 -73t-90.5 -204q-23 -130 19.5 -203.5t147.5 -73.5zM413 788q0 -5 -5 -5h-105q-5 0 -5 5l19 105q0 5 6 5h105q4 0 4 -5zM657 788q0 -5 -5 -5h-105q-5 0 -5 5l19 105q0 5 6 5h105q4 0 4 -5z" />
    <glyph glyph-name="multiply" unicode="&#xd7;" horiz-adv-x="584" 
d="M539 505q7 2 7 0l42 -49q1 -5 -2 -8l-228 -194q-6 -4 -1 -7l161 -194v-3.5t-2 -3.5l-55 -47q-4 -4 -7 0l-160 195q-2 2 -7 0l-225 -193q-5 -4 -7 0l-42 49q0 6 1 7l225 193q3 2 3 8l-159 190v3.5t2 3.5l55 46q2 2 4 2t3 -2l158 -191q2 -5 6 1z" />
    <glyph glyph-name="Oslash" unicode="&#xd8;" horiz-adv-x="732" 
d="M695 352q-14 -80 -45.5 -146.5t-79.5 -114.5t-111.5 -74.5t-142.5 -26.5q-72 0 -123 21.5t-83 62.5q-6 6 -11 1l-45 -38q-4 -4 -7 0l-32 39q-3 3 1 7l54 46q5 3 4 8q-16 44 -18.5 98t8.5 117q14 79 45.5 145.5t79.5 114.5t111.5 75t142.5 27q72 0 123 -22.5t83 -63.5
q4 -4 8 0l46 39q3 3 7 0l32 -39q3 -3 -1 -7l-55 -47q-3 -2 -3 -7q17 -45 20 -98.5t-8 -116.5zM331 75q105 0 173.5 73.5t91.5 203.5q7 40 8 74t-4 64q-2 9 -10 3l-402 -342q-5 -5 -1 -8q22 -34 57 -51t87 -17zM164 352q-14 -77 -5 -138q2 -7 9 -2l401 341q5 4 2 9
q-22 32 -57.5 49.5t-85.5 17.5q-106 0 -173.5 -73t-90.5 -204z" />
    <glyph glyph-name="Ugrave" unicode="&#xd9;" horiz-adv-x="641" 
d="M159 239q-6 -32 1 -61.5t24.5 -52.5t43.5 -36.5t58 -13.5t62.5 13.5t55.5 36.5t42 52.5t23 61.5l81 460q2 5 6 5h85q6 0 4 -5l-81 -460q-9 -52 -36.5 -97.5t-67 -79t-88.5 -53t-101 -19.5t-94.5 19.5t-70.5 53t-39.5 79t-2.5 97.5l81 460q2 5 6 5h85q6 0 4 -5zM398 783
q-7 0 -9 7l-55 101q-1 3 1.5 5t5.5 2h87q8 0 8 -7l26 -101q1 -3 -1.5 -5t-5.5 -2h-57z" />
    <glyph glyph-name="Uacute" unicode="&#xda;" horiz-adv-x="641" 
d="M159 239q-6 -32 1 -61.5t24.5 -52.5t43.5 -36.5t58 -13.5t62.5 13.5t55.5 36.5t42 52.5t23 61.5l81 460q2 5 6 5h85q6 0 4 -5l-81 -460q-9 -52 -36.5 -97.5t-67 -79t-88.5 -53t-101 -19.5t-94.5 19.5t-70.5 53t-39.5 79t-2.5 97.5l81 460q2 5 6 5h85q6 0 4 -5zM360 783
q-8 0 -3 7l60 101l4.5 4.5t7.5 2.5h87q8 0 3 -7l-89 -101q-2 -2 -5.5 -4.5t-7.5 -2.5h-57z" />
    <glyph glyph-name="Ucircumflex" unicode="&#xdb;" horiz-adv-x="641" 
d="M159 239q-6 -32 1 -61.5t24.5 -52.5t43.5 -36.5t58 -13.5t62.5 13.5t55.5 36.5t42 52.5t23 61.5l81 460q2 5 6 5h85q6 0 4 -5l-81 -460q-9 -52 -36.5 -97.5t-67 -79t-88.5 -53t-101 -19.5t-94.5 19.5t-70.5 53t-39.5 79t-2.5 97.5l81 460q2 5 6 5h85q6 0 4 -5zM450 783
q-4 0 -7 4l-22 41q-4 9 -11 0l-36 -41q-2 -3 -4.5 -3.5t-4.5 -0.5h-58q-8 0 -3 7l62 104q3 4 6 4h112q5 0 6 -4l25 -104q1 -3 -1.5 -5t-5.5 -2h-58z" />
    <glyph glyph-name="Udieresis" unicode="&#xdc;" horiz-adv-x="641" 
d="M159 239q-6 -32 1 -61.5t24.5 -52.5t43.5 -36.5t58 -13.5t62.5 13.5t55.5 36.5t42 52.5t23 61.5l81 460q2 5 6 5h85q6 0 4 -5l-81 -460q-9 -52 -36.5 -97.5t-67 -79t-88.5 -53t-101 -19.5t-94.5 19.5t-70.5 53t-39.5 79t-2.5 97.5l81 460q2 5 6 5h85q6 0 4 -5zM337 788
q0 -5 -5 -5h-105q-5 0 -5 5l19 105q0 5 6 5h105q4 0 4 -5zM581 788q0 -5 -5 -5h-105q-5 0 -5 5l19 105q0 5 6 5h105q4 0 4 -5z" />
    <glyph glyph-name="Yacute" unicode="&#xdd;" horiz-adv-x="679" 
d="M405 313q-5 -6 -5 -10l-53 -298q0 -5 -6 -5h-85q-4 0 -4 5l53 298q0 2 -3 10l-168 386q-3 5 4 5h101q4 0 7 -5l120 -285q5 -7 10 0l223 285q4 5 11 5h99q5 0 2 -5zM369 783q-8 0 -3 7l60 101l4.5 4.5t7.5 2.5h87q8 0 3 -7l-89 -101q-2 -2 -5.5 -4.5t-7.5 -2.5h-57z" />
    <glyph glyph-name="Thorn" unicode="&#xde;" horiz-adv-x="642" 
d="M256 704q4 0 4 -5l-25 -143q-2 -5 4 -5h227q41 0 73.5 -16t53.5 -43t30 -63t2 -77q-8 -41 -29.5 -77t-52.5 -63t-69 -43t-79 -16h-227q-5 0 -5 -5l-26 -143q0 -5 -6 -5h-85q-4 0 -4 5l123 694q0 5 6 5h85zM532 352q3 22 -1.5 42.5t-16 36.5t-28 25.5t-35.5 9.5h-227
q-6 0 -6 -5l-39 -218q0 -5 4 -5h227q19 0 39 9.5t37 25.5t29 36.5t17 42.5z" />
    <glyph glyph-name="germandbls" unicode="&#xdf;" horiz-adv-x="578" 
d="M332 402q21 0 43.5 6.5t41.5 20t33.5 35t19.5 52.5q6 30 -1.5 51.5t-24.5 35t-42 20t-55 6.5q-31 0 -54.5 -11.5t-40 -29t-26.5 -38.5t-13 -40l-89 -505q0 -5 -6 -5h-85q-4 0 -4 5l89 505q7 39 27.5 75.5t52 65t73 46t91.5 17.5q57 0 97.5 -15t65.5 -42t33 -63t1 -78
q-8 -48 -42 -89.5t-81 -62.5q-4 -2 -4 -4t2 -3q16 -5 34 -18.5t32.5 -34.5t22 -48t1.5 -58q-17 -98 -85 -153t-191 -55h-29q-6 0 -4 5l13 74q0 5 6 5h29q72 0 114 31t53 93q6 30 -3 52.5t-26 37.5t-39.5 22.5t-43.5 7.5h-18q-5 0 -5 5l13 74q2 5 6 5h18z" />
    <glyph glyph-name="agrave" unicode="&#xe0;" horiz-adv-x="578" 
d="M393 0q-2 0 -4 5l-3 41q0 4 -2.5 4.5t-4.5 -1.5q-11 -9 -29.5 -19.5t-41 -19.5t-47.5 -14.5t-49 -5.5q-101 0 -143 44.5t-29 115.5q6 33 24.5 60.5t49 48t74 32t98.5 11.5h112q25 0 31 8.5t8 22.5q3 15 2.5 32.5t-11 32t-34.5 24t-69 9.5q-65 0 -98 -26.5t-40 -64.5
q0 -5 -6 -5h-86q-4 0 -4 5q8 44 32 77t58 55t75.5 33t83.5 11q104 0 156 -46.5t36 -138.5l-58 -326q0 -5 -6 -5h-75zM417 222q1 2 -0.5 3.5t-3.5 1.5h-140q-41 -2 -66.5 -9.5t-40.5 -18t-22 -23.5t-9 -26q-3 -14 0 -27t13 -24t29 -17.5t49 -6.5q45 0 78.5 12t56.5 31.5
t36 43t18 46.5zM376 589q-7 0 -9 7l-55 101q-1 3 1.5 5t5.5 2h87q8 0 8 -7l26 -101q1 -3 -1.5 -5t-5.5 -2h-57z" />
    <glyph glyph-name="aacute" unicode="&#xe1;" horiz-adv-x="578" 
d="M393 0q-2 0 -4 5l-3 41q0 4 -2.5 4.5t-4.5 -1.5q-11 -9 -29.5 -19.5t-41 -19.5t-47.5 -14.5t-49 -5.5q-101 0 -143 44.5t-29 115.5q6 33 24.5 60.5t49 48t74 32t98.5 11.5h112q25 0 31 8.5t8 22.5q3 15 2.5 32.5t-11 32t-34.5 24t-69 9.5q-65 0 -98 -26.5t-40 -64.5
q0 -5 -6 -5h-86q-4 0 -4 5q8 44 32 77t58 55t75.5 33t83.5 11q104 0 156 -46.5t36 -138.5l-58 -326q0 -5 -6 -5h-75zM417 222q1 2 -0.5 3.5t-3.5 1.5h-140q-41 -2 -66.5 -9.5t-40.5 -18t-22 -23.5t-9 -26q-3 -14 0 -27t13 -24t29 -17.5t49 -6.5q45 0 78.5 12t56.5 31.5
t36 43t18 46.5zM298 589q-8 0 -3 7l60 101l4.5 4.5t7.5 2.5h87q8 0 3 -7l-89 -101q-2 -2 -5.5 -4.5t-7.5 -2.5h-57z" />
    <glyph glyph-name="acircumflex" unicode="&#xe2;" horiz-adv-x="578" 
d="M393 0q-2 0 -4 5l-3 41q0 4 -2.5 4.5t-4.5 -1.5q-11 -9 -29.5 -19.5t-41 -19.5t-47.5 -14.5t-49 -5.5q-101 0 -143 44.5t-29 115.5q6 33 24.5 60.5t49 48t74 32t98.5 11.5h112q25 0 31 8.5t8 22.5q3 15 2.5 32.5t-11 32t-34.5 24t-69 9.5q-65 0 -98 -26.5t-40 -64.5
q0 -5 -6 -5h-86q-4 0 -4 5q8 44 32 77t58 55t75.5 33t83.5 11q104 0 156 -46.5t36 -138.5l-58 -326q0 -5 -6 -5h-75zM417 222q1 2 -0.5 3.5t-3.5 1.5h-140q-41 -2 -66.5 -9.5t-40.5 -18t-22 -23.5t-9 -26q-3 -14 0 -27t13 -24t29 -17.5t49 -6.5q45 0 78.5 12t56.5 31.5
t36 43t18 46.5zM418 589q-4 0 -7 4l-22 41q-4 9 -11 0l-36 -41q-2 -3 -4.5 -3.5t-4.5 -0.5h-58q-8 0 -3 7l62 104q3 4 6 4h112q5 0 6 -4l25 -104q1 -3 -1.5 -5t-5.5 -2h-58z" />
    <glyph glyph-name="atilde" unicode="&#xe3;" horiz-adv-x="578" 
d="M393 0q-2 0 -4 5l-3 41q0 4 -2.5 4.5t-4.5 -1.5q-11 -9 -29.5 -19.5t-41 -19.5t-47.5 -14.5t-49 -5.5q-101 0 -143 44.5t-29 115.5q6 33 24.5 60.5t49 48t74 32t98.5 11.5h112q25 0 31 8.5t8 22.5q3 15 2.5 32.5t-11 32t-34.5 24t-69 9.5q-65 0 -98 -26.5t-40 -64.5
q0 -5 -6 -5h-86q-4 0 -4 5q8 44 32 77t58 55t75.5 33t83.5 11q104 0 156 -46.5t36 -138.5l-58 -326q0 -5 -6 -5h-75zM417 222q1 2 -0.5 3.5t-3.5 1.5h-140q-41 -2 -66.5 -9.5t-40.5 -18t-22 -23.5t-9 -26q-3 -14 0 -27t13 -24t29 -17.5t49 -6.5q45 0 78.5 12t56.5 31.5
t36 43t18 46.5zM215 618q3 13 10.5 28t21.5 28t35 21.5t51 8.5q22 0 37 -7t26 -16t19 -16t16 -7q3 0 8.5 0.5t11.5 4t11.5 12t8.5 24.5q0 5 6 5h60q4 0 4 -5l-5 -24q-2 -13 -9.5 -28t-22 -27.5t-35.5 -21t-50 -8.5q-20 0 -34.5 7t-26 16t-20 16t-17.5 7q-3 0 -8.5 -0.5
t-11.5 -4t-11.5 -12t-8.5 -24.5q0 -5 -6 -5h-60q-4 0 -4 5z" />
    <glyph glyph-name="adieresis" unicode="&#xe4;" horiz-adv-x="578" 
d="M393 0q-2 0 -4 5l-3 41q0 4 -2.5 4.5t-4.5 -1.5q-11 -9 -29.5 -19.5t-41 -19.5t-47.5 -14.5t-49 -5.5q-101 0 -143 44.5t-29 115.5q6 33 24.5 60.5t49 48t74 32t98.5 11.5h112q25 0 31 8.5t8 22.5q3 15 2.5 32.5t-11 32t-34.5 24t-69 9.5q-65 0 -98 -26.5t-40 -64.5
q0 -5 -6 -5h-86q-4 0 -4 5q8 44 32 77t58 55t75.5 33t83.5 11q104 0 156 -46.5t36 -138.5l-58 -326q0 -5 -6 -5h-75zM417 222q1 2 -0.5 3.5t-3.5 1.5h-140q-41 -2 -66.5 -9.5t-40.5 -18t-22 -23.5t-9 -26q-3 -14 0 -27t13 -24t29 -17.5t49 -6.5q45 0 78.5 12t56.5 31.5
t36 43t18 46.5zM322 595q0 -5 -6 -5h-105q-4 0 -4 5l19 104q0 5 6 5h105q4 0 4 -5zM566 595q0 -5 -6 -5h-105q-4 0 -4 5l19 104q0 5 6 5h105q4 0 4 -5z" />
    <glyph glyph-name="aring" unicode="&#xe5;" horiz-adv-x="578" 
d="M393 0q-2 0 -4 5l-3 41q0 4 -2.5 4.5t-4.5 -1.5q-11 -9 -29.5 -19.5t-41 -19.5t-47.5 -14.5t-49 -5.5q-101 0 -143 44.5t-29 115.5q6 33 24.5 60.5t49 48t74 32t98.5 11.5h112q25 0 31 8.5t8 22.5q3 15 2.5 32.5t-11 32t-34.5 24t-69 9.5q-65 0 -98 -26.5t-40 -64.5
q0 -5 -6 -5h-86q-4 0 -4 5q8 44 32 77t58 55t75.5 33t83.5 11q104 0 156 -46.5t36 -138.5l-58 -326q0 -5 -6 -5h-75zM417 222q1 2 -0.5 3.5t-3.5 1.5h-140q-41 -2 -66.5 -9.5t-40.5 -18t-22 -23.5t-9 -26q-3 -14 0 -27t13 -24t29 -17.5t49 -6.5q45 0 78.5 12t56.5 31.5
t36 43t18 46.5zM474 625q-3 -18 -13 -34t-24.5 -27.5t-31.5 -18.5t-35 -7q-36 0 -57 25.5t-14 61.5q3 18 12.5 34t23.5 28t31 19t35 7q36 0 57.5 -26t15.5 -62zM431 625q3 19 -7.5 32t-29.5 13t-34.5 -13t-18.5 -32q-4 -19 7 -32t30 -13t34 13t19 32z" />
    <glyph glyph-name="ae" unicode="&#xe6;" horiz-adv-x="953" 
d="M517 219q-6 0 -6 -5q-5 -27 0 -52.5t20 -44.5t39.5 -30.5t57.5 -11.5q53 0 83.5 20t51.5 50q2 5 8 5h94q5 0 4 -5q-33 -74 -102 -114.5t-154 -40.5q-64 0 -107.5 23t-67.5 66q-4 8 -12 0q-20 -19 -42 -35.5t-47.5 -28.5t-55 -18.5t-64.5 -6.5q-101 0 -145.5 44.5
t-31.5 115.5q6 33 24 60.5t48.5 48t73 32t96.5 11.5h53q78 0 91 10q7 5 8.5 10.5t2.5 10.5q3 15 2.5 32.5t-11 32t-34.5 24t-69 9.5q-65 0 -98 -26.5t-40 -64.5q0 -5 -6 -5h-86q-4 0 -4 5q8 44 32 77t58 55t75.5 33t83.5 11q124 0 172 -65q3 -6 9 -1q36 31 82.5 48.5
t102.5 17.5q58 0 100.5 -19t67.5 -54t32.5 -83.5t-2.5 -106.5q-3 -16 -8 -29q-3 -5 -6 -5h-373zM417 222q1 2 -0.5 3.5t-3.5 1.5h-140q-41 -2 -66.5 -9.5t-40.5 -18t-22 -23.5t-9 -26q-3 -14 0 -27t13 -24t29 -17.5t49 -6.5q45 0 78.5 12t56.5 31.5t36 43t18 46.5zM808 299
q4 21 0 44.5t-17.5 43t-38 32t-61.5 12.5q-36 0 -65.5 -14t-50.5 -34.5t-33.5 -43t-15.5 -40.5q-1 -2 0.5 -3.5t3.5 -1.5h272q4 0 6 5z" />
    <glyph glyph-name="ccedilla" unicode="&#xe7;" horiz-adv-x="567" 
d="M469 335q-5 0 -5 5q-19 91 -122 91q-36 0 -66.5 -13t-54 -37t-39.5 -56.5t-23 -71.5t-2.5 -71.5t20 -56.5t41 -37t61.5 -13q51 0 90.5 23t63.5 68q3 5 7 5h89q6 0 4 -5q-30 -69 -83.5 -113.5t-125.5 -57.5l-63 -40q-2 -2 -2 -5t4 -3q13 0 26 -4t23 -13t15 -23t2 -34
q-6 -31 -36 -56t-79 -25q-45 0 -62.5 25.5t-11.5 55.5q0 5 5 5h33q5 0 5 -5q-3 -16 7.5 -29.5t30.5 -13.5q24 0 39.5 13.5t18.5 29.5q2 14 -2 23.5t-11 15t-16.5 8t-17.5 2.5q-13 0 -15 3l-7 8q-3 4 -1.5 7.5t3.5 5.5l55 37q2 2 2 4.5t-4 2.5h-4q-58 0 -100 19.5t-67 54
t-33 83t3 106.5q10 59 35 107.5t62.5 83t87 53.5t108.5 19q96 0 148.5 -46.5t58.5 -129.5q0 -5 -6 -5h-89z" />
    <glyph glyph-name="egrave" unicode="&#xe8;" horiz-adv-x="569" 
d="M154 219q-6 0 -6 -5q-5 -27 0 -52.5t20 -44.5t39.5 -30.5t57.5 -11.5q54 0 86.5 20t53.5 50q2 5 8 5h89q5 0 4 -5q-33 -74 -102 -114.5t-154 -40.5q-56 0 -97.5 19t-67 54t-34 83t2.5 107q10 59 34.5 107.5t62 83t86 53.5t106.5 19t100.5 -19t67.5 -54t32.5 -83.5
t-2.5 -106.5q-3 -16 -8 -29q-3 -5 -6 -5h-373zM445 299q4 21 0 44.5t-17.5 43t-38 32t-61.5 12.5q-36 0 -65.5 -14t-50.5 -34.5t-33.5 -43t-15.5 -40.5q-1 -2 0.5 -3.5t3.5 -1.5h272q4 0 6 5zM378 589q-7 0 -9 7l-55 101q-1 3 1.5 5t5.5 2h87q8 0 8 -7l26 -101q1 -3 -1.5 -5
t-5.5 -2h-57z" />
    <glyph glyph-name="eacute" unicode="&#xe9;" horiz-adv-x="569" 
d="M154 219q-6 0 -6 -5q-5 -27 0 -52.5t20 -44.5t39.5 -30.5t57.5 -11.5q54 0 86.5 20t53.5 50q2 5 8 5h89q5 0 4 -5q-33 -74 -102 -114.5t-154 -40.5q-56 0 -97.5 19t-67 54t-34 83t2.5 107q10 59 34.5 107.5t62 83t86 53.5t106.5 19t100.5 -19t67.5 -54t32.5 -83.5
t-2.5 -106.5q-3 -16 -8 -29q-3 -5 -6 -5h-373zM445 299q4 21 0 44.5t-17.5 43t-38 32t-61.5 12.5q-36 0 -65.5 -14t-50.5 -34.5t-33.5 -43t-15.5 -40.5q-1 -2 0.5 -3.5t3.5 -1.5h272q4 0 6 5zM340 589q-8 0 -3 7l60 101l4.5 4.5t7.5 2.5h87q8 0 3 -7l-89 -101
q-2 -2 -5.5 -4.5t-7.5 -2.5h-57z" />
    <glyph glyph-name="ecircumflex" unicode="&#xea;" horiz-adv-x="569" 
d="M154 219q-6 0 -6 -5q-5 -27 0 -52.5t20 -44.5t39.5 -30.5t57.5 -11.5q54 0 86.5 20t53.5 50q2 5 8 5h89q5 0 4 -5q-33 -74 -102 -114.5t-154 -40.5q-56 0 -97.5 19t-67 54t-34 83t2.5 107q10 59 34.5 107.5t62 83t86 53.5t106.5 19t100.5 -19t67.5 -54t32.5 -83.5
t-2.5 -106.5q-3 -16 -8 -29q-3 -5 -6 -5h-373zM445 299q4 21 0 44.5t-17.5 43t-38 32t-61.5 12.5q-36 0 -65.5 -14t-50.5 -34.5t-33.5 -43t-15.5 -40.5q-1 -2 0.5 -3.5t3.5 -1.5h272q4 0 6 5zM420 589q-4 0 -7 4l-22 41q-4 9 -11 0l-36 -41q-2 -3 -4.5 -3.5t-4.5 -0.5h-58
q-8 0 -3 7l62 104q3 4 6 4h112q5 0 6 -4l25 -104q1 -3 -1.5 -5t-5.5 -2h-58z" />
    <glyph glyph-name="edieresis" unicode="&#xeb;" horiz-adv-x="569" 
d="M154 219q-6 0 -6 -5q-5 -27 0 -52.5t20 -44.5t39.5 -30.5t57.5 -11.5q54 0 86.5 20t53.5 50q2 5 8 5h89q5 0 4 -5q-33 -74 -102 -114.5t-154 -40.5q-56 0 -97.5 19t-67 54t-34 83t2.5 107q10 59 34.5 107.5t62 83t86 53.5t106.5 19t100.5 -19t67.5 -54t32.5 -83.5
t-2.5 -106.5q-3 -16 -8 -29q-3 -5 -6 -5h-373zM445 299q4 21 0 44.5t-17.5 43t-38 32t-61.5 12.5q-36 0 -65.5 -14t-50.5 -34.5t-33.5 -43t-15.5 -40.5q-1 -2 0.5 -3.5t3.5 -1.5h272q4 0 6 5zM304 595q0 -5 -6 -5h-105q-4 0 -4 5l19 104q0 5 6 5h105q4 0 4 -5zM548 595
q0 -5 -6 -5h-105q-4 0 -4 5l19 104q0 5 6 5h105q4 0 4 -5z" />
    <glyph glyph-name="igrave" unicode="&#xec;" horiz-adv-x="262" 
d="M136 5q0 -5 -6 -5h-85q-4 0 -4 5l88 496q0 5 5 5h85q5 0 5 -5zM170 589q-7 0 -9 7l-55 101q-1 3 1.5 5t5.5 2h87q8 0 8 -7l26 -101q1 -3 -1.5 -5t-5.5 -2h-57z" />
    <glyph glyph-name="iacute" unicode="&#xed;" horiz-adv-x="262" 
d="M136 5q0 -5 -6 -5h-85q-4 0 -4 5l88 496q0 5 5 5h85q5 0 5 -5zM154 589q-8 0 -3 7l60 101l4.5 4.5t7.5 2.5h87q8 0 3 -7l-89 -101q-2 -2 -5.5 -4.5t-7.5 -2.5h-57z" />
    <glyph glyph-name="icircumflex" unicode="&#xee;" horiz-adv-x="262" 
d="M142 5q0 -5 -6 -5h-85q-4 0 -4 5l88 496q0 5 5 5h85q5 0 5 -5zM237 589q-4 0 -7 4l-22 41q-4 9 -11 0l-36 -41q-2 -3 -4.5 -3.5t-4.5 -0.5h-58q-8 0 -3 7l62 104q3 4 6 4h112q5 0 6 -4l25 -104q1 -3 -1.5 -5t-5.5 -2h-58z" />
    <glyph glyph-name="idieresis" unicode="&#xef;" horiz-adv-x="262" 
d="M136 5q0 -5 -6 -5h-85q-4 0 -4 5l88 496q0 5 5 5h85q5 0 5 -5zM126 595q0 -5 -6 -5h-105q-4 0 -4 5l19 104q0 5 6 5h105q4 0 4 -5zM370 595q0 -5 -6 -5h-105q-4 0 -4 5l19 104q0 5 6 5h105q4 0 4 -5z" />
    <glyph glyph-name="eth" unicode="&#xf0;" horiz-adv-x="608" 
d="M374 567q-2 4 -8 2l-69 -33q-6 -4 -6 2l-18 48q-2 5 3 7l68 33q5 3 4 8l-24 65q-1 5 6 5h88q5 0 6 -5l9 -25q1 -6 7 -2l63 31q4 3 8 -1l16 -49q2 -2 -3 -7l-62 -30q-4 -1 -4 -6l80 -199q14 -33 18.5 -72.5t-3.5 -85.5q-11 -59 -36 -107t-63.5 -83t-88 -54t-107.5 -19
q-59 0 -101.5 19t-68 54t-34 83t2.5 107q10 59 35 107.5t63 83t87.5 53.5t108.5 19q20 0 35 -3q5 -1 6.5 2.5t0.5 5.5zM458 253q7 39 2 71.5t-20.5 56.5t-41.5 37t-62 13t-66.5 -13t-54.5 -37t-40 -56.5t-23 -71.5t-2.5 -71.5t20 -56.5t41.5 -37t62 -13t66.5 13t54.5 37
t40.5 56.5t23.5 71.5z" />
    <glyph glyph-name="ntilde" unicode="&#xf1;" horiz-adv-x="583" 
d="M206 506q4 0 4 -5l2 -45q1 -5 5 -4t6 3q20 22 55.5 41.5t86.5 19.5q54 0 91.5 -18.5t59.5 -50.5t28 -75t-3 -92l-48 -275q-2 -5 -6 -5h-85q-6 0 -4 5l48 275q5 28 3 55.5t-14 48.5t-35 34t-60 13q-32 0 -58.5 -12.5t-47 -33.5t-34.5 -48.5t-19 -56.5l-48 -275
q-2 -5 -6 -5h-85q-6 0 -4 5l87 496q2 5 6 5h75zM218 618q3 13 10.5 28t21.5 28t35 21.5t51 8.5q22 0 37 -7t26 -16t19 -16t16 -7q3 0 8.5 0.5t11.5 4t11.5 12t8.5 24.5q0 5 6 5h60q4 0 4 -5l-5 -24q-2 -13 -9.5 -28t-22 -27.5t-35.5 -21t-50 -8.5q-20 0 -34.5 7t-26 16
t-20 16t-17.5 7q-3 0 -8.5 -0.5t-11.5 -4t-11.5 -12t-8.5 -24.5q0 -5 -6 -5h-60q-4 0 -4 5z" />
    <glyph glyph-name="ograve" unicode="&#xf2;" horiz-adv-x="587" 
d="M551 253q-11 -59 -36 -107t-63.5 -83t-88 -54t-107.5 -19q-59 0 -101.5 19t-68 54t-34 83t2.5 107q10 59 35 107.5t63 83t87.5 53.5t108.5 19q58 0 101 -19t68.5 -54t34 -83.5t-1.5 -106.5zM456 253q7 39 2 71.5t-20.5 56.5t-41.5 37t-62 13t-66.5 -13t-54.5 -37
t-40 -56.5t-23 -71.5t-2.5 -71.5t20 -56.5t41.5 -37t62 -13t66.5 13t54.5 37t40.5 56.5t23.5 71.5zM367 589q-7 0 -9 7l-55 101q-1 3 1.5 5t5.5 2h87q8 0 8 -7l26 -101q1 -3 -1.5 -5t-5.5 -2h-57z" />
    <glyph glyph-name="oacute" unicode="&#xf3;" horiz-adv-x="587" 
d="M551 253q-11 -59 -36 -107t-63.5 -83t-88 -54t-107.5 -19q-59 0 -101.5 19t-68 54t-34 83t2.5 107q10 59 35 107.5t63 83t87.5 53.5t108.5 19q58 0 101 -19t68.5 -54t34 -83.5t-1.5 -106.5zM456 253q7 39 2 71.5t-20.5 56.5t-41.5 37t-62 13t-66.5 -13t-54.5 -37
t-40 -56.5t-23 -71.5t-2.5 -71.5t20 -56.5t41.5 -37t62 -13t66.5 13t54.5 37t40.5 56.5t23.5 71.5zM329 589q-8 0 -3 7l60 101l4.5 4.5t7.5 2.5h87q8 0 3 -7l-89 -101q-2 -2 -5.5 -4.5t-7.5 -2.5h-57z" />
    <glyph glyph-name="ocircumflex" unicode="&#xf4;" horiz-adv-x="587" 
d="M551 253q-11 -59 -36 -107t-63.5 -83t-88 -54t-107.5 -19q-59 0 -101.5 19t-68 54t-34 83t2.5 107q10 59 35 107.5t63 83t87.5 53.5t108.5 19q58 0 101 -19t68.5 -54t34 -83.5t-1.5 -106.5zM456 253q7 39 2 71.5t-20.5 56.5t-41.5 37t-62 13t-66.5 -13t-54.5 -37
t-40 -56.5t-23 -71.5t-2.5 -71.5t20 -56.5t41.5 -37t62 -13t66.5 13t54.5 37t40.5 56.5t23.5 71.5zM432 589q-4 0 -7 4l-22 41q-4 9 -11 0l-36 -41q-2 -3 -4.5 -3.5t-4.5 -0.5h-58q-8 0 -3 7l62 104q3 4 6 4h112q5 0 6 -4l25 -104q1 -3 -1.5 -5t-5.5 -2h-58z" />
    <glyph glyph-name="otilde" unicode="&#xf5;" horiz-adv-x="587" 
d="M551 253q-11 -59 -36 -107t-63.5 -83t-88 -54t-107.5 -19q-59 0 -101.5 19t-68 54t-34 83t2.5 107q10 59 35 107.5t63 83t87.5 53.5t108.5 19q58 0 101 -19t68.5 -54t34 -83.5t-1.5 -106.5zM456 253q7 39 2 71.5t-20.5 56.5t-41.5 37t-62 13t-66.5 -13t-54.5 -37
t-40 -56.5t-23 -71.5t-2.5 -71.5t20 -56.5t41.5 -37t62 -13t66.5 13t54.5 37t40.5 56.5t23.5 71.5zM216 618q3 13 10.5 28t21.5 28t35 21.5t51 8.5q22 0 37 -7t26 -16t19 -16t16 -7q3 0 8.5 0.5t11.5 4t11.5 12t8.5 24.5q0 5 6 5h60q4 0 4 -5l-5 -24q-2 -13 -9.5 -28
t-22 -27.5t-35.5 -21t-50 -8.5q-20 0 -34.5 7t-26 16t-20 16t-17.5 7q-3 0 -8.5 -0.5t-11.5 -4t-11.5 -12t-8.5 -24.5q0 -5 -6 -5h-60q-4 0 -4 5z" />
    <glyph glyph-name="odieresis" unicode="&#xf6;" horiz-adv-x="587" 
d="M551 253q-11 -59 -36 -107t-63.5 -83t-88 -54t-107.5 -19q-59 0 -101.5 19t-68 54t-34 83t2.5 107q10 59 35 107.5t63 83t87.5 53.5t108.5 19q58 0 101 -19t68.5 -54t34 -83.5t-1.5 -106.5zM456 253q7 39 2 71.5t-20.5 56.5t-41.5 37t-62 13t-66.5 -13t-54.5 -37
t-40 -56.5t-23 -71.5t-2.5 -71.5t20 -56.5t41.5 -37t62 -13t66.5 13t54.5 37t40.5 56.5t23.5 71.5zM323 595q0 -5 -6 -5h-105q-4 0 -4 5l19 104q0 5 6 5h105q4 0 4 -5zM567 595q0 -5 -6 -5h-105q-4 0 -4 5l19 104q0 5 6 5h105q4 0 4 -5z" />
    <glyph glyph-name="divide" unicode="&#xf7;" horiz-adv-x="580" 
d="M192 0q-4 0 -4 5l22 122q0 5 5 5h120q5 0 5 -5l-22 -122q0 -5 -6 -5h-120zM258 374q-6 0 -4 5l22 122q0 5 5 5h120q5 0 5 -5l-22 -122q-2 -5 -6 -5h-120zM38 208q-6 0 -4 5l14 80q0 5 6 5h496q4 0 4 -5l-14 -80q-2 -5 -6 -5h-496z" />
    <glyph glyph-name="oslash" unicode="&#xf8;" horiz-adv-x="602" 
d="M542 416q-4 -3 -4 -5.5t2 -5.5q12 -32 15.5 -69.5t-4.5 -82.5q-11 -59 -36 -107t-63.5 -83t-88 -54t-107.5 -19q-97 0 -149 49q-4 4 -9 0l-43 -37q-5 -4 -7 0l-33 39q-2 4 2 7l47 40q4 4 2 9q-27 64 -11 156q10 59 35 107.5t63 83t87.5 53.5t108.5 19q48 0 85.5 -13.5
t63.5 -37.5q5 -4 9 0l45 39q3 3 7 0l32 -39q3 -3 -1 -7zM150 253q-9 -46 -1 -83q1 -4 4 -4t5 2l261 222q7 6 2 11q-35 30 -87 30q-36 0 -66.5 -13t-54.5 -37t-40 -56.5t-23 -71.5zM456 253q8 46 0 82q0 2 -3 3t-7 -2l-260 -222q-6 -6 -1 -11q31 -28 86 -28q36 0 66.5 13
t54.5 37t40.5 56.5t23.5 71.5z" />
    <glyph glyph-name="ugrave" unicode="&#xf9;" horiz-adv-x="579" 
d="M401 0q-4 0 -4 5l-3 45q0 5 -4 4t-6 -3q-9 -10 -23 -20.5t-32.5 -19.5t-40.5 -15t-46 -6q-62 0 -100.5 18.5t-58 50.5t-23 75t4.5 92l49 275q2 5 6 5h85q6 0 4 -5l-49 -275q-5 -29 -3 -56t14 -48t35.5 -34t60.5 -13q31 0 58 12.5t47.5 33.5t34 48.5t18.5 56.5l49 275
q2 5 6 5h85q6 0 4 -5l-87 -496q-2 -5 -6 -5h-75zM343 589q-7 0 -9 7l-55 101q-1 3 1.5 5t5.5 2h87q8 0 8 -7l26 -101q1 -3 -1.5 -5t-5.5 -2h-57z" />
    <glyph glyph-name="uacute" unicode="&#xfa;" horiz-adv-x="579" 
d="M401 0q-4 0 -4 5l-3 45q0 5 -4 4t-6 -3q-9 -10 -23 -20.5t-32.5 -19.5t-40.5 -15t-46 -6q-62 0 -100.5 18.5t-58 50.5t-23 75t4.5 92l49 275q2 5 6 5h85q6 0 4 -5l-49 -275q-5 -29 -3 -56t14 -48t35.5 -34t60.5 -13q31 0 58 12.5t47.5 33.5t34 48.5t18.5 56.5l49 275
q2 5 6 5h85q6 0 4 -5l-87 -496q-2 -5 -6 -5h-75zM295 589q-8 0 -3 7l60 101l4.5 4.5t7.5 2.5h87q8 0 3 -7l-89 -101q-2 -2 -5.5 -4.5t-7.5 -2.5h-57z" />
    <glyph glyph-name="ucircumflex" unicode="&#xfb;" horiz-adv-x="579" 
d="M401 0q-4 0 -4 5l-3 45q0 5 -4 4t-6 -3q-9 -10 -23 -20.5t-32.5 -19.5t-40.5 -15t-46 -6q-62 0 -100.5 18.5t-58 50.5t-23 75t4.5 92l49 275q2 5 6 5h85q6 0 4 -5l-49 -275q-5 -29 -3 -56t14 -48t35.5 -34t60.5 -13q31 0 58 12.5t47.5 33.5t34 48.5t18.5 56.5l49 275
q2 5 6 5h85q6 0 4 -5l-87 -496q-2 -5 -6 -5h-75zM395 589q-4 0 -7 4l-22 41q-4 9 -11 0l-36 -41q-2 -3 -4.5 -3.5t-4.5 -0.5h-58q-8 0 -3 7l62 104q3 4 6 4h112q5 0 6 -4l25 -104q1 -3 -1.5 -5t-5.5 -2h-58z" />
    <glyph glyph-name="udieresis" unicode="&#xfc;" horiz-adv-x="579" 
d="M401 0q-4 0 -4 5l-3 45q0 5 -4 4t-6 -3q-9 -10 -23 -20.5t-32.5 -19.5t-40.5 -15t-46 -6q-62 0 -100.5 18.5t-58 50.5t-23 75t4.5 92l49 275q2 5 6 5h85q6 0 4 -5l-49 -275q-5 -29 -3 -56t14 -48t35.5 -34t60.5 -13q31 0 58 12.5t47.5 33.5t34 48.5t18.5 56.5l49 275
q2 5 6 5h85q6 0 4 -5l-87 -496q-2 -5 -6 -5h-75zM289 595q0 -5 -6 -5h-105q-4 0 -4 5l19 104q0 5 6 5h105q4 0 4 -5zM533 595q0 -5 -6 -5h-105q-4 0 -4 5l19 104q0 5 6 5h105q4 0 4 -5z" />
    <glyph glyph-name="yacute" unicode="&#xfd;" horiz-adv-x="557" 
d="M2 -118q2 5 6 5h113q45 0 63.5 25.5t11.5 65.5l-4 27l-82 496q0 5 7 5h91q4 0 4 -5l60 -402q1 -4 4.5 -4t5.5 4l203 402q3 5 6 5h91q7 0 4 -5l-259 -501l-44 -87q-17 -30 -32.5 -51.5t-33.5 -34.5t-41 -19t-53 -6h-129q-6 0 -4 5l12 75v0zM299 589q-8 0 -3 7l60 101
l4.5 4.5t7.5 2.5h87q8 0 3 -7l-89 -101q-2 -2 -5.5 -4.5t-7.5 -2.5h-57z" />
    <glyph glyph-name="thorn" unicode="&#xfe;" horiz-adv-x="627" 
d="M10 -198q-4 0 -4 5l157 892q2 5 6 5h85q6 0 4 -5l-40 -228q-1 -7 2 -6.5t8 3.5q9 6 22.5 14t31 15.5t39.5 13t48 5.5q55 0 97 -19t69 -54t36.5 -83.5t-0.5 -106.5q-11 -59 -36 -107t-63.5 -83t-88 -54t-107.5 -19q-15 0 -32.5 3t-34 9t-32 15.5t-25.5 22.5q-2 2 -5 3.5
t-5 -3.5l-41 -233q-2 -5 -6 -5h-85zM476 253q7 39 2 71.5t-20.5 56.5t-41.5 37t-62 13q-34 0 -63 -13t-51.5 -37t-37.5 -56.5t-22 -71.5q-14 -78 14 -128t97 -50q36 0 66.5 13t54.5 37t40.5 56.5t23.5 71.5z" />
    <glyph glyph-name="ydieresis" unicode="&#xff;" horiz-adv-x="557" 
d="M2 -118q2 5 6 5h113q45 0 63.5 25.5t11.5 65.5l-4 27l-82 496q0 5 7 5h91q4 0 4 -5l60 -402q1 -4 4.5 -4t5.5 4l203 402q3 5 6 5h91q7 0 4 -5l-259 -501l-44 -87q-17 -30 -32.5 -51.5t-33.5 -34.5t-41 -19t-53 -6h-129q-6 0 -4 5l12 75v0zM293 595q0 -5 -6 -5h-105
q-4 0 -4 5l19 104q0 5 6 5h105q4 0 4 -5zM537 595q0 -5 -6 -5h-105q-4 0 -4 5l19 104q0 5 6 5h105q4 0 4 -5z" />
    <glyph glyph-name="Amacron" unicode="&#x100;" horiz-adv-x="702" 
d="M497 704q3 0 5 -5l110 -694q1 -2 -1.5 -3.5t-4.5 -1.5h-94q-2 0 -4 5l-20 143q-1 5 -7 5h-290q-4 0 -6 -5l-73 -143q-2 -5 -6 -5h-93q-6 0 -5 5l359 694q2 5 7 5h123zM470 233q6 0 4 5l-52 366q-1 5 -4.5 5t-5.5 -5l-183 -366q-2 -5 4 -5h237zM317 783q-3 0 -3 5l11 58
q0 5 4 5h246q5 0 5 -5l-11 -58q0 -5 -6 -5h-246z" />
    <glyph glyph-name="amacron" unicode="&#x101;" horiz-adv-x="578" 
d="M393 0q-2 0 -4 5l-3 41q0 4 -2.5 4.5t-4.5 -1.5q-11 -9 -29.5 -19.5t-41 -19.5t-47.5 -14.5t-49 -5.5q-101 0 -143 44.5t-29 115.5q6 33 24.5 60.5t49 48t74 32t98.5 11.5h112q25 0 31 8.5t8 22.5q3 15 2.5 32.5t-11 32t-34.5 24t-69 9.5q-65 0 -98 -26.5t-40 -64.5
q0 -5 -6 -5h-86q-4 0 -4 5q8 44 32 77t58 55t75.5 33t83.5 11q104 0 156 -46.5t36 -138.5l-58 -326q0 -5 -6 -5h-75zM417 222q1 2 -0.5 3.5t-3.5 1.5h-140q-41 -2 -66.5 -9.5t-40.5 -18t-22 -23.5t-9 -26q-3 -14 0 -27t13 -24t29 -17.5t49 -6.5q45 0 78.5 12t56.5 31.5
t36 43t18 46.5zM246 589q-3 0 -3 5l11 58q0 5 4 5h246q5 0 5 -5l-11 -58q0 -5 -6 -5h-246z" />
    <glyph glyph-name="Abreve" unicode="&#x102;" horiz-adv-x="702" 
d="M497 704q3 0 5 -5l110 -694q1 -2 -1.5 -3.5t-4.5 -1.5h-94q-2 0 -4 5l-20 143q-1 5 -7 5h-290q-4 0 -6 -5l-73 -143q-2 -5 -6 -5h-93q-6 0 -5 5l359 694q2 5 7 5h123zM470 233q6 0 4 5l-52 366q-1 5 -4.5 5t-5.5 -5l-183 -366q-2 -5 4 -5h237zM573 898q4 0 4 -5
q-6 -31 -20 -52t-33 -34t-40 -18.5t-41 -5.5t-39 5.5t-33 18.5t-21 34t-1 52q0 5 6 5h62q4 0 4 -5q-4 -21 8.5 -29.5t26.5 -8.5t29 8.5t19 29.5q0 5 6 5h63z" />
    <glyph glyph-name="abreve" unicode="&#x103;" horiz-adv-x="602" 
d="M384 0q-2 0 -4 5l-3 41q0 4 -2.5 4.5t-4.5 -1.5q-11 -9 -29.5 -19.5t-41 -19.5t-47.5 -14.5t-49 -5.5q-101 0 -143 44.5t-29 115.5q6 33 24.5 60.5t49 48t74 32t98.5 11.5h112q25 0 31 8.5t8 22.5q3 15 2.5 32.5t-11 32t-34.5 24t-69 9.5q-65 0 -98 -26.5t-40 -64.5
q0 -5 -6 -5h-86q-4 0 -4 5q8 44 32 77t58 55t75.5 33t83.5 11q104 0 156 -46.5t36 -138.5l-58 -326q0 -5 -6 -5h-75zM408 222q1 2 -0.5 3.5t-3.5 1.5h-140q-41 -2 -66.5 -9.5t-40.5 -18t-22 -23.5t-9 -26q-3 -14 0 -27t13 -24t29 -17.5t49 -6.5q45 0 78.5 12t56.5 31.5
t36 43t18 46.5zM477 704q4 0 4 -5q-6 -31 -20 -52t-33 -34t-40 -18.5t-41 -5.5t-39 5.5t-33 18.5t-21 34t-1 52q0 5 6 5h62q4 0 4 -5q-4 -21 8.5 -29.5t26.5 -8.5t29 8.5t19 29.5q0 5 6 5h63z" />
    <glyph glyph-name="Aogonek" unicode="&#x104;" horiz-adv-x="702" 
d="M505 704q5 0 5 -5l111 -694q1 -2 -1.5 -3.5t-4.5 -1.5h-29q-32 0 -56.5 -18.5t-29.5 -43.5q-5 -31 12.5 -46t49.5 -15h19q4 0 4 -5l-12 -65q0 -5 -6 -5h-29q-59 0 -91.5 25.5t-24.5 73.5q3 18 11.5 33.5t21 28t27.5 22t30 15.5q6 2 5 7l-21 141q0 5 -6 5h-290q-4 0 -7 -5
l-72 -143q-2 -5 -6 -5h-93q-2 0 -4.5 1t-0.5 4l358 694q3 5 7 5h123zM478 233q7 0 5 5l-52 366q-1 5 -4.5 5t-5.5 -5l-183 -366q-2 -5 3 -5h237z" />
    <glyph glyph-name="aogonek" unicode="&#x105;" horiz-adv-x="578" 
d="M454 0h-3q-29 0 -52 -19t-27 -43q-6 -31 11.5 -46t49.5 -15h14q4 0 4 -5l-12 -65q0 -5 -5 -5h-24q-29 0 -52.5 6.5t-39 19.5t-22.5 31t-3 42q5 34 30.5 58t60.5 38q5 2 5 8l-3 41q0 4 -2.5 4.5t-4.5 -1.5q-11 -9 -29.5 -19.5t-41 -19.5t-47.5 -14.5t-49 -5.5
q-101 0 -143 44.5t-29 115.5q6 33 24.5 60.5t49 48t74 32t98.5 11.5h112q25 0 31 8.5t8 22.5q3 15 2.5 32.5t-11 32t-34.5 24t-69 9.5q-65 0 -98 -26.5t-40 -64.5q0 -5 -6 -5h-86q-4 0 -4 5q8 44 32 77t58 55t75.5 33t83.5 11q104 0 156 -46.5t36 -138.5l-58 -326
q0 -5 -6 -5h-14zM417 222q1 2 -0.5 3.5t-3.5 1.5h-140q-41 -2 -66.5 -9.5t-40.5 -18t-22 -23.5t-9 -26q-3 -14 0 -27t13 -24t29 -17.5t49 -6.5q45 0 78.5 12t56.5 31.5t36 43t18 46.5z" />
    <glyph glyph-name="Cacute" unicode="&#x106;" horiz-adv-x="703" 
d="M557 215q2 5 8 5h88q5 0 4 -5q-4 -25 -26.5 -63t-63 -74t-100 -62t-137.5 -26q-83 0 -138 26.5t-85 74.5t-36.5 114.5t7.5 146.5q14 79 47 145.5t81.5 114.5t112 75t138.5 27q82 0 132.5 -27.5t77.5 -64.5t34.5 -74.5t4.5 -58.5q-1 -5 -6 -5h-88q-6 0 -6 5
q-3 16 -10.5 40t-25 46t-48.5 38t-80 16q-106 0 -173.5 -73t-90.5 -204q-23 -130 19.5 -203.5t147.5 -73.5q45 0 80 14.5t61.5 35.5t44 45.5t26.5 44.5zM421 783q-8 0 -3 7l60 101l4.5 4.5t7.5 2.5h87q8 0 3 -7l-89 -101q-2 -2 -5.5 -4.5t-7.5 -2.5h-57z" />
    <glyph glyph-name="cacute" unicode="&#x107;" horiz-adv-x="567" 
d="M460 335q-3 0 -5 5q-8 45 -39.5 68t-82.5 23q-36 0 -66.5 -13t-54 -37t-39.5 -56.5t-23 -71.5t-2.5 -71.5t20 -56.5t41 -37t61.5 -13q51 0 90.5 23t63.5 68q3 5 7 5h89q6 0 4 -5q-35 -84 -104 -130t-165 -46q-59 0 -101.5 19t-68 54t-33.5 83t3 107q10 59 35 107.5
t62.5 83t87 53.5t108.5 19q96 0 149 -46.5t58 -129.5q0 -5 -6 -5h-89zM309 589q-8 0 -3 7l60 101l4.5 4.5t7.5 2.5h87q8 0 3 -7l-89 -101q-2 -2 -5.5 -4.5t-7.5 -2.5h-57z" />
    <glyph glyph-name="Ccircumflex" unicode="&#x108;" horiz-adv-x="703" 
d="M557 215q2 5 8 5h88q5 0 4 -5q-4 -25 -26.5 -63t-63 -74t-100 -62t-137.5 -26q-83 0 -138 26.5t-85 74.5t-36.5 114.5t7.5 146.5q14 79 47 145.5t81.5 114.5t112 75t138.5 27q82 0 132.5 -27.5t77.5 -64.5t34.5 -74.5t4.5 -58.5q-1 -5 -6 -5h-88q-6 0 -6 5
q-3 16 -10.5 40t-25 46t-48.5 38t-80 16q-106 0 -173.5 -73t-90.5 -204q-23 -130 19.5 -203.5t147.5 -73.5q45 0 80 14.5t61.5 35.5t44 45.5t26.5 44.5zM521 783q-4 0 -7 4l-22 41q-4 9 -11 0l-36 -41q-2 -3 -4.5 -3.5t-4.5 -0.5h-58q-8 0 -3 7l62 104q3 4 6 4h112q5 0 6 -4
l25 -104q1 -3 -1.5 -5t-5.5 -2h-58z" />
    <glyph glyph-name="ccircumflex" unicode="&#x109;" horiz-adv-x="567" 
d="M460 335q-3 0 -5 5q-8 45 -39.5 68t-82.5 23q-36 0 -66.5 -13t-54 -37t-39.5 -56.5t-23 -71.5t-2.5 -71.5t20 -56.5t41 -37t61.5 -13q51 0 90.5 23t63.5 68q3 5 7 5h89q6 0 4 -5q-35 -84 -104 -130t-165 -46q-59 0 -101.5 19t-68 54t-33.5 83t3 107q10 59 35 107.5
t62.5 83t87 53.5t108.5 19q96 0 149 -46.5t58 -129.5q0 -5 -6 -5h-89zM399 589q-4 0 -7 4l-22 41q-4 9 -11 0l-36 -41q-2 -3 -4.5 -3.5t-4.5 -0.5h-58q-8 0 -3 7l62 104q3 4 6 4h112q5 0 6 -4l25 -104q1 -3 -1.5 -5t-5.5 -2h-58z" />
    <glyph glyph-name="Cdotaccent" unicode="&#x10a;" horiz-adv-x="703" 
d="M557 215q2 5 8 5h88q5 0 4 -5q-4 -25 -26.5 -63t-63 -74t-100 -62t-137.5 -26q-83 0 -138 26.5t-85 74.5t-36.5 114.5t7.5 146.5q14 79 47 145.5t81.5 114.5t112 75t138.5 27q82 0 132.5 -27.5t77.5 -64.5t34.5 -74.5t4.5 -58.5q-1 -5 -6 -5h-88q-6 0 -6 5
q-3 16 -10.5 40t-25 46t-48.5 38t-80 16q-106 0 -173.5 -73t-90.5 -204q-23 -130 19.5 -203.5t147.5 -73.5q45 0 80 14.5t61.5 35.5t44 45.5t26.5 44.5zM406 783q-4 0 -4 5l23 132q2 5 6 5h129q6 0 4 -5l-23 -132q0 -5 -6 -5h-129z" />
    <glyph glyph-name="cdotaccent" unicode="&#x10b;" horiz-adv-x="567" 
d="M460 335q-3 0 -5 5q-8 45 -39.5 68t-82.5 23q-36 0 -66.5 -13t-54 -37t-39.5 -56.5t-23 -71.5t-2.5 -71.5t20 -56.5t41 -37t61.5 -13q51 0 90.5 23t63.5 68q3 5 7 5h89q6 0 4 -5q-35 -84 -104 -130t-165 -46q-59 0 -101.5 19t-68 54t-33.5 83t3 107q10 59 35 107.5
t62.5 83t87 53.5t108.5 19q96 0 149 -46.5t58 -129.5q0 -5 -6 -5h-89zM299 562q-6 0 -4 5l23 132q0 5 6 5h129q4 0 4 -5l-23 -132q-2 -5 -6 -5h-129z" />
    <glyph glyph-name="Ccaron" unicode="&#x10c;" horiz-adv-x="703" 
d="M557 215q2 5 8 5h88q5 0 4 -5q-4 -25 -26.5 -63t-63 -74t-100 -62t-137.5 -26q-83 0 -138 26.5t-85 74.5t-36.5 114.5t7.5 146.5q14 79 47 145.5t81.5 114.5t112 75t138.5 27q82 0 132.5 -27.5t77.5 -64.5t34.5 -74.5t4.5 -58.5q-1 -5 -6 -5h-88q-6 0 -6 5
q-3 16 -10.5 40t-25 46t-48.5 38t-80 16q-106 0 -173.5 -73t-90.5 -204q-23 -130 19.5 -203.5t147.5 -73.5q45 0 80 14.5t61.5 35.5t44 45.5t26.5 44.5zM589 902q8 0 4 -7l-61 -104q-2 -4 -8 -4h-111q-4 0 -5 4l-26 104q-1 3 1.5 5t5.5 2h57q2 0 4 -0.5t4 -3.5l23 -41
q4 -7 11 0l35 41q4 4 9 4h57z" />
    <glyph glyph-name="ccaron" unicode="&#x10d;" horiz-adv-x="567" 
d="M460 335q-3 0 -5 5q-8 45 -39.5 68t-82.5 23q-36 0 -66.5 -13t-54 -37t-39.5 -56.5t-23 -71.5t-2.5 -71.5t20 -56.5t41 -37t61.5 -13q51 0 90.5 23t63.5 68q3 5 7 5h89q6 0 4 -5q-35 -84 -104 -130t-165 -46q-59 0 -101.5 19t-68 54t-33.5 83t3 107q10 59 35 107.5
t62.5 83t87 53.5t108.5 19q96 0 149 -46.5t58 -129.5q0 -5 -6 -5h-89zM475 704q8 0 4 -7l-61 -104q-2 -4 -8 -4h-111q-4 0 -5 4l-26 104q-1 3 1.5 5t5.5 2h57q2 0 4 -0.5t4 -3.5l23 -41q4 -7 11 0l35 41q4 4 9 4h57z" />
    <glyph glyph-name="Dcaron" unicode="&#x10e;" horiz-adv-x="708" 
d="M156 699q0 5 6 5h258q78 0 132 -27t84.5 -74.5t38.5 -113t-6 -144.5q-14 -80 -44.5 -143.5t-77.5 -108.5t-110 -69t-142 -24h-258q-4 0 -4 5zM242 619q-6 0 -6 -5l-93 -524q0 -5 4 -5h163q101 0 168.5 66t90.5 194q11 63 5.5 113.5t-26.5 86t-57 55t-86 19.5h-163z
M532 902q8 0 4 -7l-61 -104q-2 -4 -8 -4h-111q-4 0 -5 4l-26 104q-1 3 1.5 5t5.5 2h57q2 0 4 -0.5t4 -3.5l23 -41q4 -7 11 0l35 41q4 4 9 4h57z" />
    <glyph glyph-name="dcaron" unicode="&#x10f;" horiz-adv-x="687" 
d="M598 625q-4 0 -4 5l12 69q2 5 6 5h68q6 0 4 -5l-12 -71q-6 -34 -30 -55.5t-57 -21.5q-4 0 -4 5l5 29q2 5 6 5q9 0 19.5 7t13.5 23q0 5 -5 5h-22zM353 0q-4 0 -4 5l-3 40q-1 5 -4 4.5t-6 -2.5q-12 -10 -30.5 -20t-39.5 -18.5t-42.5 -13.5t-40.5 -5q-55 0 -95.5 19
t-65.5 54t-33 83t3 107q10 58 35 106.5t62 83.5t84.5 54t102.5 19q26 0 49 -7t40 -16.5t28.5 -19t15.5 -14.5q3 -5 6 -3t4 5l42 238q2 5 6 5h85q6 0 4 -5l-122 -694q-2 -5 -6 -5h-75zM87 253q-7 -39 -2.5 -71.5t20 -56.5t41.5 -37t62 -13q34 0 63 13t51.5 37t38 56.5
t22.5 71.5t3 71.5t-18 56.5t-38.5 37t-58.5 13q-36 0 -66.5 -13t-54.5 -37t-40 -56.5t-23 -71.5z" />
    <glyph glyph-name="Dcroat" unicode="&#x110;" horiz-adv-x="721" 
d="M98 296q0 5 -4 5h-54q-5 0 -5 5l14 75q0 5 6 5h54q5 0 5 5l55 308q0 5 6 5h258q78 0 132 -27t84.5 -74.5t38.5 -113t-6 -144.5q-14 -80 -44.5 -143.5t-77.5 -108.5t-110 -69t-142 -24h-258q-4 0 -4 5zM199 301q-6 0 -6 -5l-37 -206q0 -5 4 -5h163q101 0 168.5 66
t90.5 194q11 63 5.5 113.5t-26.5 86t-57 55t-86 19.5h-163q-6 0 -6 -5l-40 -223q0 -5 5 -5h154q4 0 4 -5l-14 -75q0 -5 -5 -5h-154z" />
    <glyph glyph-name="dcroat" unicode="&#x111;" horiz-adv-x="617" 
d="M408 0q-4 0 -4 5l-3 41q-1 5 -4.5 4t-5.5 -3q-12 -11 -30 -21t-39 -18t-43 -13t-41 -5q-55 0 -95.5 19t-65.5 54t-33 83t3 107q10 58 35 106.5t62 83.5t84.5 54t102.5 19q26 0 49 -7t40 -16.5t28.5 -19t15.5 -14.5q3 -5 6 -3t4 5l17 94q0 5 -4 5h-144q-6 0 -4 5l9 55
q2 5 6 5h144q4 0 6 5l12 69q2 5 6 5h85q6 0 4 -5l-12 -69q-2 -5 4 -5h54q6 0 4 -5l-9 -55q-2 -5 -6 -5h-54q-6 0 -6 -5l-97 -550q-2 -5 -6 -5h-75zM142 253q-7 -39 -2.5 -71.5t20 -56.5t41.5 -37t62 -13q34 0 63 13t51.5 37t38 56.5t22.5 71.5t3 71.5t-18 56.5t-38.5 37
t-58.5 13q-36 0 -66.5 -13t-54.5 -37t-40 -56.5t-23 -71.5z" />
    <glyph glyph-name="Emacron" unicode="&#x112;" horiz-adv-x="632" 
d="M155 699q0 5 6 5h481q4 0 4 -5l-14 -75q0 -5 -5 -5h-386q-6 0 -6 -5l-36 -204q-2 -5 4 -5h345q6 0 4 -5l-13 -75q-2 -5 -6 -5h-345q-4 0 -6 -5l-40 -225q0 -5 4 -5h386q5 0 5 -5l-14 -75q0 -5 -6 -5h-481q-4 0 -4 5l123 694v0zM292 783q-3 0 -3 5l11 58q0 5 4 5h246
q5 0 5 -5l-11 -58q0 -5 -6 -5h-246z" />
    <glyph glyph-name="emacron" unicode="&#x113;" horiz-adv-x="569" 
d="M154 219q-6 0 -6 -5q-5 -27 0 -52.5t20 -44.5t39.5 -30.5t57.5 -11.5q54 0 86.5 20t53.5 50q2 5 8 5h89q5 0 4 -5q-33 -74 -102 -114.5t-154 -40.5q-56 0 -97.5 19t-67 54t-34 83t2.5 107q10 59 34.5 107.5t62 83t86 53.5t106.5 19t100.5 -19t67.5 -54t32.5 -83.5
t-2.5 -106.5q-3 -16 -8 -29q-3 -5 -6 -5h-373zM445 299q4 21 0 44.5t-17.5 43t-38 32t-61.5 12.5q-36 0 -65.5 -14t-50.5 -34.5t-33.5 -43t-15.5 -40.5q-1 -2 0.5 -3.5t3.5 -1.5h272q4 0 6 5zM236 589q-3 0 -3 5l11 58q0 5 4 5h246q5 0 5 -5l-11 -58q0 -5 -6 -5h-246z" />
    <glyph glyph-name="Ebreve" unicode="&#x114;" horiz-adv-x="632" 
d="M155 699q0 5 6 5h481q4 0 4 -5l-14 -75q0 -5 -5 -5h-386q-6 0 -6 -5l-36 -204q-2 -5 4 -5h345q6 0 4 -5l-13 -75q-2 -5 -6 -5h-345q-4 0 -6 -5l-40 -225q0 -5 4 -5h386q5 0 5 -5l-14 -75q0 -5 -6 -5h-481q-4 0 -4 5l123 694v0zM563 898q4 0 4 -5q-6 -31 -20 -52t-33 -34
t-40 -18.5t-41 -5.5t-39 5.5t-33 18.5t-21 34t-1 52q0 5 6 5h62q4 0 4 -5q-4 -21 8.5 -29.5t26.5 -8.5t29 8.5t19 29.5q0 5 6 5h63z" />
    <glyph glyph-name="ebreve" unicode="&#x115;" horiz-adv-x="569" 
d="M154 219q-6 0 -6 -5q-5 -27 0 -52.5t20 -44.5t39.5 -30.5t57.5 -11.5q54 0 86.5 20t53.5 50q2 5 8 5h89q5 0 4 -5q-33 -74 -102 -114.5t-154 -40.5q-56 0 -97.5 19t-67 54t-34 83t2.5 107q10 59 34.5 107.5t62 83t86 53.5t106.5 19t100.5 -19t67.5 -54t32.5 -83.5
t-2.5 -106.5q-3 -16 -8 -29q-3 -5 -6 -5h-373zM445 299q4 21 0 44.5t-17.5 43t-38 32t-61.5 12.5q-36 0 -65.5 -14t-50.5 -34.5t-33.5 -43t-15.5 -40.5q-1 -2 0.5 -3.5t3.5 -1.5h272q4 0 6 5zM488 704q4 0 4 -5q-6 -31 -20 -52t-33 -34t-40 -18.5t-41 -5.5t-39 5.5t-33 18.5
t-21 34t-1 52q0 5 6 5h62q4 0 4 -5q-4 -21 8.5 -29.5t26.5 -8.5t29 8.5t19 29.5q0 5 6 5h63z" />
    <glyph glyph-name="Edotaccent" unicode="&#x116;" horiz-adv-x="632" 
d="M155 699q0 5 6 5h481q4 0 4 -5l-14 -75q0 -5 -5 -5h-386q-6 0 -6 -5l-36 -204q-2 -5 4 -5h345q6 0 4 -5l-13 -75q-2 -5 -6 -5h-345q-4 0 -6 -5l-40 -225q0 -5 4 -5h386q5 0 5 -5l-14 -75q0 -5 -6 -5h-481q-4 0 -4 5l123 694v0zM341 783q-4 0 -4 5l23 132q2 5 6 5h129
q6 0 4 -5l-23 -132q0 -5 -6 -5h-129z" />
    <glyph glyph-name="edotaccent" unicode="&#x117;" horiz-adv-x="569" 
d="M154 219q-6 0 -6 -5q-5 -27 0 -52.5t20 -44.5t39.5 -30.5t57.5 -11.5q54 0 86.5 20t53.5 50q2 5 8 5h89q5 0 4 -5q-33 -74 -102 -114.5t-154 -40.5q-56 0 -97.5 19t-67 54t-34 83t2.5 107q10 59 34.5 107.5t62 83t86 53.5t106.5 19t100.5 -19t67.5 -54t32.5 -83.5
t-2.5 -106.5q-3 -16 -8 -29q-3 -5 -6 -5h-373zM445 299q4 21 0 44.5t-17.5 43t-38 32t-61.5 12.5q-36 0 -65.5 -14t-50.5 -34.5t-33.5 -43t-15.5 -40.5q-1 -2 0.5 -3.5t3.5 -1.5h272q4 0 6 5zM290 562q-6 0 -4 5l23 132q0 5 6 5h129q4 0 4 -5l-23 -132q-2 -5 -6 -5h-129z
" />
    <glyph glyph-name="Eogonek" unicode="&#x118;" horiz-adv-x="632" 
d="M163 699q2 5 6 5h481q6 0 4 -5l-13 -75q0 -5 -6 -5h-386q-4 0 -6 -5l-36 -204q0 -5 5 -5h345q4 0 4 -5l-13 -75q-2 -5 -6 -5h-345q-6 0 -6 -5l-40 -225q0 -5 4 -5h386q6 0 4 -5l-13 -75q0 -5 -6 -5h-11q-32 0 -56.5 -18.5t-29.5 -43.5q-5 -31 12.5 -46t49.5 -15h14
q4 0 4 -5l-12 -65q0 -5 -6 -5h-24q-59 0 -91.5 25.5t-24.5 73.5q5 30 22 51t46 38q5 2 4.5 6t-5.5 4h-373q-4 0 -4 5l122 694v0z" />
    <glyph glyph-name="eogonek" unicode="&#x119;" horiz-adv-x="569" 
d="M162 219q-4 0 -6 -5q-5 -27 0.5 -52.5t20.5 -44.5t39.5 -30.5t57.5 -11.5q54 0 86 20t53 50q4 5 8 5h89q6 0 4 -5q-15 -32 -37 -58t-49 -46q-16 -11 -32.5 -21t-30.5 -21.5t-24.5 -26t-13.5 -34.5q-6 -31 11.5 -46t49.5 -15h14q4 0 4 -5l-12 -65q0 -5 -5 -5h-24
q-59 0 -91 25.5t-26 73.5q2 19 14 42t29 39q3 2 2.5 5.5t-4.5 3.5q-12 -1 -17 -1h-13q-56 0 -97.5 19t-67 54t-34 83t1.5 107t35 107.5t62 83t85.5 53.5t106.5 19t100.5 -19t67.5 -54t32.5 -83.5t-2.5 -106.5q-3 -16 -8 -29q-3 -5 -6 -5h-373zM453 299q4 21 0 44.5t-17.5 43
t-38 32t-61.5 12.5q-36 0 -65.5 -14t-50.5 -34.5t-33.5 -43t-15.5 -40.5q0 -5 4 -5h272q6 0 6 5z" />
    <glyph glyph-name="Ecaron" unicode="&#x11a;" horiz-adv-x="632" 
d="M155 699q0 5 6 5h481q4 0 4 -5l-14 -75q0 -5 -5 -5h-386q-6 0 -6 -5l-36 -204q-2 -5 4 -5h345q6 0 4 -5l-13 -75q-2 -5 -6 -5h-345q-4 0 -6 -5l-40 -225q0 -5 4 -5h386q5 0 5 -5l-14 -75q0 -5 -6 -5h-481q-4 0 -4 5l123 694v0zM534 902q8 0 4 -7l-61 -104q-2 -4 -8 -4
h-111q-4 0 -5 4l-26 104q-1 3 1.5 5t5.5 2h57q2 0 4 -0.5t4 -3.5l23 -41q4 -7 11 0l35 41q4 4 9 4h57z" />
    <glyph glyph-name="ecaron" unicode="&#x11b;" horiz-adv-x="569" 
d="M154 219q-6 0 -6 -5q-5 -27 0 -52.5t20 -44.5t39.5 -30.5t57.5 -11.5q54 0 86.5 20t53.5 50q2 5 8 5h89q5 0 4 -5q-33 -74 -102 -114.5t-154 -40.5q-56 0 -97.5 19t-67 54t-34 83t2.5 107q10 59 34.5 107.5t62 83t86 53.5t106.5 19t100.5 -19t67.5 -54t32.5 -83.5
t-2.5 -106.5q-3 -16 -8 -29q-3 -5 -6 -5h-373zM445 299q4 21 0 44.5t-17.5 43t-38 32t-61.5 12.5q-36 0 -65.5 -14t-50.5 -34.5t-33.5 -43t-15.5 -40.5q-1 -2 0.5 -3.5t3.5 -1.5h272q4 0 6 5zM466 704q8 0 4 -7l-61 -104q-2 -4 -8 -4h-111q-4 0 -5 4l-26 104q-1 3 1.5 5
t5.5 2h57q2 0 4 -0.5t4 -3.5l23 -41q4 -7 11 0l35 41q4 4 9 4h57z" />
    <glyph glyph-name="Gcircumflex" unicode="&#x11c;" horiz-adv-x="743" 
d="M629 5q0 -5 -6 -5h-73q-5 0 -5 6l2 70q1 3 -2.5 4t-6.5 -2q-14 -16 -37.5 -31.5t-53 -28t-63.5 -20.5t-68 -8q-83 0 -138 26.5t-85 74.5t-36.5 114.5t7.5 146.5q14 79 47 145.5t81.5 114.5t112 75t138.5 27q67 0 113 -17.5t75.5 -46t44 -65t18.5 -74.5q0 -5 -6 -5h-93
q-5 0 -5 5q-13 59 -56 88.5t-106 29.5q-106 0 -173.5 -73t-90.5 -204q-23 -130 19.5 -203.5t147.5 -73.5q106 0 170.5 54.5t85.5 175.5q2 5 -4 5h-206q-6 0 -4 5l13 75q2 5 6 5h301q6 0 4 -5l-68 -385v0zM511 783q-4 0 -7 4l-22 41q-4 9 -11 0l-36 -41q-2 -3 -4.5 -3.5
t-4.5 -0.5h-58q-8 0 -3 7l62 104q3 4 6 4h112q5 0 6 -4l25 -104q1 -3 -1.5 -5t-5.5 -2h-58z" />
    <glyph glyph-name="gcircumflex" unicode="&#x11d;" horiz-adv-x="588" 
d="M130 -59q1 -9 7.5 -20t20 -20.5t35 -16.5t52.5 -7q39 0 68.5 12.5t50 32.5t32 45.5t16.5 51.5l5 27q1 3 -2.5 5t-7.5 -3q-5 -5 -19.5 -15t-35.5 -19.5t-46.5 -16.5t-51.5 -7q-51 0 -91 19t-66 54t-35.5 83t1.5 107q10 58 35 106.5t62 83.5t84.5 54t102.5 19q19 0 39 -5
t38 -12.5t32.5 -18t23.5 -20.5q6 -6 10 1l17 40q3 5 6 5h75q6 0 4 -5l-85 -482q-9 -51 -33.5 -92.5t-61 -71.5t-83 -46.5t-99.5 -16.5q-46 0 -83.5 12t-63.5 32.5t-39.5 47.5t-10.5 57q0 5 5 5h87q3 0 5 -5zM158 253q-7 -39 -2.5 -71.5t20 -56.5t41.5 -37t62 -13q34 0 63 13
t51.5 37t38 56.5t22.5 71.5t3 71.5t-18 56.5t-38.5 37t-58.5 13q-36 0 -66.5 -13t-54.5 -37t-40 -56.5t-23 -71.5zM409 589q-4 0 -7 4l-22 41q-4 9 -11 0l-36 -41q-2 -3 -4.5 -3.5t-4.5 -0.5h-58q-8 0 -3 7l62 104q3 4 6 4h112q5 0 6 -4l25 -104q1 -3 -1.5 -5t-5.5 -2h-58z
" />
    <glyph glyph-name="Gbreve" unicode="&#x11e;" horiz-adv-x="743" 
d="M629 5q0 -5 -6 -5h-73q-5 0 -5 6l2 70q1 3 -2.5 4t-6.5 -2q-14 -16 -37.5 -31.5t-53 -28t-63.5 -20.5t-68 -8q-83 0 -138 26.5t-85 74.5t-36.5 114.5t7.5 146.5q14 79 47 145.5t81.5 114.5t112 75t138.5 27q67 0 113 -17.5t75.5 -46t44 -65t18.5 -74.5q0 -5 -6 -5h-93
q-5 0 -5 5q-13 59 -56 88.5t-106 29.5q-106 0 -173.5 -73t-90.5 -204q-23 -130 19.5 -203.5t147.5 -73.5q106 0 170.5 54.5t85.5 175.5q2 5 -4 5h-206q-6 0 -4 5l13 75q2 5 6 5h301q6 0 4 -5l-68 -385v0zM599 898q4 0 4 -5q-6 -31 -20 -52t-33 -34t-40 -18.5t-41 -5.5
t-39 5.5t-33 18.5t-21 34t-1 52q0 5 6 5h62q4 0 4 -5q-4 -21 8.5 -29.5t26.5 -8.5t29 8.5t19 29.5q0 5 6 5h63z" />
    <glyph glyph-name="gbreve" unicode="&#x11f;" horiz-adv-x="588" 
d="M130 -59q1 -9 7.5 -20t20 -20.5t35 -16.5t52.5 -7q39 0 68.5 12.5t50 32.5t32 45.5t16.5 51.5l5 27q1 3 -2.5 5t-7.5 -3q-5 -5 -19.5 -15t-35.5 -19.5t-46.5 -16.5t-51.5 -7q-51 0 -91 19t-66 54t-35.5 83t1.5 107q10 58 35 106.5t62 83.5t84.5 54t102.5 19q19 0 39 -5
t38 -12.5t32.5 -18t23.5 -20.5q6 -6 10 1l17 40q3 5 6 5h75q6 0 4 -5l-85 -482q-9 -51 -33.5 -92.5t-61 -71.5t-83 -46.5t-99.5 -16.5q-46 0 -83.5 12t-63.5 32.5t-39.5 47.5t-10.5 57q0 5 5 5h87q3 0 5 -5zM158 253q-7 -39 -2.5 -71.5t20 -56.5t41.5 -37t62 -13q34 0 63 13
t51.5 37t38 56.5t22.5 71.5t3 71.5t-18 56.5t-38.5 37t-58.5 13q-36 0 -66.5 -13t-54.5 -37t-40 -56.5t-23 -71.5zM527 704q4 0 4 -5q-6 -31 -20 -52t-33 -34t-40 -18.5t-41 -5.5t-39 5.5t-33 18.5t-21 34t-1 52q0 5 6 5h62q4 0 4 -5q-4 -21 8.5 -29.5t26.5 -8.5t29 8.5
t19 29.5q0 5 6 5h63z" />
    <glyph glyph-name="Gdotaccent" unicode="&#x120;" horiz-adv-x="743" 
d="M629 5q0 -5 -6 -5h-73q-5 0 -5 6l2 70q1 3 -2.5 4t-6.5 -2q-14 -16 -37.5 -31.5t-53 -28t-63.5 -20.5t-68 -8q-83 0 -138 26.5t-85 74.5t-36.5 114.5t7.5 146.5q14 79 47 145.5t81.5 114.5t112 75t138.5 27q67 0 113 -17.5t75.5 -46t44 -65t18.5 -74.5q0 -5 -6 -5h-93
q-5 0 -5 5q-13 59 -56 88.5t-106 29.5q-106 0 -173.5 -73t-90.5 -204q-23 -130 19.5 -203.5t147.5 -73.5q106 0 170.5 54.5t85.5 175.5q2 5 -4 5h-206q-6 0 -4 5l13 75q2 5 6 5h301q6 0 4 -5l-68 -385v0zM406 783q-4 0 -4 5l23 132q2 5 6 5h129q6 0 4 -5l-23 -132
q0 -5 -6 -5h-129z" />
    <glyph glyph-name="gdotaccent" unicode="&#x121;" horiz-adv-x="588" 
d="M130 -59q1 -9 7.5 -20t20 -20.5t35 -16.5t52.5 -7q39 0 68.5 12.5t50 32.5t32 45.5t16.5 51.5l5 27q1 3 -2.5 5t-7.5 -3q-5 -5 -19.5 -15t-35.5 -19.5t-46.5 -16.5t-51.5 -7q-51 0 -91 19t-66 54t-35.5 83t1.5 107q10 58 35 106.5t62 83.5t84.5 54t102.5 19q19 0 39 -5
t38 -12.5t32.5 -18t23.5 -20.5q6 -6 10 1l17 40q3 5 6 5h75q6 0 4 -5l-85 -482q-9 -51 -33.5 -92.5t-61 -71.5t-83 -46.5t-99.5 -16.5q-46 0 -83.5 12t-63.5 32.5t-39.5 47.5t-10.5 57q0 5 5 5h87q3 0 5 -5zM158 253q-7 -39 -2.5 -71.5t20 -56.5t41.5 -37t62 -13q34 0 63 13
t51.5 37t38 56.5t22.5 71.5t3 71.5t-18 56.5t-38.5 37t-58.5 13q-36 0 -66.5 -13t-54.5 -37t-40 -56.5t-23 -71.5zM280 562q-6 0 -4 5l23 132q0 5 6 5h129q4 0 4 -5l-23 -132q-2 -5 -6 -5h-129z" />
    <glyph glyph-name="uni0122" unicode="&#x122;" horiz-adv-x="743" 
d="M267 -134q-5 0 -5 5l13 69q0 5 5 5h68q5 0 5 -5l-13 -71q-6 -34 -29.5 -55.5t-56.5 -21.5q-5 0 -5 5l6 29q0 5 5 5q9 0 19.5 7t13.5 23q0 5 -4 5h-22zM638 5q0 -5 -6 -5h-73q-6 0 -6 6l3 70q0 3 -3 4t-6 -2q-14 -16 -38 -31.5t-53.5 -28t-63.5 -20.5t-68 -8
q-83 0 -137.5 26.5t-84.5 74.5t-37 114.5t7 146.5q14 79 47 145.5t82 114.5t112.5 75t138.5 27q67 0 113 -17.5t75 -46t43.5 -65t18.5 -74.5q1 -5 -6 -5h-93q-4 0 -5 5q-12 59 -55 88.5t-106 29.5q-105 0 -173.5 -73.5t-91.5 -203.5t19.5 -203.5t147.5 -73.5q106 0 171 54.5
t86 175.5q2 5 -4 5h-206q-6 0 -4 5l13 75q0 5 6 5h301q4 0 4 -5z" />
    <glyph glyph-name="uni0123" unicode="&#x123;" horiz-adv-x="588" 
d="M121 -59q1 -9 8 -20t20.5 -20.5t35 -16.5t52.5 -7q39 0 68.5 12.5t50 32.5t32 45.5t16.5 51.5l5 27q0 3 -3 5t-7 -3q-5 -5 -19.5 -15t-35.5 -19.5t-46.5 -16.5t-51.5 -7q-51 0 -91 19t-66 54t-35.5 83t0.5 107q10 58 35.5 106.5t62.5 83.5t84.5 54t102.5 19q19 0 39 -5
t38 -12.5t32.5 -18t23.5 -20.5q2 -2 5 -3t5 4l17 40q3 5 6 5h75q6 0 4 -5l-85 -482q-9 -51 -33.5 -92.5t-61 -71.5t-83 -46.5t-99.5 -16.5q-46 0 -83.5 12t-64 32.5t-39.5 47.5t-11 57q2 5 6 5h87q4 0 4 -5zM149 253q-7 -39 -2 -71.5t20.5 -56.5t41.5 -37t62 -13q34 0 63 13
t51.5 37t37.5 56.5t22 71.5q14 78 -14 128t-97 50q-36 0 -66.5 -13t-54.5 -37t-40.5 -56.5t-23.5 -71.5zM394 630q4 0 4 -5l-12 -69q-2 -5 -6 -5h-68q-6 0 -4 5l12 71q6 34 30 55.5t57 21.5q4 0 4 -5l-5 -29q-2 -5 -6 -5q-9 0 -19.5 -7t-12.5 -23q-2 -5 4 -5h22z" />
    <glyph glyph-name="Hcircumflex" unicode="&#x124;" horiz-adv-x="678" 
d="M668 704q4 0 4 -5l-123 -694q0 -5 -6 -5h-85q-4 0 -4 5l55 310q2 5 -4 5h-317q-4 0 -6 -4l-55 -311q0 -5 -6 -5h-85q-4 0 -4 5l123 694q0 5 6 5h85q4 0 4 -5l-51 -289q-2 -5 4 -5h317q4 0 6 5l51 289q0 5 6 5h85zM469 783q-4 0 -7 4l-22 41q-4 9 -11 0l-36 -41
q-2 -3 -4.5 -3.5t-4.5 -0.5h-58q-8 0 -3 7l62 104q3 4 6 4h112q5 0 6 -4l25 -104q1 -3 -1.5 -5t-5.5 -2h-58z" />
    <glyph glyph-name="hcircumflex" unicode="&#x125;" horiz-adv-x="588" 
d="M243 704q4 0 4 -5l-43 -242q-1 -4 3 -5t8 3q27 29 64.5 45t76.5 16q58 0 96 -18.5t59 -50.5t26 -75t-4 -92l-49 -275q0 -5 -6 -5h-85q-4 0 -4 5l49 275q5 28 2.5 55.5t-14.5 48.5t-35 34t-60 13q-32 0 -58.5 -12.5t-47 -33.5t-34 -48.5t-18.5 -56.5l-49 -275q0 -5 -6 -5
h-85q-4 0 -4 5l123 694q0 5 6 5h85zM250 783q-4 0 -7 4l-22 41q-4 9 -11 0l-36 -41q-2 -3 -4.5 -3.5t-4.5 -0.5h-58q-8 0 -3 7l62 104q3 4 6 4h112q5 0 6 -4l25 -104q1 -3 -1.5 -5t-5.5 -2h-58z" />
    <glyph glyph-name="Hbar" unicode="&#x126;" horiz-adv-x="688" 
d="M139 555q2 5 -4 5h-54q-3 0 -3 5l10 55q0 5 5 5h54q4 0 6 5l12 69q0 5 6 5h85q4 0 4 -5l-12 -69q-2 -5 4 -5h317q4 0 6 5l12 69q0 5 6 5h85q4 0 4 -5l-12 -69q-2 -5 4 -5h53q4 0 4 -5l-10 -55q0 -5 -6 -5h-53q-4 0 -6 -5l-97 -550q0 -5 -6 -5h-85q-4 0 -4 5l55 310
q2 5 -4 5h-317q-4 0 -6 -4l-55 -311q0 -5 -6 -5h-85q-4 0 -4 5zM561 555q2 5 -4 5h-317q-4 0 -6 -5l-25 -145q-2 -5 4 -5h317q4 0 6 5z" />
    <glyph glyph-name="hbar" unicode="&#x127;" horiz-adv-x="592" 
d="M130 555q2 5 -4 5h-55q-3 0 -3 5l10 55q0 5 5 5h55q4 0 6 5l12 69q0 5 6 5h85q4 0 4 -5l-12 -69q-2 -5 4 -5h144q4 0 4 -5l-10 -55q0 -5 -6 -5h-144q-4 0 -6 -5l-17 -98q-1 -4 3 -5t8 3q27 29 64.5 45t76.5 16q58 0 96 -18.5t59 -50.5t26 -75t-4 -92l-49 -275q0 -5 -6 -5
h-85q-4 0 -4 5l49 275q5 28 2.5 55.5t-14.5 48.5t-35 34t-60 13q-32 0 -58.5 -12.5t-47 -33.5t-34 -48.5t-18.5 -56.5l-49 -275q0 -5 -6 -5h-85q-4 0 -4 5z" />
    <glyph glyph-name="Itilde" unicode="&#x128;" horiz-adv-x="256" 
d="M246 704q4 0 4 -5l-123 -694q0 -5 -6 -5h-85q-4 0 -4 5l123 694q0 5 6 5h85zM56 811q3 13 10.5 28t21.5 28t35 21.5t51 8.5q22 0 37 -7t26 -16t19 -16t16 -7q3 0 8.5 0.5t11.5 4t11.5 12t8.5 24.5q0 5 6 5h60q4 0 4 -5l-5 -24q-2 -13 -9.5 -28t-22 -27.5t-35.5 -21
t-50 -8.5q-20 0 -34.5 7t-26 16t-20 16t-17.5 7q-3 0 -8.5 -0.5t-11.5 -4t-11.5 -12t-8.5 -24.5q0 -5 -6 -5h-60q-4 0 -4 5z" />
    <glyph glyph-name="itilde" unicode="&#x129;" horiz-adv-x="262" 
d="M136 5q0 -5 -6 -5h-85q-4 0 -4 5l88 496q0 5 5 5h85q5 0 5 -5zM24 618q3 13 10.5 28t21.5 28t35 21.5t51 8.5q22 0 37 -7t26 -16t19 -16t16 -7q3 0 8.5 0.5t11.5 4t11.5 12t8.5 24.5q0 5 6 5h60q4 0 4 -5l-5 -24q-2 -13 -9.5 -28t-22 -27.5t-35.5 -21t-50 -8.5
q-20 0 -34.5 7t-26 16t-20 16t-17.5 7q-3 0 -8.5 -0.5t-11.5 -4t-11.5 -12t-8.5 -24.5q0 -5 -6 -5h-60q-4 0 -4 5z" />
    <glyph glyph-name="Imacron" unicode="&#x12a;" horiz-adv-x="256" 
d="M246 704q4 0 4 -5l-123 -694q0 -5 -6 -5h-85q-4 0 -4 5l123 694q0 5 6 5h85zM96 788q-3 0 -3 5l11 58q0 5 4 5h246q5 0 5 -5l-11 -58q0 -5 -6 -5h-246z" />
    <glyph glyph-name="imacron" unicode="&#x12b;" horiz-adv-x="262" 
d="M136 5q0 -5 -6 -5h-85q-4 0 -4 5l88 496q0 5 5 5h85q5 0 5 -5zM63 589q-3 0 -3 5l11 58q0 5 4 5h246q5 0 5 -5l-11 -58q0 -5 -6 -5h-246z" />
    <glyph glyph-name="Iogonek" unicode="&#x12e;" horiz-adv-x="256" 
d="M254 704q6 0 4 -5l-122 -694q0 -5 -6 -5h-13q-32 0 -55 -18.5t-28 -43.5q-5 -31 12.5 -46t49.5 -15h14q4 0 4 -5l-12 -65q0 -5 -6 -5h-24q-58 0 -90.5 25.5t-24.5 73.5q6 35 27 59.5t52 36.5q5 2 5 8l122 694q2 5 6 5h85z" />
    <glyph glyph-name="iogonek" unicode="&#x12f;" horiz-adv-x="266" 
d="M146 5q0 -5 -6 -5h-15q-32 0 -56.5 -18.5t-29.5 -43.5q-5 -31 12.5 -46t49.5 -15h14q4 0 4 -5l-12 -65q0 -5 -6 -5h-24q-58 0 -90.5 25.5t-24.5 73.5q10 69 84 97q5 2 5 7l88 496q0 5 5 5h85q5 0 5 -5zM260 594q-2 -5 -6 -5h-105q-6 0 -4 5l18 105q2 5 6 5h105q6 0 4 -5z
" />
    <glyph glyph-name="Idotaccent" unicode="&#x130;" horiz-adv-x="256" 
d="M246 704q4 0 4 -5l-123 -694q0 -5 -6 -5h-85q-4 0 -4 5l123 694q0 5 6 5h85zM153 783q-4 0 -4 5l23 132q2 5 6 5h129q6 0 4 -5l-23 -132q0 -5 -6 -5h-129z" />
    <glyph glyph-name="dotlessi" unicode="&#x131;" horiz-adv-x="262" 
d="M136 5q0 -5 -6 -5h-85q-4 0 -4 5l88 496q0 5 5 5h85q5 0 5 -5z" />
    <glyph glyph-name="IJ" unicode="&#x132;" 
d="M425 5q0 -5 -6 -5h-411q-4 0 -4 5l123 694q0 5 6 5h411q4 0 4 -5zM508 681h-346l119 -306zM392 24l-120 305l-226 -305h346zM409 48l107 608q-56 -75 -114 -152t-112 -152zM264 352l-120 305l-107 -610z" />
    <glyph glyph-name="ij" unicode="&#x133;" 
d="M425 5q0 -5 -6 -5h-411q-4 0 -4 5l123 694q0 5 6 5h411q4 0 4 -5zM508 681h-346l119 -306zM392 24l-120 305l-226 -305h346zM409 48l107 608q-56 -75 -114 -152t-112 -152zM264 352l-120 305l-107 -610z" />
    <glyph glyph-name="Jcircumflex" unicode="&#x134;" horiz-adv-x="482" 
d="M105 251q6 0 4 -5l-8 -48q-4 -21 -5 -43t6.5 -39.5t26 -29t54.5 -11.5q35 0 58 11.5t36.5 29t20.5 39.5t11 43l88 501q2 5 6 5h85q6 0 4 -5l-88 -501q-8 -43 -23.5 -81t-43 -66t-69 -44.5t-101.5 -16.5q-55 0 -90 16.5t-53 44.5t-21.5 66t3.5 81l8 48q2 5 6 5h85z
M496 783q-4 0 -7 4l-22 41q-4 9 -11 0l-36 -41q-2 -3 -4.5 -3.5t-4.5 -0.5h-58q-8 0 -3 7l62 104q3 4 6 4h112q5 0 6 -4l25 -104q1 -3 -1.5 -5t-5.5 -2h-58z" />
    <glyph glyph-name="jcircumflex" unicode="&#x135;" horiz-adv-x="320" 
d="M-21 -118q2 5 6 5h58q30 0 44 13.5t19 36.5l99 564q2 5 6 5h85q6 0 4 -5l-102 -581q-11 -62 -50 -91t-102 -27h-76q-6 0 -4 5zM301 589q-4 0 -7 4l-22 41q-4 9 -11 0l-36 -41q-2 -3 -4.5 -3.5t-4.5 -0.5h-58q-8 0 -3 7l62 104q3 4 6 4h112q5 0 6 -4l25 -104q1 -3 -1.5 -5
t-5.5 -2h-58z" />
    <glyph glyph-name="uni0136" unicode="&#x136;" horiz-adv-x="643" 
d="M304 358q-2 4 -6 0l-106 -89q-5 -5 -5 -8l-45 -256q-2 -5 -6 -5h-85q-6 0 -4 5l122 694q0 5 6 5h85q4 0 4 -5l-53 -299q0 -5 4 -2l360 301q5 5 9 5h114q7 0 2 -5l-316 -267q-4 -3 -2 -8l202 -419q2 -5 -4 -5h-99q-5 0 -7 5zM243 -134q-6 0 -4 5l12 69q2 5 6 5h68
q6 0 4 -5l-12 -71q-6 -34 -30 -55.5t-57 -21.5q-6 0 -4 5l5 29q0 5 6 5q9 0 19 7t13 23q2 5 -4 5h-22z" />
    <glyph glyph-name="uni0137" unicode="&#x137;" horiz-adv-x="588" 
d="M429 0q-6 0 -8 5l-111 273q-3 4 -7 0l-132 -98q-2 -2 -3 -6l-29 -169q-2 -5 -6 -5h-85q-6 0 -4 5l122 694q0 5 6 5h85q4 0 4 -5l-69 -392q-1 -2 1.5 -3t4.5 1l265 196q5 4 9.5 4.5t6.5 0.5h123q7 0 2 -5l-214 -158q-4 -4 -1 -8l135 -330q0 -5 -5 -5h-90zM213 -134
q-6 0 -4 5l12 69q2 5 6 5h68q6 0 4 -5l-12 -71q-6 -34 -30 -55.5t-57 -21.5q-6 0 -4 5l5 29q0 5 6 5q9 0 19 7t13 23q2 5 -4 5h-22z" />
    <glyph glyph-name="kgreenlandic" unicode="&#x138;" horiz-adv-x="588" 
d="M428 0q-5 0 -8 5l-111 273q-1 4 -7 0l-131 -98q-3 -3 -3 -6l-30 -169q0 -5 -6 -5h-85q-4 0 -4 5l88 496q0 5 5 5h85q5 0 5 -5l-35 -194q0 -7 7 -2l265 196q5 4 9 4.5t6 0.5h123q2 0 3.5 -1.5t-0.5 -3.5l-214 -158q-4 -3 -2 -8l135 -330q2 -5 -5 -5h-90z" />
    <glyph glyph-name="Lacute" unicode="&#x139;" horiz-adv-x="561" 
d="M161 699q0 5 6 5h85q4 0 4 -5l-108 -609q0 -5 4 -5h350q5 0 5 -5l-14 -75q0 -5 -6 -5h-445q-4 0 -4 5zM190 783q-8 0 -3 7l60 101l4.5 4.5t7.5 2.5h87q8 0 3 -7l-89 -101q-2 -2 -5.5 -4.5t-7.5 -2.5h-57z" />
    <glyph glyph-name="lacute" unicode="&#x13a;" horiz-adv-x="260" 
d="M132 5q0 -5 -6 -5h-85q-4 0 -4 5l123 694q0 5 6 5h85q4 0 4 -5zM190 783q-8 0 -3 7l60 101l4.5 4.5t7.5 2.5h87q8 0 3 -7l-89 -101q-2 -2 -5.5 -4.5t-7.5 -2.5h-57z" />
    <glyph glyph-name="uni013B" unicode="&#x13b;" horiz-adv-x="561" 
d="M246 -134q-4 0 -4 5l12 69q2 5 6 5h68q6 0 4 -5l-12 -71q-6 -34 -30 -55.5t-57 -21.5q-4 0 -4 5l5 29q2 5 6 5q9 0 19.5 7t13.5 23q0 5 -5 5h-22zM172 699q0 5 6 5h85q4 0 4 -5l-108 -609q0 -5 4 -5h350q5 0 5 -5l-14 -75q0 -5 -6 -5h-445q-4 0 -4 5z" />
    <glyph glyph-name="uni013C" unicode="&#x13c;" horiz-adv-x="260" 
d="M142 5q-2 -5 -6 -5h-85q-6 0 -4 5l122 694q0 5 6 5h85q4 0 4 -5zM36 -134q-6 0 -4 5l12 69q2 5 6 5h68q6 0 4 -5l-12 -71q-6 -34 -30 -55.5t-57 -21.5q-6 0 -4 5l5 29q0 5 6 5q9 0 19 7t13 23q2 5 -4 5h-22z" />
    <glyph glyph-name="Lcaron" unicode="&#x13d;" horiz-adv-x="561" 
d="M234 625q-4 0 -4 5l12 69q2 5 6 5h68q6 0 4 -5l-12 -71q-6 -34 -30 -55.5t-57 -21.5q-4 0 -4 5l5 29q2 5 6 5q9 0 19.5 7t13.5 23q0 5 -5 5h-22zM106 699q0 5 6 5h85q4 0 4 -5l-108 -609q0 -5 4 -5h350q5 0 5 -5l-14 -75q0 -5 -6 -5h-445q-4 0 -4 5z" />
    <glyph glyph-name="lcaron" unicode="&#x13e;" horiz-adv-x="333" 
d="M244 625q-4 0 -4 5l12 69q2 5 6 5h68q6 0 4 -5l-12 -71q-6 -34 -30 -55.5t-57 -21.5q-4 0 -4 5l5 29q2 5 6 5q9 0 19.5 7t13.5 23q0 5 -5 5h-22zM77 5q0 -5 -6 -5h-85q-4 0 -4 5l123 694q0 5 6 5h85q4 0 4 -5z" />
    <glyph glyph-name="Ldot" unicode="&#x13f;" horiz-adv-x="564" 
d="M161 699q0 5 6 5h85q4 0 4 -5l-108 -609q0 -5 4 -5h350q5 0 5 -5l-14 -75q0 -5 -6 -5h-445q-4 0 -4 5zM280 276q-6 0 -4 5l26 151q2 5 6 5h149q6 0 4 -5l-26 -151q-2 -5 -6 -5h-149z" />
    <glyph glyph-name="ldot" unicode="&#x140;" horiz-adv-x="410" 
d="M132 5q0 -5 -6 -5h-85q-4 0 -4 5l123 694q0 5 6 5h85q4 0 4 -5zM233 276q-6 0 -4 5l26 151q2 5 6 5h149q6 0 4 -5l-26 -151q-2 -5 -6 -5h-149z" />
    <glyph glyph-name="Lslash" unicode="&#x141;" horiz-adv-x="640" 
d="M153 225q0 2 -2 3t-6 -1l-66 -46q-6 -2 -6 5l13 73q1 4 4 7l77 53q2 2 4 7l66 373q0 5 6 5h85q4 0 4 -5l-52 -294q-1 -3 2 -4.5t5 0.5l66 46q2 1 4.5 -0.5t1.5 -4.5l-13 -74q0 -4 -4 -5l-77 -54q-3 -3 -3 -4l-38 -215q0 -5 4 -5h350q5 0 5 -5l-14 -75q0 -5 -6 -5h-445
q-4 0 -4 5z" />
    <glyph glyph-name="lslash" unicode="&#x142;" horiz-adv-x="296" 
d="M96 225q0 2 -2 3t-6 -1l-66 -46q-6 -2 -6 5l13 73q1 4 4 7l77 53q2 2 4 7l66 373q0 5 6 5h85q4 0 4 -5l-52 -294q-1 -3 2 -4.5t5 0.5l66 46q2 1 4.5 -0.5t1.5 -4.5l-13 -74q0 -4 -4 -5l-77 -54q-3 -3 -3 -4l-53 -300q0 -5 -6 -5h-85q-4 0 -4 5z" />
    <glyph glyph-name="Nacute" unicode="&#x143;" horiz-adv-x="729" 
d="M719 704q4 0 4 -5l-123 -694q0 -5 -6 -5h-147q-4 0 -7 5l-197 601q-1 3 -5 3t-5 -5l-106 -599q0 -5 -6 -5h-85q-4 0 -4 5l123 694q0 5 6 5h148q3 0 6 -5l197 -600q2 -5 5.5 -4.5t4.5 5.5l106 599q0 5 6 5h85zM394 783q-8 0 -3 7l60 101l4.5 4.5t7.5 2.5h87q8 0 3 -7
l-89 -101q-2 -2 -5.5 -4.5t-7.5 -2.5h-57z" />
    <glyph glyph-name="nacute" unicode="&#x144;" horiz-adv-x="583" 
d="M206 506q4 0 4 -5l2 -45q1 -5 5 -4t6 3q20 22 55.5 41.5t86.5 19.5q54 0 91.5 -18.5t59.5 -50.5t28 -75t-3 -92l-48 -275q-2 -5 -6 -5h-85q-6 0 -4 5l48 275q5 28 3 55.5t-14 48.5t-35 34t-60 13q-32 0 -58.5 -12.5t-47 -33.5t-34.5 -48.5t-19 -56.5l-48 -275
q-2 -5 -6 -5h-85q-6 0 -4 5l87 496q2 5 6 5h75zM277 589q-8 0 -3 7l60 101l4.5 4.5t7.5 2.5h87q8 0 3 -7l-89 -101q-2 -2 -5.5 -4.5t-7.5 -2.5h-57z" />
    <glyph glyph-name="uni0145" unicode="&#x145;" horiz-adv-x="689" 
d="M253 -134q-6 0 -4 5l12 69q2 5 6 5h68q6 0 4 -5l-12 -71q-6 -34 -30 -55.5t-57 -21.5q-6 0 -4 5l5 29q0 5 6 5q9 0 19 7t13 23q2 5 -4 5h-22zM728 704q4 0 4 -5l-122 -694q-2 -5 -6 -5h-147q-5 0 -7 5l-198 601q-1 3 -5 3t-5 -5l-105 -599q-2 -5 -6 -5h-85q-6 0 -4 5
l122 694q0 5 6 5h148q5 0 6 -5l197 -600q2 -5 5.5 -4.5t4.5 5.5l106 599q0 5 6 5h85z" />
    <glyph glyph-name="uni0146" unicode="&#x146;" horiz-adv-x="583" 
d="M215 506q4 0 4 -5l2 -45q1 -5 5 -4t6 3q20 22 55.5 41.5t86.5 19.5q54 0 91.5 -18.5t59.5 -50.5t28 -75t-3 -92l-48 -275q-2 -5 -6 -5h-85q-6 0 -4 5l48 275q5 28 3 55.5t-14 48.5t-35 34t-60 13q-32 0 -58.5 -12.5t-47 -33.5t-34.5 -48.5t-19 -56.5l-48 -275
q-2 -5 -6 -5h-85q-6 0 -4 5l87 496q2 5 6 5h75zM221 -134q-4 0 -4 5l12 69q2 5 6 5h68q6 0 4 -5l-12 -71q-6 -34 -30 -55.5t-57 -21.5q-4 0 -4 5l5 29q2 5 6 5q9 0 19.5 7t12.5 23q2 5 -4 5h-22z" />
    <glyph glyph-name="Ncaron" unicode="&#x147;" horiz-adv-x="729" 
d="M719 704q4 0 4 -5l-123 -694q0 -5 -6 -5h-147q-4 0 -7 5l-197 601q-1 3 -5 3t-5 -5l-106 -599q0 -5 -6 -5h-85q-4 0 -4 5l123 694q0 5 6 5h148q3 0 6 -5l197 -600q2 -5 5.5 -4.5t4.5 5.5l106 599q0 5 6 5h85zM572 902q8 0 4 -7l-61 -104q-2 -4 -8 -4h-111q-4 0 -5 4
l-26 104q-1 3 1.5 5t5.5 2h57q2 0 4 -0.5t4 -3.5l23 -41q4 -7 11 0l35 41q4 4 9 4h57z" />
    <glyph glyph-name="ncaron" unicode="&#x148;" horiz-adv-x="583" 
d="M206 506q4 0 4 -5l2 -45q1 -5 5 -4t6 3q20 22 55.5 41.5t86.5 19.5q54 0 91.5 -18.5t59.5 -50.5t28 -75t-3 -92l-48 -275q-2 -5 -6 -5h-85q-6 0 -4 5l48 275q5 28 3 55.5t-14 48.5t-35 34t-60 13q-32 0 -58.5 -12.5t-47 -33.5t-34.5 -48.5t-19 -56.5l-48 -275
q-2 -5 -6 -5h-85q-6 0 -4 5l87 496q2 5 6 5h75zM483 704q8 0 4 -7l-61 -104q-2 -4 -8 -4h-111q-4 0 -5 4l-26 104q-1 3 1.5 5t5.5 2h57q2 0 4 -0.5t4 -3.5l23 -41q4 -7 11 0l35 41q4 4 9 4h57z" />
    <glyph glyph-name="napostrophe" unicode="&#x149;" horiz-adv-x="583" 
d="M119 625q-4 0 -4 5l12 69q2 5 6 5h68q6 0 4 -5l-12 -71q-6 -34 -30 -55.5t-57 -21.5q-4 0 -4 5l5 29q2 5 6 5q9 0 19.5 7t13.5 23q0 5 -5 5h-22zM151 506q4 0 4 -5l2 -45q1 -5 5 -4t6 3q20 22 55.5 41.5t86.5 19.5q54 0 91.5 -18.5t59.5 -50.5t28 -75t-3 -92l-48 -275
q-2 -5 -6 -5h-85q-6 0 -4 5l48 275q5 28 3 55.5t-14 48.5t-35 34t-60 13q-32 0 -58.5 -12.5t-47 -33.5t-34.5 -48.5t-19 -56.5l-48 -275q-2 -5 -6 -5h-85q-6 0 -4 5l87 496q2 5 6 5h75z" />
    <glyph glyph-name="Omacron" unicode="&#x14c;" horiz-adv-x="732" 
d="M695 352q-14 -80 -45.5 -146.5t-79.5 -114.5t-111.5 -74.5t-142.5 -26.5t-133.5 26.5t-85.5 74.5t-39 114.5t6 146.5q14 79 45.5 145.5t79.5 114.5t111.5 75t142.5 27t133.5 -27t85.5 -75t39 -114.5t-6 -145.5zM331 75q105 0 173.5 73.5t91.5 203.5q22 130 -20.5 203.5
t-147.5 73.5q-106 0 -173.5 -73t-90.5 -204q-23 -130 19.5 -203.5t147.5 -73.5zM342 783q-3 0 -3 5l11 58q0 5 4 5h246q5 0 5 -5l-11 -58q0 -5 -6 -5h-246z" />
    <glyph glyph-name="omacron" unicode="&#x14d;" horiz-adv-x="587" 
d="M551 253q-11 -59 -36 -107t-63.5 -83t-88 -54t-107.5 -19q-59 0 -101.5 19t-68 54t-34 83t2.5 107q10 59 35 107.5t63 83t87.5 53.5t108.5 19q58 0 101 -19t68.5 -54t34 -83.5t-1.5 -106.5zM456 253q7 39 2 71.5t-20.5 56.5t-41.5 37t-62 13t-66.5 -13t-54.5 -37
t-40 -56.5t-23 -71.5t-2.5 -71.5t20 -56.5t41.5 -37t62 -13t66.5 13t54.5 37t40.5 56.5t23.5 71.5zM235 589q-3 0 -3 5l11 58q0 5 4 5h246q5 0 5 -5l-11 -58q0 -5 -6 -5h-246z" />
    <glyph glyph-name="Obreve" unicode="&#x14e;" horiz-adv-x="732" 
d="M695 352q-14 -80 -45.5 -146.5t-79.5 -114.5t-111.5 -74.5t-142.5 -26.5t-133.5 26.5t-85.5 74.5t-39 114.5t6 146.5q14 79 45.5 145.5t79.5 114.5t111.5 75t142.5 27t133.5 -27t85.5 -75t39 -114.5t-6 -145.5zM331 75q105 0 173.5 73.5t91.5 203.5q22 130 -20.5 203.5
t-147.5 73.5q-106 0 -173.5 -73t-90.5 -204q-23 -130 19.5 -203.5t147.5 -73.5zM593 898q4 0 4 -5q-6 -31 -20 -52t-33 -34t-40 -18.5t-41 -5.5t-39 5.5t-33 18.5t-21 34t-1 52q0 5 6 5h62q4 0 4 -5q-4 -21 8.5 -29.5t26.5 -8.5t29 8.5t19 29.5q0 5 6 5h63z" />
    <glyph glyph-name="obreve" unicode="&#x14f;" horiz-adv-x="587" 
d="M551 253q-11 -59 -36 -107t-63.5 -83t-88 -54t-107.5 -19q-59 0 -101.5 19t-68 54t-34 83t2.5 107q10 59 35 107.5t63 83t87.5 53.5t108.5 19q58 0 101 -19t68.5 -54t34 -83.5t-1.5 -106.5zM456 253q7 39 2 71.5t-20.5 56.5t-41.5 37t-62 13t-66.5 -13t-54.5 -37
t-40 -56.5t-23 -71.5t-2.5 -71.5t20 -56.5t41.5 -37t62 -13t66.5 13t54.5 37t40.5 56.5t23.5 71.5zM487 704q4 0 4 -5q-6 -31 -20 -52t-33 -34t-40 -18.5t-41 -5.5t-39 5.5t-33 18.5t-21 34t-1 52q0 5 6 5h62q4 0 4 -5q-4 -21 8.5 -29.5t26.5 -8.5t29 8.5t19 29.5q0 5 6 5
h63z" />
    <glyph glyph-name="Ohungarumlaut" unicode="&#x150;" horiz-adv-x="732" 
d="M695 352q-14 -80 -45.5 -146.5t-79.5 -114.5t-111.5 -74.5t-142.5 -26.5t-133.5 26.5t-85.5 74.5t-39 114.5t6 146.5q14 79 45.5 145.5t79.5 114.5t111.5 75t142.5 27t133.5 -27t85.5 -75t39 -114.5t-6 -145.5zM331 75q105 0 173.5 73.5t91.5 203.5q22 130 -20.5 203.5
t-147.5 73.5q-106 0 -173.5 -73t-90.5 -204q-23 -130 19.5 -203.5t147.5 -73.5zM290 759q-5 0 -3 5l52 132q0 5 7 5h109q3 0 3 -5l-52 -132q-2 -5 -7 -5h-109zM510 759q-5 0 -3 5l52 132q0 5 7 5h109q3 0 3 -5l-52 -132q-2 -5 -7 -5h-109z" />
    <glyph glyph-name="ohungarumlaut" unicode="&#x151;" horiz-adv-x="587" 
d="M551 253q-11 -59 -36 -107t-63.5 -83t-88 -54t-107.5 -19q-59 0 -101.5 19t-68 54t-34 83t2.5 107q10 59 35 107.5t63 83t87.5 53.5t108.5 19q58 0 101 -19t68.5 -54t34 -83.5t-1.5 -106.5zM456 253q7 39 2 71.5t-20.5 56.5t-41.5 37t-62 13t-66.5 -13t-54.5 -37
t-40 -56.5t-23 -71.5t-2.5 -71.5t20 -56.5t41.5 -37t62 -13t66.5 13t54.5 37t40.5 56.5t23.5 71.5zM214 562q-5 0 -3 5l52 132q0 5 7 5h109q3 0 3 -5l-52 -132q-2 -5 -7 -5h-109zM434 562q-5 0 -3 5l52 132q0 5 7 5h109q3 0 3 -5l-52 -132q-2 -5 -7 -5h-109z" />
    <glyph glyph-name="OE" unicode="&#x152;" horiz-adv-x="1124" 
d="M657 699q0 5 6 5h471q4 0 4 -5l-14 -75q0 -5 -5 -5h-376q-6 0 -6 -5l-37 -209q-2 -5 4 -5h335q6 0 4 -5l-13 -75q-2 -5 -6 -5h-335q-4 0 -6 -5l-39 -220q0 -5 4 -5h376q5 0 5 -5l-14 -75q0 -5 -6 -5h-471q-4 0 -4 5l12 66q-45 -39 -102.5 -60t-127.5 -21
q-79 0 -133.5 26.5t-85.5 74.5t-39 114.5t6 146.5q14 79 45.5 145.5t79.5 114.5t111.5 75t142.5 27q70 0 120 -21.5t82 -59.5zM331 75q105 0 173.5 73.5t91.5 203.5q22 130 -20.5 203.5t-147.5 73.5q-106 0 -173.5 -73t-90.5 -204q-23 -130 19.5 -203.5t147.5 -73.5z" />
    <glyph glyph-name="oe" unicode="&#x153;" horiz-adv-x="982" 
d="M549 219q-6 0 -6 -5q-5 -27 0 -52.5t20 -44.5t39.5 -30.5t57.5 -11.5q53 0 83.5 20t51.5 50q2 5 8 5h94q5 0 4 -5q-33 -74 -102 -114.5t-154 -40.5q-61 0 -104.5 21.5t-68.5 61.5q-3 7 -10 0q-38 -40 -90.5 -61.5t-115.5 -21.5q-59 0 -101.5 19t-68 54t-34 83t2.5 107
q10 59 35 107.5t63 83t87.5 53.5t108.5 19q62 0 106 -22t70 -60q3 -6 11 0q38 38 89 60t113 22q58 0 100.5 -19t67.5 -54t32.5 -83.5t-2.5 -106.5q-3 -16 -8 -29q-3 -5 -6 -5h-373zM456 253q7 39 2 71.5t-20.5 56.5t-41.5 37t-62 13t-66.5 -13t-54.5 -37t-40 -56.5
t-23 -71.5t-2.5 -71.5t20 -56.5t41.5 -37t62 -13t66.5 13t54.5 37t40.5 56.5t23.5 71.5zM840 299q4 21 0 44.5t-17.5 43t-38 32t-61.5 12.5q-36 0 -65.5 -14t-50.5 -34.5t-33.5 -43t-15.5 -40.5q-1 -2 0.5 -3.5t3.5 -1.5h272q4 0 6 5z" />
    <glyph glyph-name="Racute" unicode="&#x154;" horiz-adv-x="629" 
d="M165 699q0 5 6 5h292q41 0 75 -16.5t57 -45.5t32.5 -68t1.5 -84q-6 -33 -20 -62t-34 -54t-45.5 -44t-53.5 -31q-4 -2 -3 -7l77 -287q1 -5 -6 -5h-83q-7 0 -9 5l-72 270q-2 5 -6 5h-183q-6 0 -6 -5l-48 -270q0 -5 -6 -5h-85q-4 0 -4 5zM251 619q-6 0 -6 -5l-43 -244
q-2 -5 4 -5h189q23 1 46 11t42 27t32.5 39t18.5 48q4 26 -1.5 49.5t-19 41t-33.5 28t-44 10.5h-185zM324 783q-8 0 -3 7l60 101l4.5 4.5t7.5 2.5h87q8 0 3 -7l-89 -101q-2 -2 -5.5 -4.5t-7.5 -2.5h-57z" />
    <glyph glyph-name="racute" unicode="&#x155;" horiz-adv-x="394" 
d="M343 431q-32 0 -58.5 -12.5t-47 -33.5t-34.5 -48.5t-19 -56.5l-48 -275q-2 -5 -6 -5h-85q-6 0 -4 5l87 496q2 5 6 5h75q4 0 4 -5l2 -45q1 -5 4.5 -4t6.5 3q30 26 62 43.5t70 17.5h51q4 0 4 -5l-13 -75q-2 -5 -6 -5h-51zM201 589q-8 0 -3 7l60 101l4.5 4.5t7.5 2.5h87
q8 0 3 -7l-89 -101q-2 -2 -5.5 -4.5t-7.5 -2.5h-57z" />
    <glyph glyph-name="uni0156" unicode="&#x156;" horiz-adv-x="629" 
d="M174 699q0 5 6 5h292q41 0 75 -16.5t57 -45.5t32.5 -68t1.5 -84q-6 -33 -20 -62t-34 -54t-45.5 -44t-53.5 -31q-4 -2 -3 -7l78 -287q1 -5 -6 -5h-83q-7 0 -9 5l-73 270q0 5 -6 5h-183q-4 0 -6 -5l-47 -270q-2 -5 -6 -5h-85q-6 0 -4 5zM260 619q-6 0 -6 -5l-43 -244
q-2 -5 4 -5h189q23 1 46 11t42 27t32.5 39t18.5 48q4 26 -1.5 49.5t-19 41t-33.5 28t-44 10.5h-185zM240 -134q-6 0 -4 5l12 69q2 5 6 5h68q6 0 4 -5l-12 -71q-6 -34 -30 -55.5t-57 -21.5q-6 0 -4 5l5 29q0 5 6 5q9 0 19 7t13 23q2 5 -4 5h-22z" />
    <glyph glyph-name="uni0157" unicode="&#x157;" horiz-adv-x="394" 
d="M352 431q-32 0 -58.5 -12.5t-47 -33.5t-34.5 -48.5t-19 -56.5l-48 -275q-2 -5 -6 -5h-85q-6 0 -4 5l87 496q2 5 6 5h75q4 0 4 -5l2 -45q1 -5 5 -4t6 3q30 26 62 43.5t70 17.5h51q6 0 4 -5l-13 -75q-2 -5 -6 -5h-51zM39 -134q-4 0 -4 5l12 69q2 5 6 5h68q6 0 4 -5l-12 -71
q-6 -34 -30 -55.5t-57 -21.5q-4 0 -4 5l5 29q2 5 6 5q9 0 19.5 7t12.5 23q2 5 -4 5h-22z" />
    <glyph glyph-name="Rcaron" unicode="&#x158;" horiz-adv-x="659" 
d="M165 699q0 5 6 5h292q41 0 75 -16.5t57 -45.5t32.5 -68t1.5 -84q-6 -33 -20 -62t-34 -54t-45.5 -44t-53.5 -31q-4 -2 -3 -7l77 -287q1 -5 -6 -5h-83q-7 0 -9 5l-72 270q-2 5 -6 5h-183q-6 0 -6 -5l-48 -270q0 -5 -6 -5h-85q-4 0 -4 5zM251 619q-6 0 -6 -5l-43 -244
q-2 -5 4 -5h189q23 1 46 11t42 27t32.5 39t18.5 48q4 26 -1.5 49.5t-19 41t-33.5 28t-44 10.5h-185zM500 901q8 0 4 -7l-61 -104q-2 -4 -8 -4h-111q-4 0 -5 4l-26 104q-1 3 1.5 5t5.5 2h57q2 0 4 -0.5t4 -3.5l23 -41q4 -7 11 0l35 41q4 4 9 4h57z" />
    <glyph glyph-name="rcaron" unicode="&#x159;" horiz-adv-x="394" 
d="M343 431q-32 0 -58.5 -12.5t-47 -33.5t-34.5 -48.5t-19 -56.5l-48 -275q-2 -5 -6 -5h-85q-6 0 -4 5l87 496q2 5 6 5h75q4 0 4 -5l2 -45q1 -5 4.5 -4t6.5 3q30 26 62 43.5t70 17.5h51q4 0 4 -5l-13 -75q-2 -5 -6 -5h-51zM358 704q8 0 4 -7l-61 -104q-2 -4 -8 -4h-111
q-4 0 -5 4l-26 104q-1 3 1.5 5t5.5 2h57q2 0 4 -0.5t4 -3.5l23 -41q4 -7 11 0l35 41q4 4 9 4h57z" />
    <glyph glyph-name="Sacute" unicode="&#x15a;" horiz-adv-x="630" 
d="M500 511q4 25 -3.5 46.5t-24.5 37.5t-43.5 25t-59.5 9q-30 0 -57.5 -8.5t-49.5 -24t-37.5 -37t-19.5 -46.5q-6 -31 5.5 -49.5t32 -29.5t47 -16t52.5 -8q48 -6 94 -16.5t79.5 -33t50 -61.5t5.5 -101q-6 -38 -27 -75t-58 -66.5t-91 -48t-127 -18.5q-65 0 -112 16.5
t-76 44.5t-40 64.5t-4 77.5q2 5 6 5h89q7 0 5 -6q-3 -19 3.5 -39.5t24.5 -38t47.5 -28.5t71.5 -11q40 0 72.5 10t57 27t39.5 39t19 47q6 34 -4 55t-31 34t-50 19t-61 9q-41 4 -84.5 14t-77 31.5t-51 58t-7.5 94.5q8 48 35.5 85.5t66.5 63t85 39t92 13.5q48 0 90 -12.5
t72.5 -37.5t45.5 -63.5t8 -89.5q-2 -5 -6 -5h-90q-6 0 -4 5zM355 783q-8 0 -3 7l60 101l4.5 4.5t7.5 2.5h87q8 0 3 -7l-89 -101q-2 -2 -5.5 -4.5t-7.5 -2.5h-57z" />
    <glyph glyph-name="sacute" unicode="&#x15b;" horiz-adv-x="538" 
d="M418 335q-4 0 -4 5q8 42 -20 66.5t-89 24.5q-57 0 -86 -20.5t-33 -43.5q-4 -21 6 -33t27 -18t38 -8.5t39 -5.5q37 -5 75 -11t67 -21t44.5 -43t7.5 -76q-8 -43 -30 -73.5t-55 -50t-75 -28.5t-89 -9q-57 0 -97 14t-63.5 38t-32 56t-2.5 68q2 5 6 5h84q7 0 5 -5
q-6 -38 24.5 -64.5t90.5 -26.5q19 0 41.5 2.5t42.5 11t35 23.5t20 39q4 21 -7.5 33.5t-30 19t-39.5 9t-37 4.5q-35 4 -72.5 10.5t-66 22t-44 43t-7.5 74.5q5 31 24 58t49 47t69.5 32t86.5 12q46 0 84.5 -11t64 -33t37 -55t3.5 -77q0 -5 -5 -5h-86zM294 589q-8 0 -3 7l60 101
l4.5 4.5t7.5 2.5h87q8 0 3 -7l-89 -101q-2 -2 -5.5 -4.5t-7.5 -2.5h-57z" />
    <glyph glyph-name="Scircumflex" unicode="&#x15c;" horiz-adv-x="630" 
d="M500 511q4 25 -3.5 46.5t-24.5 37.5t-43.5 25t-59.5 9q-30 0 -57.5 -8.5t-49.5 -24t-37.5 -37t-19.5 -46.5q-6 -31 5.5 -49.5t32 -29.5t47 -16t52.5 -8q48 -6 94 -16.5t79.5 -33t50 -61.5t5.5 -101q-6 -38 -27 -75t-58 -66.5t-91 -48t-127 -18.5q-65 0 -112 16.5
t-76 44.5t-40 64.5t-4 77.5q2 5 6 5h89q7 0 5 -6q-3 -19 3.5 -39.5t24.5 -38t47.5 -28.5t71.5 -11q40 0 72.5 10t57 27t39.5 39t19 47q6 34 -4 55t-31 34t-50 19t-61 9q-41 4 -84.5 14t-77 31.5t-51 58t-7.5 94.5q8 48 35.5 85.5t66.5 63t85 39t92 13.5q48 0 90 -12.5
t72.5 -37.5t45.5 -63.5t8 -89.5q-2 -5 -6 -5h-90q-6 0 -4 5zM445 783q-4 0 -7 4l-22 41q-4 9 -11 0l-36 -41q-2 -3 -4.5 -3.5t-4.5 -0.5h-58q-8 0 -3 7l62 104q3 4 6 4h112q5 0 6 -4l25 -104q1 -3 -1.5 -5t-5.5 -2h-58z" />
    <glyph glyph-name="scircumflex" unicode="&#x15d;" horiz-adv-x="538" 
d="M418 335q-4 0 -4 5q8 42 -20 66.5t-89 24.5q-57 0 -86 -20.5t-33 -43.5q-4 -21 6 -33t27 -18t38 -8.5t39 -5.5q37 -5 75 -11t67 -21t44.5 -43t7.5 -76q-8 -43 -30 -73.5t-55 -50t-75 -28.5t-89 -9q-57 0 -97 14t-63.5 38t-32 56t-2.5 68q2 5 6 5h84q7 0 5 -5
q-6 -38 24.5 -64.5t90.5 -26.5q19 0 41.5 2.5t42.5 11t35 23.5t20 39q4 21 -7.5 33.5t-30 19t-39.5 9t-37 4.5q-35 4 -72.5 10.5t-66 22t-44 43t-7.5 74.5q5 31 24 58t49 47t69.5 32t86.5 12q46 0 84.5 -11t64 -33t37 -55t3.5 -77q0 -5 -5 -5h-86zM374 589q-4 0 -7 4l-22 41
q-4 9 -11 0l-36 -41q-2 -3 -4.5 -3.5t-4.5 -0.5h-58q-8 0 -3 7l62 104q3 4 6 4h112q5 0 6 -4l25 -104q1 -3 -1.5 -5t-5.5 -2h-58z" />
    <glyph glyph-name="Scedilla" unicode="&#x15e;" horiz-adv-x="630" 
d="M508 511q4 25 -3 46.5t-24 37.5t-43.5 25t-59.5 9q-30 0 -57.5 -8.5t-50 -24t-37.5 -37t-19 -46.5q-6 -31 5.5 -49.5t32 -29.5t47 -16t51.5 -8q48 -6 94 -16.5t80 -33t50.5 -61.5t5.5 -101q-6 -33 -22 -65t-44.5 -60t-69.5 -48t-95 -29l-65 -41q-2 -2 -2 -5t4 -3
q13 0 26 -4t23 -13t15 -23t2 -34q-5 -31 -35 -56t-79 -25q-45 0 -62.5 25.5t-12.5 55.5q0 5 6 5h33q4 0 4 -5q-3 -16 7.5 -29.5t30.5 -13.5q24 0 39.5 13.5t18.5 29.5q3 14 -1 23.5t-11.5 15t-17 8t-17.5 2.5q-13 0 -15 3l-7 8q-3 4 -2 7t3 5l51 36q2 2 2.5 5.5t-4.5 3.5h-7
q-65 0 -112 16.5t-75.5 44.5t-39.5 64.5t-4 77.5q2 5 6 5h89q7 0 5 -6q-3 -19 3.5 -39.5t24 -38t47 -28.5t71.5 -11q40 0 72.5 10t57 27t39.5 39t20 47q6 34 -4 55t-31 34t-50 19t-61 9q-41 4 -84.5 14t-77 31.5t-51.5 58t-7 94.5q8 48 35.5 85.5t66.5 63t85 39t92 13.5
q48 0 90 -12.5t72 -37.5t45 -63.5t8 -89.5q0 -5 -6 -5h-90q-4 0 -4 5z" />
    <glyph glyph-name="scedilla" unicode="&#x15f;" horiz-adv-x="538" 
d="M427 335q-6 0 -4 5q8 42 -20 66.5t-89 24.5q-57 0 -86 -20.5t-33 -43.5q-4 -21 6 -33t27 -18t38 -8.5t39 -5.5q37 -5 75 -11t67 -21t44.5 -43t7.5 -76q-13 -72 -65.5 -110t-126.5 -47l-60 -39q-2 -2 -2 -5t4 -3q13 0 26 -4t23 -13t15 -23t2 -34q-6 -31 -36 -56t-79 -25
q-45 0 -62.5 25.5t-11.5 55.5q0 5 5 5h33q5 0 5 -5q-3 -16 7.5 -29.5t30.5 -13.5q24 0 39.5 13.5t18.5 29.5q2 14 -2 23.5t-11 15t-16.5 8t-17.5 2.5q-13 0 -15 3l-7 8q-3 4 -2 7t3 5l57 40q2 2 1.5 3.5t-2.5 1.5h-3q-57 0 -97 14t-64 38t-32 56t-2 68q2 5 6 5h84q7 0 5 -5
q-7 -38 24 -64.5t91 -26.5q19 0 41.5 2.5t42.5 11t35 23.5t20 39q4 21 -7.5 33.5t-30 19t-40 9t-36.5 4.5q-35 4 -72.5 10.5t-66 22t-44 43t-7.5 74.5q5 31 24 58t49 47t69.5 32t86.5 12q46 0 84.5 -11t64 -33t37 -55t3.5 -77q-2 -5 -5 -5h-86z" />
    <glyph glyph-name="Scaron" unicode="&#x160;" horiz-adv-x="630" 
d="M500 511q4 25 -3.5 46.5t-24.5 37.5t-43.5 25t-59.5 9q-30 0 -57.5 -8.5t-49.5 -24t-37.5 -37t-19.5 -46.5q-6 -31 5.5 -49.5t32 -29.5t47 -16t52.5 -8q48 -6 94 -16.5t79.5 -33t50 -61.5t5.5 -101q-6 -38 -27 -75t-58 -66.5t-91 -48t-127 -18.5q-65 0 -112 16.5
t-76 44.5t-40 64.5t-4 77.5q2 5 6 5h89q7 0 5 -6q-3 -19 3.5 -39.5t24.5 -38t47.5 -28.5t71.5 -11q40 0 72.5 10t57 27t39.5 39t19 47q6 34 -4 55t-31 34t-50 19t-61 9q-41 4 -84.5 14t-77 31.5t-51 58t-7.5 94.5q8 48 35.5 85.5t66.5 63t85 39t92 13.5q48 0 90 -12.5
t72.5 -37.5t45.5 -63.5t8 -89.5q-2 -5 -6 -5h-90q-6 0 -4 5zM523 902q8 0 4 -7l-61 -104q-2 -4 -8 -4h-111q-4 0 -5 4l-26 104q-1 3 1.5 5t5.5 2h57q2 0 4 -0.5t4 -3.5l23 -41q4 -7 11 0l35 41q4 4 9 4h57z" />
    <glyph glyph-name="scaron" unicode="&#x161;" horiz-adv-x="544" 
d="M418 335q-4 0 -4 5q8 42 -20 66.5t-89 24.5q-57 0 -86 -20.5t-33 -43.5q-4 -21 6 -33t27 -18t38 -8.5t39 -5.5q37 -5 75 -11t67 -21t44.5 -43t7.5 -76q-8 -43 -30 -73.5t-55 -50t-75 -28.5t-89 -9q-57 0 -97 14t-63.5 38t-32 56t-2.5 68q2 5 6 5h84q7 0 5 -5
q-6 -38 24.5 -64.5t90.5 -26.5q19 0 41.5 2.5t42.5 11t35 23.5t20 39q4 21 -7.5 33.5t-30 19t-39.5 9t-37 4.5q-35 4 -72.5 10.5t-66 22t-44 43t-7.5 74.5q5 31 24 58t49 47t69.5 32t86.5 12q46 0 84.5 -11t64 -33t37 -55t3.5 -77q0 -5 -5 -5h-86zM466 704q8 0 4 -7
l-61 -104q-2 -4 -8 -4h-111q-4 0 -5 4l-26 104q-1 3 1.5 5t5.5 2h57q2 0 4 -0.5t4 -3.5l23 -41q4 -7 11 0l35 41q4 4 9 4h57z" />
    <glyph glyph-name="uni0162" unicode="&#x162;" horiz-adv-x="562" 
d="M216 -134q-4 0 -4 5l12 69q2 5 6 5h68q6 0 4 -5l-12 -71q-6 -34 -30 -55.5t-57 -21.5q-4 0 -4 5l5 29q2 5 6 5q9 0 19.5 7t13.5 23q0 5 -5 5h-22zM304 615q-2 4 -4 4h-193q-5 0 -5 5l14 75q0 5 6 5h491q4 0 4 -5l-14 -75q0 -5 -5 -5h-193q-6 0 -6 -5l-108 -609
q0 -5 -6 -5h-85q-4 0 -4 5z" />
    <glyph glyph-name="uni0163" unicode="&#x163;" horiz-adv-x="375" 
d="M161 -134q-4 0 -4 5l12 69q2 5 6 5h68q6 0 4 -5l-12 -71q-6 -34 -30 -55.5t-57 -21.5q-4 0 -4 5l5 29q2 5 6 5q9 0 19.5 7t13.5 23q0 5 -5 5h-22zM309 5q-2 -5 -6 -5h-77q-63 -2 -92 27t-18 91l54 308q0 5 -4 5h-89q-6 0 -4 5l11 65q2 5 6 5h89q4 0 6 5l24 135q0 5 6 5
h85q4 0 4 -5l-24 -135q-2 -5 4 -5h108q6 0 4 -5l-11 -65q-2 -5 -6 -5h-108q-6 0 -6 -5l-51 -291q-5 -23 5 -36.5t40 -13.5h59q4 0 4 -5z" />
    <glyph glyph-name="Tcaron" unicode="&#x164;" horiz-adv-x="562" 
d="M293 615q-2 4 -4 4h-193q-5 0 -5 5l14 75q0 5 6 5h491q4 0 4 -5l-14 -75q0 -5 -5 -5h-193q-6 0 -6 -5l-108 -609q0 -5 -6 -5h-85q-4 0 -4 5zM484 901q8 0 4 -7l-61 -104q-2 -4 -8 -4h-111q-4 0 -5 4l-26 104q-1 3 1.5 5t5.5 2h57q2 0 4 -0.5t4 -3.5l23 -41q4 -7 11 0
l35 41q4 4 9 4h57z" />
    <glyph glyph-name="tcaron" unicode="&#x165;" horiz-adv-x="375" 
d="M287 625q-4 0 -4 5l12 69q2 5 6 5h68q6 0 4 -5l-12 -71q-6 -34 -30 -55.5t-57 -21.5q-4 0 -4 5l5 29q2 5 6 5q9 0 19.5 7t13.5 23q0 5 -5 5h-22zM243 5q-2 -5 -6 -5h-77q-63 -2 -92 27t-18 91l54 308q0 5 -4 5h-89q-6 0 -4 5l11 65q2 5 6 5h89q4 0 6 5l24 135q0 5 6 5h85
q4 0 4 -5l-24 -135q-2 -5 4 -5h108q6 0 4 -5l-11 -65q-2 -5 -6 -5h-108q-6 0 -6 -5l-51 -291q-5 -23 5 -36.5t40 -13.5h59q4 0 4 -5z" />
    <glyph glyph-name="Tbar" unicode="&#x166;" horiz-adv-x="562" 
d="M293 615q-2 4 -4 4h-193q-5 0 -5 5l14 75q0 5 6 5h491q4 0 4 -5l-14 -75q0 -5 -5 -5h-193q-6 0 -6 -5l-18 -103q-2 -5 4 -5h156q4 0 4 -5l-10 -55q0 -5 -6 -5h-156q-4 0 -6 -5l-76 -431q0 -5 -6 -5h-85q-4 0 -4 5l76 431q2 5 -4 5h-156q-4 0 -4 5l10 55q0 5 6 5h156
q4 0 6 5z" />
    <glyph glyph-name="tbar" unicode="&#x167;" horiz-adv-x="375" 
d="M203 135q-5 -23 5 -36.5t40 -13.5h59q4 0 4 -5l-13 -75q-2 -5 -6 -5h-77q-63 -2 -92 27t-18 91l22 129q2 5 -4 5h-89q-4 0 -4 5l12 65q0 5 6 5h89q5 0 5 5l17 94q0 5 -4 5h-89q-6 0 -4 5l11 65q2 5 6 5h89q4 0 6 5l24 135q0 5 6 5h85q4 0 4 -5l-24 -135q-2 -5 4 -5h108
q6 0 4 -5l-11 -65q-2 -5 -6 -5h-108q-6 0 -6 -5l-17 -94q0 -5 5 -5h108q4 0 4 -5l-12 -65q0 -5 -6 -5h-108q-4 0 -6 -5z" />
    <glyph glyph-name="Utilde" unicode="&#x168;" horiz-adv-x="641" 
d="M159 239q-6 -32 1 -61.5t24.5 -52.5t43.5 -36.5t58 -13.5t62.5 13.5t55.5 36.5t42 52.5t23 61.5l81 460q2 5 6 5h85q6 0 4 -5l-81 -460q-9 -52 -36.5 -97.5t-67 -79t-88.5 -53t-101 -19.5t-94.5 19.5t-70.5 53t-39.5 79t-2.5 97.5l81 460q2 5 6 5h85q6 0 4 -5zM257 811
q3 13 10.5 28t21.5 28t35 21.5t51 8.5q22 0 37 -7t26 -16t19 -16t16 -7q3 0 8.5 0.5t11.5 4t11.5 12t8.5 24.5q0 5 6 5h60q4 0 4 -5l-5 -24q-2 -13 -9.5 -28t-22 -27.5t-35.5 -21t-50 -8.5q-20 0 -34.5 7t-26 16t-20 16t-17.5 7q-3 0 -8.5 -0.5t-11.5 -4t-11.5 -12
t-8.5 -24.5q0 -5 -6 -5h-60q-4 0 -4 5z" />
    <glyph glyph-name="utilde" unicode="&#x169;" horiz-adv-x="579" 
d="M401 0q-4 0 -4 5l-3 45q0 5 -4 4t-6 -3q-9 -10 -23 -20.5t-32.5 -19.5t-40.5 -15t-46 -6q-62 0 -100.5 18.5t-58 50.5t-23 75t4.5 92l49 275q2 5 6 5h85q6 0 4 -5l-49 -275q-5 -29 -3 -56t14 -48t35.5 -34t60.5 -13q31 0 58 12.5t47.5 33.5t34 48.5t18.5 56.5l49 275
q2 5 6 5h85q6 0 4 -5l-87 -496q-2 -5 -6 -5h-75zM192 618q3 13 10.5 28t21.5 28t35 21.5t51 8.5q22 0 37 -7t26 -16t19 -16t16 -7q3 0 8.5 0.5t11.5 4t11.5 12t8.5 24.5q0 5 6 5h60q4 0 4 -5l-5 -24q-2 -13 -9.5 -28t-22 -27.5t-35.5 -21t-50 -8.5q-20 0 -34.5 7t-26 16
t-20 16t-17.5 7q-3 0 -8.5 -0.5t-11.5 -4t-11.5 -12t-8.5 -24.5q0 -5 -6 -5h-60q-4 0 -4 5z" />
    <glyph glyph-name="Umacron" unicode="&#x16a;" horiz-adv-x="641" 
d="M159 239q-6 -32 1 -61.5t24.5 -52.5t43.5 -36.5t58 -13.5t62.5 13.5t55.5 36.5t42 52.5t23 61.5l81 460q2 5 6 5h85q6 0 4 -5l-81 -460q-9 -52 -36.5 -97.5t-67 -79t-88.5 -53t-101 -19.5t-94.5 19.5t-70.5 53t-39.5 79t-2.5 97.5l81 460q2 5 6 5h85q6 0 4 -5zM286 783
q-3 0 -3 5l11 58q0 5 4 5h246q5 0 5 -5l-11 -58q0 -5 -6 -5h-246z" />
    <glyph glyph-name="umacron" unicode="&#x16b;" horiz-adv-x="579" 
d="M401 0q-4 0 -4 5l-3 45q0 5 -4 4t-6 -3q-9 -10 -23 -20.5t-32.5 -19.5t-40.5 -15t-46 -6q-62 0 -100.5 18.5t-58 50.5t-23 75t4.5 92l49 275q2 5 6 5h85q6 0 4 -5l-49 -275q-5 -29 -3 -56t14 -48t35.5 -34t60.5 -13q31 0 58 12.5t47.5 33.5t34 48.5t18.5 56.5l49 275
q2 5 6 5h85q6 0 4 -5l-87 -496q-2 -5 -6 -5h-75zM231 589q-3 0 -3 5l11 58q0 5 4 5h246q5 0 5 -5l-11 -58q0 -5 -6 -5h-246z" />
    <glyph glyph-name="Ubreve" unicode="&#x16c;" horiz-adv-x="641" 
d="M159 239q-6 -32 1 -61.5t24.5 -52.5t43.5 -36.5t58 -13.5t62.5 13.5t55.5 36.5t42 52.5t23 61.5l81 460q2 5 6 5h85q6 0 4 -5l-81 -460q-9 -52 -36.5 -97.5t-67 -79t-88.5 -53t-101 -19.5t-94.5 19.5t-70.5 53t-39.5 79t-2.5 97.5l81 460q2 5 6 5h85q6 0 4 -5zM538 898
q4 0 4 -5q-6 -31 -20 -52t-33 -34t-40 -18.5t-41 -5.5t-39 5.5t-33 18.5t-21 34t-1 52q0 5 6 5h62q4 0 4 -5q-4 -21 8.5 -29.5t26.5 -8.5t29 8.5t19 29.5q0 5 6 5h63z" />
    <glyph glyph-name="ubreve" unicode="&#x16d;" horiz-adv-x="579" 
d="M401 0q-4 0 -4 5l-3 45q0 5 -4 4t-6 -3q-9 -10 -23 -20.5t-32.5 -19.5t-40.5 -15t-46 -6q-62 0 -100.5 18.5t-58 50.5t-23 75t4.5 92l49 275q2 5 6 5h85q6 0 4 -5l-49 -275q-5 -29 -3 -56t14 -48t35.5 -34t60.5 -13q31 0 58 12.5t47.5 33.5t34 48.5t18.5 56.5l49 275
q2 5 6 5h85q6 0 4 -5l-87 -496q-2 -5 -6 -5h-75zM483 704q4 0 4 -5q-6 -31 -20 -52t-33 -34t-40 -18.5t-41 -5.5t-39 5.5t-33 18.5t-21 34t-1 52q0 5 6 5h62q4 0 4 -5q-4 -21 8.5 -29.5t26.5 -8.5t29 8.5t19 29.5q0 5 6 5h63z" />
    <glyph glyph-name="Uring" unicode="&#x16e;" horiz-adv-x="641" 
d="M159 239q-6 -32 1 -61.5t24.5 -52.5t43.5 -36.5t58 -13.5t62.5 13.5t55.5 36.5t42 52.5t23 61.5l81 460q2 5 6 5h85q6 0 4 -5l-81 -460q-9 -52 -36.5 -97.5t-67 -79t-88.5 -53t-101 -19.5t-94.5 19.5t-70.5 53t-39.5 79t-2.5 97.5l81 460q2 5 6 5h85q6 0 4 -5zM505 824
q-3 -18 -13 -34t-24.5 -27.5t-31.5 -18.5t-35 -7q-36 0 -57 25.5t-14 61.5q3 18 12.5 34t23.5 28t31 19t35 7q36 0 57.5 -26t15.5 -62zM462 824q3 19 -7.5 32t-29.5 13t-34.5 -13t-18.5 -32q-4 -19 7 -32t30 -13t34 13t19 32z" />
    <glyph glyph-name="uring" unicode="&#x16f;" horiz-adv-x="579" 
d="M401 0q-4 0 -4 5l-3 45q0 5 -4 4t-6 -3q-9 -10 -23 -20.5t-32.5 -19.5t-40.5 -15t-46 -6q-62 0 -100.5 18.5t-58 50.5t-23 75t4.5 92l49 275q2 5 6 5h85q6 0 4 -5l-49 -275q-5 -29 -3 -56t14 -48t35.5 -34t60.5 -13q31 0 58 12.5t47.5 33.5t34 48.5t18.5 56.5l49 275
q2 5 6 5h85q6 0 4 -5l-87 -496q-2 -5 -6 -5h-75zM439 625q-3 -18 -13 -34t-24.5 -27.5t-31.5 -18.5t-35 -7q-36 0 -57 25.5t-14 61.5q3 18 12.5 34t23.5 28t31 19t35 7q36 0 57.5 -26t15.5 -62zM396 625q3 19 -7.5 32t-29.5 13t-34.5 -13t-18.5 -32q-4 -19 7 -32t30 -13
t34 13t19 32z" />
    <glyph glyph-name="Uhungarumlaut" unicode="&#x170;" horiz-adv-x="641" 
d="M159 239q-6 -32 1 -61.5t24.5 -52.5t43.5 -36.5t58 -13.5t62.5 13.5t55.5 36.5t42 52.5t23 61.5l81 460q2 5 6 5h85q6 0 4 -5l-81 -460q-9 -52 -36.5 -97.5t-67 -79t-88.5 -53t-101 -19.5t-94.5 19.5t-70.5 53t-39.5 79t-2.5 97.5l81 460q2 5 6 5h85q6 0 4 -5zM235 759
q-5 0 -3 5l52 132q0 5 7 5h109q3 0 3 -5l-52 -132q-2 -5 -7 -5h-109zM455 759q-5 0 -3 5l52 132q0 5 7 5h109q3 0 3 -5l-52 -132q-2 -5 -7 -5h-109z" />
    <glyph glyph-name="uhungarumlaut" unicode="&#x171;" horiz-adv-x="579" 
d="M401 0q-4 0 -4 5l-3 45q0 5 -4 4t-6 -3q-9 -10 -23 -20.5t-32.5 -19.5t-40.5 -15t-46 -6q-62 0 -100.5 18.5t-58 50.5t-23 75t4.5 92l49 275q2 5 6 5h85q6 0 4 -5l-49 -275q-5 -29 -3 -56t14 -48t35.5 -34t60.5 -13q31 0 58 12.5t47.5 33.5t34 48.5t18.5 56.5l49 275
q2 5 6 5h85q6 0 4 -5l-87 -496q-2 -5 -6 -5h-75zM170 562q-5 0 -3 5l52 132q0 5 7 5h109q3 0 3 -5l-52 -132q-2 -5 -7 -5h-109zM390 562q-5 0 -3 5l52 132q0 5 7 5h109q3 0 3 -5l-52 -132q-2 -5 -7 -5h-109z" />
    <glyph glyph-name="Uogonek" unicode="&#x172;" horiz-adv-x="641" 
d="M167 239q-6 -32 1 -61.5t24.5 -52.5t43.5 -36.5t58 -13.5t62.5 13.5t55.5 36.5t42 52.5t23 61.5l81 460q2 5 6 5h85q6 0 4 -5l-81 -460q-11 -63 -47.5 -115.5t-90.5 -87.5q-15 -10 -30.5 -19t-29 -20t-23.5 -25.5t-13 -33.5q-5 -31 12.5 -46t49.5 -15h14q4 0 4 -5
l-12 -65q0 -5 -6 -5h-24q-59 0 -91.5 25.5t-24.5 73.5q6 44 42 80q4 4 3 7.5t-6 2.5q-7 -1 -11 -1h-9q-52 0 -94.5 19.5t-70.5 53t-39.5 79t-2.5 97.5l81 460q2 5 6 5h85q6 0 4 -5z" />
    <glyph glyph-name="uogonek" unicode="&#x173;" horiz-adv-x="579" 
d="M467 0q-29 0 -52 -19t-28 -43q-5 -31 12 -46t49 -15h14q6 0 4 -5l-11 -65q-2 -5 -6 -5h-24q-29 0 -52.5 6.5t-39 19.5t-22.5 31t-3 42q7 35 29.5 60.5t61.5 38.5q5 2 5 8l-1 42q0 5 -4.5 4t-6.5 -3q-9 -10 -23 -20.5t-32.5 -19.5t-40.5 -15t-46 -6q-62 0 -100.5 18.5
t-58 50.5t-23 75t5.5 92l48 275q2 5 6 5h85q6 0 4 -5l-48 -275q-5 -29 -3 -56t14 -48t35 -34t60 -13q31 0 58 12.5t47.5 33.5t34.5 48.5t19 56.5l48 275q2 5 6 5h85q6 0 4 -5l-87 -496q-2 -5 -6 -5h-17z" />
    <glyph glyph-name="Wcircumflex" unicode="&#x174;" horiz-adv-x="968" 
d="M673 100q0 -5 4 -5t6 5l216 599q2 5 6 5h91q6 0 5 -5l-261 -694q-2 -5 -7 -5h-152q-2 0 -4 5l-23 598q0 4 -4 4t-6 -4l-235 -598q-2 -5 -6 -5h-152q-3 0 -5 5l-15 694q-1 3 2 4t5 1h91q2 0 4 -5l4 -599q0 -5 4 -5t6 5l230 599q2 5 6 5h168q2 0 4 -5zM614 783q-4 0 -7 4
l-22 41q-4 9 -11 0l-36 -41q-2 -3 -4.5 -3.5t-4.5 -0.5h-58q-8 0 -3 7l62 104q3 4 6 4h112q5 0 6 -4l25 -104q1 -3 -1.5 -5t-5.5 -2h-58z" />
    <glyph glyph-name="wcircumflex" unicode="&#x175;" horiz-adv-x="830" 
d="M495 0q-2 0 -4 5l-27 399q0 4 -4 4t-6 -4l-166 -399q-2 -5 -6 -5h-127q-3 0 -5 5l-31 496q-1 5 6 5h85q3 0 5 -5l16 -402q0 -4 4 -4t6 4l170 402q2 5 5 5h123q3 0 5 -5l28 -402q0 -4 4 -4t6 4l158 402q2 5 5 5h85q7 0 6 -5l-207 -496q-2 -5 -7 -5h-127zM530 589
q-4 0 -7 4l-22 41q-4 9 -11 0l-36 -41q-2 -3 -4.5 -3.5t-4.5 -0.5h-58q-8 0 -3 7l62 104q3 4 6 4h112q5 0 6 -4l25 -104q1 -3 -1.5 -5t-5.5 -2h-58z" />
    <glyph glyph-name="Ycircumflex" unicode="&#x176;" horiz-adv-x="679" 
d="M405 313q-5 -6 -5 -10l-53 -298q0 -5 -6 -5h-85q-4 0 -4 5l53 298q0 2 -3 10l-168 386q-3 5 4 5h101q4 0 7 -5l120 -285q5 -7 10 0l223 285q4 5 11 5h99q5 0 2 -5zM489 783q-4 0 -7 4l-22 41q-4 9 -11 0l-36 -41q-2 -3 -4.5 -3.5t-4.5 -0.5h-58q-8 0 -3 7l62 104q3 4 6 4
h112q5 0 6 -4l25 -104q1 -3 -1.5 -5t-5.5 -2h-58z" />
    <glyph glyph-name="ycircumflex" unicode="&#x177;" horiz-adv-x="561" 
d="M2 -118q2 5 6 5h113q45 0 63.5 25.5t11.5 65.5l-4 27l-82 496q0 5 7 5h91q4 0 4 -5l60 -402q1 -4 4.5 -4t5.5 4l203 402q3 5 6 5h91q7 0 4 -5l-259 -501l-44 -87q-17 -30 -32.5 -51.5t-33.5 -34.5t-41 -19t-53 -6h-129q-6 0 -4 5l12 75v0zM356 589q-4 0 -7 4l-22 41
q-4 9 -11 0l-36 -41q-2 -3 -4.5 -3.5t-4.5 -0.5h-58q-8 0 -3 7l62 104q3 4 6 4h112q5 0 6 -4l25 -104q1 -3 -1.5 -5t-5.5 -2h-58z" />
    <glyph glyph-name="Ydieresis" unicode="&#x178;" horiz-adv-x="679" 
d="M405 313q-5 -6 -5 -10l-53 -298q0 -5 -6 -5h-85q-4 0 -4 5l53 298q0 2 -3 10l-168 386q-3 5 4 5h101q4 0 7 -5l120 -285q5 -7 10 0l223 285q4 5 11 5h99q5 0 2 -5zM368 791q0 -5 -6 -5h-105q-4 0 -4 5l19 104q0 5 6 5h105q4 0 4 -5zM612 791q0 -5 -6 -5h-105q-4 0 -4 5
l19 104q0 5 6 5h105q4 0 4 -5z" />
    <glyph glyph-name="Zacute" unicode="&#x179;" horiz-adv-x="585" 
d="M7 75q1 8 2 9.5t3 3.5l474 525q4 6 -1 6h-377q-5 0 -5 5l14 75q0 5 6 5h490q4 0 4 -5l-13 -70q-1 -8 -1.5 -9.5t-2.5 -3.5l-476 -526q-3 -5 1 -5h378q5 0 5 -5l-14 -75q0 -5 -6 -5h-489q-4 0 -4 5zM312 783q-8 0 -3 7l60 101l4.5 4.5t7.5 2.5h87q8 0 3 -7l-89 -101
q-2 -2 -5.5 -4.5t-7.5 -2.5h-57z" />
    <glyph glyph-name="zacute" unicode="&#x17a;" horiz-adv-x="488" 
d="M16 80l2.5 5t3.5 5l325 323q2 2 1.5 5t-4.5 3h-252q-4 0 -4 5l14 75q0 5 5 5h369q5 0 5 -5l-14 -75q0 -3 -5 -10l-323 -323q-3 -2 -2 -5t4 -3h274q6 0 4 -5l-13 -75q0 -5 -6 -5h-393q-4 0 -4 5zM240 589q-8 0 -3 7l60 101l4.5 4.5t7.5 2.5h87q8 0 3 -7l-89 -101
q-2 -2 -5.5 -4.5t-7.5 -2.5h-57z" />
    <glyph glyph-name="Zdotaccent" unicode="&#x17b;" horiz-adv-x="585" 
d="M7 75q1 8 2 9.5t3 3.5l474 525q4 6 -1 6h-377q-5 0 -5 5l14 75q0 5 6 5h490q4 0 4 -5l-13 -70q-1 -8 -1.5 -9.5t-2.5 -3.5l-476 -526q-3 -5 1 -5h378q5 0 5 -5l-14 -75q0 -5 -6 -5h-489q-4 0 -4 5zM286 802q-4 0 -4 5l23 132q2 5 6 5h129q6 0 4 -5l-23 -132q0 -5 -6 -5
h-129z" />
    <glyph glyph-name="zdotaccent" unicode="&#x17c;" horiz-adv-x="488" 
d="M16 80l2.5 5t3.5 5l325 323q2 2 1.5 5t-4.5 3h-252q-4 0 -4 5l14 75q0 5 5 5h369q5 0 5 -5l-14 -75q0 -3 -5 -10l-323 -323q-3 -2 -2 -5t4 -3h274q6 0 4 -5l-13 -75q0 -5 -6 -5h-393q-4 0 -4 5zM231 562q-6 0 -4 5l23 132q0 5 6 5h129q4 0 4 -5l-23 -132q-2 -5 -6 -5
h-129z" />
    <glyph glyph-name="Zcaron" unicode="&#x17d;" horiz-adv-x="585" 
d="M7 75q1 8 2 9.5t3 3.5l474 525q4 6 -1 6h-377q-5 0 -5 5l14 75q0 5 6 5h490q4 0 4 -5l-13 -70q-1 -8 -1.5 -9.5t-2.5 -3.5l-476 -526q-3 -5 1 -5h378q5 0 5 -5l-14 -75q0 -5 -6 -5h-489q-4 0 -4 5zM489 901q8 0 4 -7l-61 -104q-2 -4 -8 -4h-111q-4 0 -5 4l-26 104
q-1 3 1.5 5t5.5 2h57q2 0 4 -0.5t4 -3.5l23 -41q4 -7 11 0l35 41q4 4 9 4h57z" />
    <glyph glyph-name="zcaron" unicode="&#x17e;" horiz-adv-x="488" 
d="M16 80l2.5 5t3.5 5l325 323q2 2 1.5 5t-4.5 3h-252q-4 0 -4 5l14 75q0 5 5 5h369q5 0 5 -5l-14 -75q0 -3 -5 -10l-323 -323q-3 -2 -2 -5t4 -3h274q6 0 4 -5l-13 -75q0 -5 -6 -5h-393q-4 0 -4 5zM410 704q8 0 4 -7l-61 -104q-2 -4 -8 -4h-111q-4 0 -5 4l-26 104
q-1 3 1.5 5t5.5 2h57q2 0 4 -0.5t4 -3.5l23 -41q4 -7 11 0l35 41q4 4 9 4h57z" />
    <glyph glyph-name="longs" unicode="&#x17f;" horiz-adv-x="365" 
d="M404 624q0 -5 -5 -5h-66q-23 0 -37.5 -13.5t-18.5 -36.5l-100 -564q0 -5 -6 -5h-85q-4 0 -4 5l75 421q0 5 -5 5h-89q-4 0 -4 5l12 65q0 5 6 5h89q4 0 6 5l13 75q21 121 162 118h67q4 0 4 -5z" />
    <glyph glyph-name="florin" unicode="&#x192;" horiz-adv-x="520" 
d="M-38 -118q3 5 7 5h58q29 0 46.5 13.5t25.5 36.5l181 490q2 4 -3 4h-89q-5 0 -3 5l25 65q0 5 6 5h89q5 0 7 5l28 75q23 62 69 91t115 27h67q6 0 3 -5l-27 -75q-2 -5 -7 -5h-66q-23 0 -40 -13.5t-25 -36.5l-22 -58q-2 -5 3 -5h108q4 0 4 -5l-25 -65q-2 -5 -7 -5h-108
q-4 0 -7 -5l-187 -506q-23 -62 -68 -91t-106 -27h-76q-5 0 -3 5z" />
    <glyph glyph-name="uni0218" unicode="&#x218;" horiz-adv-x="630" 
d="M508 511q4 25 -3 46.5t-24 37.5t-43.5 25t-59.5 9q-30 0 -57.5 -8.5t-50 -24t-37.5 -37t-19 -46.5q-6 -31 5.5 -49.5t32 -29.5t47 -16t51.5 -8q48 -6 94 -16.5t80 -33t50.5 -61.5t5.5 -101q-7 -38 -28 -75t-58 -66.5t-91 -48t-127 -18.5q-65 0 -112 16.5t-75.5 44.5
t-39.5 64.5t-4 77.5q2 5 6 5h89q7 0 5 -6q-3 -19 3.5 -39.5t24 -38t47 -28.5t71.5 -11q40 0 72.5 10t57 27t39.5 39t20 47q6 34 -4 55t-31 34t-50 19t-61 9q-41 4 -84.5 14t-77 31.5t-51.5 58t-7 94.5q8 48 35.5 85.5t66.5 63t85 39t92 13.5q48 0 90 -12.5t72 -37.5
t45 -63.5t8 -89.5q0 -5 -6 -5h-90q-4 0 -4 5zM223 -134q-5 0 -5 5l13 69q0 5 5 5h68q5 0 5 -5l-13 -71q-6 -34 -29.5 -55.5t-56.5 -21.5q-5 0 -5 5l6 29q0 5 5 5q9 0 19.5 7t13.5 23q0 5 -4 5h-22z" />
    <glyph glyph-name="uni0219" unicode="&#x219;" horiz-adv-x="538" 
d="M427 335q-6 0 -4 5q8 42 -20 66.5t-89 24.5q-57 0 -86 -20.5t-33 -43.5q-4 -21 6 -33t27 -18t38 -8.5t39 -5.5q37 -5 75 -11t67 -21t44.5 -43t7.5 -76q-8 -43 -30.5 -73.5t-55.5 -50t-74.5 -28.5t-88.5 -9q-57 0 -97 14t-64 38t-32 56t-2 68q2 5 6 5h84q7 0 5 -5
q-7 -38 24 -64.5t91 -26.5q19 0 41.5 2.5t42.5 11t35 23.5t20 39q4 21 -7.5 33.5t-30 19t-40 9t-36.5 4.5q-35 4 -72.5 10.5t-66 22t-44 43t-7.5 74.5q5 31 24 58t49 47t69.5 32t86.5 12q46 0 84.5 -11t64 -33t37 -55t3.5 -77q-2 -5 -5 -5h-86zM191 -134q-4 0 -4 5l12 69
q2 5 6 5h68q6 0 4 -5l-12 -71q-6 -34 -30 -55.5t-57 -21.5q-4 0 -4 5l5 29q2 5 6 5q9 0 19.5 7t12.5 23q2 5 -4 5h-22z" />
    <glyph glyph-name="uni021A" unicode="&#x21a;" horiz-adv-x="562" 
d="M216 -134q-4 0 -4 5l12 69q2 5 6 5h68q6 0 4 -5l-12 -71q-6 -34 -30 -55.5t-57 -21.5q-4 0 -4 5l5 29q2 5 6 5q9 0 19.5 7t13.5 23q0 5 -5 5h-22zM304 615q-2 4 -4 4h-193q-5 0 -5 5l14 75q0 5 6 5h491q4 0 4 -5l-14 -75q0 -5 -5 -5h-193q-6 0 -6 -5l-108 -609
q0 -5 -6 -5h-85q-4 0 -4 5z" />
    <glyph glyph-name="uni021B" unicode="&#x21b;" horiz-adv-x="375" 
d="M161 -134q-4 0 -4 5l12 69q2 5 6 5h68q6 0 4 -5l-12 -71q-6 -34 -30 -55.5t-57 -21.5q-4 0 -4 5l5 29q2 5 6 5q9 0 19.5 7t13.5 23q0 5 -5 5h-22zM309 5q-2 -5 -6 -5h-77q-63 -2 -92 27t-18 91l54 308q0 5 -4 5h-89q-6 0 -4 5l11 65q2 5 6 5h89q4 0 6 5l24 135q0 5 6 5
h85q4 0 4 -5l-24 -135q-2 -5 4 -5h108q6 0 4 -5l-11 -65q-2 -5 -6 -5h-108q-6 0 -6 -5l-51 -291q-5 -23 5 -36.5t40 -13.5h59q4 0 4 -5z" />
    <glyph glyph-name="circumflex" unicode="&#x2c6;" horiz-adv-x="328" 
d="M240 589q-4 0 -7 4l-22 41q-4 9 -11 0l-36 -41q-2 -3 -4.5 -3.5t-4.5 -0.5h-58q-8 0 -3 7l62 104q3 4 6 4h112q5 0 6 -4l25 -104q1 -3 -1.5 -5t-5.5 -2h-58z" />
    <glyph glyph-name="caron" unicode="&#x2c7;" horiz-adv-x="328" 
d="M318 704q8 0 4 -7l-61 -104q-2 -4 -8 -4h-111q-4 0 -5 4l-26 104q-1 3 1.5 5t5.5 2h57q2 0 4 -0.5t4 -3.5l23 -41q4 -7 11 0l35 41q4 4 9 4h57z" />
    <glyph glyph-name="uni02C9" unicode="&#x2c9;" horiz-adv-x="386" 
d="M105 589q-3 0 -3 5l11 58q0 5 4 5h246q5 0 5 -5l-11 -58q0 -5 -6 -5h-246z" />
    <glyph glyph-name="breve" unicode="&#x2d8;" horiz-adv-x="355" 
d="M334 704q4 0 4 -5q-6 -31 -20 -52t-33 -34t-40 -18.5t-41 -5.5t-39 5.5t-33 18.5t-21 34t-1 52q0 5 6 5h62q4 0 4 -5q-4 -21 8.5 -29.5t26.5 -8.5t29 8.5t19 29.5q0 5 6 5h63z" />
    <glyph glyph-name="dotaccent" unicode="&#x2d9;" horiz-adv-x="262" 
d="M91 562q-6 0 -4 5l23 132q0 5 6 5h129q4 0 4 -5l-23 -132q-2 -5 -6 -5h-129z" />
    <glyph glyph-name="ring" unicode="&#x2da;" horiz-adv-x="266" 
d="M258 625q-3 -18 -13 -34t-24.5 -27.5t-31.5 -18.5t-35 -7q-36 0 -57 25.5t-14 61.5q3 18 12.5 34t23.5 28t31 19t35 7q36 0 57.5 -26t15.5 -62zM215 625q3 19 -7.5 32t-29.5 13t-34.5 -13t-18.5 -32q-4 -19 7 -32t30 -13t34 13t19 32z" />
    <glyph glyph-name="ogonek" unicode="&#x2db;" horiz-adv-x="275" 
d="M215 10q5 0 5 -5q-2 -5 -6 -5h-6q-32 0 -56.5 -18.5t-29.5 -43.5q-5 -31 12 -46t49 -15h14q6 0 4 -5l-11 -65q-2 -5 -6 -5h-24q-29 0 -52.5 6.5t-39 19.5t-22.5 31t-3 42q4 25 18.5 46t36 35t50 21.5t61.5 6.5h6z" />
    <glyph glyph-name="tilde" unicode="&#x2dc;" horiz-adv-x="457" 
d="M94 618q3 13 10.5 28t21.5 28t35 21.5t51 8.5q22 0 37 -7t26 -16t19 -16t16 -7q3 0 8.5 0.5t11.5 4t11.5 12t8.5 24.5q0 5 6 5h60q4 0 4 -5l-5 -24q-2 -13 -9.5 -28t-22 -27.5t-35.5 -21t-50 -8.5q-20 0 -34.5 7t-26 16t-20 16t-17.5 7q-3 0 -8.5 -0.5t-11.5 -4
t-11.5 -12t-8.5 -24.5q0 -5 -6 -5h-60q-4 0 -4 5z" />
    <glyph glyph-name="hungarumlaut" unicode="&#x2dd;" horiz-adv-x="449" 
d="M70 562q-5 0 -3 5l52 132q0 5 7 5h109q3 0 3 -5l-52 -132q-2 -5 -7 -5h-109zM290 562q-5 0 -3 5l52 132q0 5 7 5h109q3 0 3 -5l-52 -132q-2 -5 -7 -5h-109z" />
    <glyph glyph-name="uni0394" unicode="&#x394;" horiz-adv-x="710" 
d="M37 0q-4 0 -4 5l13 73q2 6 5 9l316 612q2 5 7 5h127q2 0 4 -5l97 -611q0 -2 1 -4.5t0 -5.5l-13 -73q0 -5 -6 -5h-547zM156 91q-4 -6 3 -6h333q7 0 7 7l-75 513q-1 4 -4.5 4t-5.5 -4z" />
    <glyph glyph-name="uni03A9" unicode="&#x3a9;" 
d="M425 5q0 -5 -6 -5h-411q-4 0 -4 5l123 694q0 5 6 5h411q4 0 4 -5zM508 681h-346l119 -306zM392 24l-120 305l-226 -305h346zM409 48l107 608q-56 -75 -114 -152t-112 -152zM264 352l-120 305l-107 -610z" />
    <glyph glyph-name="uni03BC" unicode="&#x3bc;" 
d="M425 5q0 -5 -6 -5h-411q-4 0 -4 5l123 694q0 5 6 5h411q4 0 4 -5zM508 681h-346l119 -306zM392 24l-120 305l-226 -305h346zM409 48l107 608q-56 -75 -114 -152t-112 -152zM264 352l-120 305l-107 -610z" />
    <glyph glyph-name="pi" unicode="&#x3c0;" 
d="M425 5q0 -5 -6 -5h-411q-4 0 -4 5l123 694q0 5 6 5h411q4 0 4 -5zM508 681h-346l119 -306zM392 24l-120 305l-226 -305h346zM409 48l107 608q-56 -75 -114 -152t-112 -152zM264 352l-120 305l-107 -610z" />
    <glyph glyph-name="Wgrave" unicode="&#x1e80;" horiz-adv-x="968" 
d="M673 100q0 -5 4 -5t6 5l216 599q2 5 6 5h91q6 0 5 -5l-261 -694q-2 -5 -7 -5h-152q-2 0 -4 5l-23 598q0 4 -4 4t-6 -4l-235 -598q-2 -5 -6 -5h-152q-3 0 -5 5l-15 694q-1 3 2 4t5 1h91q2 0 4 -5l4 -599q0 -5 4 -5t6 5l230 599q2 5 6 5h168q2 0 4 -5zM552 783q-7 0 -9 7
l-55 101q-1 3 1.5 5t5.5 2h87q8 0 8 -7l26 -101q1 -3 -1.5 -5t-5.5 -2h-57z" />
    <glyph glyph-name="wgrave" unicode="&#x1e81;" horiz-adv-x="830" 
d="M495 0q-2 0 -4 5l-27 399q0 4 -4 4t-6 -4l-166 -399q-2 -5 -6 -5h-127q-3 0 -5 5l-31 496q-1 5 6 5h85q3 0 5 -5l16 -402q0 -4 4 -4t6 4l170 402q2 5 5 5h123q3 0 5 -5l28 -402q0 -4 4 -4t6 4l158 402q2 5 5 5h85q7 0 6 -5l-207 -496q-2 -5 -7 -5h-127zM478 589
q-7 0 -9 7l-55 101q-1 3 1.5 5t5.5 2h87q8 0 8 -7l26 -101q1 -3 -1.5 -5t-5.5 -2h-57z" />
    <glyph glyph-name="Wacute" unicode="&#x1e82;" horiz-adv-x="968" 
d="M673 100q0 -5 4 -5t6 5l216 599q2 5 6 5h91q6 0 5 -5l-261 -694q-2 -5 -7 -5h-152q-2 0 -4 5l-23 598q0 4 -4 4t-6 -4l-235 -598q-2 -5 -6 -5h-152q-3 0 -5 5l-15 694q-1 3 2 4t5 1h91q2 0 4 -5l4 -599q0 -5 4 -5t6 5l230 599q2 5 6 5h168q2 0 4 -5zM534 783q-8 0 -3 7
l60 101l4.5 4.5t7.5 2.5h87q8 0 3 -7l-89 -101q-2 -2 -5.5 -4.5t-7.5 -2.5h-57z" />
    <glyph glyph-name="wacute" unicode="&#x1e83;" horiz-adv-x="830" 
d="M495 0q-2 0 -4 5l-27 399q0 4 -4 4t-6 -4l-166 -399q-2 -5 -6 -5h-127q-3 0 -5 5l-31 496q-1 5 6 5h85q3 0 5 -5l16 -402q0 -4 4 -4t6 4l170 402q2 5 5 5h123q3 0 5 -5l28 -402q0 -4 4 -4t6 4l158 402q2 5 5 5h85q7 0 6 -5l-207 -496q-2 -5 -7 -5h-127zM460 589
q-8 0 -3 7l60 101l4.5 4.5t7.5 2.5h87q8 0 3 -7l-89 -101q-2 -2 -5.5 -4.5t-7.5 -2.5h-57z" />
    <glyph glyph-name="Wdieresis" unicode="&#x1e84;" horiz-adv-x="968" 
d="M673 100q0 -5 4 -5t6 5l216 599q2 5 6 5h91q6 0 5 -5l-261 -694q-2 -5 -7 -5h-152q-2 0 -4 5l-23 598q0 4 -4 4t-6 -4l-235 -598q-2 -5 -6 -5h-152q-3 0 -5 5l-15 694q-1 3 2 4t5 1h91q2 0 4 -5l4 -599q0 -5 4 -5t6 5l230 599q2 5 6 5h168q2 0 4 -5zM509 834q0 -5 -5 -5
h-105q-5 0 -5 5l19 105q0 5 6 5h105q4 0 4 -5zM753 834q0 -5 -5 -5h-105q-5 0 -5 5l19 105q0 5 6 5h105q4 0 4 -5z" />
    <glyph glyph-name="wdieresis" unicode="&#x1e85;" horiz-adv-x="830" 
d="M495 0q-2 0 -4 5l-27 399q0 4 -4 4t-6 -4l-166 -399q-2 -5 -6 -5h-127q-3 0 -5 5l-31 496q-1 5 6 5h85q3 0 5 -5l16 -402q0 -4 4 -4t6 4l170 402q2 5 5 5h123q3 0 5 -5l28 -402q0 -4 4 -4t6 4l158 402q2 5 5 5h85q7 0 6 -5l-207 -496q-2 -5 -7 -5h-127zM425 595
q0 -5 -6 -5h-105q-4 0 -4 5l19 104q0 5 6 5h105q4 0 4 -5zM669 595q0 -5 -6 -5h-105q-4 0 -4 5l19 104q0 5 6 5h105q4 0 4 -5z" />
    <glyph glyph-name="endash" unicode="&#x2013;" horiz-adv-x="720" 
d="M139 211q-4 0 -4 5l14 75q0 5 5 5h445q5 0 5 -5l-14 -75q0 -5 -6 -5h-445z" />
    <glyph glyph-name="emdash" unicode="&#x2014;" horiz-adv-x="996" 
d="M139 211q-4 0 -4 5l14 75q0 5 5 5h721q5 0 5 -5l-14 -75q0 -5 -6 -5h-721z" />
    <glyph glyph-name="quoteleft" unicode="&#x2018;" horiz-adv-x="211" 
d="M200 581q6 0 4 -5l-25 -140q0 -5 -5 -5h-120q-5 0 -5 5l25 139q10 57 51 93t97 36q4 0 4 -5l-10 -55q0 -5 -6 -5q-15 0 -34 -13.5t-24 -39.5q-2 -5 4 -5h44z" />
    <glyph glyph-name="quoteright" unicode="&#x2019;" horiz-adv-x="211" 
d="M75 554q-4 0 -4 5l25 140q0 5 6 5h120q4 0 4 -5l-25 -139q-10 -57 -50.5 -93t-96.5 -36q-5 0 -5 5l10 55q2 5 6 5q15 0 34 13.5t24 39.5q2 5 -4 5h-44z" />
    <glyph glyph-name="quotesinglbase" unicode="&#x201a;" horiz-adv-x="271" 
d="M57 0q-4 0 -4 5l22 122q0 5 5 5h120q5 0 5 -5l-22 -121q-10 -57 -51 -93t-97 -36q-4 0 -4 5l10 55q2 5 6 5q15 0 34 13.5t24 39.5q2 5 -4 5h-44z" />
    <glyph glyph-name="quotedblleft" unicode="&#x201c;" horiz-adv-x="391" 
d="M380 581q6 0 4 -5l-25 -140q0 -5 -5 -5h-120q-5 0 -5 5l25 139q10 57 51 93t97 36q4 0 4 -5l-10 -55q0 -5 -6 -5q-15 0 -34 -13.5t-24 -39.5q-2 -5 4 -5h44zM200 581q6 0 4 -5l-25 -140q0 -5 -5 -5h-120q-5 0 -5 5l25 139q10 57 51 93t97 36q4 0 4 -5l-10 -55q0 -5 -6 -5
q-15 0 -34 -13.5t-24 -39.5q-2 -5 4 -5h44z" />
    <glyph glyph-name="quotedblright" unicode="&#x201d;" horiz-adv-x="391" 
d="M75 554q-4 0 -4 5l25 140q0 5 6 5h120q4 0 4 -5l-25 -139q-10 -57 -50.5 -93t-96.5 -36q-5 0 -5 5l10 55q2 5 6 5q15 0 34 13.5t24 39.5q2 5 -4 5h-44zM255 554q-4 0 -4 5l25 140q0 5 6 5h120q4 0 4 -5l-25 -139q-10 -57 -50.5 -93t-96.5 -36q-5 0 -5 5l10 55q2 5 6 5
q15 0 34 13.5t24 39.5q2 5 -4 5h-44z" />
    <glyph glyph-name="quotedblbase" unicode="&#x201e;" horiz-adv-x="444" 
d="M230 0q-6 0 -4 5l27 152q0 5 5 5h149q5 0 5 -5l-27 -151q-5 -25 -17 -48t-33.5 -41t-52.5 -29t-74 -11q-6 0 -4 5l10 55q0 5 6 5q45 0 64.5 17t22.5 36q0 5 -4 5h-73zM26 0q-6 0 -4 5l27 152q0 5 5 5h149q5 0 5 -5l-27 -151q-5 -25 -17 -48t-33.5 -41t-52.5 -29t-74 -11
q-4 0 -4 5l10 55q0 5 6 5q45 0 64.5 17t22.5 36q0 5 -4 5h-73z" />
    <glyph glyph-name="dagger" unicode="&#x2020;" horiz-adv-x="578" 
d="M290 506q6 0 6 5l34 189q0 5 6 5h85q4 0 4 -5l-34 -189q0 -5 4 -5h196q5 0 5 -5l-15 -85q-2 -5 -6 -5h-196q-6 0 -6 -5l-106 -599q0 -5 -6 -5h-85q-4 0 -4 5l106 599q0 5 -4 5h-196q-6 0 -4 5l15 85q0 5 5 5h196z" />
    <glyph glyph-name="daggerdbl" unicode="&#x2021;" horiz-adv-x="578" 
d="M5 1q-4 0 -4 5l15 85q2 5 6 5h196q4 0 6 5l54 305q0 5 -4 5h-196q-6 0 -4 5l15 85q0 5 5 5h196q6 0 6 5l34 189q0 5 6 5h85q4 0 4 -5l-34 -189q0 -5 4 -5h196q5 0 5 -5l-15 -85q-2 -5 -6 -5h-196q-6 0 -6 -5l-54 -305q-2 -5 4 -5h196q6 0 4 -5l-15 -85q0 -5 -6 -5h-196
q-4 0 -6 -5l-33 -189q0 -5 -6 -5h-85q-4 0 -4 5l33 189q2 5 -4 5h-196z" />
    <glyph glyph-name="bullet" unicode="&#x2022;" horiz-adv-x="791" 
d="M142 253q10 55 39 103t70.5 83.5t93 56t106.5 20.5t99.5 -20.5t73.5 -56t41.5 -83.5t2.5 -103t-39 -103t-71 -83.5t-93.5 -56t-106.5 -20.5t-99 20.5t-73.5 56t-41.5 83.5t-2 103z" />
    <glyph glyph-name="ellipsis" unicode="&#x2026;" horiz-adv-x="680" 
d="M52 0q-6 0 -4 5l21 122q2 5 6 5h120q6 0 4 -5l-21 -122q-2 -5 -6 -5h-120zM257 0q-6 0 -4 5l21 122q2 5 6 5h120q6 0 4 -5l-21 -122q-2 -5 -6 -5h-120zM461 0q-6 0 -4 5l21 122q2 5 6 5h120q6 0 4 -5l-21 -122q-2 -5 -6 -5h-120z" />
    <glyph glyph-name="perthousand" unicode="&#x2030;" horiz-adv-x="1192" 
d="M766 190q-8 -43 -21.5 -79.5t-35.5 -63.5t-52.5 -42t-72.5 -15t-67.5 15t-38 42t-14 63.5t6.5 79.5q7 42 21 78.5t36 63.5t53 42t73 15t67.5 -15t38 -42t13 -63.5t-6.5 -78.5zM702 190q11 66 -1.5 101.5t-57.5 35.5q-46 0 -71 -35.5t-36 -101.5t1 -102t58 -36
q45 0 70.5 36t36.5 102zM407 515q-8 -43 -21.5 -79.5t-35.5 -63.5t-52.5 -42t-72.5 -15t-67.5 15t-38 42t-14 63.5t6.5 79.5q7 42 21 78.5t36 63.5t53 42t73 15t67.5 -15t38 -42t13 -63.5t-6.5 -78.5zM343 515q12 66 -1 101.5t-58 35.5q-46 0 -70.5 -35.5t-36.5 -101.5
q-11 -66 1 -102t58 -36q45 0 70.5 36t36.5 102zM1116 190q-8 -43 -21.5 -79.5t-35.5 -63.5t-52.5 -42t-72.5 -15t-67.5 15t-38 42t-14 63.5t6.5 79.5q7 42 21 78.5t36 63.5t53 42t73 15t67.5 -15t38 -42t13 -63.5t-6.5 -78.5zM1052 190q11 66 -1.5 101.5t-57.5 35.5
q-46 0 -71 -35.5t-36 -101.5t1 -102t58 -36q45 0 70.5 36t36.5 102zM673 702q2 2 5 2h70q8 0 2 -8l-548 -694q-2 -2 -5 -2h-68q-8 0 -2 8z" />
    <glyph glyph-name="guilsinglleft" unicode="&#x2039;" horiz-adv-x="411" 
d="M168 258q-4 -4 -2 -9l169 -242q2 -7 -6 -7h-74q-4 0 -4 3l-169 246q-2 5 2 9l255 246q1 3 6 3h74q3 0 4 -2.5t-1 -4.5z" />
    <glyph glyph-name="guilsinglright" unicode="&#x203a;" horiz-adv-x="411" 
d="M124 500q0 7 7 7h74q2 0 4 -3l169 -246q2 -3 1.5 -4.5t-3.5 -4.5l-255 -246q-3 -3 -6 -3h-74q-6 0 -4 7l255 242q4 4 2 9z" />
    <glyph glyph-name="fraction" unicode="&#x2044;" horiz-adv-x="642" 
d="M549 702q2 2 5 2h54q8 0 2 -8l-548 -694q-2 -2 -5 -2h-52q-8 0 -2 8z" />
    <glyph glyph-name="franc" unicode="&#x20a3;" 
d="M425 5q0 -5 -6 -5h-411q-4 0 -4 5l123 694q0 5 6 5h411q4 0 4 -5zM508 681h-346l119 -306zM392 24l-120 305l-226 -305h346zM409 48l107 608q-56 -75 -114 -152t-112 -152zM264 352l-120 305l-107 -610z" />
    <glyph glyph-name="lira" unicode="&#x20a4;" 
d="M425 5q0 -5 -6 -5h-411q-4 0 -4 5l123 694q0 5 6 5h411q4 0 4 -5zM508 681h-346l119 -306zM392 24l-120 305l-226 -305h346zM409 48l107 608q-56 -75 -114 -152t-112 -152zM264 352l-120 305l-107 -610z" />
    <glyph glyph-name="peseta" unicode="&#x20a7;" 
d="M425 5q0 -5 -6 -5h-411q-4 0 -4 5l123 694q0 5 6 5h411q4 0 4 -5zM508 681h-346l119 -306zM392 24l-120 305l-226 -305h346zM409 48l107 608q-56 -75 -114 -152t-112 -152zM264 352l-120 305l-107 -610z" />
    <glyph glyph-name="Euro" unicode="&#x20ac;" horiz-adv-x="700" 
d="M124 223q0 7 -5 7h-76q-5 0 -2 5l33 75q3 5 7 5h41q4 0 6 5q0 4 1.5 14.5t3.5 22.5t4 22.5t4 15.5t-4 5h-64q-6 0 -3 5l33 75q3 5 8 5h55q6 0 6 4q21 51 50.5 92.5t68 71t86.5 45.5t106 16q63 0 102.5 -17t70.5 -52q4 -6 0 -14l-40 -80q-2 -3 -4.5 -3t-3.5 3
q-14 34 -49 56t-91 22q-69 0 -116 -32.5t-79 -106.5q-3 -5 4 -5h300q6 0 3 -5l-34 -75q-3 -5 -7 -5h-292q-4 0 -6 -5q-6 -19 -9.5 -37.5t-3.5 -37.5q-2 -5 4 -5h264q6 0 3 -5l-34 -75q-3 -5 -7 -5h-228q-6 0 -6 -7q4 -72 39.5 -110t107.5 -38q31 0 60.5 12.5t56 32
t48.5 43.5t38 48q3 4 7 3t3 -6l-20 -114l-2 -6t-5 -8q-16 -19 -39 -35.5t-49.5 -28.5t-55.5 -19t-57 -7q-59 0 -102 16.5t-71 47t-42.5 73.5t-16.5 96z" />
    <glyph glyph-name="uni2113" unicode="&#x2113;" horiz-adv-x="515" 
d="M468 212q5 0 5 -5l-8 -43q-6 -34 -24.5 -64t-44.5 -52t-58 -35t-66 -13q-30 0 -55 10t-43.5 27.5t-28.5 42t-10 53.5l-130 -110q-8 -6 -8 2l21 122q1 4 3 6l134 114l46 260q6 34 24 64t44.5 52t58.5 35t66 13q32 0 59.5 -12.5t47.5 -35.5q20 -24 26.5 -54t1.5 -62
t-22.5 -62t-45.5 -54l-217 -185l-11 -62q-5 -29 11.5 -49t44.5 -20t51 20t28 49l8 43q0 5 5 5h87zM421 575q-17 21 -44 21q-28 0 -51.5 -20t-28.5 -49l-27 -153q0 -7 8 -3l127 108q12 11 19 23.5t9 24.5q5 28 -12 48z" />
    <glyph glyph-name="trademark" unicode="&#x2122;" horiz-adv-x="466" 
d="M409 699q3 5 7 5h56q6 0 4 -5l-33 -188q0 -5 -6 -5h-26q-4 0 -4 5l27 154q1 2 -1 2.5t-4 -2.5l-67 -154q-2 -5 -7 -5h-43q-3 0 -5 5l-13 154q0 3 -2 2.5t-3 -2.5l-27 -154q0 -5 -6 -5h-26q-4 0 -4 5l33 188q2 5 6 5h56q5 0 5 -5l12 -157q0 -2 1.5 -2t3.5 2zM187 668
q-4 0 -6 -5l-27 -152q0 -5 -6 -5h-26q-4 0 -4 5l27 152q2 5 -4 5h-47q-6 0 -4 5l4 26q2 5 5 5h142q6 0 4 -5l-4 -26q-2 -5 -6 -5h-48z" />
    <glyph glyph-name="Omega" unicode="&#x2126;" 
d="M425 5q0 -5 -6 -5h-411q-4 0 -4 5l123 694q0 5 6 5h411q4 0 4 -5zM508 681h-346l119 -306zM392 24l-120 305l-226 -305h346zM409 48l107 608q-56 -75 -114 -152t-112 -152zM264 352l-120 305l-107 -610z" />
    <glyph glyph-name="estimated" unicode="&#x212e;" horiz-adv-x="523" 
d="M448 128q5 -2 1 -6q-38 -57 -97 -89.5t-121 -32.5q-45 0 -82 17.5t-62 47.5t-35 70t-2 85l9 51q8 45 32.5 85.5t59.5 70.5t78.5 47.5t88.5 17.5t82 -17.5t61.5 -47.5t35 -70.5t2.5 -85.5l-5 -28q-2 -5 -6 -5h-364q-6 0 -6 -5l-26 -146q22 -33 58.5 -52t83.5 -19
q57 0 111 30t91 81q4 4 7 3zM315 476q-47 0 -90 -19.5t-77 -51.5l-25 -145q-2 -5 4 -5h297q4 0 6 5l25 146q-23 32 -58.5 51t-81.5 19z" />
    <glyph glyph-name="arrowleft" unicode="&#x2190;" horiz-adv-x="760" 
d="M83 320q-4 4 -3 10l9 52q1 5 6 10l144 108q8 5 11.5 5.5t11.5 0.5h75q4 0 4.5 -3.5t-2.5 -5.5l-142 -104q-3 -2 -2.5 -3.5t2.5 -1.5h506q4 0 4 -5l-10 -54q0 -5 -6 -5h-506q-2 0 -2.5 -1.5t1.5 -3.5l105 -104q2 -2 0.5 -5.5t-5.5 -3.5h-75q-8 0 -12 0.5t-9 5.5z" />
    <glyph glyph-name="arrowup" unicode="&#x2191;" horiz-adv-x="445" 
d="M419 575q4 -6 4 -10t-2 -12l-13 -75q-1 -4 -4.5 -5t-5.5 2l-82 123q-2 3 -3.5 2.5t-1.5 -2.5l-105 -593q0 -5 -6 -5h-54q-4 0 -4 5l105 593q0 5 -5 0l-126 -123q-2 -3 -5.5 -2t-2.5 5l13 75q2 8 2.5 12t7.5 10l130 125q4 4 11 4h52q5 0 9 -4z" />
    <glyph glyph-name="arrowright" unicode="&#x2192;" horiz-adv-x="760" 
d="M547 212q-7 -5 -11 -5.5t-12 -0.5h-75q-4 0 -4.5 3.5t3.5 5.5l141 104q4 2 3.5 3.5t-2.5 1.5h-506q-4 0 -4 5l10 54q0 5 6 5h506q2 0 2.5 1.5t-2.5 3.5l-104 104q-3 2 -1.5 5.5t5.5 3.5h75q8 0 12 -0.5t9 -5.5l106 -108q3 -3 2 -10l-9 -52q-1 -6 -5 -10z" />
    <glyph glyph-name="arrowdown" unicode="&#x2193;" horiz-adv-x="445" 
d="M210 4q-4 -4 -11 -4h-52q-5 0 -9 4l-86 125q-4 6 -4 10t2 12l13 75q1 4 4.5 5t5.5 -2l82 -123q2 -3 3.5 -2.5t1.5 2.5l105 593q0 5 6 5h54q4 0 4 -5l-105 -593q0 -5 5 0l126 123q3 3 6 2t2 -5l-13 -75q-2 -8 -2.5 -12t-7.5 -10z" />
    <glyph glyph-name="carriagereturn" unicode="&#x21b5;" horiz-adv-x="760" 
d="M689 329q0 -5 -5 -5h-507q-2 0 -3 -1.5t2 -3.5l104 -104q3 -2 1.5 -5.5t-5.5 -3.5h-75q-8 0 -12 0.5t-9 5.5l-106 108q-3 3 -2 10l9 52q1 6 6 10l144 108q7 5 11 5.5t12 0.5h75q4 0 4.5 -3.5t-3.5 -5.5l-141 -104q-4 -2 -3.5 -3.5t2.5 -1.5h443q4 0 6 5l54 306q0 5 6 5
h54q4 0 4 -5z" />
    <glyph glyph-name="partialdiff" unicode="&#x2202;" 
d="M425 5q0 -5 -6 -5h-411q-4 0 -4 5l123 694q0 5 6 5h411q4 0 4 -5zM508 681h-346l119 -306zM392 24l-120 305l-226 -305h346zM409 48l107 608q-56 -75 -114 -152t-112 -152zM264 352l-120 305l-107 -610z" />
    <glyph glyph-name="Delta" unicode="&#x2206;" horiz-adv-x="710" 
d="M37 0q-4 0 -4 5l13 73q2 6 5 9l316 612q2 5 7 5h127q2 0 4 -5l97 -611q0 -2 1 -4.5t0 -5.5l-13 -73q0 -5 -6 -5h-547zM156 91q-4 -6 3 -6h333q7 0 7 7l-75 513q-1 4 -4.5 4t-5.5 -4z" />
    <glyph glyph-name="product" unicode="&#x220f;" 
d="M425 5q0 -5 -6 -5h-411q-4 0 -4 5l123 694q0 5 6 5h411q4 0 4 -5zM508 681h-346l119 -306zM392 24l-120 305l-226 -305h346zM409 48l107 608q-56 -75 -114 -152t-112 -152zM264 352l-120 305l-107 -610z" />
    <glyph glyph-name="summation" unicode="&#x2211;" 
d="M425 5q0 -5 -6 -5h-411q-4 0 -4 5l123 694q0 5 6 5h411q4 0 4 -5zM508 681h-346l119 -306zM392 24l-120 305l-226 -305h346zM409 48l107 608q-56 -75 -114 -152t-112 -152zM264 352l-120 305l-107 -610z" />
    <glyph glyph-name="minus" unicode="&#x2212;" horiz-adv-x="627" 
d="M62 208q-6 0 -4 5l14 80q0 5 6 5h496q4 0 4 -5l-14 -80q-2 -5 -6 -5h-496z" />
    <glyph glyph-name="uni2215" unicode="&#x2215;" horiz-adv-x="642" 
d="M549 702q2 2 5 2h54q8 0 2 -8l-548 -694q-2 -2 -5 -2h-52q-8 0 -2 8z" />
    <glyph glyph-name="uni2219" unicode="&#x2219;" horiz-adv-x="250" 
d="M55 276q-6 0 -4 5l26 151q2 5 6 5h149q6 0 4 -5l-26 -151q-2 -5 -6 -5h-149z" />
    <glyph glyph-name="radical" unicode="&#x221a;" horiz-adv-x="702" 
d="M196 416q-1 5 -6 5h-92q-4 0 -4 5l14 75q0 5 5 5h154q3 0 5 -5l41 -402q1 -4 4.5 -4t5.5 4l360 788q2 5 5 5h74q7 0 5 -5l-402 -882q-2 -5 -6 -5h-117q-3 0 -5 5z" />
    <glyph glyph-name="infinity" unicode="&#x221e;" horiz-adv-x="916" 
d="M472 285q-3 5 -10 0l-138 -94q-24 -16 -53.5 -28t-61.5 -12q-38 0 -68.5 14.5t-50.5 39.5t-28 58.5t-1 71.5q7 37 26.5 70t48 57.5t64 39t73.5 14.5q31 0 60.5 -10.5t48.5 -29.5l97 -98q3 -5 10 0l126 98q26 20 60.5 30t63.5 10q38 0 68.5 -14.5t50.5 -39t28.5 -57.5
t1.5 -70q-7 -38 -27 -71.5t-48.5 -58.5t-64 -39.5t-73.5 -14.5q-30 0 -56 11.5t-45 28.5zM727 446q-20 0 -39.5 -5t-33.5 -16l-127 -86q-5 -4 -1 -8l97 -85q30 -25 64 -25q24 0 46 9t40 24t30.5 36t16.5 45q8 46 -18.5 78.5t-74.5 32.5zM261 446q-24 0 -46 -9t-39.5 -24
t-30 -35t-16.5 -43q-4 -24 1 -45t17.5 -36t31 -24t42.5 -9q20 0 37.5 6.5t31.5 17.5l131 86q4 3 1 8l-95 85q-11 10 -28 16t-38 6z" />
    <glyph glyph-name="integral" unicode="&#x222b;" 
d="M425 5q0 -5 -6 -5h-411q-4 0 -4 5l123 694q0 5 6 5h411q4 0 4 -5zM508 681h-346l119 -306zM392 24l-120 305l-226 -305h346zM409 48l107 608q-56 -75 -114 -152t-112 -152zM264 352l-120 305l-107 -610z" />
    <glyph glyph-name="approxequal" unicode="&#x2248;" horiz-adv-x="531" 
d="M487 202q-4 -22 -16 -41.5t-30.5 -33.5t-42.5 -22.5t-52 -8.5q-29 0 -56.5 11t-53 24t-47.5 24t-40 11q-14 0 -27.5 -10.5t-15.5 -24.5l-6 -30q0 -5 -6 -5l-71 20q-5 2 -4 5l4 25q8 46 46 77t95 31q29 0 56.5 -11t53 -24.5t47.5 -24.5t41 -11q14 0 27.5 10t15.5 24l5 32
q2 5 6 5l72 -20q4 -1 4 -5zM525 418q-4 -22 -16 -41.5t-30 -33.5t-42 -22.5t-52 -8.5q-29 0 -56.5 11t-53 24t-48 24t-40.5 11q-14 0 -27.5 -10.5t-15.5 -24.5l-6 -30q0 -5 -5 -5l-72 20q-5 2 -4 5l4 25q8 46 46 77t95 31q29 0 56.5 -11t53 -24.5t47.5 -24.5t41 -11
q14 0 27.5 10t15.5 24l6 32q0 5 5 5l72 -20q5 -2 4 -5z" />
    <glyph glyph-name="notequal" unicode="&#x2260;" horiz-adv-x="531" 
d="M66 87q2 3 1 6t-4 3h-45q-6 0 -4 5l16 90q0 5 6 5h131q3 0 6 4l100 103q2 3 1 6t-4 3h-214q-4 0 -4 5l16 91q2 5 6 5h301q3 0 7 4l83 86q1 3 5 3h75q3 0 4.5 -2.5t-0.5 -4.5l-76 -78q-2 -2 -1 -5t4 -3h45q6 0 4 -5l-16 -91q0 -5 -6 -5h-130q-4 0 -9 -5l-100 -103
q-2 -2 -1 -5t4 -3h216q4 0 4 -5l-16 -90q-2 -5 -6 -5h-301q-2 0 -3.5 -1.5t-3.5 -2.5l-85 -89q-3 -3 -6 -3h-73q-6 0 -4 7z" />
    <glyph glyph-name="lessequal" unicode="&#x2264;" horiz-adv-x="523" 
d="M73 504q2 4 4 5l482 193q8 3 6 -5l-13 -78q-1 -3 -4 -4l-401 -164q-2 -1 -2.5 -3t1.5 -3l344 -160q2 -1 2 -4l-14 -78q0 -3 -2.5 -5t-5.5 0l-414 189q-4 2 -2 5l10 56zM-9 0q-5 0 -5 5l14 75q0 5 5 5h448q4 0 4 -5l-14 -75q0 -5 -5 -5h-447z" />
    <glyph glyph-name="greaterequal" unicode="&#x2265;" horiz-adv-x="523" 
d="M520 448l-10 -56q-2 -4 -4 -5l-482 -189q-6 -3 -6 5l14 78q0 2 4 4l400 160q2 1 2.5 3t-1.5 3l-343 164q-3 2 -2 4l13 78q1 3 3.5 5t4.5 0l414 -193q4 -2 2 -5zM-11 0q-5 0 -5 5l14 75q0 5 5 5h448q4 0 4 -5l-14 -75q0 -5 -5 -5h-447z" />
    <glyph glyph-name="lozenge" unicode="&#x25ca;" 
d="M425 5q0 -5 -6 -5h-411q-4 0 -4 5l123 694q0 5 6 5h411q4 0 4 -5zM508 681h-346l119 -306zM392 24l-120 305l-226 -305h346zM409 48l107 608q-56 -75 -114 -152t-112 -152zM264 352l-120 305l-107 -610z" />
    <glyph glyph-name="commaaccent" unicode="&#xf6c3;" horiz-adv-x="256" 
d="M73 198q-5 0 -5 5l22 122q2 5 6 5h120q6 0 4 -5l-21 -121q-11 -57 -51.5 -93t-96.5 -36q-6 0 -4 5l9 55q2 5 6 5q15 0 34.5 13.5t24.5 39.5q0 5 -4 5h-44z" />
    <glyph glyph-name="apple" unicode="&#xf8ff;" horiz-adv-x="688" 
d="M572 702q-6 -35 -18.5 -66t-46.5 -60q-21 -19 -46 -31.5t-57 -12.5q-1 0 -0.5 0.5t-1.5 0.5q5 32 19 59.5t42 53.5q24 20 51.5 35.5t57.5 20.5zM627 187q-66 -103 -113 -145q-46 -42 -95 -42q-21 0 -54 16q-17 8 -28.5 10.5t-21.5 2.5q-8 0 -22.5 -2.5t-34.5 -10.5
q-19 -8 -33.5 -12t-22.5 -4q-14 0 -27.5 4.5t-24.5 14.5q-29 24 -49.5 59.5t-32 76.5t-14 86t5.5 88q7 39 26.5 77t49.5 68t68 48.5t82 18.5q16 0 32 -4.5t33 -11.5q34 -14 49 -14q14 0 54 14q21 7 38 11.5t30 4.5q24 0 44.5 -5t37.5 -13q33 -16 59 -52q-40 -25 -71.5 -58.5
t-39.5 -81.5t11.5 -86t63.5 -58z" />
    <glyph glyph-name="f_f" unicode="&#xfb00;" horiz-adv-x="705" 
d="M404 624q0 -5 -5 -5h-66q-23 0 -37.5 -13.5t-18.5 -36.5l-10 -58q-2 -5 4 -5h108q4 0 4 -5l-12 -65q0 -5 -6 -5h-108q-5 0 -5 -5l-75 -421q0 -5 -6 -5h-85q-4 0 -4 5l75 421q0 5 -5 5h-89q-4 0 -4 5l12 65q0 5 6 5h89q4 0 6 5l13 75q21 121 162 118h67q4 0 4 -5zM744 624
q0 -5 -5 -5h-66q-23 0 -37.5 -13.5t-18.5 -36.5l-10 -58q-2 -5 4 -5h108q4 0 4 -5l-12 -65q0 -5 -6 -5h-108q-5 0 -5 -5l-75 -421q0 -5 -6 -5h-85q-4 0 -4 5l75 421q0 5 -5 5h-89q-4 0 -4 5l12 65q0 5 6 5h89q4 0 6 5l13 75q21 121 162 118h67q4 0 4 -5z" />
    <glyph glyph-name="f_f_i" unicode="&#xfb03;" horiz-adv-x="946" 
d="M404 624q0 -5 -5 -5h-66q-23 0 -37.5 -13.5t-18.5 -36.5l-10 -58q-2 -5 4 -5h108q4 0 4 -5l-12 -65q0 -5 -6 -5h-108q-5 0 -5 -5l-75 -421q0 -5 -6 -5h-85q-4 0 -4 5l75 421q0 5 -5 5h-89q-4 0 -4 5l12 65q0 5 6 5h89q4 0 6 5l13 75q21 121 162 118h67q4 0 4 -5zM744 624
q0 -5 -5 -5h-66q-23 0 -37.5 -13.5t-18.5 -36.5l-10 -58q-2 -5 4 -5h108q4 0 4 -5l-12 -65q0 -5 -6 -5h-108q-5 0 -5 -5l-75 -421q0 -5 -6 -5h-85q-4 0 -4 5l75 421q0 5 -5 5h-89q-4 0 -4 5l12 65q0 5 6 5h89q4 0 6 5l13 75q21 121 162 118h67q4 0 4 -5zM817 5q0 -5 -6 -5
h-85q-4 0 -4 5l88 496q0 5 6 5h85q4 0 4 -5zM931 594q0 -5 -6 -5h-105q-4 0 -4 5l19 105q0 5 6 5h105q4 0 4 -5z" />
    <glyph glyph-name="f_f_l" unicode="&#xfb04;" horiz-adv-x="940" 
d="M404 624q0 -5 -5 -5h-66q-23 0 -37.5 -13.5t-18.5 -36.5l-10 -58q-2 -5 4 -5h108q4 0 4 -5l-12 -65q0 -5 -6 -5h-108q-5 0 -5 -5l-75 -421q0 -5 -6 -5h-85q-4 0 -4 5l75 421q0 5 -5 5h-89q-4 0 -4 5l12 65q0 5 6 5h89q4 0 6 5l13 75q21 121 162 118h67q4 0 4 -5zM744 624
q0 -5 -5 -5h-66q-23 0 -37.5 -13.5t-18.5 -36.5l-10 -58q-2 -5 4 -5h108q4 0 4 -5l-12 -65q0 -5 -6 -5h-108q-5 0 -5 -5l-75 -421q0 -5 -6 -5h-85q-4 0 -4 5l75 421q0 5 -5 5h-89q-4 0 -4 5l12 65q0 5 6 5h89q4 0 6 5l13 75q21 121 162 118h67q4 0 4 -5zM812 5q0 -5 -6 -5
h-85q-4 0 -4 5l123 694q0 5 6 5h85q4 0 4 -5z" />
    <glyph glyph-name="longs_t" unicode="&#xfb05;" 
d="M425 5q0 -5 -6 -5h-411q-4 0 -4 5l123 694q0 5 6 5h411q4 0 4 -5zM508 681h-346l119 -306zM392 24l-120 305l-226 -305h346zM409 48l107 608q-56 -75 -114 -152t-112 -152zM264 352l-120 305l-107 -610z" />
    <glyph glyph-name="parenleft.001" 
d="M425 5q0 -5 -6 -5h-411q-4 0 -4 5l123 694q0 5 6 5h411q4 0 4 -5zM508 681h-346l119 -306zM392 24l-120 305l-226 -305h346zM409 48l107 608q-56 -75 -114 -152t-112 -152zM264 352l-120 305l-107 -610z" />
    <glyph glyph-name="parenright.001" 
d="M425 5q0 -5 -6 -5h-411q-4 0 -4 5l123 694q0 5 6 5h411q4 0 4 -5zM508 681h-346l119 -306zM392 24l-120 305l-226 -305h346zM409 48l107 608q-56 -75 -114 -152t-112 -152zM264 352l-120 305l-107 -610z" />
    <glyph glyph-name="registered.001" 
d="M425 5q0 -5 -6 -5h-411q-4 0 -4 5l123 694q0 5 6 5h411q4 0 4 -5zM508 681h-346l119 -306zM392 24l-120 305l-226 -305h346zM409 48l107 608q-56 -75 -114 -152t-112 -152zM264 352l-120 305l-107 -610z" />
    <glyph glyph-name="copyright.001" 
d="M425 5q0 -5 -6 -5h-411q-4 0 -4 5l123 694q0 5 6 5h411q4 0 4 -5zM508 681h-346l119 -306zM392 24l-120 305l-226 -305h346zM409 48l107 608q-56 -75 -114 -152t-112 -152zM264 352l-120 305l-107 -610z" />
    <glyph glyph-name="zero.tnum" horiz-adv-x="645" 
d="M611 352q-14 -77 -39 -143.5t-64.5 -115.5t-95.5 -76.5t-132 -27.5t-122.5 27.5t-69 76.5t-24.5 115.5t12 143.5q13 77 38 143.5t65 115t96 76t132 27.5t122.5 -27.5t69 -76t24 -115t-11.5 -143.5zM511 352q12 66 12 118t-14 87t-42.5 53.5t-74.5 18.5q-92 0 -142 -72
t-73 -205q-12 -66 -12 -117.5t13.5 -87.5t42 -54.5t74.5 -18.5q91 0 142 73t74 205z" />
    <glyph glyph-name="two.tnum" horiz-adv-x="645" 
d="M62 75q1 2 2.5 6.5t4.5 6.5l325 271q10 8 27 22.5t34.5 33.5t31.5 41.5t18 45.5q3 19 -1 41.5t-16.5 41.5t-35.5 31.5t-58 12.5q-29 0 -54 -10t-44.5 -26.5t-32.5 -37.5t-17 -44q0 -5 -6 -5h-85q-4 0 -4 5q8 45 31 82.5t57.5 64t78 41.5t91.5 15q54 0 93.5 -17
t63.5 -45.5t32.5 -67.5t1.5 -82q-7 -38 -25 -70t-40.5 -58t-45 -45.5l-37.5 -32.5l-256 -203q-2 -2 -2 -5t5 -3h322q6 0 4 -5l-13 -75q-2 -5 -6 -5h-452q-6 0 -4 5z" />
    <glyph glyph-name="three.tnum" horiz-adv-x="645" 
d="M295 400q2 5 6 5h35q28 0 53 8.5t44.5 23t32.5 35t17 44.5q4 22 -1.5 42.5t-19.5 36t-36 25t-51 9.5q-27 0 -52 -10.5t-44.5 -27t-32.5 -37.5t-16 -43q-2 -5 -6 -5h-85q-6 0 -4 5q7 44 30 81t57 64t77 42.5t91 15.5q50 0 88.5 -15t63 -41.5t34 -63t2.5 -78.5
q-6 -35 -23 -61.5t-36.5 -44.5t-37.5 -27.5t-27 -12.5q-5 -1 -6 -5t4 -5q12 -4 29.5 -16.5t32 -33.5t22.5 -51t1 -69q-8 -44 -31 -80.5t-58 -63t-82 -41.5t-103 -15t-95 16t-62.5 43.5t-31.5 64t-1 76.5q0 5 6 5h85q4 0 4 -5q-4 -20 0.5 -40.5t18 -37t36 -27t55.5 -10.5
q31 0 59 9t50 24.5t36.5 36.5t18.5 45q10 59 -25 94.5t-96 35.5h-35q-6 0 -4 5l13 75v0z" />
    <glyph glyph-name="four.tnum" horiz-adv-x="645" 
d="M562 704q4 0 4 -5l-79 -448q-2 -5 4 -5h111q4 0 4 -5l-13 -75q-2 -5 -6 -5h-111q-4 0 -6 -5l-27 -151q0 -5 -6 -5h-85q-4 0 -4 5l27 151q2 5 -4 5h-329q-6 0 -4 5l12 70q2 8 3 10.5t3 4.5l411 448q3 4 6 4.5t5 0.5h84zM167 253q-2 -2 -0.5 -4.5t4.5 -2.5h215q4 0 6 5
l52 294q0 4 -4 4t-6 -3z" />
    <glyph glyph-name="five.tnum" horiz-adv-x="645" 
d="M212 697q2 7 8 7h375q6 0 4 -5l-13 -75q-2 -5 -6 -5h-294q-4 0 -6 -5q-5 -16 -13.5 -43.5t-16.5 -54.5q-10 -32 -21 -67q-2 -5 0.5 -5.5t7.5 2.5q6 4 17.5 11.5t28.5 14.5t38 12t45 5q55 0 96.5 -18t68 -50.5t36 -78t0.5 -100.5q-11 -59 -35.5 -105.5t-61.5 -79
t-85.5 -50t-106.5 -17.5q-69 0 -112 22t-65.5 53.5t-28 66t-1.5 58.5q2 5 6 5h92q6 0 4 -5q-2 -13 1.5 -32.5t16.5 -38t37.5 -31.5t64.5 -13q33 0 62 11.5t53 33t40.5 52.5t23.5 70q6 35 0 65t-22 51.5t-41 33.5t-58 12q-53 0 -88.5 -16.5t-64.5 -52.5q-5 -5 -12 -5h-78
q-6 0 -4 5z" />
    <glyph glyph-name="six.tnum" horiz-adv-x="645" 
d="M306 477q-2 -3 -1 -5t4 0q2 2 22.5 7.5t43.5 5.5q51 0 91.5 -17.5t66.5 -50t36 -78t0 -100.5q-10 -54 -35 -100t-63 -79t-87.5 -51.5t-107.5 -18.5q-59 0 -101 18.5t-67 51.5t-33 79t2 100q8 41 23 78t36 67l222 315q4 5 8 5h88q2 0 4 -1t0 -4zM469 239q14 75 -15 120
t-105 45q-75 0 -119 -45t-58 -120q-13 -75 15.5 -119.5t103.5 -44.5q76 0 120.5 44.5t57.5 119.5z" />
    <glyph glyph-name="seven.tnum" horiz-adv-x="645" 
d="M620 632q-2 -8 -3 -11t-3 -7l-336 -609q-2 -5 -7 -5h-92q-5 0 -3 5l344 609q2 5 -3 5h-349q-5 0 -5 5l14 75q0 5 6 5h445q4 0 4 -5z" />
    <glyph glyph-name="eight.tnum" horiz-adv-x="645" 
d="M279 -10q-56 0 -98 15t-68 41.5t-36 63t-2 80.5q7 41 25.5 71t40.5 50.5t43.5 32.5t35.5 16q5 1 6 5t-4 5q-8 3 -23 12.5t-28.5 27.5t-21 44.5t-1.5 61.5q7 42 30 78.5t57 63t77.5 41.5t93.5 15t88.5 -15t63 -41.5t34 -63t2.5 -78.5q-6 -35 -23 -61.5t-36.5 -44.5
t-37.5 -27.5t-27 -12.5q-5 -1 -6 -5t4 -5q12 -4 29.5 -16t32 -32.5t22.5 -50.5t1 -71q-8 -44 -31 -80.5t-58 -63t-82 -41.5t-103 -15zM294 75q31 0 59 9t50 24.5t36.5 36.5t18.5 45q10 59 -25 94.5t-96 35.5q-30 0 -58 -9t-50.5 -26t-38 -41t-20.5 -54q-8 -49 27 -82t97 -33
zM499 516q4 22 -1.5 42.5t-19.5 36t-36 25t-51 9.5t-54.5 -9.5t-45 -25t-32 -36t-16.5 -42.5q-8 -48 22 -79.5t87 -31.5q28 0 53 8.5t44.5 23t32.5 35t17 44.5z" />
    <glyph glyph-name="nine.tnum" horiz-adv-x="645" 
d="M377 226q2 3 1 5t-4 0t-23 -7.5t-43 -5.5q-51 0 -91.5 17.5t-66.5 50t-36 77.5t0 101q9 54 34 100t63 79.5t87.5 52t108.5 18.5q58 0 101 -18.5t69 -52t34.5 -79.5t-0.5 -100q-8 -41 -25.5 -78t-38.5 -67l-222 -315q-4 -5 -8 -5h-88q-2 0 -4 1t0 4zM214 464
q-14 -75 15 -120t105 -45q75 0 119 45t58 120q13 75 -15.5 120t-103.5 45q-76 0 -120.5 -45t-57.5 -120z" />
    <glyph glyph-name="registered.002" horiz-adv-x="806" 
d="M599 458q-7 -42 -38 -75.5t-70 -49.5l54 -195q2 -7 -6 -7h-46q-4 0 -5 3l-51 192h-148l-34 -190q0 -5 -5 -5h-40q-5 0 -5 5q14 82 25 145.5t19.5 110.5t14 80t9.5 54q9 50 11 59q0 5 5 5h203q27 0 49 -10.5t36.5 -28.5t20.5 -42t1 -51zM549 458q6 35 -13.5 58.5
t-51.5 23.5h-157l-29 -163h157q16 0 31.5 6.5t28.5 17.5t22 25.5t12 31.5zM765 353q-13 -73 -52 -137t-95 -112t-125 -76t-142 -28q-72 0 -131 28t-98 76t-55 112t-3 137q13 72 51.5 136t94.5 112t125 76t141 28q73 0 132 -28t98 -76t55.5 -112t3.5 -136zM735 353
q12 66 -3.5 124.5t-51.5 102.5t-90 69.5t-120 25.5t-128.5 -25.5t-113.5 -69.5t-86.5 -102.5t-47.5 -124.5t3 -125t51 -102.5t89.5 -69t119.5 -25.5t129 25.5t114.5 69t87 102.5t47.5 125z" />
    <glyph glyph-name="copyright.002" horiz-adv-x="806" 
d="M447 554q-42 0 -75 -16.5t-56.5 -44.5t-38.5 -64t-22 -75t-4.5 -75t16.5 -64t41 -44.5t69 -16.5q38 0 65.5 9.5t58.5 41.5q2 2 3.5 4.5t4.5 2.5h44q6 0 4 -7q-26 -44 -77 -70.5t-111 -26.5q-53 0 -88.5 21.5t-55.5 56t-24.5 78.5t3.5 90t28 90t52 78.5t75 56t96 21.5
q60 0 101.5 -26.5t52.5 -70.5q0 -7 -6 -7h-44q-3 0 -3.5 2.5t-2.5 4.5q-19 32 -43.5 41.5t-62.5 9.5zM765 353q-13 -73 -52 -137t-95 -112t-125 -76t-142 -28q-72 0 -131 28t-98 76t-55 112t-3 137q13 72 51.5 136t94.5 112t125 76t141 28q73 0 132 -28t98 -76t55.5 -112
t3.5 -136zM735 353q12 66 -3.5 124.5t-51.5 102.5t-90 69.5t-120 25.5t-128.5 -25.5t-113.5 -69.5t-86.5 -102.5t-47.5 -124.5t3 -125t51 -102.5t89.5 -69t119.5 -25.5t129 25.5t114.5 69t87 102.5t47.5 125z" />
    <glyph glyph-name="one.tnum" horiz-adv-x="645" 
d="M32 0q-4 0 -4 5l14 75q0 5 5 5h192q6 0 6 5l68 386q3 15 -5.5 22.5t-19.5 7.5h-153q-6 0 -4 5l12 70q0 5 6 5h124q25 0 45 16.5t25 41.5l10 55q0 5 6 5h85q4 0 4 -5l-108 -609q0 -5 4 -5h200q5 0 5 -5l-14 -75q0 -5 -6 -5h-497z" />
    <glyph glyph-name="dollar.plf" 
d="M425 5q0 -5 -6 -5h-411q-4 0 -4 5l123 694q0 5 6 5h411q4 0 4 -5zM508 681h-346l119 -306zM392 24l-120 305l-226 -305h346zM409 48l107 608q-56 -75 -114 -152t-112 -152zM264 352l-120 305l-107 -610z" />
    <glyph glyph-name="cent.plf" 
d="M425 5q0 -5 -6 -5h-411q-4 0 -4 5l123 694q0 5 6 5h411q4 0 4 -5zM508 681h-346l119 -306zM392 24l-120 305l-226 -305h346zM409 48l107 608q-56 -75 -114 -152t-112 -152zM264 352l-120 305l-107 -610z" />
    <glyph glyph-name="sterling.plf" 
d="M425 5q0 -5 -6 -5h-411q-4 0 -4 5l123 694q0 5 6 5h411q4 0 4 -5zM508 681h-346l119 -306zM392 24l-120 305l-226 -305h346zM409 48l107 608q-56 -75 -114 -152t-112 -152zM264 352l-120 305l-107 -610z" />
    <glyph glyph-name="yen.plf" 
d="M425 5q0 -5 -6 -5h-411q-4 0 -4 5l123 694q0 5 6 5h411q4 0 4 -5zM508 681h-346l119 -306zM392 24l-120 305l-226 -305h346zM409 48l107 608q-56 -75 -114 -152t-112 -152zM264 352l-120 305l-107 -610z" />
    <glyph glyph-name="florin.plf" 
d="M425 5q0 -5 -6 -5h-411q-4 0 -4 5l123 694q0 5 6 5h411q4 0 4 -5zM508 681h-346l119 -306zM392 24l-120 305l-226 -305h346zM409 48l107 608q-56 -75 -114 -152t-112 -152zM264 352l-120 305l-107 -610z" />
    <glyph glyph-name="Euro.plf" 
d="M425 5q0 -5 -6 -5h-411q-4 0 -4 5l123 694q0 5 6 5h411q4 0 4 -5zM508 681h-346l119 -306zM392 24l-120 305l-226 -305h346zM409 48l107 608q-56 -75 -114 -152t-112 -152zM264 352l-120 305l-107 -610z" />
    <glyph glyph-name="currency.plf" 
d="M425 5q0 -5 -6 -5h-411q-4 0 -4 5l123 694q0 5 6 5h411q4 0 4 -5zM508 681h-346l119 -306zM392 24l-120 305l-226 -305h346zM409 48l107 608q-56 -75 -114 -152t-112 -152zM264 352l-120 305l-107 -610z" />
    <glyph glyph-name="numbersign.plf" 
d="M425 5q0 -5 -6 -5h-411q-4 0 -4 5l123 694q0 5 6 5h411q4 0 4 -5zM508 681h-346l119 -306zM392 24l-120 305l-226 -305h346zM409 48l107 608q-56 -75 -114 -152t-112 -152zM264 352l-120 305l-107 -610z" />
    <glyph glyph-name="breve.case" horiz-adv-x="256" 
d="M326 898q4 0 4 -5q-6 -31 -20 -52t-33 -34t-40 -18.5t-41 -5.5t-39 5.5t-33 18.5t-21 34t-1 52q0 5 6 5h62q4 0 4 -5q-4 -21 8.5 -29.5t26.5 -8.5t29 8.5t19 29.5q0 5 6 5h63z" />
    <glyph glyph-name="caron.case" horiz-adv-x="256" 
d="M316 898q8 0 4 -7l-61 -104q-2 -4 -8 -4h-111q-4 0 -5 4l-26 104q-1 3 1.5 5t5.5 2h57q2 0 4 -0.5t4 -3.5l23 -41q4 -7 11 0l35 41q4 4 9 4h57z" />
    <glyph glyph-name="circumflex.case" horiz-adv-x="256" 
d="M239 783q-4 0 -7 4l-22 41q-4 9 -11 0l-36 -41q-2 -3 -4.5 -3.5t-4.5 -0.5h-58q-8 0 -3 7l62 104q3 4 6 4h112q5 0 6 -4l25 -104q1 -3 -1.5 -5t-5.5 -2h-58z" />
    <glyph glyph-name="acute.case" horiz-adv-x="256" 
d="M148 783q-8 0 -3 7l60 101l4.5 4.5t7.5 2.5h87q8 0 3 -7l-89 -101q-2 -2 -5.5 -4.5t-7.5 -2.5h-57z" />
    <glyph glyph-name="macron.case" horiz-adv-x="256" 
d="M75 783q-3 0 -3 5l11 58q0 5 4 5h246q5 0 5 -5l-11 -58q0 -5 -6 -5h-246z" />
    <glyph glyph-name="dieresis.case" horiz-adv-x="256" 
d="M115 788q0 -5 -5 -5h-105q-5 0 -5 5l19 105q0 5 6 5h105q4 0 4 -5zM359 788q0 -5 -5 -5h-105q-5 0 -5 5l19 105q0 5 6 5h105q4 0 4 -5z" />
    <glyph glyph-name="grave.case" horiz-adv-x="256" 
d="M206 783q-7 0 -9 7l-55 101q-1 3 1.5 5t5.5 2h87q8 0 8 -7l26 -101q1 -3 -1.5 -5t-5.5 -2h-57z" />
    <glyph glyph-name="dotaccent.case" horiz-adv-x="256" 
d="M113 783q-4 0 -4 5l23 132q2 5 6 5h129q6 0 4 -5l-23 -132q0 -5 -6 -5h-129z" />
    <glyph glyph-name="ring.case" horiz-adv-x="256" 
d="M292 823q-3 -18 -13 -34t-24.5 -27.5t-31.5 -18.5t-35 -7q-36 0 -57 25.5t-14 61.5q3 18 12.5 34t23.5 28t31 19t35 7q36 0 57.5 -26t15.5 -62zM249 823q3 19 -7.5 32t-29.5 13t-34.5 -13t-18.5 -32q-4 -19 7 -32t30 -13t34 13t19 32z" />
    <glyph glyph-name="tilde.case" horiz-adv-x="256" 
d="M47 811q3 13 10.5 28t21.5 28t35 21.5t51 8.5q22 0 37 -7t26 -16t19 -16t16 -7q3 0 8.5 0.5t11.5 4t11.5 12t8.5 24.5q0 5 6 5h60q4 0 4 -5l-5 -24q-2 -13 -9.5 -28t-22 -27.5t-35.5 -21t-50 -8.5q-20 0 -34.5 7t-26 16t-20 16t-17.5 7q-3 0 -8.5 -0.5t-11.5 -4
t-11.5 -12t-8.5 -24.5q0 -5 -6 -5h-60q-4 0 -4 5z" />
    <glyph glyph-name="hungarumlaut.case" horiz-adv-x="256" 
d="M-3 760q-3 0 -3 5l51 132q2 5 7 5h109q5 0 3 -5l-52 -132q0 -5 -7 -5h-108zM216 760q-3 0 -3 5l52 132q2 5 7 5h109q5 0 3 -5l-52 -132q0 -5 -7 -5h-109z" />
    <glyph glyph-name="caron.salt" horiz-adv-x="256" 
d="M317 898q8 0 4 -7l-61 -104q-2 -4 -8 -4h-111q-4 0 -5 4l-26 104q-1 3 1.5 5t5.5 2h57q2 0 4 -0.5t4 -3.5l23 -41q4 -7 11 0l35 41q4 4 9 4h57z" />
    <glyph glyph-name="commaaccent.salt" horiz-adv-x="25" 
 />
    <glyph glyph-name="_0127" 
d="M425 5q0 -5 -6 -5h-411q-4 0 -4 5l123 694q0 5 6 5h411q4 0 4 -5zM508 681h-346l119 -306zM392 24l-120 305l-226 -305h346zM409 48l107 608q-56 -75 -114 -152t-112 -152zM264 352l-120 305l-107 -610z" />
    </font>
</defs>
</svg>
