<?xml version="1.0" standalone="no"?>
<!DOCTYPE svg PUBLIC "-//W3C//DTD SVG 1.1//EN" "http://www.w3.org/Graphics/SVG/1.1/DTD/svg11.dtd" >
<svg xmlns="http://www.w3.org/2000/svg" xmlns:xlink="http://www.w3.org/1999/xlink" version="1.1">
<metadata>
Created by FontForge 20160405 at Mon Jan 21 16:24:19 2019
 By www-data
Copyright (c) 2008 by Stefan Gandl. All rights reserved.
</metadata>
<defs>
<font id="NBInternationalPro-BoldItalic" horiz-adv-x="511" >
  <font-face 
    font-family="NB International Bold"
    font-weight="700"
    font-style="italic"
    font-stretch="normal"
    units-per-em="1000"
    panose-1="2 11 8 3 3 1 0 10 0 4"
    ascent="800"
    descent="-200"
    x-height="506"
    cap-height="704"
    bbox="-80 -208 1114 929"
    underline-thickness="85"
    underline-position="-217"
    unicode-range="U+0009-FB05"
  />
<missing-glyph 
d="M425 5q0 -5 -6 -5h-411q-4 0 -4 5l123 694q0 5 6 5h411q4 0 4 -5zM508 681h-346l119 -306zM392 24l-120 305l-226 -305h346zM409 48l107 608q-56 -75 -114 -152t-112 -152zM264 352l-120 305l-107 -610z" />
    <glyph glyph-name="fi" unicode="fi" horiz-adv-x="605" 
d="M148 506q5 0 5 4l10 53q12 71 60.5 106.5t113.5 34.5h79q3 0 3 -5l-18 -100q0 -5 -6 -5h-71q-15 0 -27 -8.5t-14 -23.5l-10 -52q0 -4 5 -4h102q4 0 4 -5l-17 -95q0 -5 -6 -5h-102q-4 0 -6 -5l-69 -391q0 -5 -6 -5h-110q-4 0 -4 5l69 391q2 5 -4 5h-82q-4 0 -4 5l17 95
q0 5 6 5h82zM445 562q-5 0 -5 5l24 132q0 5 6 5h130q4 0 4 -5l-24 -132q0 -5 -5 -5h-130zM355 0q-4 0 -4 5l88 496q0 5 6 5h110q4 0 4 -5l-88 -496q0 -5 -6 -5h-110z" />
    <glyph glyph-name="fl" unicode="fl" horiz-adv-x="606" 
d="M148 506q5 0 5 4l10 53q12 71 60.5 106.5t113.5 34.5h79q3 0 3 -5l-18 -100q0 -5 -6 -5h-71q-15 0 -27 -8.5t-14 -23.5l-10 -52q0 -4 5 -4h102q4 0 4 -5l-17 -95q0 -5 -6 -5h-102q-4 0 -6 -5l-69 -391q0 -5 -6 -5h-110q-4 0 -4 5l69 391q2 5 -4 5h-82q-4 0 -4 5l17 95
q0 5 6 5h82zM356 0q-4 0 -4 5l123 694q0 5 6 5h110q4 0 4 -5l-123 -694q0 -5 -6 -5h-110z" />
    <glyph glyph-name=".notdef" 
d="M425 5q0 -5 -6 -5h-411q-4 0 -4 5l123 694q0 5 6 5h411q4 0 4 -5zM508 681h-346l119 -306zM392 24l-120 305l-226 -305h346zM409 48l107 608q-56 -75 -114 -152t-112 -152zM264 352l-120 305l-107 -610z" />
    <glyph glyph-name=".null" horiz-adv-x="40" 
 />
    <glyph glyph-name=".null" horiz-adv-x="40" 
 />
    <glyph glyph-name="nonmarkingreturn" unicode="&#xd;" horiz-adv-x="50" 
 />
    <glyph glyph-name="HT" unicode="&#x9;" horiz-adv-x="300" 
 />
    <glyph glyph-name="LF" unicode="&#xa;" horiz-adv-x="300" 
 />
    <glyph glyph-name="DLE" horiz-adv-x="300" 
 />
    <glyph glyph-name="DC1" horiz-adv-x="300" 
 />
    <glyph glyph-name="DC2" horiz-adv-x="300" 
 />
    <glyph glyph-name="DC3" horiz-adv-x="300" 
 />
    <glyph glyph-name="DC4" horiz-adv-x="300" 
 />
    <glyph glyph-name="RS" horiz-adv-x="50" 
 />
    <glyph glyph-name="US" horiz-adv-x="50" 
 />
    <glyph glyph-name="space" unicode=" " horiz-adv-x="296" 
 />
    <glyph glyph-name="exclam" unicode="!" horiz-adv-x="277" 
d="M74 208q-6 0 -4 5l42 293l34 193q0 5 6 5h110q4 0 4 -5l-34 -193l-62 -293q-2 -5 -6 -5h-90zM7 0q-4 0 -4 5l27 152q2 5 6 5h150q6 0 4 -5l-27 -152q0 -5 -6 -5h-150z" />
    <glyph glyph-name="quotedbl" unicode="&#x22;" horiz-adv-x="412" 
d="M70 401q-5 0 -5 5l14 135l28 158q2 5 6 5h110q6 0 4 -5l-28 -158l-34 -135q0 -5 -5 -5h-90zM246 401q-5 0 -5 5l14 135l28 158q2 5 6 5h110q6 0 4 -5l-28 -158l-34 -135q0 -5 -5 -5h-90z" />
    <glyph glyph-name="numbersign" unicode="#" horiz-adv-x="616" 
d="M207 402q3 6 -4 6h-135q-4 0 -4 5l12 69q2 5 6 5h154q6 0 7 4l85 210q1 3 6 3h75q3 0 4 -2.5t-1 -4.5l-83 -204q-2 -6 4 -6h102q6 0 7 5l85 209q1 3 6 3h75q3 0 4 -2.5t-1 -4.5l-83 -204q-2 -6 4 -6h99q6 0 4 -5l-12 -69q0 -5 -6 -5h-118q-4 0 -6 -5l-45 -110q-3 -6 4 -6
h144q6 0 4 -5l-12 -69q-2 -5 -6 -5h-164q-3 0 -6 -4l-80 -201q-2 -3 -6 -3h-74q-3 0 -4 2.5t1 4.5l78 196q3 5 -3 5h-105q-3 0 -6 -5l-80 -200q-2 -3 -6 -3h-74q-3 0 -4 2.5t1 4.5l77 195q2 2 0 4t-4 2h-90q-6 0 -4 5l12 69q2 5 6 5h110q4 0 7 5zM300 408q-4 0 -6 -5
l-45 -109q-2 -7 4 -7h104q3 0 6 5l43 110q4 6 -3 6h-103z" />
    <glyph glyph-name="dollar" unicode="$" horiz-adv-x="645" 
d="M226 -13q2 6 -5 6q-60 6 -99 26t-61 48t-28 61t0 65q0 5 5 5h115q5 0 5 -5q-5 -29 18 -53t65 -35q5 -2 7 5l34 193q2 5 -4 5q-50 7 -88.5 21.5t-62.5 37.5t-33.5 57t-0.5 82q8 45 32.5 82t60 63.5t77.5 42t86 19.5q6 0 6 5l14 79q2 5 5 5h69q6 0 4 -5l-15 -83q0 -5 3 -6
q39 -7 72 -23t55.5 -41t32.5 -58.5t3 -74.5q-2 -5 -5 -5h-116q-6 0 -4 5q5 23 -9 46.5t-46 36.5q-6 2 -8 -5l-29 -165q0 -5 4 -6q37 -5 76 -16.5t69 -35t44.5 -62t4.5 -98.5q-17 -92 -87.5 -148.5t-180.5 -64.5q-6 0 -7 -6l-14 -82q-2 -5 -6 -5h-69q-5 0 -3 5zM454 206
q5 29 -14.5 54t-73.5 36q-8 2 -8 -5l-32 -183q-2 -7 6 -5q48 9 81.5 37t40.5 66zM218 506q-6 -35 17.5 -52t61.5 -25q8 -2 8 5l29 162q0 7 -6 5q-43 -8 -73.5 -34.5t-36.5 -60.5z" />
    <glyph glyph-name="percent" unicode="%" horiz-adv-x="857" 
d="M755 187q-7 -41 -20.5 -77t-35 -62.5t-52 -42t-71.5 -15.5t-66.5 15.5t-37.5 42t-13 62.5t6 77t21 77t35.5 62.5t52 42t71.5 15.5t66.5 -15.5t37.5 -42t12.5 -62.5t-6.5 -77zM680 187q11 58 0.5 90.5t-48.5 32.5t-59.5 -32.5t-32.5 -90.5q-10 -58 0.5 -90.5t48.5 -32.5
t59.5 32.5t31.5 90.5zM403 517q-8 -41 -21.5 -77t-35 -62.5t-52 -42t-71.5 -15.5t-66.5 15.5t-37.5 42t-13 62.5t7 77q7 41 20.5 77t35 62.5t52 42t71.5 15.5t66.5 -15.5t37.5 -42t13 -62.5t-6 -77zM328 517q10 58 -0.5 90.5t-48.5 32.5t-59.5 -32.5t-31.5 -90.5
q-11 -58 -0.5 -90.5t48.5 -32.5t59.5 32.5t32.5 90.5zM669 702q2 2 5 2h70q8 0 2 -8l-548 -694q-2 -2 -5 -2h-68q-8 0 -2 8z" />
    <glyph glyph-name="ampersand" unicode="&#x26;" horiz-adv-x="708" 
d="M49 214q6 33 21.5 61.5t36 52.5t44 43t46.5 32q2 2 1 6q-9 13 -17.5 27.5t-13.5 31t-6 37t4 46.5q5 30 24 59t48 52.5t67.5 37.5t82.5 14q43 0 75.5 -14t53.5 -37.5t29.5 -55t2.5 -66.5q-6 -36 -21.5 -63t-37.5 -47t-50 -33.5t-59 -23.5q-3 -2 -1 -6l97 -131q4 -4 5 0
q2 4 4 14l15 87q2 5 6 5h100q6 0 4 -5l-15 -84q-7 -41 -17.5 -63t-26.5 -45q-2 -4 -2 -4.5t1 -1.5q10 -11 24 -25.5t27 -13.5h10q6 0 4 -5l-16 -91q0 -5 -6 -5h-10q-31 0 -48.5 4t-28.5 11t-19 16t-19 19q-2 3 -5 0q-38 -27 -90.5 -43.5t-112.5 -16.5q-63 0 -107 17.5
t-69.5 48t-34 71.5t-0.5 87zM280 103q34 0 66 9t53 22q4 2 1 5l-136 183q-1 1 -2 1.5t-5 -1.5q-29 -19 -53 -43.5t-32 -64.5q-8 -46 20.5 -78.5t87.5 -32.5zM369 611q-33 0 -59.5 -17.5t-32.5 -52.5q-6 -29 8 -48.5t31 -39.5q3 -3 5.5 -3t6.5 2q21 9 40 17t33 17.5t24 22.5
t13 32q6 35 -15.5 52.5t-53.5 17.5z" />
    <glyph glyph-name="quotesingle" unicode="'" horiz-adv-x="237" 
d="M70 401q-5 0 -5 5l14 135l28 158q2 5 6 5h110q6 0 4 -5l-28 -158l-34 -135q0 -5 -5 -5h-90z" />
    <glyph glyph-name="parenleft" unicode="(" horiz-adv-x="307" 
d="M141 253q-9 -53 -11.5 -110.5t3 -116t19.5 -114.5t37 -105q3 -5 -4 -5h-77q-5 0 -6 5q-19 41 -34.5 91.5t-24.5 108t-9 120t11 126.5t33.5 126.5t51.5 120t62.5 108t66.5 91.5q4 5 8 5h77q7 0 2 -5q-40 -49 -73.5 -105t-60 -114.5t-44.5 -116.5t-27 -110z" />
    <glyph glyph-name="parenright" unicode=")" horiz-adv-x="307" 
d="M173 253q9 52 11 110t-3.5 116.5t-19.5 114.5t-37 105q-2 5 4 5h77q5 0 6 -5q19 -41 34.5 -91.5t24.5 -108t9.5 -120t-10.5 -126.5t-33.5 -126.5t-52 -120t-63 -108t-66.5 -91.5q-4 -5 -8 -5h-76q-5 0 -2 5q40 49 73.5 105t59.5 114.5t44.5 116t27.5 110.5z" />
    <glyph glyph-name="asterisk" unicode="*" horiz-adv-x="490" 
d="M322 604q-1 -3 1.5 -4.5t5.5 0.5l42 18l50 16q6 1 6 -3l11 -77q2 -4 -4 -6l-51 -16l-47 -9q-3 -1 -4.5 -4t0.5 -5l25 -32l22 -41q3 -5 -2 -7l-74 -47q-2 -2 -4 -1.5t-2 2.5l-23 40l-13 33q-4 6 -8 0l-25 -33l-37 -40q-2 -2 -4 -2.5t-2 1.5l-58 47q-4 2 0 7l38 41l35 32
q7 7 -1 9l-44 9l-45 16q-4 1 -2 6l39 77q0 2 2 3t4 0l46 -16l34 -18q3 -2 6 -0.5t3 4.5l3 44l9 51q0 5 6 5h80q4 0 4 -5l-9 -51z" />
    <glyph glyph-name="plus" unicode="+" horiz-adv-x="672" 
d="M282 307q6 0 6 5l34 189q0 5 5 5h100q5 0 5 -5l-34 -189q0 -5 4 -5h188q6 0 4 -5l-17 -100q-2 -5 -6 -5h-188q-4 0 -6 -5l-33 -187q0 -5 -6 -5h-100q-4 0 -4 5l33 187q2 5 -4 5h-188q-6 0 -4 5l17 100q2 5 6 5h188z" />
    <glyph glyph-name="comma" unicode="," horiz-adv-x="266" 
d="M36 0q-6 0 -4 5l27 152q0 5 5 5h150q5 0 5 -5l-27 -151q-5 -25 -17 -48t-33.5 -41t-53 -29t-74.5 -11q-6 0 -4 5l10 55q0 5 6 5q45 0 64.5 17t22.5 36q0 5 -4 5h-73z" />
    <glyph glyph-name="hyphen" unicode="-" horiz-adv-x="499" 
d="M80 197q-6 0 -4 5l18 100q0 5 5 5h313q5 0 5 -5l-18 -100q-2 -5 -6 -5h-313z" />
    <glyph glyph-name="period" unicode="." horiz-adv-x="266" 
d="M30 0q-4 0 -4 5l27 152q2 5 6 5h150q6 0 4 -5l-27 -152q0 -5 -6 -5h-150z" />
    <glyph glyph-name="slash" unicode="/" horiz-adv-x="382" 
d="M67 3q-2 -3 -6 -3h-73q-3 0 -4 2.5t1 4.5l340 694q1 3 6 3h75q3 0 4 -2.5t-1 -4.5z" />
    <glyph glyph-name="zero" unicode="0" horiz-adv-x="660" 
d="M603 352q-14 -76 -39 -142t-64.5 -115t-96 -77t-131.5 -28t-121.5 28t-69 77t-24.5 115t12 142q13 76 38 142t64.5 115t96 77t131.5 28t121.5 -28t69 -77t24.5 -115t-11 -142zM478 352q9 55 9.5 101.5t-10.5 80t-34.5 52t-62.5 18.5t-69.5 -18.5t-53 -52t-38.5 -80
t-25 -101.5q-10 -55 -10.5 -101.5t10.5 -80t34.5 -52t62.5 -18.5t69.5 18.5t53.5 52t38.5 80t25.5 101.5z" />
    <glyph glyph-name="one" unicode="1" horiz-adv-x="446" 
d="M263 461q2 13 -4 20.5t-18 7.5h-148q-6 0 -4 5l15 90q2 5 6 5h122q22 0 41 16t21 36l11 58q0 5 6 5h110q4 0 4 -5l-123 -694q0 -5 -6 -5h-110q-4 0 -4 5l81 456v0z" />
    <glyph glyph-name="two" unicode="2" horiz-adv-x="583" 
d="M459 5q-2 -5 -6 -5h-447q-6 0 -4 5l16 92q1 7 7 13l315 266q7 6 20.5 17.5t27 27t24.5 34t14 39.5q3 18 0 37t-13.5 35t-29.5 26.5t-48 10.5q-25 0 -47 -9.5t-39 -25.5t-28 -35.5t-14 -38.5q0 -5 -6 -5h-109q-4 0 -4 5q8 46 32 86.5t59.5 70t80.5 46.5t95 17
q54 0 93.5 -17t64 -47t33 -70t0.5 -86q-7 -39 -23 -70t-35.5 -55.5t-39.5 -43t-36 -30.5l-221 -176q-3 -2 -3 -5.5t4 -3.5h280q5 0 5 -5z" />
    <glyph glyph-name="three" unicode="3" horiz-adv-x="595" 
d="M90 494q8 46 31 86.5t57 70t78 46.5t94 17t88.5 -16.5t63 -45t34 -66t2.5 -80.5q-5 -29 -17 -52t-27.5 -41t-32.5 -31t-32 -21q-4 -2 -4 -5t2 -5q12 -7 26 -20.5t24.5 -33.5t15 -46t-0.5 -57q-7 -41 -28 -77.5t-54.5 -64.5t-80.5 -45t-106 -17q-57 0 -96.5 17.5t-63 47
t-30.5 68.5t0 81q2 5 6 5h110q6 0 4 -5q-2 -14 0.5 -31.5t12.5 -34t28.5 -27.5t47.5 -11q25 0 47.5 8t39.5 21.5t28.5 30.5t14.5 34q5 28 -1 48t-19.5 33t-32.5 19.5t-41 6.5h-33q-5 0 -5 5l18 100q2 5 6 5h33q19 0 39 5.5t36.5 17t28.5 29.5t17 43q3 18 -1.5 35.5
t-15.5 31.5t-28.5 22.5t-41.5 8.5q-23 0 -44 -10t-37 -25.5t-27 -35.5t-14 -39q-2 -5 -6 -5h-109q-6 0 -4 5z" />
    <glyph glyph-name="four" unicode="4" horiz-adv-x="628" 
d="M561 156q-2 -5 -6 -5h-103q-4 0 -6 -5l-25 -141q0 -5 -6 -5h-110q-4 0 -4 5l25 141q2 5 -4 5h-328q-6 0 -4 5l15 92q2 6 4 10.5t4 7.5l399 433q2 5 8 5h120q4 0 4 -5l-77 -433q0 -5 3 -5h104q5 0 5 -5zM155 270q-3 -5 -1.5 -7t3.5 -2h184q6 0 6 5l45 254q1 4 -3.5 4
t-6.5 -3z" />
    <glyph glyph-name="five" unicode="5" horiz-adv-x="614" 
d="M282 594q-7 0 -7 -5l-39 -133q-2 -5 1.5 -6t5.5 1q7 6 20 13t28.5 13t32 9.5t32.5 3.5q52 0 93 -18t67 -50.5t36 -78t0 -100.5q-11 -59 -37.5 -105.5t-65.5 -79.5t-87.5 -50.5t-103.5 -17.5q-64 0 -106.5 20.5t-66.5 51.5t-31 68.5t-1 72.5q0 6 6 6h110q5 0 4 -5
q-3 -19 3.5 -37.5t20.5 -33.5t35 -24t46 -9q56 0 96.5 38t52.5 105q11 60 -16.5 98.5t-83.5 38.5q-36 0 -71.5 -16t-59.5 -51q-2 -3 -5 -3h-109q-5 0 -5 5l113 384q2 5 6 5h382q6 0 4 -5l-18 -101q0 -4 -7 -4h-275z" />
    <glyph glyph-name="six" unicode="6" horiz-adv-x="623" 
d="M318 490q-2 -3 -1 -6t6 -2q3 1 16 2.5t23 1.5q48 0 86 -17.5t63 -50t35 -78t0 -100.5t-35 -101t-63 -79t-87.5 -51.5t-107.5 -18.5q-59 0 -101.5 18.5t-68.5 51.5t-35 79t1 101q8 40 25.5 78.5t38.5 67.5l221 314q4 4 6 4h120q6 0 4 -7zM421 240q5 28 2 53t-15 44.5
t-33 31t-53 11.5t-57 -11.5t-43.5 -31t-30.5 -44.5t-17 -53t-2 -53t15 -44.5t33 -31t53 -11.5t57 11.5t44 31t30.5 44.5t16.5 53z" />
    <glyph glyph-name="seven" unicode="7" horiz-adv-x="534" 
d="M545 599q0 -5 -5 -14l-327 -580q-2 -5 -7 -5h-116q-5 0 -3 5l330 580q3 5 1 7t-4 2h-323q-4 0 -4 5l18 100q0 5 6 5h448q4 0 4 -5z" />
    <glyph glyph-name="eight" unicode="8" horiz-adv-x="636" 
d="M61 194q5 31 19 57t31.5 46t36 33.5t33.5 20.5q4 2 5 5t-3 5q-12 8 -24.5 21t-21.5 31t-12.5 41t1.5 52q7 43 30 80.5t57.5 66t78.5 45t94 16.5h1h1q50 0 88.5 -16.5t63 -45t34 -66t2.5 -80.5q-5 -29 -17 -52t-27.5 -41t-32.5 -31t-32 -21q-4 -2 -4 -5t2 -5
q12 -7 26 -20.5t24.5 -33.5t15.5 -46t0 -57q-7 -41 -28 -77.5t-55 -65t-81 -45t-107 -16.5t-101 16.5t-65 45t-32 65t-1 77.5zM411 194q5 28 -1 48.5t-19.5 34t-33.5 19.5t-42 6q-48 0 -86 -26.5t-48 -81.5q-3 -17 2.5 -34t18 -30.5t32 -21.5t45.5 -8q25 0 48 8t40.5 21.5
t29 30.5t14.5 34zM367 604q-24 0 -44.5 -8.5t-36.5 -22.5t-26.5 -31.5t-13.5 -35.5q-5 -25 1 -43t18.5 -29t30.5 -16.5t38 -5.5t40 5.5t36.5 16.5t28.5 29t17 43q3 18 -1.5 35.5t-15.5 31.5t-28.5 22.5t-41.5 8.5h-2z" />
    <glyph glyph-name="nine" unicode="9" horiz-adv-x="623" 
d="M316 214q2 3 1 6t-6 2q-3 -1 -16 -2.5t-23 -1.5q-48 0 -86 17.5t-63 50t-35 77.5t0 101q10 55 35 101t63 79t87 51.5t108 18.5q58 0 101 -18.5t69 -51.5t35 -79t-1 -101q-8 -40 -25.5 -78.5t-38.5 -67.5l-221 -314q-4 -4 -6 -4h-120q-6 0 -4 7zM213 464q-5 -28 -2 -53
t15 -44.5t33 -31t53 -11.5q31 0 56.5 11.5t44 31t30.5 44.5t17 53t2 53t-14.5 44.5t-33 31t-52.5 11.5q-32 0 -57.5 -11.5t-44 -31t-30.5 -44.5t-17 -53z" />
    <glyph glyph-name="colon" unicode=":" horiz-adv-x="255" 
d="M5 0q-4 0 -4 5l27 152q0 5 6 5h149q4 0 4 -5l-27 -152q0 -5 -6 -5h-149zM66 344q-6 0 -4 5l27 152q0 5 5 5h149q5 0 5 -5l-27 -152q-2 -5 -6 -5h-149z" />
    <glyph glyph-name="semicolon" unicode=";" horiz-adv-x="256" 
d="M72 344q-4 0 -4 5l27 152q2 5 6 5h149q6 0 4 -5l-27 -152q0 -5 -6 -5h-149zM11 0q-6 0 -4 5l26 152q2 5 6 5h149q6 0 4 -5l-26 -151q-5 -25 -17 -48t-33 -41t-52.5 -29t-73.5 -11q-6 0 -4 5l10 55q0 5 4 5q45 0 64.5 17t23.5 36q0 5 -4 5h-73z" />
    <glyph glyph-name="less" unicode="&#x3c;" horiz-adv-x="554" 
d="M54 307q2 4 4 5l482 193q8 3 6 -5l-13 -78q-1 -3 -4 -4l-396 -162q-4 -2 -4.5 -5t3.5 -5l339 -158q2 -1 2 -4l-14 -78q0 -3 -2.5 -5t-5.5 0l-414 189q-4 2 -2 5z" />
    <glyph glyph-name="equal" unicode="=" horiz-adv-x="546" 
d="M18 96q-6 0 -4 5l18 100q0 5 5 5h447q5 0 5 -5l-18 -100q-2 -5 -6 -5h-447zM55 303q-5 0 -5 5l18 100q2 5 6 5h447q6 0 4 -5l-18 -100q0 -5 -5 -5h-447z" />
    <glyph glyph-name="greater" unicode="&#x3e;" horiz-adv-x="554" 
d="M493 195q-2 -4 -4 -5l-482 -189q-6 -3 -6 5l14 78q0 2 4 4l395 158q4 2 4.5 5t-3.5 5l-338 162q-3 2 -2 4l13 78q1 3 3.5 5t4.5 0l414 -193q4 -2 2 -5z" />
    <glyph glyph-name="question" unicode="?" horiz-adv-x="546" 
d="M532 505q-8 -46 -23.5 -74t-38.5 -48t-53.5 -36t-68.5 -37q-18 -10 -23 -23t-7 -25l-7 -44q-2 -5 -6 -5h-111q-5 0 -3 5l7 44q6 33 15 55.5t22 39t29.5 28t36.5 20.5q34 16 55 28.5t32.5 24t16.5 22.5t7 25q6 35 -18 62t-82 27q-25 0 -46 -7.5t-36.5 -19.5t-25.5 -28
t-13 -34l-2 -11q0 -5 -6 -5h-108q-4 0 -4 5l2 11q7 43 30 80.5t57.5 66t78.5 45t94 16.5q54 0 94.5 -16.5t66.5 -45t35.5 -66t2.5 -80.5zM160 157q0 5 6 5h151q4 0 4 -5l-27 -152q-2 -5 -6 -5h-151q-6 0 -4 5z" />
    <glyph glyph-name="at" unicode="@" horiz-adv-x="1021" 
d="M361 -208q-111 0 -188 39.5t-117.5 107t-44 157t32.5 188.5q37 99 101 178.5t145.5 135.5t177 86t196.5 30q96 0 167 -33.5t110.5 -94t44.5 -144t-31 -183.5q-27 -77 -63 -129t-74 -83t-76 -44t-71 -13q-21 0 -35.5 9t-23.5 21.5t-12.5 25.5t-3.5 21q0 2 -2.5 3t-5.5 -2
q-19 -20 -43 -34.5t-50.5 -24.5t-52.5 -14.5t-48 -4.5q-59 0 -98.5 19.5t-60 54t-21 83t19.5 106.5q23 66 60 115.5t83.5 82t99.5 49t108 16.5q25 0 44.5 -6.5t33 -15.5t21 -18.5t10.5 -15.5q2 -4 6 -3t6 5l21 39q2 5 8 5h89q6 0 4 -5l-145 -375q-3 -7 -4.5 -15.5t0.5 -16
t8 -12.5t19 -5q41 0 86 52.5t79 144.5q34 94 30.5 163.5t-37.5 115.5t-95 69t-142 23q-78 0 -155 -29t-144 -80t-119.5 -120.5t-81.5 -150.5q-28 -78 -26 -150.5t34 -128t94 -89t154 -33.5q45 0 88 8.5t83 22t77 30.5t71 34q6 4 4 -3l1 1l-33 -85q-2 -2 -3 -4t-4 -4
q-23 -14 -57 -27t-75 -23t-85.5 -16t-88.5 -6zM348 253q-30 -81 -13 -128.5t83 -47.5q33 0 64 12.5t58 35t49.5 55t37.5 73.5q33 91 11.5 133.5t-87.5 42.5t-119.5 -47.5t-83.5 -128.5z" />
    <glyph glyph-name="A" unicode="A" horiz-adv-x="738" 
d="M204 145q-5 0 -8 -5l-9 -19l-58 -116q-1 -3 -3 -4t-4 -1h-115q-3 0 -4 2.5t1 4.5l344 692q2 5 7 5h180q3 0 5 -5l99 -692q0 -7 -7 -7h-115q-3 0 -5 5l-14 105l-5 30q0 5 -6 5h-283zM255 260q-2 -5 3 -5h214q6 0 4 5l-47 330q-1 4 -4.5 4t-5.5 -4z" />
    <glyph glyph-name="B" unicode="B" horiz-adv-x="681" 
d="M608 206q-8 -46 -30 -84t-54 -65t-73 -42t-87 -15h-333q-4 0 -4 5l123 694q0 5 6 5h333q42 0 74 -16.5t52 -44.5t27 -65.5t0 -79.5q-3 -21 -13 -42t-24 -39.5t-31 -33t-34 -22.5q-4 -2 -4.5 -5t2.5 -5q34 -18 56 -57.5t14 -87.5zM367 110q20 0 40 8t37 21.5t29 31
t15 35.5t-1.5 35.5t-15.5 31t-27 21.5t-36 8h-204q-5 0 -5 -5l-32 -182q-2 -5 4 -5h196zM524 498q3 18 1 35.5t-10 31t-22 21.5t-34 8h-204q-3 0 -5 -4l-30 -173q-2 -5 3 -5h197q16 1 33 7.5t32 18t25.5 27t13.5 33.5z" />
    <glyph glyph-name="C" unicode="C" horiz-adv-x="718" 
d="M339 101q48 0 83 16.5t58 38.5t36 43.5t18 30.5q3 5 7 5h114q6 0 4 -5q-2 -11 -11.5 -33.5t-27.5 -49t-45 -54.5t-64 -51t-84.5 -37.5t-106.5 -14.5q-79 0 -133.5 25.5t-86 72.5t-39.5 112t6 145q14 79 45.5 146.5t79.5 117t112 77.5t143 28q56 0 97 -13.5t70.5 -35
t48 -48.5t28 -53.5t12 -50.5t-0.5 -39q0 -5 -6 -5h-115q-3 0 -5 5q-2 11 -7.5 32.5t-21 43t-43.5 37.5t-76 16q-45 0 -83.5 -19t-69 -53t-52 -81.5t-31.5 -104.5q-20 -115 18 -179.5t129 -64.5z" />
    <glyph glyph-name="D" unicode="D" horiz-adv-x="723" 
d="M308 110q91 0 151 60t80 175q10 57 5.5 103t-23.5 78.5t-51 50t-77 17.5h-138q-3 0 -5 -4l-83 -475q-2 -5 4 -5h137zM31 0q-4 0 -4 5l123 694q0 5 6 5h257q79 0 133 -27t85 -74.5t39 -113t-6 -144.5q-14 -80 -45 -143.5t-78 -108.5t-110.5 -69t-142.5 -24h-257z" />
    <glyph glyph-name="E" unicode="E" horiz-adv-x="647" 
d="M536 110q6 0 4 -5l-18 -100q0 -5 -6 -5h-489q-4 0 -4 5l123 694q0 5 6 5h489q4 0 4 -5l-18 -100q0 -5 -6 -5h-369q-4 0 -6 -5l-30 -172q-2 -5 4 -5h319q6 0 4 -5l-17 -100q-2 -5 -6 -5h-319q-6 0 -6 -5l-32 -182q-2 -5 4 -5h369z" />
    <glyph glyph-name="F" unicode="F" horiz-adv-x="615" 
d="M31 0q-4 0 -4 5l123 694q0 5 6 5h489q4 0 4 -5l-18 -100q0 -5 -6 -5h-370q-4 0 -5 -4l-30 -174q-1 -4 3 -4h320q6 0 4 -5l-17 -100q-2 -5 -6 -5h-320q-5 0 -5 -4l-52 -293q0 -5 -6 -5h-110v0z" />
    <glyph glyph-name="G" unicode="G" horiz-adv-x="753" 
d="M430 603q-45 0 -84 -18t-69.5 -50.5t-51.5 -79t-31 -103.5q-21 -118 16 -184.5t131 -66.5q37 0 72.5 8.5t66 29t53.5 55.5t35 89l2 10q1 4 -3 4h-187q-5 0 -3 5l17 99q2 5 5 5h296q6 0 4 -5l-70 -397q0 -4 -6 -4h-91q-3 0 -4 4l-1 52q0 3 -2.5 4t-6.5 -2
q-41 -29 -88 -48.5t-108 -19.5q-75 0 -129.5 26.5t-86.5 74.5t-41.5 114.5t4.5 146.5q14 79 47 145.5t81.5 114.5t112.5 75t139 27q65 0 111 -15.5t77 -42.5t47 -63.5t21 -79.5q0 -7 -6 -7h-118q-11 0 -11 7q-14 46 -52 68t-88 22z" />
    <glyph glyph-name="H" unicode="H" horiz-adv-x="698" 
d="M448 0q-4 0 -4 5l52 293q1 4 -3 4h-283q-4 0 -5 -4l-52 -293q0 -5 -6 -5h-110q-4 0 -4 5l123 694q0 5 6 5h110q4 0 4 -5l-50 -283q-1 -4 3 -4h283q4 0 5 4l50 283q0 5 6 5h110q4 0 4 -5l-123 -694q0 -5 -6 -5h-110z" />
    <glyph glyph-name="I" unicode="I" horiz-adv-x="276" 
d="M26 0q-4 0 -4 5l123 694q0 5 6 5h110q4 0 4 -5l-123 -694q0 -5 -6 -5h-110z" />
    <glyph glyph-name="J" unicode="J" horiz-adv-x="517" 
d="M426 205q-8 -45 -24 -84t-44 -68t-71 -46t-104 -17q-57 0 -92.5 17t-54.5 46t-22.5 68t4.5 84l7 40q2 5 6 5h109q6 0 4 -5l-7 -40q-3 -18 -4 -36.5t5 -34.5t21 -26t44 -10q28 0 47 10t30 26t17 34.5t9 36.5l87 494q2 5 6 5h110q6 0 4 -5z" />
    <glyph glyph-name="K" unicode="K" horiz-adv-x="658" 
d="M449 0q-3 0 -4.5 3l-2.5 5l-157 325q-1 3 -5 1l-81 -70q-4 -3 -5.5 -4.5t-2.5 -6.5l-44 -248q0 -5 -6 -5h-110q-4 0 -4 5l123 694q0 5 6 5h110q4 0 4 -5l-48 -269q0 -2 2 -3.5t5 0.5l326 276q2 1 5 1h146q4 0 4 -3.5t-2 -5.5l-323 -272q-3 -3 -1 -7l198 -408q2 -8 -6 -8
h-127z" />
    <glyph glyph-name="L" unicode="L" horiz-adv-x="576" 
d="M27 0q-4 0 -4 5l123 694q0 5 6 5h110q4 0 4 -5l-103 -585q-1 -4 3 -4h340q6 0 4 -5l-18 -100q0 -5 -6 -5h-459z" />
    <glyph glyph-name="M" unicode="M" horiz-adv-x="884" 
d="M633 0q-4 0 -4 5l102 577q1 4 -3.5 4.5t-6.5 -4.5l-233 -579q0 -2 -2 -2.5t-4 -0.5h-185q-4 0 -4 3l-28 579q-1 5 -5 4.5t-5 -4.5l-102 -577q0 -5 -6 -5h-110q-4 0 -4 5l123 694q0 5 6 5h208q5 0 6 -5l31 -575q1 -5 4.5 -5t5.5 5l235 575q1 3 3 4t4 1h209q4 0 4 -5
l-123 -694q0 -5 -6 -5h-110z" />
    <glyph glyph-name="N" unicode="N" horiz-adv-x="732" 
d="M716 704q4 0 4 -5l-123 -694q0 -5 -6 -5h-149q-4 0 -6 5l-180 526q-2 5 -5.5 4.5t-4.5 -4.5l-93 -526q0 -5 -6 -5h-111q-3 0 -3 5l123 694q0 5 6 5h149q2 0 5 -5l181 -526q2 -5 5.5 -4.5t4.5 4.5l93 526q0 5 6 5h110z" />
    <glyph glyph-name="O" unicode="O" horiz-adv-x="760" 
d="M703 352q-14 -80 -46 -146.5t-80 -114.5t-112 -74.5t-143 -26.5t-134 26.5t-86 74.5t-39 114.5t6 146.5q14 79 45.5 145.5t79.5 114.5t112 75t143 27t134 -27t86 -75t39.5 -114.5t-5.5 -145.5zM341 100q94 0 155 67t82 185q20 118 -17 185t-131 67t-155 -67t-81 -185
q-21 -118 16 -185t131 -67z" />
    <glyph glyph-name="P" unicode="P" horiz-adv-x="630" 
d="M621 487q-8 -46 -32 -85.5t-58 -69t-75.5 -46t-83.5 -16.5h-174q-4 0 -5 -4l-46 -261q0 -5 -6 -5h-110q-4 0 -4 5l123 694q0 5 6 5h293q42 0 77.5 -17t59 -46t33.5 -68.5t2 -85.5zM381 380q20 0 40 8.5t36.5 23t28.5 34t16 41.5t-1 41.5t-16.5 34t-28.5 23t-37 8.5h-164
q-3 0 -5 -4l-36 -205q0 -5 4 -5h163z" />
    <glyph glyph-name="Q" unicode="Q" horiz-adv-x="766" 
d="M704 352q-14 -79 -47.5 -148t-80.5 -117q-6 -6 -3 -11l92 -107q2 -2 0.5 -5.5t-5.5 -3.5h-118q-5 0 -9 4l-46 56q-3 4 -11 1q-30 -12 -73 -21t-84 -10q-79 -2 -133 25t-84.5 75.5t-38 115.5t6.5 146t45.5 145.5t79.5 114.5t112.5 75t143.5 27t133.5 -27t86 -75
t39.5 -114.5t-6 -145.5zM505 174q26 31 45 77t29 101q21 118 -16.5 184.5t-131.5 66.5t-154.5 -66.5t-81.5 -184.5q-10 -57 -6 -103.5t21.5 -79.5t48.5 -50.5t75 -17.5q11 0 29.5 1.5t39.5 6.5q3 1 4 4t-1 5l-86 103q-2 2 -0.5 5.5t5.5 3.5h118q5 0 8 -3l45 -54q5 -5 9 1z
" />
    <glyph glyph-name="R" unicode="R" horiz-adv-x="654" 
d="M621 487q-11 -63 -50 -113t-92 -77q-2 -2 -1 -4l77 -286q1 -3 -1.5 -5t-5.5 -2h-115q-1 0 -4 3l-70 262q0 5 -4 5h-157q-4 0 -5 -4l-46 -261q0 -5 -6 -5h-110q-4 0 -4 5l123 694q0 5 6 5h293q42 0 77.5 -17t59 -46t33.5 -68.5t2 -85.5zM385 380q19 1 38.5 9.5t35.5 23
t27.5 33.5t15.5 41t-1 41.5t-16.5 34t-28.5 23t-37 8.5h-164q-3 0 -5 -4l-36 -205q0 -5 4 -5h167z" />
    <glyph glyph-name="S" unicode="S" horiz-adv-x="645" 
d="M579 206q-9 -50 -34.5 -89.5t-65.5 -68t-92.5 -43.5t-115.5 -15q-75 0 -123.5 18.5t-76.5 47.5t-36.5 65.5t-2.5 71.5q2 5 6 5h115q6 0 4 -5q-3 -18 5.5 -35t26 -29.5t43.5 -20.5t58 -8q31 0 59 8.5t50 22.5t36.5 33.5t18.5 41.5q6 33 -23 61t-105 35q-61 6 -108.5 18.5
t-78 36t-43 60t-3.5 89.5q9 49 37 88t67.5 65.5t86.5 40.5t94 14q50 0 93.5 -13.5t74.5 -39.5t45.5 -63.5t6.5 -86.5q-2 -5 -5 -5h-116q-6 0 -4 5q3 16 -3 32.5t-20 30t-37 22t-54 8.5q-26 0 -49.5 -7.5t-43 -21t-32.5 -31.5t-16 -38q-4 -23 6 -38t29 -24t43.5 -14t50.5 -8
t55.5 -7.5t57.5 -13.5t53.5 -23.5t42.5 -37.5t24 -56t-1 -78z" />
    <glyph glyph-name="T" unicode="T" horiz-adv-x="586" 
d="M297 5q0 -5 -6 -5h-110q-4 0 -4 5l103 584q2 5 -4 5h-185q-4 0 -4 5l18 100q0 5 6 5h500q4 0 4 -5l-18 -100q0 -5 -6 -5h-185q-4 0 -6 -5z" />
    <glyph glyph-name="U" unicode="U" horiz-adv-x="655" 
d="M570 244q-9 -53 -37.5 -99t-69 -80.5t-90.5 -54.5t-103 -20t-96 20t-71.5 54.5t-40 80.5t-2.5 99l80 455q2 5 6 5h110q6 0 4 -5l-80 -455q-5 -28 1.5 -52.5t21.5 -42.5t37.5 -28.5t50.5 -10.5t54.5 10.5t48 28.5t36.5 42.5t20 52.5l80 455q2 5 6 5h110q6 0 4 -5z" />
    <glyph glyph-name="V" unicode="V" horiz-adv-x="737" 
d="M339 122q1 -4 4.5 -4t5.5 4l289 579q1 3 6 3h115q3 0 4 -2.5t-1 -4.5l-346 -692q-2 -5 -7 -5h-174q-3 0 -5 5l-103 692q0 7 7 7h115q2 0 4 -3z" />
    <glyph glyph-name="W" unicode="W" horiz-adv-x="1032" 
d="M708 123q0 -5 4 -5t6 5l204 576q1 3 3 4t4 1h122q3 0 4 -2.5t-1 -4.5l-260 -692q-2 -5 -7 -5h-192q-4 0 -5 5l-15 577q0 5 -4.5 5t-6.5 -5l-219 -577q-2 -5 -6 -5h-193q-4 0 -5 5l-16 692q0 7 7 7h122q4 0 5 -5l1 -576q0 -5 4 -4.5t6 4.5l218 576q1 3 3 4t4 1h193
q4 0 5 -5z" />
    <glyph glyph-name="X" unicode="X" horiz-adv-x="681" 
d="M105 696q-2 3 0.5 5.5t5.5 2.5h132q2 0 3.5 -3l2.5 -5l112 -239q3 -5 6 0l197 239l5 5t5 3h132q3 0 4 -2.5t-2 -5.5l-290 -341q-3 -4 -1 -7l170 -340q1 -2 -1 -5t-5 -3h-131q-3 0 -4.5 3l-2.5 5l-113 240q-2 4 -6 0l-196 -240l-5.5 -5.5t-5.5 -2.5h-130q-3 0 -4 2.5
t2 5.5l289 340q3 4 1 7z" />
    <glyph glyph-name="Y" unicode="Y" horiz-adv-x="694" 
d="M236 0q-4 0 -4 5l50 282q0 2 0.5 3.5t-1.5 3.5l-168 402q-2 8 6 8h131q3 0 6 -5l104 -285q4 -6 8 0l207 285q2 5 9 5h130q2 0 3.5 -2t-1.5 -6l-311 -402q-3 -5 -3 -7l-50 -282q0 -5 -6 -5h-110v0z" />
    <glyph glyph-name="Z" unicode="Z" horiz-adv-x="592" 
d="M-11 0q-4 0 -4 5l16 93q1 5 3 7.5t4 4.5l427 476q2 2 1.5 5t-4.5 3h-339q-4 0 -4 5l18 100q0 5 5 5h499q4 0 4 -5l-17 -95q-2 -7 -5 -10l-429 -476q-2 -2 -1.5 -5t4.5 -3h339q6 0 4 -5l-18 -100q0 -5 -6 -5h-497z" />
    <glyph glyph-name="bracketleft" unicode="[" horiz-adv-x="341" 
d="M241 -128q4 0 4 -4l-11 -61q0 -5 -6 -5h-228q-3 0 -3 5l156 892q2 5 6 5h228q6 0 4 -5l-10 -61q-1 -4 -6 -4h-128q-4 0 -6 -5l-132 -752q-2 -5 4 -5h128z" />
    <glyph glyph-name="backslash" unicode="\" horiz-adv-x="382" 
d="M105 697q0 7 7 7h75q2 0 4 -3l97 -694q0 -7 -7 -7h-74q-3 0 -4 3z" />
    <glyph glyph-name="bracketright" unicode="]" horiz-adv-x="341" 
d="M98 -128q4 0 6 5l132 752q2 5 -4 5h-128q-5 0 -4 4l10 61q2 5 6 5h228q6 0 4 -5l-157 -892q0 -5 -6 -5h-227q-4 0 -4 5l11 61q0 4 6 4h127z" />
    <glyph glyph-name="asciicircum" unicode="^" horiz-adv-x="583" 
d="M332 590q-1 4 -5 4t-5 -4l-174 -293q-2 -3 -6 -3h-116q-8 0 -3 7l236 398q2 5 7 5h162q3 0 5 -5l95 -398q1 -3 -1.5 -5t-5.5 -2h-115q-3 0 -4 3z" />
    <glyph glyph-name="underscore" unicode="_" horiz-adv-x="634" 
d="M63 0q-6 0 -4 5l16 90q0 5 6 5h448q4 0 4 -5l-16 -90q-2 -5 -6 -5h-448z" />
    <glyph glyph-name="grave" unicode="`" horiz-adv-x="314" 
d="M168 562q-8 0 -10 7l-60 128q-2 3 0.5 5t5.5 2h117q7 0 9 -7l31 -128q2 -7 -6 -7h-87z" />
    <glyph glyph-name="a" unicode="a" horiz-adv-x="579" 
d="M349 37q-9 -8 -24.5 -16t-34.5 -15t-40.5 -11.5t-43.5 -4.5q-51 0 -86 12.5t-55.5 34t-27 51t-0.5 63.5q6 32 24.5 61.5t50 52t74.5 35.5t98 13h94q15 0 24 7t10 15t1 20t-8.5 23.5t-28 19.5t-56.5 8q-57 0 -81.5 -20t-31.5 -46q0 -5 -6 -5h-109q-4 0 -4 5q8 44 31.5 77
t57.5 55t76 33t86 11q52 0 91.5 -12t64.5 -36t34.5 -59.5t1.5 -82.5l-57 -321q-1 -5 -6 -5h-98q-4 0 -6 5l-4 32q-4 7 -11 0zM226 100q39 0 68 10t49 25.5t32 34.5t15 38q0 5 -4 5h-114q-33 0 -55 -6t-34.5 -15t-18.5 -20t-7 -21q-2 -8 0.5 -17t10 -16.5t21.5 -12.5t37 -5z
" />
    <glyph glyph-name="b" unicode="b" horiz-adv-x="624" 
d="M169 37q-6 7 -11 0l-15 -32q-4 -5 -11 -5h-95q-6 0 -4 5l122 694q2 5 6 5h110q6 0 4 -5l-40 -228q-1 -4 2 -5t6 2q18 15 54.5 31.5t84.5 16.5q49 0 88 -19t63.5 -54t33 -83.5t-1.5 -106.5q-11 -59 -35.5 -107t-60.5 -83t-81.5 -54t-98.5 -19q-38 0 -71.5 14.5t-48.5 32.5
zM445 253q11 68 -14 110.5t-89 42.5q-60 0 -96 -39t-49 -114q-12 -68 10 -110.5t82 -42.5q64 0 104 42.5t52 110.5z" />
    <glyph glyph-name="c" unicode="c" horiz-adv-x="577" 
d="M346 516q48 0 85.5 -12.5t64 -35.5t40 -55.5t12.5 -72.5q0 -5 -6 -5h-113q-4 0 -6 5q-7 33 -29.5 51.5t-66.5 18.5q-32 0 -57 -12t-44 -33t-31.5 -50t-18.5 -62t-3.5 -62t14 -50t32.5 -33t53 -12q50 0 77 18.5t45 51.5q3 5 8 5h113q6 0 4 -5q-31 -86 -101 -131t-165 -45
q-59 0 -101 19t-67 54t-33 83t3 107q10 59 35 107.5t62.5 83t86 53.5t107.5 19z" />
    <glyph glyph-name="d" unicode="d" horiz-adv-x="624" 
d="M365 37q-11 -9 -26 -17.5t-33 -15t-38 -10.5t-39 -4q-53 0 -92 19t-62.5 54t-31 83t3.5 107q10 58 35.5 106.5t62.5 83.5t82 54t95 19q48 0 78.5 -16.5t42.5 -31.5q3 -3 6 -2t4 5l40 228q2 5 6 5h110q6 0 4 -5l-122 -694q-2 -5 -6 -5h-95q-8 0 -9 5l-5 32q-2 7 -11 0z
M167 253q-12 -68 13 -110.5t89 -42.5q60 0 97 42.5t49 110.5q13 75 -10 114t-83 39q-64 0 -104 -42.5t-51 -110.5z" />
    <glyph glyph-name="e" unicode="e" horiz-adv-x="586" 
d="M521 212q-3 -5 -6 -5h-348q-6 0 -6 -5q-8 -42 19.5 -72t81.5 -30q33 0 60.5 9.5t44.5 35.5q2 5 9 5h117q6 0 4 -5q-15 -36 -40.5 -65t-59 -49t-73 -30.5t-82.5 -10.5q-55 0 -96.5 19t-67.5 54t-35 83t2 107q10 59 36 107.5t64.5 83t86.5 53.5t103 19t96.5 -19t67.5 -54
t35 -83.5t-1 -106.5q-4 -15 -6 -23.5t-6 -17.5zM410 307q5 0 5 4q3 15 -1 31.5t-15.5 31t-31.5 23.5t-51 9q-30 0 -54.5 -9.5t-41.5 -23.5t-27 -30.5t-13 -31.5q0 -4 3 -4h227z" />
    <glyph glyph-name="f" unicode="f" horiz-adv-x="380" 
d="M148 506q5 0 5 4l10 53q12 71 60.5 106.5t113.5 34.5h79q3 0 3 -5l-18 -100q0 -5 -6 -5h-71q-15 0 -27 -8.5t-14 -23.5l-10 -52q0 -4 5 -4h102q4 0 4 -5l-17 -95q0 -5 -6 -5h-102q-4 0 -6 -5l-69 -391q0 -5 -6 -5h-110q-4 0 -4 5l69 391q2 5 -4 5h-82q-4 0 -4 5l17 95
q0 5 6 5h82z" />
    <glyph glyph-name="g" unicode="g" horiz-adv-x="609" 
d="M55 253q10 58 36.5 106.5t63.5 83.5t82 54t92 19q44 0 76.5 -13.5t50.5 -34.5q5 -5 8 0l16 32q4 6 11 6h95q6 0 4 -5l-85 -486q-9 -51 -35 -92t-64 -70t-85.5 -45t-99.5 -16q-48 0 -86.5 13.5t-65 36t-38.5 52.5t-6 63q2 5 6 5h108q5 0 5 -5t4.5 -14.5t15.5 -18.5
t29.5 -15.5t47.5 -6.5q35 0 60 9.5t42 25t27 36t15 42.5l3 17v4q1 3 -2 4t-5 -1q-7 -6 -21 -14.5t-32.5 -16t-42 -13t-49.5 -5.5q-47 0 -85.5 19t-63 54t-34 83t1.5 107zM175 253q-12 -68 12.5 -110.5t88.5 -42.5q63 0 100 39t51 114q11 68 -11.5 110.5t-85.5 42.5
q-64 0 -104 -42.5t-51 -110.5z" />
    <glyph glyph-name="h" unicode="h" horiz-adv-x="608" 
d="M367 0q-4 0 -4 5l48 273q4 22 2 44.5t-12.5 40t-29.5 28.5t-49 11q-29 0 -51.5 -9.5t-38.5 -25t-26 -36.5t-14 -43l-50 -283q0 -5 -6 -5h-110q-4 0 -4 5l123 694q0 5 6 5h110q4 0 4 -5l-40 -227q-1 -5 1.5 -6t7.5 3t17 12t29 15.5t38 13.5t44 6q55 0 91.5 -19.5
t56.5 -52.5t25 -76t-4 -90l-48 -273q0 -5 -6 -5h-110z" />
    <glyph glyph-name="i" unicode="i" horiz-adv-x="296" 
d="M126 562q-5 0 -5 5l24 132q0 5 6 5h130q4 0 4 -5l-24 -132q0 -5 -5 -5h-130zM36 0q-4 0 -4 5l88 496q0 5 6 5h110q4 0 4 -5l-88 -496q0 -5 -6 -5h-110z" />
    <glyph glyph-name="j" unicode="j" horiz-adv-x="310" 
d="M173 -57q-13 -75 -57 -108.5t-116 -32.5h-77q-3 0 -3 5l18 100q0 5 6 5h68q14 -2 26.5 7.5t14.5 24.5l99 557q0 5 6 5h110q4 0 4 -5zM157 562q-4 0 -4 5l24 132q0 5 5 5h130q5 0 5 -5l-24 -132q0 -5 -6 -5h-130z" />
    <glyph glyph-name="k" unicode="k" horiz-adv-x="616" 
d="M277 253q-13 -10 -29.5 -22.5t-31.5 -23.5q-18 -13 -37 -28q-3 -2 -5 -4t-3 -7l-29 -163q0 -5 -6 -5h-110q-4 0 -4 5l123 694q0 5 6 5h110q4 0 4 -5l-65 -365q0 -2 2 -3.5t5 0.5l226 169q7 5 11 5h161q4 0 4 -3.5t-3 -5.5l-219 -162q-3 -3 -1 -7l132 -319q2 -8 -6 -8
h-123l-2 2l-103 251q-2 5 -7 0z" />
    <glyph glyph-name="l" unicode="l" horiz-adv-x="276" 
d="M26 0q-4 0 -4 5l123 694q0 5 6 5h110q4 0 4 -5l-123 -694q0 -5 -6 -5h-110z" />
    <glyph glyph-name="m" unicode="m" horiz-adv-x="861" 
d="M633 0q-6 0 -4 5l48 277q4 22 3.5 44.5t-8 40t-23 28.5t-41.5 11t-44.5 -9.5t-32 -26t-22 -39.5t-13.5 -49l-48 -277q-2 -5 -6 -5h-110q-6 0 -4 5l48 277q4 22 3.5 44.5t-8 40t-23 28.5t-41.5 11t-44.5 -9.5t-32 -26t-22 -39.5t-13.5 -49l-48 -277q-2 -5 -6 -5h-110
q-6 0 -4 5l87 496q2 5 6 5h95q7 0 9 -6l5 -30q2 -8 8 -2q9 8 24 16.5t33 15.5t37 11.5t36 4.5q45 0 75 -16.5t44 -42.5q4 -6 8 0q26 23 61 41t83 18q95 0 138 -55t23 -173l-50 -283q-2 -5 -6 -5h-110z" />
    <glyph glyph-name="n" unicode="n" horiz-adv-x="598" 
d="M237 469q9 8 24.5 16.5t33 15t36 11t34.5 4.5q59 0 96 -19.5t56 -52.5t22 -76t-5 -90l-48 -273q-2 -5 -6 -5h-110q-6 0 -4 5l48 273q4 22 1.5 45t-12.5 41.5t-29 30t-49 11.5q-29 0 -51.5 -10t-39 -26.5t-26 -38t-13.5 -43.5l-50 -283q-2 -5 -6 -5h-110q-6 0 -4 5l87 496
q2 5 6 5h95q8 0 8 -5l6 -31q1 -3 4 -4t6 3z" />
    <glyph glyph-name="o" unicode="o" horiz-adv-x="579" 
d="M528 253q-11 -59 -36.5 -107t-63.5 -83t-88 -54t-108 -19q-59 0 -101.5 19t-68 54t-34 83t2.5 107q10 59 35.5 107.5t63.5 83t87 53.5t108 19q58 0 101 -19t69 -54t34.5 -83.5t-1.5 -106.5zM408 253q12 71 -13 112t-89 41q-63 0 -103 -41t-52 -112q-13 -71 12.5 -112
t88.5 -41q64 0 103.5 41t52.5 112z" />
    <glyph glyph-name="p" unicode="p" horiz-adv-x="624" 
d="M252 469q10 9 25.5 17.5t33.5 15t38 10.5t39 4q53 0 92 -19t63 -54t31 -83.5t-3 -106.5q-10 -59 -35.5 -107t-62.5 -83t-82.5 -54t-94.5 -19q-48 0 -78.5 16.5t-43.5 31.5q-2 3 -5 2t-4 -5l-41 -228q0 -5 -5 -5h-110q-5 0 -5 5l123 694q0 5 6 5h95q8 0 9 -5l4 -32
q2 -7 11 0zM451 253q12 68 -13 110.5t-89 42.5q-60 0 -97 -42.5t-49 -110.5q-14 -75 9 -114t83 -39q64 0 104 42.5t52 110.5z" />
    <glyph glyph-name="q" unicode="q" horiz-adv-x="624" 
d="M458 469q5 -7 11 0l16 32q4 5 11 5h95q4 0 4 -5l-123 -694q0 -5 -5 -5h-110q-5 0 -5 5l41 228q1 4 -2 5t-7 -2q-17 -15 -53.5 -31.5t-84.5 -16.5q-50 0 -88.5 19t-63 54t-33 83t1.5 107q10 58 34.5 106.5t60.5 83.5t81.5 54t98.5 19q38 0 71.5 -14.5t48.5 -32.5zM183 253
q-12 -68 13 -110.5t89 -42.5q60 0 96 39t50 114q12 68 -10 110.5t-82 42.5q-64 0 -104 -42.5t-52 -110.5z" />
    <glyph glyph-name="r" unicode="r" horiz-adv-x="399" 
d="M322 401q-29 0 -51.5 -9t-38.5 -25t-25.5 -36.5t-13.5 -42.5l-50 -283q-2 -5 -6 -5h-111q-5 0 -3 5l87 496q2 5 5 5h96q7 0 9 -6l5 -30q2 -8 8 -2q27 23 56 35.5t64 12.5h55q4 0 4 -5l-19 -105q0 -5 -6 -5h-65v0z" />
    <glyph glyph-name="s" unicode="s" horiz-adv-x="546" 
d="M478 157q-7 -40 -28 -71t-54 -52.5t-76 -32.5t-94 -11q-56 0 -96 15t-64 39.5t-33.5 56t-3.5 65.5q2 5 6 5h115q6 0 4 -5q-4 -24 17 -45t75 -21q16 0 34 2t34.5 8t28.5 17.5t15 29.5q3 16 -5.5 25t-23 13.5t-32.5 6t-33 3.5q-38 4 -76 11t-66.5 23.5t-43 45t-5.5 75.5
q6 32 26 60.5t51 49.5t71.5 33.5t87.5 12.5q48 0 86 -11t63 -33.5t35.5 -55.5t3.5 -76q0 -5 -5 -5h-112q-4 0 -4 5q2 10 -1 22t-13 21.5t-27.5 16t-44.5 6.5q-45 0 -69.5 -13t-27.5 -33q-2 -12 4 -19.5t17.5 -12t27 -7.5t32.5 -5q32 -4 71.5 -9.5t72 -21t51 -45.5t9.5 -83z
" />
    <glyph glyph-name="t" unicode="t" horiz-adv-x="400" 
d="M60 401q-5 0 -5 5l17 95q2 5 6 5h82q4 0 6 5l24 135q0 5 6 5h110q4 0 4 -5l-24 -135q-2 -5 4 -5h102q6 0 4 -5l-17 -95q0 -5 -5 -5h-102q-6 0 -6 -5l-45 -254q-3 -15 6 -23.5t24 -8.5h71q6 0 4 -5l-17 -100q-2 -5 -6 -5h-78q-79 0 -108.5 33t-15.5 108l45 255q0 5 -4 5
h-82z" />
    <glyph glyph-name="u" unicode="u" horiz-adv-x="587" 
d="M347 37q-19 -17 -52 -32t-65 -15q-63 0 -101.5 19.5t-58.5 52.5t-23.5 76t4.5 90l48 273q2 5 6 5h110q6 0 4 -5l-48 -273q-4 -23 -2 -45.5t12 -41t29 -30t49 -11.5q29 0 51.5 10t39 26.5t26.5 37.5t14 44l50 283q2 5 6 5h111q5 0 3 -5l-87 -496q-2 -5 -6 -5h-95
q-8 0 -9 6l-5 30q-1 3 -4 4t-7 -3z" />
    <glyph glyph-name="v" unicode="v" horiz-adv-x="580" 
d="M453 499q3 7 9 7h113q3 0 4.5 -2t-0.5 -5l-252 -494q-2 -5 -7 -5h-162q-3 0 -5 5l-79 494q-2 7 6 7h115q6 0 6 -7l53 -385q0 -4 4 -4t6 4z" />
    <glyph glyph-name="w" unicode="w" horiz-adv-x="856" 
d="M732 500q4 6 7 6h112q7 0 4 -6l-203 -495q-2 -5 -7 -5h-171q-3 0 -5 5l-20 387q0 5 -4 5t-6 -5l-156 -387q-2 -5 -7 -5h-171q-3 0 -5 5l-29 495q0 6 5 6h112q6 0 6 -6l12 -386q0 -5 4 -5t6 5l160 386q4 6 8 6h160q6 0 6 -6l24 -386q0 -4 4 -4t6 4z" />
    <glyph glyph-name="x" unicode="x" horiz-adv-x="588" 
d="M502 8q2 -3 -0.5 -5.5t-5.5 -2.5h-126q-5 0 -8 5l-86 149q-2 5 -7 0l-137 -149q-3 -5 -9 -5h-126q-3 0 -4 2.5t2 5.5l222 239q3 5 1 8l-138 243q-2 3 0 5.5t5 2.5h123q5 0 8 -5l88 -153q2 -6 8 0l142 153q3 5 9 5h122q3 0 4.5 -2.5t-1.5 -5.5l-224 -243q-3 -5 -1 -8z" />
    <glyph glyph-name="y" unicode="y" horiz-adv-x="588" 
d="M477 501q3 5 7 5h116q7 0 4 -5l-253 -496l-40 -77q-33 -64 -76.5 -95t-107.5 -31h-146q-6 0 -4 5l16 94q2 5 6 5h121q24 0 37 8t18.5 22t5 31.5t-3.5 37.5l-80 496q0 5 6 5h117q5 0 5 -5l53 -387q0 -4 4 -4t6 4z" />
    <glyph glyph-name="z" unicode="z" horiz-adv-x="501" 
d="M25 0q-4 0 -4 5l17 96q1 6 6 9l290 278q2 2 2 5t-5 3h-226q-6 0 -4 5l18 100q0 5 5 5h376q5 0 5 -5l-18 -99q0 -2 -3 -5l-289 -279q-2 -2 -2 -5t5 -3h245q4 0 4 -5l-18 -100q0 -5 -6 -5h-398z" />
    <glyph glyph-name="braceleft" unicode="{" horiz-adv-x="380" 
d="M273 -193q0 -5 -6 -5h-55q-71 0 -91.5 35t-7.5 106l39 222q4 22 -8.5 37.5t-34.5 15.5h-25q-6 0 -4 5l10 60q2 5 6 5h25q21 0 39.5 15.5t22.5 38.5l39 220q6 36 17 62.5t28.5 44t42.5 26.5t61 9h55q6 0 4 -5l-10 -61q-1 -4 -6 -4h-35q-22 0 -40.5 -16t-23.5 -38l-37 -213
q-6 -32 -15 -51.5t-20 -31.5t-22.5 -18.5t-21.5 -10.5q-3 -2 -1 -4q8 -4 17.5 -10.5t16 -18.5t9 -32t-2.5 -50l-38 -214q-4 -22 9.5 -38t35.5 -16h35q4 0 4 -4z" />
    <glyph glyph-name="bar" unicode="|" horiz-adv-x="236" 
d="M0 -198q-2 0 -2 5l156 892q2 5 5 5h79q6 0 4 -5l-157 -892q0 -5 -6 -5h-79z" />
    <glyph glyph-name="braceright" unicode="}" horiz-adv-x="380" 
d="M-35 -132q0 4 6 4h34q22 0 40.5 16t22.5 38l38 214q5 30 14.5 50t20.5 32t22.5 18.5t20.5 10.5q5 2 1 4q-9 4 -18 10.5t-15.5 18.5t-9 31.5t3.5 51.5l37 213q5 22 -8.5 38t-35.5 16h-35q-5 0 -4 4l10 61q2 5 6 5h55q71 0 91.5 -35.5t7.5 -106.5l-39 -220
q-4 -23 9.5 -38.5t34.5 -15.5h25q6 0 4 -5l-10 -60q-2 -5 -6 -5h-25q-22 0 -40.5 -15.5t-22.5 -37.5l-39 -222q-6 -36 -17 -62.5t-28.5 -44t-42.5 -26t-61 -8.5h-54q-4 0 -4 5z" />
    <glyph glyph-name="asciitilde" unicode="~" horiz-adv-x="546" 
d="M505 300q-4 -22 -17.5 -42t-34 -35.5t-46 -24.5t-53.5 -9q-29 0 -53.5 11t-46.5 24t-41 24t-37 11q-14 0 -27.5 -10.5t-15.5 -24.5l-5 -30q-2 -5 -6 -5l-82 20q-4 0 -4 5l5 30q4 23 18 43.5t34 36t46 24.5t54 9q29 0 53.5 -11t46 -24.5t40.5 -24.5t38 -11q14 0 27.5 10
t15.5 24l5 32q2 5 6 5l82 -20q6 0 4 -5z" />
    <glyph glyph-name="DEL" horiz-adv-x="300" 
 />
    <glyph glyph-name="nonbreakingspace" unicode="&#xa0;" horiz-adv-x="300" 
 />
    <glyph glyph-name="exclamdown" unicode="&#xa1;" horiz-adv-x="277" 
d="M192.009 495.025q5.99902 0 4 -4.99902l-41.9951 -292.965l-33.9961 -192.977q0 -4.99902 -5.99902 -4.99902h-109.986q-4 0 -4 4.99902l33.9961 192.977l61.9922 292.965q2 4.99902 5.99902 4.99902h89.9893zM259.001 703q3.99902 0 3.99902 -4.99902l-26.9961 -151.981
q-2 -5 -6 -5h-149.981q-5.99902 0 -3.99902 5l26.9961 151.981q0 4.99902 6 4.99902h149.981z" />
    <glyph glyph-name="cent" unicode="&#xa2;" horiz-adv-x="572" 
d="M376 518q-2 -5 4 -5q75 -10 117 -54.5t41 -116.5q1 -2 -1.5 -4t-4.5 -2h-114q-3 0 -4 3q-7 33 -30 52t-67 19q-32 0 -57 -12t-44 -33t-31.5 -50t-18.5 -62t-3.5 -62t14 -50t32.5 -33t53 -12q50 0 78 21.5t47 54.5q1 3 5 3h114q2 0 4 -2t0 -4q-25 -74 -85.5 -120.5
t-141.5 -55.5l-16 -89q0 -5 -6 -5h-69q-3 0 -3 5l16 89q-48 6 -83 27.5t-55 55t-25.5 78.5t3.5 99q19 106 83 175.5t163 83.5q5 1 5.5 2.5t1.5 3.5l14 84q2 5 5 5h69q6 0 4 -5z" />
    <glyph glyph-name="sterling" unicode="&#xa3;" horiz-adv-x="654" 
d="M582 216q6 0 4 -5l-36 -206q-2 -5 -6 -5h-547q-6 0 -4 5l17 100q0 5 5 5h71q15 0 27.5 8.5t14.5 23.5l29 162q0 5 -4 5h-102q-5 0 -5 5l17 95q2 5 6 5h102q4 0 6 5l15 87q7 43 30 80.5t57.5 66t79 45t94.5 16.5t88 -17t62 -46.5t32.5 -70t0.5 -86.5q0 -5 -6 -5h-109
q-4 0 -4 5q3 19 -0.5 39t-14 35.5t-28 25.5t-40.5 10q-24 0 -44.5 -8.5t-36.5 -22.5t-27 -31.5t-14 -35.5l-15 -87q-2 -5 4 -5h93q6 0 4 -5l-17 -95q0 -5 -5 -5h-93q-6 0 -6 -5l-27 -153q-3 -14 -6 -22t-7 -13q-2 -6 4 -6h210q6 0 6 5l17 96q2 5 6 5h102z" />
    <glyph glyph-name="currency" unicode="&#xa4;" horiz-adv-x="675" 
d="M477 350q13 71 -12.5 112t-89.5 41q-63 0 -102.5 -41t-52.5 -112q-12 -71 13 -112t88 -41q64 0 104 41t52 112zM24 119q-5 3 1 7l81 69q4 4 2 8q-11 31 -13.5 68t5.5 79q8 41 23 78.5t37 67.5q4 5 1 9l-57 70q-5 3 1 7l63 53q3 5 7 0l51 -64q5 -5 11 -2q33 20 73 32
t85 12q88 0 140 -43q7 -5 13 1l76 64q3 5 7 0l43 -53q5 -3 -1 -7l-82 -70q-5 -3 -3 -10q11 -31 13.5 -67t-5.5 -78q-15 -85 -61 -148q-2 -4 1 -7l58 -69q5 -3 -1 -7l-63 -53q-4 -5 -7 0l-53 64q-5 5 -12 0q-68 -43 -156 -43q-89 0 -143 43q-5 4 -9 0l-76 -64q-4 -5 -7 0z
" />
    <glyph glyph-name="yen" unicode="&#xa5;" horiz-adv-x="694" 
d="M502 420q-6 -8 2 -8h82q6 0 4 -5l-17 -99q-2 -5 -6 -5h-157q-4 0 -6 -5l-16 -88q0 -5 5 -5h157q4 0 4 -5l-18 -99q0 -5 -6 -5h-158q-4 -1 -4 -5l-16 -86q0 -5 -6 -5h-110q-4 0 -4 5l16 86q0 5 -5 5h-160q-4 0 -4 5l18 99q0 5 6 5h160q5 0 5 5l16 88q2 5 -4 5h-160
q-6 0 -4 5l17 99q2 5 6 5h85q4 0 5.5 3t0.5 5l-117 276q-2 8 6 8h132q1 0 3 -2l109 -287q0 -4 4 0l210 287q2 2 5 2h132q8 0 2 -8z" />
    <glyph glyph-name="brokenbar" unicode="&#xa6;" horiz-adv-x="236" 
d="M87 293q-5 0 -3 5l70 401q2 5 5 5h69q6 0 4 -5l-70 -401q-2 -5 -6 -5h-69zM0 -198q-2 0 -2 5l70 401q0 5 5 5h69q4 0 4 -5l-71 -401q0 -5 -6 -5h-69z" />
    <glyph glyph-name="section" unicode="&#xa7;" horiz-adv-x="648" 
d="M383 -27q4 21 -5.5 37t-28 28t-44 21.5t-53.5 16.5q-42 11 -81.5 26t-67.5 38t-41.5 58t-4.5 87q10 55 33 86t60 58q6 5 2 10q-13 15 -17.5 37t1.5 57q7 43 31.5 76.5t60 56.5t80 35t91.5 12q49 0 90.5 -11.5t71 -36t43 -63t6.5 -91.5q0 -5 -6 -5h-117q-4 0 -4 5
q8 40 -20.5 66.5t-82.5 26.5q-23 0 -42.5 -6.5t-34.5 -16.5t-24 -22.5t-11 -25.5q-4 -21 6 -35t29 -24.5t45 -18t54 -14.5q43 -11 82 -26t67 -38t41 -58t4 -87q-10 -56 -41.5 -90.5t-64.5 -55.5q-8 -5 -1 -10q15 -17 24 -42.5t2 -60.5q-8 -43 -32 -76.5t-59.5 -56.5
t-79.5 -35t-91 -12q-49 0 -91 11.5t-71 36t-43 63t-7 91.5q2 5 6 5h117q6 0 4 -5q-7 -40 21.5 -66.5t82.5 -26.5q47 0 76.5 22.5t34.5 48.5zM330 327q-21 5 -42 11t-44 16q-19 -8 -36 -21.5t-23 -31.5q-8 -25 -0.5 -42t26 -29.5t47 -22t63.5 -19.5q25 -5 49 -11.5t42 -14.5
q17 7 34 21.5t23 32.5q8 25 1 42t-26 29.5t-48.5 21.5t-65.5 18z" />
    <glyph glyph-name="dieresis" unicode="&#xa8;" horiz-adv-x="459" 
d="M73 562q-6 0 -4 5l23 132q0 5 6 5h129q4 0 4 -5l-23 -132q-2 -5 -6 -5h-129zM293 562q-6 0 -4 5l23 132q0 5 6 5h129q4 0 4 -5l-23 -132q-2 -5 -6 -5h-129z" />
    <glyph glyph-name="copyright" unicode="&#xa9;" horiz-adv-x="821" 
d="M765 353q-13 -73 -52 -137t-95 -112t-125 -76t-142 -28q-72 0 -131 28t-98 76t-55 112t-3 137q13 72 51.5 136t94.5 112t125 75.5t141 27.5q73 0 132 -27.5t98 -75.5t55.5 -112t3.5 -136zM735 353q12 66 -3.5 124.5t-51.5 102t-90 69t-120 25.5t-128.5 -25.5t-113.5 -69
t-86.5 -102t-47.5 -124.5t3 -125t51 -102.5t89.5 -69t119.5 -25.5t129 25.5t114.5 69t87 102.5t47.5 125zM516 270q1 3 5 3h51q4 0 4 -5q-3 -15 -18.5 -37.5t-42 -44t-63 -36.5t-81.5 -15t-77.5 16t-52 45t-25.5 68.5t3 87.5q8 48 28 87.5t49.5 68.5t68 45t83.5 16
q47 0 78 -16.5t49.5 -38.5t25 -45t4.5 -35q0 -3 -4 -3h-53q-2 0 -3 3q-2 10 -6.5 24t-16.5 27.5t-32 23t-51 9.5q-62 0 -104 -44t-56 -122t12.5 -122t88.5 -44q31 0 54 8.5t39.5 21.5t26.5 27.5t16 26.5z" />
    <glyph glyph-name="ordfeminine" unicode="&#xaa;" horiz-adv-x="299" 
d="M253.452 449.979q-4.85938 -4.32031 -13.2295 -8.63965q-8.36914 -4.32031 -18.6289 -8.09961q-10.2598 -3.78027 -21.8691 -6.20996t-23.4893 -2.42969q-27.5391 0 -46.4385 6.74902q-18.8984 6.75 -29.9688 18.3594q-11.0693 11.6094 -14.5791 27.5391
t-0.269531 34.2891q3.23926 17.2793 13.2295 33.208q9.98926 15.9297 26.999 28.0791q17.0088 12.1494 40.2275 19.1689q23.2197 7.01953 52.918 7.01953h50.7578q8.09961 0 12.96 3.78027q4.85938 3.78027 5.39941 8.09961q0.540039 4.32031 0.540039 10.7998
t-4.58984 12.6895t-15.1191 10.5293q-10.5293 4.32031 -30.5088 4.32031q-30.7783 0 -44.0078 -10.7998t-17.0098 -24.8389q0 -2.7002 -3.24023 -2.7002h-58.8574q-2.16016 0 -2.16016 2.7002q4.32031 23.7588 17.0098 41.5781t31.0488 29.6982
q18.3594 11.8799 41.0381 17.8193q22.6797 5.94043 46.4385 5.94043q28.0791 0 49.4082 -6.48047q21.3291 -6.47949 34.8281 -19.4385q13.5 -12.96 18.6289 -32.1289q5.12988 -19.1689 0.810547 -44.5479l-30.7793 -173.333q-0.540039 -2.7002 -3.23926 -2.7002h-52.918
q-2.16016 0 -3.24023 2.7002l-2.15918 17.2793q-2.16016 3.7793 -5.94043 0zM187.035 483.998q21.0586 0 36.7188 5.39941q15.6592 5.39941 26.459 13.7695q10.7988 8.37012 17.2793 18.6289q6.47949 10.2598 8.09961 20.5195q0 2.7002 -2.16016 2.7002h-61.5576
q-17.8193 0 -29.6992 -3.24023q-11.8789 -3.24023 -18.6289 -8.09961t-9.98926 -10.7998q-3.24023 -5.93945 -3.78027 -11.3389q-1.08008 -4.32031 0.270508 -9.17969q1.34961 -4.86035 5.39941 -8.91016t11.6094 -6.75q7.55957 -2.69922 19.9795 -2.69922z" />
    <glyph glyph-name="guillemotleft" unicode="&#xab;" horiz-adv-x="611" 
d="M168 258q-4 -4 -2 -9l167 -242q2 -2 0.5 -4.5t-4.5 -2.5h-73q-4 0 -5 3l-169 246q-3 6 2 9l255 245q1 3 5 3h74q3 0 3.5 -3t-1.5 -5zM353 258q-4 -4 -2 -9l167 -242q2 -2 0.5 -4.5t-4.5 -2.5h-73q-4 0 -5 3l-169 246q-3 6 2 9l255 245q1 3 5 3h74q3 0 3.5 -3t-1.5 -5z
" />
    <glyph glyph-name="logicalnot" unicode="&#xac;" horiz-adv-x="671" 
d="M472 199q0 5 -4 5h-383q-6 0 -4 5l17 100q2 5 6 5h495q6 0 4 -5l-53 -304q-2 -5 -6 -5h-102q-6 0 -4 5z" />
    <glyph glyph-name="uni00AD" unicode="&#xad;" 
d="M425 5q0 -5 -6 -5h-411q-4 0 -4 5l123 694q0 5 6 5h411q4 0 4 -5zM508 681h-346l119 -306zM392 24l-120 305l-226 -305h346zM409 48l107 608q-56 -75 -114 -152t-112 -152zM264 352l-120 305l-107 -610z" />
    <glyph glyph-name="registered" unicode="&#xae;" horiz-adv-x="821" 
d="M765 353q-13 -73 -52 -137t-95 -112t-125 -76t-142 -28q-72 0 -131 28t-98 76t-55 112t-3 137q13 72 51.5 136t94.5 112t125 76t141 28q73 0 132 -28t98 -76t55.5 -112t3.5 -136zM735 353q12 66 -3.5 124.5t-51.5 102.5t-90 69.5t-120 25.5t-128.5 -25.5t-113.5 -69.5
t-86.5 -102.5t-47.5 -124.5t3 -125t51 -102.5t89.5 -69t119.5 -25.5t129 25.5t114.5 69t87 102.5t47.5 125zM285 558q0 5 6 5h207q25 0 45.5 -10t34 -27.5t19.5 -40.5t1 -50q-7 -39 -31 -69t-59 -44q-6 -2 -3 -7l46 -168q2 -3 -0.5 -4.5t-4.5 -1.5h-47q-7 0 -9 5l-41 159
q0 4 -6 4h-142q-3 0 -4 -3l-28 -160q0 -5 -6 -5h-47q-4 0 -4 5zM339 512q-6 0 -6 -5l-25 -142q-2 -5 4 -5h145q14 0 28 6t25.5 16.5t19.5 24t11 28.5q5 31 -12.5 54t-46.5 23h-143z" />
    <glyph glyph-name="macron" unicode="&#xaf;" horiz-adv-x="377" 
d="M81 572q-3 0 -3 5l13 70q0 5 5 5h266q4 0 4 -5l-13 -70q0 -5 -6 -5h-266z" />
    <glyph glyph-name="degree" unicode="&#xb0;" horiz-adv-x="409" 
d="M82 563q6 31 22.5 59t40.5 48.5t53.5 32.5t61.5 12q31 0 57 -12t43 -32.5t24 -48.5t1 -59q-6 -32 -22.5 -59.5t-40.5 -47.5t-54 -32t-61 -12q-32 0 -57.5 12t-42.5 32t-24 47.5t-1 59.5zM160 563q-5 -30 12.5 -51.5t47.5 -21.5q15 0 29.5 6t26.5 15.5t20 23t11 28.5
q5 31 -12.5 52.5t-48.5 21.5q-30 0 -55.5 -21.5t-30.5 -52.5z" />
    <glyph glyph-name="plusminus" unicode="&#xb1;" horiz-adv-x="672" 
d="M309 505q5 0 5 5l34 189q0 5 6 5h100q4 0 4 -5l-34 -189q0 -5 5 -5h188q4 0 4 -5l-18 -99q0 -5 -6 -5h-188q-4 0 -6 -5l-33 -188q0 -5 -6 -5h-100q-4 0 -4 5l33 188q2 5 -4 5h-188q-4 0 -4 5l18 99q0 5 6 5h188zM547 109q4 0 4 -5l-18 -99q0 -5 -6 -5h-496q-4 0 -4 5
l18 99q0 5 6 5h496z" />
    <glyph glyph-name="twosuperior" unicode="&#xb2;" horiz-adv-x="403" 
d="M338.85 320.7q-1.08008 -2.7002 -3.23926 -2.7002h-241.37q-3.24023 0 -2.16016 2.7002l8.63965 49.6777q0.540039 3.78027 3.7793 7.01953l170.094 143.634q3.7793 3.24023 11.0693 9.4502t14.5791 14.5791q7.29004 8.37012 13.2295 18.3594
q5.94043 9.98926 7.55957 21.3291q1.62012 9.71973 0 19.9795q-1.61914 10.2598 -7.28906 18.8994t-15.9297 14.3086q-10.2598 5.66992 -25.9189 5.66992q-13.499 0 -25.3789 -5.12988q-11.8799 -5.12891 -21.0596 -13.7695q-9.17871 -8.63867 -15.1191 -19.1689
q-5.93945 -10.5293 -7.55957 -20.7891q0 -2.7002 -3.24023 -2.7002h-58.8574q-2.16016 0 -2.16016 2.7002q4.32031 24.8389 17.2793 46.708q12.96 21.8691 32.1289 37.7988q19.1699 15.9297 43.4688 25.1084q24.2988 9.17969 51.2979 9.17969q29.1582 0 50.4873 -9.17969
q21.3301 -9.17871 34.5586 -25.3789q13.2295 -16.1992 17.8193 -37.7979q4.58984 -21.5996 0.270508 -46.4385q-3.78027 -21.0586 -12.4199 -37.7979q-8.63965 -16.7402 -19.1689 -29.9697t-21.3291 -23.2188t-19.4395 -16.4688l-119.335 -95.0361
q-1.62012 -1.08008 -1.62012 -2.9707q0 -1.88965 2.16016 -1.88965h151.193q2.7002 0 2.7002 -2.7002z" />
    <glyph glyph-name="threesuperior" unicode="&#xb3;" horiz-adv-x="404" 
d="M141.598 584.749q4.32031 24.8389 16.7393 46.708q12.4199 21.8691 30.7793 37.7988t42.1182 25.1084q23.7588 9.17969 50.7578 9.17969t47.7881 -8.90918q20.7891 -8.91016 34.0186 -24.2988q13.2295 -15.3896 18.3594 -35.6387t1.34961 -43.4688
q-2.69922 -15.6592 -9.17969 -28.0781q-6.47949 -12.4199 -14.8486 -22.1396q-8.37012 -9.71973 -17.5498 -16.7393t-17.2793 -11.3398q-2.16016 -1.0791 -2.16016 -2.69922t1.08008 -2.7002q6.48047 -3.78027 14.04 -11.0693q7.55957 -7.29004 13.2295 -18.0898
q5.66992 -10.7988 8.09961 -24.8389q2.42969 -14.0391 -0.270508 -30.7783q-3.7793 -22.1396 -15.1191 -41.8486t-29.4287 -34.8281q-18.0898 -15.1201 -43.4688 -24.2988q-25.3789 -9.17969 -57.2373 -9.17969q-30.7783 0 -52.1074 9.44922t-34.0186 25.3789
t-16.4697 36.9883q-3.78027 21.0596 0 43.7383q1.08008 2.7002 3.24023 2.7002h59.3975q3.23926 0 2.15918 -2.7002q-1.0791 -7.55957 0.270508 -17.0088q1.34961 -9.4502 6.75 -18.3594q5.39941 -8.91016 15.3887 -14.8496q9.99023 -5.93945 25.6494 -5.93945
q13.499 0 25.6484 4.31934q12.1494 4.32031 21.3291 11.6094q9.17969 7.29004 15.3896 16.4697t7.83008 18.3594q2.69922 15.1191 -0.540039 25.9189q-3.24023 10.7998 -10.5293 17.8193q-7.29004 7.01953 -17.5498 10.5293t-22.1387 3.50977h-17.8193
q-2.7002 0 -2.7002 2.7002l9.71973 53.998q1.08008 2.69922 3.24023 2.69922h17.8184q10.2598 0 21.0596 2.96973q10.7998 2.9707 19.709 9.17969q8.91016 6.20996 15.3896 15.9297t9.17969 23.2188q1.62012 9.71973 -0.810547 19.1699q-2.42969 9.44922 -8.36914 17.0088
t-15.3896 12.1494q-9.44922 4.58984 -22.4092 4.58984q-12.4189 0 -23.7588 -5.39941t-19.9795 -13.7695t-14.5791 -19.1689q-5.93945 -10.7998 -7.55957 -21.0596q-1.08008 -2.7002 -3.24023 -2.7002h-58.8574q-3.24023 0 -2.16016 2.7002z" />
    <glyph glyph-name="acute" unicode="&#xb4;" horiz-adv-x="314" 
d="M89 562q-3 0 -4.5 2t0.5 5l77 128q2 7 11 7h117q7 0 4 -7l-106 -128q-2 -2 -5 -4.5t-7 -2.5h-87z" />
    <glyph glyph-name="mu" unicode="&#xb5;" 
d="M425 5q0 -5 -6 -5h-411q-4 0 -4 5l123 694q0 5 6 5h411q4 0 4 -5zM508 681h-346l119 -306zM392 24l-120 305l-226 -305h346zM409 48l107 608q-56 -75 -114 -152t-112 -152zM264 352l-120 305l-107 -610z" />
    <glyph glyph-name="paragraph" unicode="&#xb6;" horiz-adv-x="649" 
d="M252 311q2 5 -4 5q-38 0 -68.5 15.5t-50.5 42t-28 61.5t-1 75q7 38 26.5 72.5t48.5 61t64.5 42.5t73.5 18h331q5 0 5 -5l-158 -893q0 -5 -6 -5h-100q-4 0 -4 5l142 803q0 5 -4 5h-99q-6 0 -6 -5l-142 -803q0 -5 -6 -5h-99q-4 0 -4 5z" />
    <glyph glyph-name="periodcentered" unicode="&#xb7;" horiz-adv-x="255" 
d="M45 276q-6 0 -4 5l26 151q2 5 6 5h149q6 0 4 -5l-26 -151q-2 -5 -6 -5h-149z" />
    <glyph glyph-name="cedilla" unicode="&#xb8;" horiz-adv-x="305" 
d="M109 -17q2 2 1.5 4.5t-5.5 2.5q-7 0 -6 7.5t8 7.5h63q7 0 4 -5l-31 -46q-2 -3 -0.5 -5t3.5 -2q13 -1 26 -5t23.5 -13t15.5 -22.5t2 -33.5q-7 -38 -38.5 -59.5t-80.5 -21.5q-19 0 -36 5.5t-29.5 16t-18.5 25.5t-3 34q2 5 6 5h50q6 0 4 -5q-2 -11 7.5 -22.5t27.5 -11.5
t33 9t18 25q3 14 -1 22t-11 11.5t-14.5 4.5t-11.5 1q-6 0 -11 -1t-10 4l-15 15q-4 4 -2.5 7t3.5 5z" />
    <glyph glyph-name="onesuperior" unicode="&#xb9;" horiz-adv-x="318" 
d="M234.015 572.93q1.0791 7.01953 -2.16016 11.0693q-3.24023 4.0498 -9.71973 4.0498h-79.917q-3.23926 0 -2.16016 2.7002l8.10059 48.5986q1.0791 2.69922 3.23926 2.69922h65.8779q11.8789 0 22.1387 8.63965t11.3398 19.4395l5.93945 31.3184q0 2.7002 3.24023 2.7002
h59.3975q2.15918 0 2.15918 -2.7002l-66.417 -374.744q0 -2.7002 -3.23926 -2.7002h-59.3984q-2.15918 0 -2.15918 2.7002l43.7383 246.229v0z" />
    <glyph glyph-name="ordmasculine" unicode="&#xba;" horiz-adv-x="320" 
d="M368.108 563.614q-5.93945 -31.8584 -19.709 -57.7773t-34.2891 -44.8184q-20.5186 -18.8994 -47.5176 -29.1592q-26.999 -10.2588 -58.3174 -10.2588q-31.8594 0 -54.8086 10.2588q-22.9492 10.2598 -36.7178 29.1592q-13.7695 18.8994 -18.3594 44.8184
t1.34961 57.7773q5.39941 31.8584 19.1689 58.0479q13.7695 26.1885 34.2891 44.8184q20.5195 18.6289 46.9775 28.8887q26.459 10.2598 58.3184 10.2598q31.3184 0 54.5371 -10.2598q23.2197 -10.2598 37.2588 -29.1592t18.6289 -45.0879t-0.80957 -57.5078z
M303.311 563.614q6.48047 38.3389 -7.01953 60.4775q-13.499 22.1396 -48.0576 22.1396q-34.0186 0 -55.6182 -22.1396q-21.5986 -22.1387 -28.0781 -60.4775q-7.02051 -38.3379 6.74902 -60.4775q13.7695 -22.1387 47.7881 -22.1387q34.5586 0 55.8877 22.1387
q21.3291 22.1396 28.3486 60.4775z" />
    <glyph glyph-name="guillemotright" unicode="&#xbb;" horiz-adv-x="611" 
d="M126 498q-2 2 -0.5 5t4.5 3h74q3 0 5 -3l169 -245q1 -2 1 -4t-3 -5l-255 -246q-5 -3 -7 -3h-73q-3 0 -3.5 2.5t1.5 4.5l253 242q4 4 2 9zM311 498q-2 2 -0.5 5t4.5 3h74q3 0 5 -3l169 -245q1 -2 1 -4t-3 -5l-255 -246q-5 -3 -7 -3h-73q-3 0 -3.5 2.5t1.5 4.5l253 242
q4 4 2 9z" />
    <glyph glyph-name="onequarter" unicode="&#xbc;" horiz-adv-x="806" 
d="M622 702q2 2 5 2h64q8 0 2 -8l-548 -694q-2 -2 -5 -2h-62q-8 0 -2 8zM203 574q3 15 -12 15h-80q-2 0 -2 3l8 48q1 3 3 3h66q12 0 22 8.5t12 19.5l6 31q0 3 3 3h59q3 0 3 -3l-67 -374q0 -3 -3 -3h-60q-2 0 -2 3zM669 84q-2 -2 -3 -2h-56q-3 0 -3 -3l-14 -76q0 -3 -3 -3
h-59q-2 0 -2 3l13 76q1 1 0 2t-2 1h-177q-4 0 -2 2l8 50q1 3 2 5.5t2 4.5l215 233q1 3 5 3h65q2 0 2 -3l-42 -233q0 -3 2 -3h56q3 0 3 -3zM450 146q-3 -5 1 -5h99q3 0 3 3l25 137q0 2 -2 2t-4 -2z" />
    <glyph glyph-name="onehalf" unicode="&#xbd;" horiz-adv-x="822" 
d="M629 702q2 2 5 2h64q8 0 2 -8l-548 -694q-2 -2 -5 -2h-62q-8 0 -2 8zM203 573q3 15 -12 15h-80q-2 0 -2 3l8 48q1 3 3 3h66q12 0 22 8.5t12 19.5l6 31q0 3 3 3h59q3 0 3 -3l-67 -374q0 -3 -3 -3h-60q-2 0 -2 3zM670 3q-2 -3 -3 -3h-242q-2 0 -2 3l9 49q0 4 3 7l171 144
q8 7 25 24t21 40q3 19 -7.5 39t-41.5 20q-27 0 -46 -19t-23 -40q0 -3 -3 -3h-59q-2 0 -2 3q4 25 17 47t32 38t43.5 25t51.5 9q58 0 85 -34.5t18 -84.5q-4 -21 -12.5 -38t-19 -30.5t-21.5 -23t-20 -16.5l-119 -95q-2 -1 -1.5 -3t2.5 -2h151q3 0 3 -2z" />
    <glyph glyph-name="threequarters" unicode="&#xbe;" horiz-adv-x="793" 
d="M645 702q2 2 5 2h64q8 0 2 -8l-548 -694q-2 -2 -5 -2h-62q-8 0 -2 8zM111 585q4 25 16.5 47t31 38t42 25t50.5 9t47.5 -9t34 -24.5t19 -36t1.5 -43.5q-6 -31 -24.5 -50t-34.5 -28q-5 -3 -1 -5q13 -8 26.5 -29.5t8.5 -55.5q-4 -22 -15.5 -42t-29.5 -35t-43.5 -24t-57.5 -9
q-31 0 -52 9.5t-33.5 25t-16.5 36.5t0 44q0 3 3 3h59q3 0 3 -3q-2 -7 -0.5 -16.5t7 -18.5t15.5 -15t26 -6q27 0 47 16t23 35q5 30 -11.5 43.5t-39.5 14.5h-18q-2 0 -2 2l9 54q1 3 4 3h17q21 0 41 12t25 39q3 20 -9 36.5t-38 16.5t-44 -19t-22 -40q-2 -3 -3 -3h-59q-4 0 -2 3
zM656 84q-2 -2 -3 -2h-56q-3 0 -3 -3l-14 -76q0 -3 -3 -3h-59q-2 0 -2 3l13 76q1 1 0 2t-2 1h-177q-4 0 -2 2l8 50q1 3 2 5.5t2 4.5l215 233q1 3 5 3h65q2 0 2 -3l-42 -233q0 -3 2 -3h56q3 0 3 -3zM437 146q-3 -5 1 -5h99q3 0 3 3l25 137q0 2 -2 2t-4 -2z" />
    <glyph glyph-name="questiondown" unicode="&#xbf;" horiz-adv-x="546" 
d="M125.064 195.062q8 45.9941 23.498 73.9912q15.498 27.9961 38.4951 47.9941q22.9971 19.9971 53.4932 35.9951t68.4922 36.9961q17.9971 9.99902 22.9971 22.9971q4.99902 12.998 6.99902 24.9971l6.99902 43.9941q2 5 5.99902 5h110.986q5 0 3 -5l-6.99902 -43.9941
q-5.99902 -32.9961 -14.998 -55.4932q-8.99902 -22.498 -21.998 -38.9951q-12.998 -16.498 -29.4961 -27.9971q-16.498 -11.498 -36.4951 -20.4971q-33.9961 -15.998 -54.9941 -28.4971q-20.9971 -12.498 -32.4951 -23.9971q-11.499 -11.498 -16.498 -22.4971
q-5 -10.999 -6.99902 -24.9971q-6 -34.9951 17.9971 -61.9922t81.9902 -26.9971q24.9971 0 45.9941 7.49902q20.998 7.49902 36.4961 19.498q15.498 11.998 25.4971 27.9961q9.99805 15.998 12.998 33.9961l2 10.999q0 4.99902 5.99902 4.99902h107.986q4 0 4 -4.99902
l-2 -10.999q-6.99902 -42.9951 -29.9961 -80.4902t-57.4932 -65.9922q-34.4961 -28.4961 -78.4902 -44.9941q-43.9951 -16.498 -93.9883 -16.498q-53.9941 0 -94.4893 16.498t-66.4912 44.9941q-25.9971 28.4971 -35.4961 65.9922t-2.5 80.4902zM497.02 543.02
q0 -5 -5.99902 -5h-150.981q-4 0 -4 5l26.9971 151.981q1.99902 4.99902 5.99902 4.99902h150.981q5.99902 0 4 -4.99902z" />
    <glyph glyph-name="Agrave" unicode="&#xc0;" horiz-adv-x="738" 
d="M204 145q-5 0 -8 -5l-9 -19l-58 -116q-1 -3 -3 -4t-4 -1h-115q-3 0 -4 2.5t1 4.5l344 692q2 5 7 5h180q3 0 5 -5l99 -692q0 -7 -7 -7h-115q-3 0 -5 5l-14 105l-5 30q0 5 -6 5h-283zM255 260q-2 -5 3 -5h214q6 0 4 5l-47 330q-1 4 -4.5 4t-5.5 -4zM408 761q-8 0 -10 7
l-60 128q-2 3 0.5 5t5.5 2h117q7 0 9 -7l31 -128q2 -7 -6 -7h-87z" />
    <glyph glyph-name="Aacute" unicode="&#xc1;" horiz-adv-x="738" 
d="M204 145q-5 0 -8 -5l-9 -19l-58 -116q-1 -3 -3 -4t-4 -1h-115q-3 0 -4 2.5t1 4.5l344 692q2 5 7 5h180q3 0 5 -5l99 -692q0 -7 -7 -7h-115q-3 0 -5 5l-14 105l-5 30q0 5 -6 5h-283zM255 260q-2 -5 3 -5h214q6 0 4 5l-47 330q-1 4 -4.5 4t-5.5 -4zM398 760q-3 0 -4.5 2
t0.5 5l77 128q2 7 11 7h117q7 0 4 -7l-106 -128q-2 -2 -5 -4.5t-7 -2.5h-87z" />
    <glyph glyph-name="Acircumflex" unicode="&#xc2;" horiz-adv-x="738" 
d="M204 145q-5 0 -8 -5l-9 -19l-58 -116q-1 -3 -3 -4t-4 -1h-115q-3 0 -4 2.5t1 4.5l344 692q2 5 7 5h180q3 0 5 -5l99 -692q0 -7 -7 -7h-115q-3 0 -5 5l-14 105l-5 30q0 5 -6 5h-283zM255 260q-2 -5 3 -5h214q6 0 4 5l-47 330q-1 4 -4.5 4t-5.5 -4zM493 760q-4 0 -5 3
l-18 47q-2 3 -5 3.5t-5 -3.5l-36 -47q-2 -3 -5 -3h-80q-3 0 -4.5 2t0.5 5l79 128q2 7 11 7h111q7 0 9 -7l34 -128q2 -7 -6 -7h-80z" />
    <glyph glyph-name="Atilde" unicode="&#xc3;" horiz-adv-x="738" 
d="M204 145q-5 0 -8 -5l-9 -19l-58 -116q-1 -3 -3 -4t-4 -1h-115q-3 0 -4 2.5t1 4.5l344 692q2 5 7 5h180q3 0 5 -5l99 -692q0 -7 -7 -7h-115q-3 0 -5 5l-14 105l-5 30q0 5 -6 5h-283zM255 260q-2 -5 3 -5h214q6 0 4 5l-47 330q-1 4 -4.5 4t-5.5 -4zM291 806q2 13 10 29.5
t23.5 31.5t39 25t56.5 10q22 0 37 -7t26.5 -16t19.5 -16t16 -7q3 0 8.5 0.5t11.5 4t11 12t8 24.5q2 5 6 5h70q6 0 4 -5l-6 -34q-2 -13 -10 -29.5t-23.5 -31t-39 -24.5t-56.5 -10q-20 0 -34.5 7t-26 16t-20.5 16t-18 7q-3 0 -8.5 -0.5t-11.5 -4t-11 -12t-8 -24.5q0 -5 -6 -5
h-70q-4 0 -4 5z" />
    <glyph glyph-name="Adieresis" unicode="&#xc4;" horiz-adv-x="738" 
d="M204 145q-5 0 -8 -5l-9 -19l-58 -116q-1 -3 -3 -4t-4 -1h-115q-3 0 -4 2.5t1 4.5l344 692q2 5 7 5h180q3 0 5 -5l99 -692q0 -7 -7 -7h-115q-3 0 -5 5l-14 105l-5 30q0 5 -6 5h-283zM255 260q-2 -5 3 -5h214q6 0 4 5l-47 330q-1 4 -4.5 4t-5.5 -4zM271 760q-6 0 -4 5
l23 132q0 5 6 5h129q4 0 4 -5l-23 -132q-2 -5 -6 -5h-129zM491 760q-6 0 -4 5l23 132q0 5 6 5h129q4 0 4 -5l-23 -132q-2 -5 -6 -5h-129z" />
    <glyph glyph-name="Aring" unicode="&#xc5;" horiz-adv-x="738" 
d="M204 145q-5 0 -8 -5l-9 -19l-58 -116q-1 -3 -3 -4t-4 -1h-115q-3 0 -4 2.5t1 4.5l344 692q2 5 7 5h180q3 0 5 -5l99 -692q0 -7 -7 -7h-115q-3 0 -5 5l-14 105l-5 30q0 5 -6 5h-283zM255 260q-2 -5 3 -5h214q6 0 4 5l-47 330q-1 4 -4.5 4t-5.5 -4zM548 824q-3 -18 -13 -34
t-24.5 -27.5t-31.5 -18.5t-35 -7q-36 0 -57 25.5t-14 61.5q3 18 12.5 34t23.5 28t31 19t35 7q36 0 57.5 -26t15.5 -62zM502 824q3 17 -7.5 29.5t-27.5 12.5t-31.5 -12.5t-17.5 -29.5t7 -29.5t27 -12.5t32 12.5t18 29.5z" />
    <glyph glyph-name="AE" unicode="&#xc6;" horiz-adv-x="1049" 
d="M470 140q2 5 -4 5h-249q-3 0 -5 -2l-4 -4l-100 -136q-2 -3 -6 -3h-114q-3 0 -4 2.5t1 4.5l511 692q2 5 7 5h551q4 0 4 -5l-18 -100q0 -5 -6 -5h-359q-4 0 -6 -5l-30 -172q-2 -5 4 -5h319q6 0 4 -5l-17 -100q-2 -5 -6 -5h-319q-6 0 -6 -5l-32 -182q-2 -5 4 -5h359
q6 0 4 -5l-18 -100q0 -5 -6 -5h-480q-2 0 -1 1q-2 0 -2 2zM299 260l-1 -5h187q6 0 6 5l57 320q-1 4 -4.5 4t-5.5 -4z" />
    <glyph glyph-name="Ccedilla" unicode="&#xc7;" horiz-adv-x="658" 
d="M248 -19q2 2 2.5 6.5t-7.5 5.5q-66 8 -111.5 36.5t-71 74t-31.5 106.5t7 135q14 79 45.5 146.5t79.5 117t112 77.5t143 28q56 0 97 -13.5t70.5 -35t48 -48.5t28 -53.5t12 -50.5t-0.5 -39q-2 -5 -6 -5h-115q-5 0 -5 5q-2 11 -7.5 32.5t-21 43t-43.5 37.5t-76 16
q-45 0 -83.5 -19t-69 -53t-52 -81.5t-31.5 -104.5q-20 -115 18 -179.5t129 -64.5q48 0 82.5 16.5t58 38.5t36.5 43.5t18 30.5q2 5 7 5h114q4 0 4 -5q-2 -11 -11 -32.5t-25.5 -47t-41.5 -52.5t-59.5 -50t-78.5 -38.5t-99 -18.5q-5 0 -8 -5l-22 -32q-2 -3 -0.5 -5t3.5 -2
q12 -1 25.5 -5t24 -13t15.5 -22.5t2 -33.5q-7 -38 -38.5 -59.5t-80.5 -21.5q-19 0 -36 5.5t-29.5 16t-18.5 25.5t-3 34q0 5 6 5h50q4 0 4 -5q-2 -11 7.5 -22.5t27.5 -11.5t33 9t18 25q3 14 -1 22t-11 11.5t-14.5 4.5t-11.5 1q-6 0 -11 -1t-10 4l-15 15q-4 4 -2.5 7t3.5 5z
" />
    <glyph glyph-name="Egrave" unicode="&#xc8;" horiz-adv-x="647" 
d="M536 110q6 0 4 -5l-18 -100q0 -5 -6 -5h-489q-4 0 -4 5l123 694q0 5 6 5h489q4 0 4 -5l-18 -100q0 -5 -6 -5h-369q-4 0 -6 -5l-30 -172q-2 -5 4 -5h319q6 0 4 -5l-17 -100q-2 -5 -6 -5h-319q-6 0 -6 -5l-32 -182q-2 -5 4 -5h369zM382 761q-8 0 -10 7l-60 128q-2 3 0.5 5
t5.5 2h117q7 0 9 -7l31 -128q2 -7 -6 -7h-87z" />
    <glyph glyph-name="Eacute" unicode="&#xc9;" horiz-adv-x="647" 
d="M536 110q6 0 4 -5l-18 -100q0 -5 -6 -5h-489q-4 0 -4 5l123 694q0 5 6 5h489q4 0 4 -5l-18 -100q0 -5 -6 -5h-369q-4 0 -6 -5l-30 -172q-2 -5 4 -5h319q6 0 4 -5l-17 -100q-2 -5 -6 -5h-319q-6 0 -6 -5l-32 -182q-2 -5 4 -5h369zM312 760q-3 0 -4.5 2t0.5 5l77 128
q2 7 11 7h117q7 0 4 -7l-106 -128q-2 -2 -5 -4.5t-7 -2.5h-87z" />
    <glyph glyph-name="Ecircumflex" unicode="&#xca;" horiz-adv-x="647" 
d="M536 110q6 0 4 -5l-18 -100q0 -5 -6 -5h-489q-4 0 -4 5l123 694q0 5 6 5h489q4 0 4 -5l-18 -100q0 -5 -6 -5h-369q-4 0 -6 -5l-30 -172q-2 -5 4 -5h319q6 0 4 -5l-17 -100q-2 -5 -6 -5h-319q-6 0 -6 -5l-32 -182q-2 -5 4 -5h369zM427 760q-4 0 -5 3l-18 47q-2 3 -5 3.5
t-5 -3.5l-36 -47q-2 -3 -5 -3h-80q-3 0 -4.5 2t0.5 5l79 128q2 7 11 7h111q7 0 9 -7l34 -128q2 -7 -6 -7h-80z" />
    <glyph glyph-name="Edieresis" unicode="&#xcb;" horiz-adv-x="647" 
d="M536 110q6 0 4 -5l-18 -100q0 -5 -6 -5h-489q-4 0 -4 5l123 694q0 5 6 5h489q4 0 4 -5l-18 -100q0 -5 -6 -5h-369q-4 0 -6 -5l-30 -172q-2 -5 4 -5h319q6 0 4 -5l-17 -100q-2 -5 -6 -5h-319q-6 0 -6 -5l-32 -182q-2 -5 4 -5h369zM226 760q-6 0 -4 5l23 132q0 5 6 5h129
q4 0 4 -5l-23 -132q-2 -5 -6 -5h-129zM446 760q-6 0 -4 5l23 132q0 5 6 5h129q4 0 4 -5l-23 -132q-2 -5 -6 -5h-129z" />
    <glyph glyph-name="Igrave" unicode="&#xcc;" horiz-adv-x="276" 
d="M26 0q-4 0 -4 5l123 694q0 5 6 5h110q4 0 4 -5l-123 -694q0 -5 -6 -5h-110zM187 761q-8 0 -10 7l-60 128q-2 3 0.5 5t5.5 2h117q7 0 9 -7l31 -128q2 -7 -6 -7h-87z" />
    <glyph glyph-name="Iacute" unicode="&#xcd;" horiz-adv-x="276" 
d="M26 0q-4 0 -4 5l123 694q0 5 6 5h110q4 0 4 -5l-123 -694q0 -5 -6 -5h-110zM157 760q-3 0 -4.5 2t0.5 5l77 128q2 7 11 7h117q7 0 4 -7l-106 -128q-2 -2 -5 -4.5t-7 -2.5h-87z" />
    <glyph glyph-name="Icircumflex" unicode="&#xce;" horiz-adv-x="276" 
d="M26 0q-4 0 -4 5l123 694q0 5 6 5h110q4 0 4 -5l-123 -694q0 -5 -6 -5h-110zM253 760q-4 0 -5 3l-18 47q-2 3 -5 3.5t-5 -3.5l-36 -47q-2 -3 -5 -3h-80q-3 0 -4.5 2t0.5 5l79 128q2 7 11 7h111q7 0 9 -7l34 -128q2 -7 -6 -7h-80z" />
    <glyph glyph-name="Idieresis" unicode="&#xcf;" horiz-adv-x="276" 
d="M26 0q-4 0 -4 5l123 694q0 5 6 5h110q4 0 4 -5l-123 -694q0 -5 -6 -5h-110zM42 760q-6 0 -4 5l23 132q0 5 6 5h129q4 0 4 -5l-23 -132q-2 -5 -6 -5h-129zM262 760q-6 0 -4 5l23 132q0 5 6 5h129q4 0 4 -5l-23 -132q-2 -5 -6 -5h-129z" />
    <glyph glyph-name="Eth" unicode="&#xd0;" horiz-adv-x="672" 
d="M74 296q0 5 -4 5h-87q-5 0 -5 5l16 89q2 5 6 5h87q4 0 6 5l52 294q0 5 6 5h257q79 0 133 -27t85 -74.5t39 -113t-6 -144.5q-14 -80 -45 -143.5t-78 -108.5t-110.5 -69t-142.5 -24h-257q-4 0 -4 5zM200 301q-6 0 -6 -5l-32 -182q-2 -5 4 -5h137q91 0 151 60.5t80 175.5
q10 57 5.5 103t-23.5 78.5t-51 50.5t-77 18h-138q-4 0 -4 -4l-33 -186q-2 -5 4 -5h95q6 0 4 -5l-16 -89q0 -5 -5 -5h-95z" />
    <glyph glyph-name="Ntilde" unicode="&#xd1;" horiz-adv-x="728" 
d="M704 704q4 0 4 -5l-123 -694q0 -5 -6 -5h-149q-4 0 -6 5l-180 526q-2 5 -5.5 4.5t-4.5 -4.5l-93 -526q0 -5 -6 -5h-111q-3 0 -3 5l123 694q0 5 6 5h149q2 0 5 -5l181 -526q2 -5 5.5 -4.5t4.5 4.5l93 526q0 5 6 5h110zM268 806q2 13 10 29.5t23 31.5t38.5 25t56.5 10
q22 0 37 -7t26.5 -16t19.5 -16t16 -7q3 0 8.5 0.5t11.5 4t11.5 12t8.5 24.5q0 5 5 5h70q5 0 5 -5l-6 -34q-2 -13 -10 -29.5t-23.5 -31t-39 -24.5t-56.5 -10q-20 0 -34.5 7t-26 16t-20.5 16t-18 7q-3 0 -8.5 -0.5t-11.5 -4t-11 -12t-8 -24.5q-2 -5 -6 -5h-70q-6 0 -4 5z" />
    <glyph glyph-name="Ograve" unicode="&#xd2;" horiz-adv-x="760" 
d="M703 352q-14 -80 -46 -146.5t-80 -114.5t-112 -74.5t-143 -26.5t-134 26.5t-86 74.5t-39 114.5t6 146.5q14 79 45.5 145.5t79.5 114.5t112 75t143 27t134 -27t86 -75t39.5 -114.5t-5.5 -145.5zM341 100q94 0 155 67t82 185q20 118 -17 185t-131 67t-155 -67t-81 -185
q-21 -118 16 -185t131 -67zM439 761q-8 0 -10 7l-60 128q-2 3 0.5 5t5.5 2h117q7 0 9 -7l31 -128q2 -7 -6 -7h-87z" />
    <glyph glyph-name="Oacute" unicode="&#xd3;" horiz-adv-x="760" 
d="M703 352q-14 -80 -46 -146.5t-80 -114.5t-112 -74.5t-143 -26.5t-134 26.5t-86 74.5t-39 114.5t6 146.5q14 79 45.5 145.5t79.5 114.5t112 75t143 27t134 -27t86 -75t39.5 -114.5t-5.5 -145.5zM341 100q94 0 155 67t82 185q20 118 -17 185t-131 67t-155 -67t-81 -185
q-21 -118 16 -185t131 -67zM389 760q-3 0 -4.5 2t0.5 5l77 128q2 7 11 7h117q7 0 4 -7l-106 -128q-2 -2 -5 -4.5t-7 -2.5h-87z" />
    <glyph glyph-name="Ocircumflex" unicode="&#xd4;" horiz-adv-x="760" 
d="M703 352q-14 -80 -46 -146.5t-80 -114.5t-112 -74.5t-143 -26.5t-134 26.5t-86 74.5t-39 114.5t6 146.5q14 79 45.5 145.5t79.5 114.5t112 75t143 27t134 -27t86 -75t39.5 -114.5t-5.5 -145.5zM341 100q94 0 155 67t82 185q20 118 -17 185t-131 67t-155 -67t-81 -185
q-21 -118 16 -185t131 -67zM504 760q-4 0 -5 3l-18 47q-2 3 -5 3.5t-5 -3.5l-36 -47q-2 -3 -5 -3h-80q-3 0 -4.5 2t0.5 5l79 128q2 7 11 7h111q7 0 9 -7l34 -128q2 -7 -6 -7h-80z" />
    <glyph glyph-name="Otilde" unicode="&#xd5;" horiz-adv-x="760" 
d="M703 352q-14 -80 -46 -146.5t-80 -114.5t-112 -74.5t-143 -26.5t-134 26.5t-86 74.5t-39 114.5t6 146.5q14 79 45.5 145.5t79.5 114.5t112 75t143 27t134 -27t86 -75t39.5 -114.5t-5.5 -145.5zM341 100q94 0 155 67t82 185q20 118 -17 185t-131 67t-155 -67t-81 -185
q-21 -118 16 -185t131 -67zM282 806q2 13 10 29.5t23.5 31.5t39 25t56.5 10q22 0 37 -7t26.5 -16t19.5 -16t16 -7q3 0 8.5 0.5t11.5 4t11 12t8 24.5q2 5 6 5h70q6 0 4 -5l-6 -34q-2 -13 -10 -29.5t-23.5 -31t-39 -24.5t-56.5 -10q-20 0 -34.5 7t-26 16t-20.5 16t-18 7
q-3 0 -8.5 -0.5t-11.5 -4t-11 -12t-8 -24.5q0 -5 -6 -5h-70q-4 0 -4 5z" />
    <glyph glyph-name="Odieresis" unicode="&#xd6;" horiz-adv-x="760" 
d="M703 352q-14 -80 -46 -146.5t-80 -114.5t-112 -74.5t-143 -26.5t-134 26.5t-86 74.5t-39 114.5t6 146.5q14 79 45.5 145.5t79.5 114.5t112 75t143 27t134 -27t86 -75t39.5 -114.5t-5.5 -145.5zM341 100q94 0 155 67t82 185q20 118 -17 185t-131 67t-155 -67t-81 -185
q-21 -118 16 -185t131 -67zM272 760q-6 0 -4 5l23 132q0 5 6 5h129q4 0 4 -5l-23 -132q-2 -5 -6 -5h-129zM492 760q-6 0 -4 5l23 132q0 5 6 5h129q4 0 4 -5l-23 -132q-2 -5 -6 -5h-129z" />
    <glyph glyph-name="multiply" unicode="&#xd7;" horiz-adv-x="602" 
d="M385 257q-6 -3 -2 -7l139 -168q1 -5 -2 -9l-81 -69q-5 -2 -9 0l-138 168q-4 5 -7 0l-199 -168q-3 -3 -7 0l-57 69q-1 5 2 9l197 167q3 3 2 8l-139 167q-1 5 2 9l81 69q4 2 9 0l137 -168q4 -3 8 0l197 168q4 2 9 0l57 -69q2 -5 -2 -7z" />
    <glyph glyph-name="Oslash" unicode="&#xd8;" horiz-adv-x="760" 
d="M703 352q-14 -80 -46 -146.5t-80 -114.5t-112 -74.5t-143 -26.5q-73 0 -125 22t-84 63q-2 2 -4.5 2.5t-4.5 -1.5l-42 -36q-5 -4 -7 0l-33 39q-2 4 2 7l53 45q3 3 1 8q-32 88 -9 213q14 79 45.5 145.5t79.5 114.5t112 75t143 27q71 0 123 -21.5t84 -61.5q3 -5 9 0l46 39
q3 3 7 0l32 -39q2 -4 -2 -7l-55 -47q-4 -3 -2 -10q17 -44 20 -98t-8 -117zM341 100q94 0 155 67t82 185q6 35 7.5 65t-3.5 56q-2 7 -9 2l-359 -305q-5 -5 -1 -8q40 -62 128 -62zM194 352q-12 -69 -5 -116q0 -3 3 -4t5 1l355 302q6 5 2 11q-20 27 -50.5 42.5t-73.5 15.5
q-94 0 -155 -67t-81 -185z" />
    <glyph glyph-name="Ugrave" unicode="&#xd9;" horiz-adv-x="655" 
d="M570 244q-9 -53 -37.5 -99t-69 -80.5t-90.5 -54.5t-103 -20t-96 20t-71.5 54.5t-40 80.5t-2.5 99l80 455q2 5 6 5h110q6 0 4 -5l-80 -455q-5 -28 1.5 -52.5t21.5 -42.5t37.5 -28.5t50.5 -10.5t54.5 10.5t48 28.5t36.5 42.5t20 52.5l80 455q2 5 6 5h110q6 0 4 -5zM396 761
q-8 0 -10 7l-60 128q-2 3 0.5 5t5.5 2h117q7 0 9 -7l31 -128q2 -7 -6 -7h-87z" />
    <glyph glyph-name="Uacute" unicode="&#xda;" horiz-adv-x="655" 
d="M570 244q-9 -53 -37.5 -99t-69 -80.5t-90.5 -54.5t-103 -20t-96 20t-71.5 54.5t-40 80.5t-2.5 99l80 455q2 5 6 5h110q6 0 4 -5l-80 -455q-5 -28 1.5 -52.5t21.5 -42.5t37.5 -28.5t50.5 -10.5t54.5 10.5t48 28.5t36.5 42.5t20 52.5l80 455q2 5 6 5h110q6 0 4 -5zM306 760
q-3 0 -4.5 2t0.5 5l77 128q2 7 11 7h117q7 0 4 -7l-106 -128q-2 -2 -5 -4.5t-7 -2.5h-87z" />
    <glyph glyph-name="Ucircumflex" unicode="&#xdb;" horiz-adv-x="655" 
d="M570 244q-9 -53 -37.5 -99t-69 -80.5t-90.5 -54.5t-103 -20t-96 20t-71.5 54.5t-40 80.5t-2.5 99l80 455q2 5 6 5h110q6 0 4 -5l-80 -455q-5 -28 1.5 -52.5t21.5 -42.5t37.5 -28.5t50.5 -10.5t54.5 10.5t48 28.5t36.5 42.5t20 52.5l80 455q2 5 6 5h110q6 0 4 -5zM441 760
q-4 0 -5 3l-18 47q-2 3 -5 3.5t-5 -3.5l-36 -47q-2 -3 -5 -3h-80q-3 0 -4.5 2t0.5 5l79 128q2 7 11 7h111q7 0 9 -7l34 -128q2 -7 -6 -7h-80z" />
    <glyph glyph-name="Udieresis" unicode="&#xdc;" horiz-adv-x="655" 
d="M570 244q-9 -53 -37.5 -99t-69 -80.5t-90.5 -54.5t-103 -20t-96 20t-71.5 54.5t-40 80.5t-2.5 99l80 455q2 5 6 5h110q6 0 4 -5l-80 -455q-5 -28 1.5 -52.5t21.5 -42.5t37.5 -28.5t50.5 -10.5t54.5 10.5t48 28.5t36.5 42.5t20 52.5l80 455q2 5 6 5h110q6 0 4 -5zM220 760
q-6 0 -4 5l23 132q0 5 6 5h129q4 0 4 -5l-23 -132q-2 -5 -6 -5h-129zM440 760q-6 0 -4 5l23 132q0 5 6 5h129q4 0 4 -5l-23 -132q-2 -5 -6 -5h-129z" />
    <glyph glyph-name="Yacute" unicode="&#xdd;" horiz-adv-x="694" 
d="M236 0q-4 0 -4 5l50 282q0 2 0.5 3.5t-1.5 3.5l-168 402q-2 8 6 8h131q3 0 6 -5l104 -285q4 -6 8 0l207 285q2 5 9 5h130q2 0 3.5 -2t-1.5 -6l-311 -402q-3 -5 -3 -7l-50 -282q0 -5 -6 -5h-110v0zM326 760q-3 0 -4.5 2t0.5 5l77 128q2 7 11 7h117q7 0 4 -7l-106 -128
q-2 -2 -5 -4.5t-7 -2.5h-87z" />
    <glyph glyph-name="Thorn" unicode="&#xde;" horiz-adv-x="625" 
d="M145 699q0 5 6 5h110q4 0 4 -5l-24 -137q-2 -3 3 -3h204q42 0 76 -16.5t56 -44.5t31 -66t2 -80q-8 -42 -30 -80t-54 -66t-72 -44.5t-82 -16.5h-204q-4 0 -4 -3l-25 -137q0 -5 -6 -5h-110q-4 0 -4 5zM226 450q-6 0 -6 -5l-33 -186q0 -5 4 -5h203q16 0 32.5 8.5t30.5 22
t24 31.5t13 36t-0.5 36t-12.5 31.5t-22.5 22t-29.5 8.5h-203z" />
    <glyph glyph-name="germandbls" unicode="&#xdf;" horiz-adv-x="609" 
d="M544 201q-17 -99 -85.5 -155t-191.5 -56h-43q-5 0 -3 5l17 100q2 5 5 5h43q60 0 95.5 25t44.5 76q4 25 -3 43.5t-21 31.5t-32.5 19.5t-36.5 6.5h-27q-6 0 -4 5l17 100q2 5 6 5h27q18 0 36 4.5t33.5 15t26.5 27.5t16 42q9 51 -20.5 80t-80.5 29q-29 0 -51.5 -9.5
t-39 -25.5t-26.5 -36.5t-14 -42.5l-87 -491q0 -5 -6 -5h-108q-4 0 -4 5l87 491q8 46 29.5 86t55 69.5t79.5 46t103 16.5t98 -17.5t65.5 -46.5t32.5 -67.5t1 -81.5q-5 -24 -15 -47t-24 -42t-31.5 -32t-35.5 -19q-2 -1 -2.5 -3t1.5 -3q17 -6 32.5 -19t26.5 -32.5t15.5 -45.5
t-1.5 -57z" />
    <glyph glyph-name="agrave" unicode="&#xe0;" horiz-adv-x="579" 
d="M349 37q-9 -8 -24.5 -16t-34.5 -15t-40.5 -11.5t-43.5 -4.5q-51 0 -86 12.5t-55.5 34t-27 51t-0.5 63.5q6 32 24.5 61.5t50 52t74.5 35.5t98 13h94q15 0 24 7t10 15t1 20t-8.5 23.5t-28 19.5t-56.5 8q-57 0 -81.5 -20t-31.5 -46q0 -5 -6 -5h-109q-4 0 -4 5q8 44 31.5 77
t57.5 55t76 33t86 11q52 0 91.5 -12t64.5 -36t34.5 -59.5t1.5 -82.5l-57 -321q-1 -5 -6 -5h-98q-4 0 -6 5l-4 32q-4 7 -11 0zM226 100q39 0 68 10t49 25.5t32 34.5t15 38q0 5 -4 5h-114q-33 0 -55 -6t-34.5 -15t-18.5 -20t-7 -21q-2 -8 0.5 -17t10 -16.5t21.5 -12.5t37 -5z
M328 562q-8 0 -10 7l-60 128q-2 3 0.5 5t5.5 2h117q7 0 9 -7l31 -128q2 -7 -6 -7h-87z" />
    <glyph glyph-name="aacute" unicode="&#xe1;" horiz-adv-x="579" 
d="M349 37q-9 -8 -24.5 -16t-34.5 -15t-40.5 -11.5t-43.5 -4.5q-51 0 -86 12.5t-55.5 34t-27 51t-0.5 63.5q6 32 24.5 61.5t50 52t74.5 35.5t98 13h94q15 0 24 7t10 15t1 20t-8.5 23.5t-28 19.5t-56.5 8q-57 0 -81.5 -20t-31.5 -46q0 -5 -6 -5h-109q-4 0 -4 5q8 44 31.5 77
t57.5 55t76 33t86 11q52 0 91.5 -12t64.5 -36t34.5 -59.5t1.5 -82.5l-57 -321q-1 -5 -6 -5h-98q-4 0 -6 5l-4 32q-4 7 -11 0zM226 100q39 0 68 10t49 25.5t32 34.5t15 38q0 5 -4 5h-114q-33 0 -55 -6t-34.5 -15t-18.5 -20t-7 -21q-2 -8 0.5 -17t10 -16.5t21.5 -12.5t37 -5z
M249 562q-3 0 -4.5 2t0.5 5l77 128q2 7 11 7h117q7 0 4 -7l-106 -128q-2 -2 -5 -4.5t-7 -2.5h-87z" />
    <glyph glyph-name="acircumflex" unicode="&#xe2;" horiz-adv-x="579" 
d="M349 37q-9 -8 -24.5 -16t-34.5 -15t-40.5 -11.5t-43.5 -4.5q-51 0 -86 12.5t-55.5 34t-27 51t-0.5 63.5q6 32 24.5 61.5t50 52t74.5 35.5t98 13h94q15 0 24 7t10 15t1 20t-8.5 23.5t-28 19.5t-56.5 8q-57 0 -81.5 -20t-31.5 -46q0 -5 -6 -5h-109q-4 0 -4 5q8 44 31.5 77
t57.5 55t76 33t86 11q52 0 91.5 -12t64.5 -36t34.5 -59.5t1.5 -82.5l-57 -321q-1 -5 -6 -5h-98q-4 0 -6 5l-4 32q-4 7 -11 0zM226 100q39 0 68 10t49 25.5t32 34.5t15 38q0 5 -4 5h-114q-33 0 -55 -6t-34.5 -15t-18.5 -20t-7 -21q-2 -8 0.5 -17t10 -16.5t21.5 -12.5t37 -5z
M406 562q-4 0 -5 3l-18 47q-2 3 -5 3.5t-5 -3.5l-36 -47q-2 -3 -5 -3h-80q-3 0 -4.5 2t0.5 5l79 128q2 7 11 7h111q7 0 9 -7l34 -128q2 -7 -6 -7h-80z" />
    <glyph glyph-name="atilde" unicode="&#xe3;" horiz-adv-x="579" 
d="M349 37q-9 -8 -24.5 -16t-34.5 -15t-40.5 -11.5t-43.5 -4.5q-51 0 -86 12.5t-55.5 34t-27 51t-0.5 63.5q6 32 24.5 61.5t50 52t74.5 35.5t98 13h94q15 0 24 7t10 15t1 20t-8.5 23.5t-28 19.5t-56.5 8q-57 0 -81.5 -20t-31.5 -46q0 -5 -6 -5h-109q-4 0 -4 5q8 44 31.5 77
t57.5 55t76 33t86 11q52 0 91.5 -12t64.5 -36t34.5 -59.5t1.5 -82.5l-57 -321q-1 -5 -6 -5h-98q-4 0 -6 5l-4 32q-4 7 -11 0zM226 100q39 0 68 10t49 25.5t32 34.5t15 38q0 5 -4 5h-114q-33 0 -55 -6t-34.5 -15t-18.5 -20t-7 -21q-2 -8 0.5 -17t10 -16.5t21.5 -12.5t37 -5z
M199 608q2 13 10 29.5t23 31.5t38.5 25t56.5 10q22 0 37 -7t26.5 -16t19.5 -16t16 -7q3 0 8.5 0.5t11.5 4t11.5 12t8.5 24.5q0 5 5 5h70q5 0 5 -5l-6 -34q-2 -13 -10 -29.5t-23.5 -31t-39 -24.5t-56.5 -10q-20 0 -34.5 7t-26 16t-20.5 16t-18 7q-3 0 -8.5 -0.5t-11.5 -4
t-11 -12t-8 -24.5q-2 -5 -6 -5h-70q-6 0 -4 5z" />
    <glyph glyph-name="adieresis" unicode="&#xe4;" horiz-adv-x="579" 
d="M349 37q-9 -8 -24.5 -16t-34.5 -15t-40.5 -11.5t-43.5 -4.5q-51 0 -86 12.5t-55.5 34t-27 51t-0.5 63.5q6 32 24.5 61.5t50 52t74.5 35.5t98 13h94q15 0 24 7t10 15t1 20t-8.5 23.5t-28 19.5t-56.5 8q-57 0 -81.5 -20t-31.5 -46q0 -5 -6 -5h-109q-4 0 -4 5q8 44 31.5 77
t57.5 55t76 33t86 11q52 0 91.5 -12t64.5 -36t34.5 -59.5t1.5 -82.5l-57 -321q-1 -5 -6 -5h-98q-4 0 -6 5l-4 32q-4 7 -11 0zM226 100q39 0 68 10t49 25.5t32 34.5t15 38q0 5 -4 5h-114q-33 0 -55 -6t-34.5 -15t-18.5 -20t-7 -21q-2 -8 0.5 -17t10 -16.5t21.5 -12.5t37 -5z
M183 562q-6 0 -4 5l23 132q0 5 6 5h129q4 0 4 -5l-23 -132q-2 -5 -6 -5h-129zM403 562q-6 0 -4 5l23 132q0 5 6 5h129q4 0 4 -5l-23 -132q-2 -5 -6 -5h-129z" />
    <glyph glyph-name="aring" unicode="&#xe5;" horiz-adv-x="579" 
d="M349 37q-9 -8 -24.5 -16t-34.5 -15t-40.5 -11.5t-43.5 -4.5q-51 0 -86 12.5t-55.5 34t-27 51t-0.5 63.5q6 32 24.5 61.5t50 52t74.5 35.5t98 13h94q15 0 24 7t10 15t1 20t-8.5 23.5t-28 19.5t-56.5 8q-57 0 -81.5 -20t-31.5 -46q0 -5 -6 -5h-109q-4 0 -4 5q8 44 31.5 77
t57.5 55t76 33t86 11q52 0 91.5 -12t64.5 -36t34.5 -59.5t1.5 -82.5l-57 -321q-1 -5 -6 -5h-98q-4 0 -6 5l-4 32q-4 7 -11 0zM226 100q39 0 68 10t49 25.5t32 34.5t15 38q0 5 -4 5h-114q-33 0 -55 -6t-34.5 -15t-18.5 -20t-7 -21q-2 -8 0.5 -17t10 -16.5t21.5 -12.5t37 -5z
M457 626q-3 -18 -13 -34t-24.5 -27.5t-31.5 -18.5t-35 -7q-36 0 -57 25.5t-14 61.5q3 18 12.5 34t23.5 28t31 19t35 7q36 0 57.5 -26t15.5 -62zM411 626q3 17 -7.5 29.5t-27.5 12.5t-31.5 -12.5t-17.5 -29.5t7 -29.5t27 -12.5t32 12.5t18 29.5z" />
    <glyph glyph-name="ae" unicode="&#xe6;" horiz-adv-x="930" 
d="M862 218q-3 -5 -7 -5h-348q-6 0 -6 -5q-9 -52 18 -82t81 -30q37 0 66 13t50 36q2 5 8 5h108q5 0 4 -6q-15 -36 -40.5 -65t-59 -48.5t-73 -30t-82.5 -10.5q-59 0 -100.5 19.5t-67.5 54.5q-2 3 -7 0q-24 -25 -54 -40t-59 -22.5t-53.5 -9.5t-39.5 -2q-51 0 -87 12.5t-58 34
t-29.5 51t-1.5 63.5q6 32 24 61.5t48.5 52t73 35.5t97.5 13q16 1 34.5 1h35.5t30 1t18 3q7 2 9 10q2 12 2 26.5t-8.5 27t-28 20.5t-56.5 8q-29 0 -48.5 -6t-33 -16t-21 -22t-10.5 -25q0 -5 -6 -5h-109q-4 0 -4 5q8 44 31.5 77t57.5 54.5t76 32.5t86 11q58 0 100.5 -16
t66.5 -46q2 -2 4 0q38 32 85.5 47t95.5 15q58 0 100.5 -19t67.5 -54t32.5 -83.5t-2.5 -106.5q-2 -10 -3.5 -15.5t-2.5 -9t-2 -5.5t-2 -5zM213 88q39 0 67.5 12t49 30.5t32 40t16.5 41.5q1 5 0 6.5t-7 1.5l-116 -5q-34 -2 -56 -8.5t-35 -15.5t-19 -19.5t-7 -20.5
q-5 -23 12.5 -43t62.5 -20zM748 307q6 0 6 5q3 15 -1 32t-15.5 32t-31.5 24.5t-51 9.5q-30 0 -53.5 -10t-40.5 -25t-27.5 -32t-14.5 -32q0 -4 3 -4h226z" />
    <glyph glyph-name="ccedilla" unicode="&#xe7;" horiz-adv-x="572" 
d="M218 -17q3 3 2 6t-4 3q-50 6 -85 27.5t-55.5 55.5t-26 79t4.5 99q10 59 35 107.5t62.5 83t86 53.5t107.5 19q48 0 85.5 -12.5t64 -35.5t40 -55.5t12.5 -72.5q0 -5 -6 -5h-114q-4 0 -4 3q-8 33 -30.5 52.5t-66.5 19.5q-32 0 -57 -12t-44 -33t-31.5 -50t-18.5 -62t-3.5 -62
t14 -50t32.5 -33t53 -12q50 0 77.5 19.5t46.5 52.5q1 3 5 3h114q6 0 4 -5q-29 -81 -89 -125t-147 -50q-3 0 -7 -5l-26 -32q-2 -3 -0.5 -5t3.5 -2q12 -1 25.5 -5t24 -13t15.5 -22.5t2 -33.5q-6 -34 -38.5 -57.5t-81.5 -23.5q-19 0 -36 5.5t-29 16t-18 25.5t-3 34q0 5 5 5h50
q5 0 5 -5q-2 -11 7.5 -22.5t27.5 -11.5t33 9t18 25q2 14 -2 22t-11 11.5t-14.5 4.5t-11.5 1q-6 0 -10.5 -1t-9.5 4l-15 15q-5 4 -3 7t4 5z" />
    <glyph glyph-name="egrave" unicode="&#xe8;" horiz-adv-x="573" 
d="M531 212q-3 -5 -6 -5h-348q-6 0 -6 -5q-8 -42 19.5 -72t81.5 -30q33 0 60.5 9.5t44.5 35.5q2 5 9 5h117q6 0 4 -5q-15 -36 -40.5 -65t-59 -49t-73 -30.5t-82.5 -10.5q-55 0 -96.5 19t-67.5 54t-35 83t2 107q10 59 36 107.5t64.5 83t86.5 53.5t103 19t96.5 -19t67.5 -54
t35 -83.5t-1 -106.5q-4 -15 -6 -23.5t-6 -17.5zM420 307q5 0 5 4q3 15 -1 31.5t-15.5 31t-31.5 23.5t-51 9q-30 0 -54.5 -9.5t-41.5 -23.5t-27 -30.5t-13 -31.5q0 -4 3 -4h227zM330 562q-8 0 -10 7l-60 128q-2 3 0.5 5t5.5 2h117q7 0 9 -7l31 -128q2 -7 -6 -7h-87z" />
    <glyph glyph-name="eacute" unicode="&#xe9;" horiz-adv-x="573" 
d="M531 212q-3 -5 -6 -5h-348q-6 0 -6 -5q-8 -42 19.5 -72t81.5 -30q33 0 60.5 9.5t44.5 35.5q2 5 9 5h117q6 0 4 -5q-15 -36 -40.5 -65t-59 -49t-73 -30.5t-82.5 -10.5q-55 0 -96.5 19t-67.5 54t-35 83t2 107q10 59 36 107.5t64.5 83t86.5 53.5t103 19t96.5 -19t67.5 -54
t35 -83.5t-1 -106.5q-4 -15 -6 -23.5t-6 -17.5zM420 307q5 0 5 4q3 15 -1 31.5t-15.5 31t-31.5 23.5t-51 9q-30 0 -54.5 -9.5t-41.5 -23.5t-27 -30.5t-13 -31.5q0 -4 3 -4h227zM271 562q-3 0 -4.5 2t0.5 5l77 128q2 7 11 7h117q7 0 4 -7l-106 -128q-2 -2 -5 -4.5t-7 -2.5
h-87z" />
    <glyph glyph-name="ecircumflex" unicode="&#xea;" horiz-adv-x="573" 
d="M531 212q-3 -5 -6 -5h-348q-6 0 -6 -5q-8 -42 19.5 -72t81.5 -30q33 0 60.5 9.5t44.5 35.5q2 5 9 5h117q6 0 4 -5q-15 -36 -40.5 -65t-59 -49t-73 -30.5t-82.5 -10.5q-55 0 -96.5 19t-67.5 54t-35 83t2 107q10 59 36 107.5t64.5 83t86.5 53.5t103 19t96.5 -19t67.5 -54
t35 -83.5t-1 -106.5q-4 -15 -6 -23.5t-6 -17.5zM420 307q5 0 5 4q3 15 -1 31.5t-15.5 31t-31.5 23.5t-51 9q-30 0 -54.5 -9.5t-41.5 -23.5t-27 -30.5t-13 -31.5q0 -4 3 -4h227zM405 562q-4 0 -5 3l-18 47q-2 3 -5 3.5t-5 -3.5l-36 -47q-2 -3 -5 -3h-80q-3 0 -4.5 2t0.5 5
l79 128q2 7 11 7h111q7 0 9 -7l34 -128q2 -7 -6 -7h-80z" />
    <glyph glyph-name="edieresis" unicode="&#xeb;" horiz-adv-x="573" 
d="M531 212q-3 -5 -6 -5h-348q-6 0 -6 -5q-8 -42 19.5 -72t81.5 -30q33 0 60.5 9.5t44.5 35.5q2 5 9 5h117q6 0 4 -5q-15 -36 -40.5 -65t-59 -49t-73 -30.5t-82.5 -10.5q-55 0 -96.5 19t-67.5 54t-35 83t2 107q10 59 36 107.5t64.5 83t86.5 53.5t103 19t96.5 -19t67.5 -54
t35 -83.5t-1 -106.5q-4 -15 -6 -23.5t-6 -17.5zM420 307q5 0 5 4q3 15 -1 31.5t-15.5 31t-31.5 23.5t-51 9q-30 0 -54.5 -9.5t-41.5 -23.5t-27 -30.5t-13 -31.5q0 -4 3 -4h227zM190 562q-6 0 -4 5l23 132q0 5 6 5h129q4 0 4 -5l-23 -132q-2 -5 -6 -5h-129zM410 562
q-6 0 -4 5l23 132q0 5 6 5h129q4 0 4 -5l-23 -132q-2 -5 -6 -5h-129z" />
    <glyph glyph-name="igrave" unicode="&#xec;" horiz-adv-x="306" 
d="M55 0q-4 0 -4 5l88 496q0 5 5 5h110q5 0 5 -5l-88 -496q0 -5 -6 -5h-110zM172 562q-8 0 -10 7l-60 128q-2 3 0.5 5t5.5 2h117q7 0 9 -7l31 -128q2 -7 -6 -7h-87z" />
    <glyph glyph-name="iacute" unicode="&#xed;" horiz-adv-x="306" 
d="M55 0q-4 0 -4 5l88 496q0 5 5 5h110q5 0 5 -5l-88 -496q0 -5 -6 -5h-110zM153 562q-3 0 -4.5 2t0.5 5l77 128q2 7 11 7h117q7 0 4 -7l-106 -128q-2 -2 -5 -4.5t-7 -2.5h-87z" />
    <glyph glyph-name="icircumflex" unicode="&#xee;" horiz-adv-x="306" 
d="M55 0q-4 0 -4 5l88 496q0 5 5 5h110q5 0 5 -5l-88 -496q0 -5 -6 -5h-110zM243 562q-4 0 -5 3l-18 47q-2 3 -5 3.5t-5 -3.5l-36 -47q-2 -3 -5 -3h-80q-3 0 -4.5 2t0.5 5l79 128q2 7 11 7h111q7 0 9 -7l34 -128q2 -7 -6 -7h-80z" />
    <glyph glyph-name="idieresis" unicode="&#xef;" horiz-adv-x="306" 
d="M55 0q-4 0 -4 5l88 496q0 5 5 5h110q5 0 5 -5l-88 -496q0 -5 -6 -5h-110zM32 562q-6 0 -4 5l23 132q0 5 6 5h129q4 0 4 -5l-23 -132q-2 -5 -6 -5h-129zM252 562q-6 0 -4 5l23 132q0 5 6 5h129q4 0 4 -5l-23 -132q-2 -5 -6 -5h-129z" />
    <glyph glyph-name="eth" unicode="&#xf0;" horiz-adv-x="623" 
d="M348 556q-2 4 -6 2l-68 -33q-5 -3 -5 3l-15 44q-2 2 -1 4t3 2l68 33q3 2 2 7l-27 78q-2 3 0.5 5.5t5.5 2.5h117q6 0 6 -4l11 -28q2 -4 6 -2l68 33q4 1 7 -2l15 -45q2 -4 -3 -6l-68 -33q-5 -2 -3 -6l75 -215q22 -62 8 -143q-11 -59 -36.5 -107t-63.5 -83t-88 -54t-108 -19
q-59 0 -101.5 19t-68 54t-34 83t2.5 107q10 59 36 107.5t62.5 83t81 53.5t91.5 19q13 0 22 -1.5t14 -3.5t7.5 1t0.5 6zM424 253q12 71 -13.5 112t-89.5 41q-63 0 -102.5 -41t-51.5 -112q-13 -71 12.5 -112t88.5 -41q64 0 103.5 41t52.5 112z" />
    <glyph glyph-name="ntilde" unicode="&#xf1;" horiz-adv-x="598" 
d="M237 469q9 8 24.5 16.5t33 15t36 11t34.5 4.5q59 0 96 -19.5t56 -52.5t22 -76t-5 -90l-48 -273q-2 -5 -6 -5h-110q-6 0 -4 5l48 273q4 22 1.5 45t-12.5 41.5t-29 30t-49 11.5q-29 0 -51.5 -10t-39 -26.5t-26 -38t-13.5 -43.5l-50 -283q-2 -5 -6 -5h-110q-6 0 -4 5l87 496
q2 5 6 5h95q8 0 8 -5l6 -31q1 -3 4 -4t6 3zM188 608q2 13 10 29.5t23 31.5t38.5 25t56.5 10q22 0 37 -7t26.5 -16t19.5 -16t16 -7q3 0 8.5 0.5t11.5 4t11.5 12t8.5 24.5q0 5 5 5h70q5 0 5 -5l-6 -34q-2 -13 -10 -29.5t-23.5 -31t-39 -24.5t-56.5 -10q-20 0 -34.5 7t-26 16
t-20.5 16t-18 7q-3 0 -8.5 -0.5t-11.5 -4t-11 -12t-8 -24.5q-2 -5 -6 -5h-70q-6 0 -4 5z" />
    <glyph glyph-name="ograve" unicode="&#xf2;" horiz-adv-x="603" 
d="M552 253q-11 -59 -36.5 -107t-63.5 -83t-88 -54t-108 -19q-59 0 -101.5 19t-68 54t-34 83t2.5 107q10 59 35.5 107.5t63.5 83t87 53.5t108 19q58 0 101 -19t69 -54t34.5 -83.5t-1.5 -106.5zM432 253q12 71 -13 112t-89 41q-63 0 -103 -41t-52 -112q-13 -71 12.5 -112
t88.5 -41q64 0 103.5 41t52.5 112zM340 562q-8 0 -10 7l-60 128q-2 3 0.5 5t5.5 2h117q7 0 9 -7l31 -128q2 -7 -6 -7h-87z" />
    <glyph glyph-name="oacute" unicode="&#xf3;" horiz-adv-x="603" 
d="M552 253q-11 -59 -36.5 -107t-63.5 -83t-88 -54t-108 -19q-59 0 -101.5 19t-68 54t-34 83t2.5 107q10 59 35.5 107.5t63.5 83t87 53.5t108 19q58 0 101 -19t69 -54t34.5 -83.5t-1.5 -106.5zM432 253q12 71 -13 112t-89 41q-63 0 -103 -41t-52 -112q-13 -71 12.5 -112
t88.5 -41q64 0 103.5 41t52.5 112zM291 562q-3 0 -4.5 2t0.5 5l77 128q2 7 11 7h117q7 0 4 -7l-106 -128q-2 -2 -5 -4.5t-7 -2.5h-87z" />
    <glyph glyph-name="ocircumflex" unicode="&#xf4;" horiz-adv-x="603" 
d="M552 253q-11 -59 -36.5 -107t-63.5 -83t-88 -54t-108 -19q-59 0 -101.5 19t-68 54t-34 83t2.5 107q10 59 35.5 107.5t63.5 83t87 53.5t108 19q58 0 101 -19t69 -54t34.5 -83.5t-1.5 -106.5zM432 253q12 71 -13 112t-89 41q-63 0 -103 -41t-52 -112q-13 -71 12.5 -112
t88.5 -41q64 0 103.5 41t52.5 112zM411 562q-4 0 -5 3l-18 47q-2 3 -5 3.5t-5 -3.5l-36 -47q-2 -3 -5 -3h-80q-3 0 -4.5 2t0.5 5l79 128q2 7 11 7h111q7 0 9 -7l34 -128q2 -7 -6 -7h-80z" />
    <glyph glyph-name="otilde" unicode="&#xf5;" horiz-adv-x="603" 
d="M552 253q-11 -59 -36.5 -107t-63.5 -83t-88 -54t-108 -19q-59 0 -101.5 19t-68 54t-34 83t2.5 107q10 59 35.5 107.5t63.5 83t87 53.5t108 19q58 0 101 -19t69 -54t34.5 -83.5t-1.5 -106.5zM432 253q12 71 -13 112t-89 41q-63 0 -103 -41t-52 -112q-13 -71 12.5 -112
t88.5 -41q64 0 103.5 41t52.5 112zM207 608q2 13 10 29.5t23 31.5t38.5 25t56.5 10q22 0 37 -7t26.5 -16t19.5 -16t16 -7q3 0 8.5 0.5t11.5 4t11.5 12t8.5 24.5q0 5 5 5h70q5 0 5 -5l-6 -34q-2 -13 -10 -29.5t-23.5 -31t-39 -24.5t-56.5 -10q-20 0 -34.5 7t-26 16t-20.5 16
t-18 7q-3 0 -8.5 -0.5t-11.5 -4t-11 -12t-8 -24.5q-2 -5 -6 -5h-70q-6 0 -4 5z" />
    <glyph glyph-name="odieresis" unicode="&#xf6;" horiz-adv-x="603" 
d="M552 253q-11 -59 -36.5 -107t-63.5 -83t-88 -54t-108 -19q-59 0 -101.5 19t-68 54t-34 83t2.5 107q10 59 35.5 107.5t63.5 83t87 53.5t108 19q58 0 101 -19t69 -54t34.5 -83.5t-1.5 -106.5zM432 253q12 71 -13 112t-89 41q-63 0 -103 -41t-52 -112q-13 -71 12.5 -112
t88.5 -41q64 0 103.5 41t52.5 112zM170 562q-6 0 -4 5l23 132q0 5 6 5h129q4 0 4 -5l-23 -132q-2 -5 -6 -5h-129zM390 562q-6 0 -4 5l23 132q0 5 6 5h129q4 0 4 -5l-23 -132q-2 -5 -6 -5h-129z" />
    <glyph glyph-name="divide" unicode="&#xf7;" horiz-adv-x="595" 
d="M174 0q-4 0 -4 5l27 152q0 5 6 5h149q4 0 4 -5l-27 -152q0 -5 -6 -5h-149zM235 344q-6 0 -4 5l27 152q0 5 5 5h149q5 0 5 -5l-27 -152q-2 -5 -6 -5h-149zM551 307q5 0 5 -5l-18 -99q0 -5 -6 -5h-496q-4 0 -4 5l18 99q0 5 5 5h496z" />
    <glyph glyph-name="oslash" unicode="&#xf8;" horiz-adv-x="603" 
d="M552 253q-11 -59 -36.5 -107t-63.5 -83t-88 -54t-108 -19q-97 0 -149 50q-2 4 -8 0l-44 -38q-5 -4 -7 0l-33 39q-2 4 2 7l48 42q4 3 2 9q-28 65 -12 154q10 59 35.5 107.5t63.5 83t87 53.5t108 19q48 0 85 -13.5t64 -36.5q4 -5 9 0l45 38q3 3 7 0l32 -39q3 -3 -1 -7
l-48 -41q-5 -3 -2 -10q27 -64 12 -154zM205 131q-5 -5 -1 -9q25 -22 72 -22q64 0 103.5 41t52.5 112q3 17 4 33.5t-1 30.5q-2 8 -10 1zM175 253q-6 -36 -3 -64q0 -3 3 -3.5t5 1.5l220 188q5 3 1 9q-28 22 -71 22q-63 0 -103 -41t-52 -112z" />
    <glyph glyph-name="ugrave" unicode="&#xf9;" horiz-adv-x="598" 
d="M353 37q-19 -17 -52 -32t-65 -15q-63 0 -101.5 19.5t-58.5 52.5t-23.5 76t4.5 90l48 273q2 5 6 5h110q6 0 4 -5l-48 -273q-4 -23 -2 -45.5t12 -41t29 -30t49 -11.5q29 0 51.5 10t39 26.5t26.5 37.5t14 44l50 283q2 5 6 5h111q5 0 3 -5l-87 -496q-2 -5 -6 -5h-95
q-8 0 -9 6l-5 30q-1 3 -4 4t-7 -3zM313 562q-8 0 -10 7l-60 128q-2 3 0.5 5t5.5 2h117q7 0 9 -7l31 -128q2 -7 -6 -7h-87z" />
    <glyph glyph-name="uacute" unicode="&#xfa;" horiz-adv-x="598" 
d="M353 37q-19 -17 -52 -32t-65 -15q-63 0 -101.5 19.5t-58.5 52.5t-23.5 76t4.5 90l48 273q2 5 6 5h110q6 0 4 -5l-48 -273q-4 -23 -2 -45.5t12 -41t29 -30t49 -11.5q29 0 51.5 10t39 26.5t26.5 37.5t14 44l50 283q2 5 6 5h111q5 0 3 -5l-87 -496q-2 -5 -6 -5h-95
q-8 0 -9 6l-5 30q-1 3 -4 4t-7 -3zM286 562q-3 0 -4.5 2t0.5 5l77 128q2 7 11 7h117q7 0 4 -7l-106 -128q-2 -2 -5 -4.5t-7 -2.5h-87z" />
    <glyph glyph-name="ucircumflex" unicode="&#xfb;" horiz-adv-x="598" 
d="M353 37q-19 -17 -52 -32t-65 -15q-63 0 -101.5 19.5t-58.5 52.5t-23.5 76t4.5 90l48 273q2 5 6 5h110q6 0 4 -5l-48 -273q-4 -23 -2 -45.5t12 -41t29 -30t49 -11.5q29 0 51.5 10t39 26.5t26.5 37.5t14 44l50 283q2 5 6 5h111q5 0 3 -5l-87 -496q-2 -5 -6 -5h-95
q-8 0 -9 6l-5 30q-1 3 -4 4t-7 -3zM393 562q-4 0 -5 3l-18 47q-2 3 -5 3.5t-5 -3.5l-36 -47q-2 -3 -5 -3h-80q-3 0 -4.5 2t0.5 5l79 128q2 7 11 7h111q7 0 9 -7l34 -128q2 -7 -6 -7h-80z" />
    <glyph glyph-name="udieresis" unicode="&#xfc;" horiz-adv-x="598" 
d="M353 37q-19 -17 -52 -32t-65 -15q-63 0 -101.5 19.5t-58.5 52.5t-23.5 76t4.5 90l48 273q2 5 6 5h110q6 0 4 -5l-48 -273q-4 -23 -2 -45.5t12 -41t29 -30t49 -11.5q29 0 51.5 10t39 26.5t26.5 37.5t14 44l50 283q2 5 6 5h111q5 0 3 -5l-87 -496q-2 -5 -6 -5h-95
q-8 0 -9 6l-5 30q-1 3 -4 4t-7 -3zM172 562q-6 0 -4 5l23 132q0 5 6 5h129q4 0 4 -5l-23 -132q-2 -5 -6 -5h-129zM392 562q-6 0 -4 5l23 132q0 5 6 5h129q4 0 4 -5l-23 -132q-2 -5 -6 -5h-129z" />
    <glyph glyph-name="yacute" unicode="&#xfd;" horiz-adv-x="539" 
d="M463 501q3 5 7 5h116q7 0 4 -5l-253 -496l-40 -77q-33 -64 -76.5 -95t-107.5 -31h-146q-6 0 -4 5l16 94q2 5 6 5h121q24 0 37 8t18.5 22t5 31.5t-3.5 37.5l-80 496q0 5 6 5h117q5 0 5 -5l53 -387q0 -4 4 -4t6 4zM274 562q-3 0 -4.5 2t0.5 5l77 128q2 7 11 7h117q7 0 4 -7
l-106 -128q-2 -2 -5 -4.5t-7 -2.5h-87z" />
    <glyph glyph-name="thorn" unicode="&#xfe;" horiz-adv-x="588" 
d="M344 516q58 0 101 -19t69 -54t34.5 -83.5t-1.5 -106.5q-11 -59 -36.5 -107t-63.5 -83t-88 -54t-108 -19q-32 0 -61.5 8t-44.5 20q-2 2 -4.5 1t-3.5 -5l-37 -207q0 -5 -6 -5h-108q-4 0 -4 5l156 892q2 5 6 5h109q6 0 4 -5l-36 -207q-1 -4 2 -5t5 1q19 12 51.5 20t64.5 8z
M426 253q12 71 -12.5 114t-88.5 43q-63 0 -99.5 -39.5t-50.5 -117.5q-29 -157 95 -157q64 0 103.5 43t52.5 114z" />
    <glyph glyph-name="ydieresis" unicode="&#xff;" horiz-adv-x="588" 
d="M477 501q3 5 7 5h116q7 0 4 -5l-253 -496l-40 -77q-33 -64 -76.5 -95t-107.5 -31h-146q-6 0 -4 5l16 94q2 5 6 5h121q24 0 37 8t18.5 22t5 31.5t-3.5 37.5l-80 496q0 5 6 5h117q5 0 5 -5l53 -387q0 -4 4 -4t6 4zM177 562q-6 0 -4 5l23 132q0 5 6 5h129q4 0 4 -5l-23 -132
q-2 -5 -6 -5h-129zM397 562q-6 0 -4 5l23 132q0 5 6 5h129q4 0 4 -5l-23 -132q-2 -5 -6 -5h-129z" />
    <glyph glyph-name="Amacron" unicode="&#x100;" horiz-adv-x="738" 
d="M204 145q-5 0 -8 -5l-9 -19l-58 -116q-1 -3 -3 -4t-4 -1h-115q-3 0 -4 2.5t1 4.5l344 692q2 5 7 5h180q3 0 5 -5l99 -692q0 -7 -7 -7h-115q-3 0 -5 5l-14 105l-5 30q0 5 -6 5h-283zM255 260q-2 -5 3 -5h214q6 0 4 5l-47 330q-1 4 -4.5 4t-5.5 -4zM315 770q-3 0 -3 5
l13 70q0 5 5 5h266q4 0 4 -5l-13 -70q0 -5 -6 -5h-266z" />
    <glyph glyph-name="amacron" unicode="&#x101;" horiz-adv-x="579" 
d="M349 37q-9 -8 -24.5 -16t-34.5 -15t-40.5 -11.5t-43.5 -4.5q-51 0 -86 12.5t-55.5 34t-27 51t-0.5 63.5q6 32 24.5 61.5t50 52t74.5 35.5t98 13h94q15 0 24 7t10 15t1 20t-8.5 23.5t-28 19.5t-56.5 8q-57 0 -81.5 -20t-31.5 -46q0 -5 -6 -5h-109q-4 0 -4 5q8 44 31.5 77
t57.5 55t76 33t86 11q52 0 91.5 -12t64.5 -36t34.5 -59.5t1.5 -82.5l-57 -321q-1 -5 -6 -5h-98q-4 0 -6 5l-4 32q-4 7 -11 0zM226 100q39 0 68 10t49 25.5t32 34.5t15 38q0 5 -4 5h-114q-33 0 -55 -6t-34.5 -15t-18.5 -20t-7 -21q-2 -8 0.5 -17t10 -16.5t21.5 -12.5t37 -5z
M218 572q-3 0 -3 5l13 70q0 5 5 5h266q4 0 4 -5l-13 -70q0 -5 -6 -5h-266z" />
    <glyph glyph-name="Abreve" unicode="&#x102;" horiz-adv-x="738" 
d="M204 145q-5 0 -8 -5l-9 -19l-58 -116q-1 -3 -3 -4t-4 -1h-115q-3 0 -4 2.5t1 4.5l344 692q2 5 7 5h180q3 0 5 -5l99 -692q0 -7 -7 -7h-115q-3 0 -5 5l-14 105l-5 30q0 5 -6 5h-283zM255 260q-2 -5 3 -5h214q6 0 4 5l-47 330q-1 4 -4.5 4t-5.5 -4zM612 897
q-11 -63 -55.5 -100t-107.5 -37q-62 0 -94 37t-21 100q2 5 6 5h77q6 0 4 -5q-3 -17 7.5 -34.5t35.5 -17.5q26 0 41.5 17.5t18.5 34.5q2 5 6 5h78z" />
    <glyph glyph-name="abreve" unicode="&#x103;" horiz-adv-x="582" 
d="M349 37q-9 -8 -24.5 -16t-34.5 -15t-40.5 -11.5t-43.5 -4.5q-51 0 -86 12.5t-55.5 34t-27 51t-0.5 63.5q6 32 24.5 61.5t50 52t74.5 35.5t98 13h94q15 0 24 7t10 15t1 20t-8.5 23.5t-28 19.5t-56.5 8q-57 0 -81.5 -20t-31.5 -46q0 -5 -6 -5h-109q-4 0 -4 5q8 44 31.5 77
t57.5 55t76 33t86 11q52 0 91.5 -12t64.5 -36t34.5 -59.5t1.5 -82.5l-57 -321q-1 -5 -6 -5h-98q-4 0 -6 5l-4 32q-4 7 -11 0zM226 100q39 0 68 10t49 25.5t32 34.5t15 38q0 5 -4 5h-114q-33 0 -55 -6t-34.5 -15t-18.5 -20t-7 -21q-2 -8 0.5 -17t10 -16.5t21.5 -12.5t37 -5z
M527 699q-11 -63 -55.5 -100t-107.5 -37q-62 0 -94 37t-21 100q0 5 6 5h77q4 0 4 -5q-3 -17 7.5 -34.5t35.5 -17.5q26 0 41.5 17.5t18.5 34.5q0 5 6 5h78z" />
    <glyph glyph-name="Aogonek" unicode="&#x104;" horiz-adv-x="738" 
d="M213 145q-6 0 -8 -5l-9 -19l-59 -118q-3 -3 -6 -3h-115q-6 0 -4 7l344 692q3 5 7 5h180q5 0 5 -5l99 -692q2 -7 -6 -7h-40q-29 0 -51.5 -17t-27.5 -41q-5 -31 12.5 -43t49.5 -12h14q6 0 4 -5l-13 -75q0 -5 -6 -5h-44q-59 0 -86 29.5t-20 69.5q5 37 28 62t56 36q6 2 4 7
l-14 104l-5 30q-2 5 -6 5h-283zM264 260q-2 -5 3 -5h214q6 0 4 5l-47 330q-1 4 -4.5 4t-5.5 -4z" />
    <glyph glyph-name="aogonek" unicode="&#x105;" horiz-adv-x="606" 
d="M349 37q-9 -8 -24.5 -16t-34.5 -15t-40.5 -11.5t-43.5 -4.5q-51 0 -86 12.5t-55.5 34t-27 51t-0.5 63.5q6 32 24.5 61.5t50 52t74.5 35.5t98 13h94q15 0 24 7t10 15t1 20t-8.5 23.5t-28 19.5t-56.5 8q-57 0 -81.5 -20t-31.5 -46q0 -5 -6 -5h-109q-4 0 -4 5q8 44 31.5 77
t57.5 55t76 33t86 11q104 0 155 -47.5t37 -142.5l-57 -321q-1 -5 -6 -5h-19q-28 0 -50.5 -17.5t-26.5 -40.5q-5 -31 13 -43t50 -12h14q4 0 4 -5l-14 -75q0 -5 -5 -5h-44q-59 0 -86 29.5t-21 69.5q5 31 25 54.5t50 38.5q5 2 5.5 4.5t0.5 6.5l-4 32q-4 7 -11 0zM226 100
q39 0 68 10t49 25.5t32 34.5t15 38q0 5 -4 5h-114q-33 0 -55 -6t-34.5 -15t-18.5 -20t-7 -21q-2 -8 0.5 -17t10 -16.5t21.5 -12.5t37 -5z" />
    <glyph glyph-name="Cacute" unicode="&#x106;" horiz-adv-x="718" 
d="M339 101q48 0 83 16.5t58 38.5t36 43.5t18 30.5q3 5 7 5h114q6 0 4 -5q-2 -11 -11.5 -33.5t-27.5 -49t-45 -54.5t-64 -51t-84.5 -37.5t-106.5 -14.5q-79 0 -133.5 25.5t-86 72.5t-39.5 112t6 145q14 79 45.5 146.5t79.5 117t112 77.5t143 28q56 0 97 -13.5t70.5 -35
t48 -48.5t28 -53.5t12 -50.5t-0.5 -39q0 -5 -6 -5h-115q-3 0 -5 5q-2 11 -7.5 32.5t-21 43t-43.5 37.5t-76 16q-45 0 -83.5 -19t-69 -53t-52 -81.5t-31.5 -104.5q-20 -115 18 -179.5t129 -64.5zM368 760q-3 0 -4.5 2t0.5 5l77 128q2 7 11 7h117q7 0 4 -7l-106 -128
q-2 -2 -5 -4.5t-7 -2.5h-87z" />
    <glyph glyph-name="cacute" unicode="&#x107;" horiz-adv-x="577" 
d="M346 516q48 0 85.5 -12.5t64 -35.5t40 -55.5t12.5 -72.5q0 -5 -6 -5h-113q-4 0 -6 5q-7 33 -29.5 51.5t-66.5 18.5q-32 0 -57 -12t-44 -33t-31.5 -50t-18.5 -62t-3.5 -62t14 -50t32.5 -33t53 -12q50 0 77 18.5t45 51.5q3 5 8 5h113q6 0 4 -5q-31 -86 -101 -131t-165 -45
q-59 0 -101 19t-67 54t-33 83t3 107q10 59 35 107.5t62.5 83t86 53.5t107.5 19zM288 562q-3 0 -4.5 2t0.5 5l77 128q2 7 11 7h117q7 0 4 -7l-106 -128q-2 -2 -5 -4.5t-7 -2.5h-87z" />
    <glyph glyph-name="Ccircumflex" unicode="&#x108;" horiz-adv-x="718" 
d="M339 101q48 0 83 16.5t58 38.5t36 43.5t18 30.5q3 5 7 5h114q6 0 4 -5q-2 -11 -11.5 -33.5t-27.5 -49t-45 -54.5t-64 -51t-84.5 -37.5t-106.5 -14.5q-79 0 -133.5 25.5t-86 72.5t-39.5 112t6 145q14 79 45.5 146.5t79.5 117t112 77.5t143 28q56 0 97 -13.5t70.5 -35
t48 -48.5t28 -53.5t12 -50.5t-0.5 -39q0 -5 -6 -5h-115q-3 0 -5 5q-2 11 -7.5 32.5t-21 43t-43.5 37.5t-76 16q-45 0 -83.5 -19t-69 -53t-52 -81.5t-31.5 -104.5q-20 -115 18 -179.5t129 -64.5zM493 760q-4 0 -5 3l-18 47q-2 3 -5 3.5t-5 -3.5l-36 -47q-2 -3 -5 -3h-80
q-3 0 -4.5 2t0.5 5l79 128q2 7 11 7h111q7 0 9 -7l34 -128q2 -7 -6 -7h-80z" />
    <glyph glyph-name="ccircumflex" unicode="&#x109;" horiz-adv-x="577" 
d="M346 516q48 0 85.5 -12.5t64 -35.5t40 -55.5t12.5 -72.5q0 -5 -6 -5h-113q-4 0 -6 5q-7 33 -29.5 51.5t-66.5 18.5q-32 0 -57 -12t-44 -33t-31.5 -50t-18.5 -62t-3.5 -62t14 -50t32.5 -33t53 -12q50 0 77 18.5t45 51.5q3 5 8 5h113q6 0 4 -5q-31 -86 -101 -131t-165 -45
q-59 0 -101 19t-67 54t-33 83t3 107q10 59 35 107.5t62.5 83t86 53.5t107.5 19zM388 562q-4 0 -5 3l-18 47q-2 3 -5 3.5t-5 -3.5l-36 -47q-2 -3 -5 -3h-80q-3 0 -4.5 2t0.5 5l79 128q2 7 11 7h111q7 0 9 -7l34 -128q2 -7 -6 -7h-80z" />
    <glyph glyph-name="Cdotaccent" unicode="&#x10a;" horiz-adv-x="718" 
d="M339 101q48 0 83 16.5t58 38.5t36 43.5t18 30.5q3 5 7 5h114q6 0 4 -5q-2 -11 -11.5 -33.5t-27.5 -49t-45 -54.5t-64 -51t-84.5 -37.5t-106.5 -14.5q-79 0 -133.5 25.5t-86 72.5t-39.5 112t6 145q14 79 45.5 146.5t79.5 117t112 77.5t143 28q56 0 97 -13.5t70.5 -35
t48 -48.5t28 -53.5t12 -50.5t-0.5 -39q0 -5 -6 -5h-115q-3 0 -5 5q-2 11 -7.5 32.5t-21 43t-43.5 37.5t-76 16q-45 0 -83.5 -19t-69 -53t-52 -81.5t-31.5 -104.5q-20 -115 18 -179.5t129 -64.5zM384 760q-4 0 -4 5l23 132q2 5 6 5h129q6 0 4 -5l-23 -132q0 -5 -6 -5h-129z
" />
    <glyph glyph-name="cdotaccent" unicode="&#x10b;" horiz-adv-x="577" 
d="M346 516q48 0 85.5 -12.5t64 -35.5t40 -55.5t12.5 -72.5q0 -5 -6 -5h-113q-4 0 -6 5q-7 33 -29.5 51.5t-66.5 18.5q-32 0 -57 -12t-44 -33t-31.5 -50t-18.5 -62t-3.5 -62t14 -50t32.5 -33t53 -12q50 0 77 18.5t45 51.5q3 5 8 5h113q6 0 4 -5q-31 -86 -101 -131t-165 -45
q-59 0 -101 19t-67 54t-33 83t3 107q10 59 35 107.5t62.5 83t86 53.5t107.5 19zM287 562q-6 0 -4 5l23 132q0 5 6 5h129q4 0 4 -5l-23 -132q-2 -5 -6 -5h-129z" />
    <glyph glyph-name="Ccaron" unicode="&#x10c;" horiz-adv-x="718" 
d="M339 101q48 0 83 16.5t58 38.5t36 43.5t18 30.5q3 5 7 5h114q6 0 4 -5q-2 -11 -11.5 -33.5t-27.5 -49t-45 -54.5t-64 -51t-84.5 -37.5t-106.5 -14.5q-79 0 -133.5 25.5t-86 72.5t-39.5 112t6 145q14 79 45.5 146.5t79.5 117t112 77.5t143 28q56 0 97 -13.5t70.5 -35
t48 -48.5t28 -53.5t12 -50.5t-0.5 -39q0 -5 -6 -5h-115q-3 0 -5 5q-2 11 -7.5 32.5t-21 43t-43.5 37.5t-76 16q-45 0 -83.5 -19t-69 -53t-52 -81.5t-31.5 -104.5q-20 -115 18 -179.5t129 -64.5zM601 902q7 0 4 -7l-80 -128l-4.5 -4.5t-6.5 -2.5h-111q-9 0 -9 7l-33 128
q-2 3 0.5 5t5.5 2h80q4 0 4 -3l19 -47q2 -4 5 -3.5t5 3.5l35 47q3 3 6 3h80z" />
    <glyph glyph-name="ccaron" unicode="&#x10d;" horiz-adv-x="577" 
d="M346 516q48 0 85.5 -12.5t64 -35.5t40 -55.5t12.5 -72.5q0 -5 -6 -5h-113q-4 0 -6 5q-7 33 -29.5 51.5t-66.5 18.5q-32 0 -57 -12t-44 -33t-31.5 -50t-18.5 -62t-3.5 -62t14 -50t32.5 -33t53 -12q50 0 77 18.5t45 51.5q3 5 8 5h113q6 0 4 -5q-31 -86 -101 -131t-165 -45
q-59 0 -101 19t-67 54t-33 83t3 107q10 59 35 107.5t62.5 83t86 53.5t107.5 19zM504 704q7 0 4 -7l-80 -128l-4.5 -4.5t-6.5 -2.5h-111q-9 0 -9 7l-33 128q-2 3 0.5 5t5.5 2h80q4 0 4 -3l19 -47q2 -4 5 -3.5t5 3.5l35 47q3 3 6 3h80z" />
    <glyph glyph-name="Dcaron" unicode="&#x10e;" horiz-adv-x="723" 
d="M308 110q91 0 151 60t80 175q10 57 5.5 103t-23.5 78.5t-51 50t-77 17.5h-138q-3 0 -5 -4l-83 -475q-2 -5 4 -5h137zM31 0q-4 0 -4 5l123 694q0 5 6 5h257q79 0 133 -27t85 -74.5t39 -113t-6 -144.5q-14 -80 -45 -143.5t-78 -108.5t-110.5 -69t-142.5 -24h-257zM541 902
q7 0 4 -7l-80 -128l-4.5 -4.5t-6.5 -2.5h-111q-9 0 -9 7l-33 128q-2 3 0.5 5t5.5 2h80q4 0 4 -3l19 -47q2 -4 5 -3.5t5 3.5l35 47q3 3 6 3h80z" />
    <glyph glyph-name="dcaron" unicode="&#x10f;" horiz-adv-x="624" 
d="M365 37q-11 -9 -26 -17.5t-33 -15t-38 -10.5t-39 -4q-53 0 -92 19t-62.5 54t-31 83t3.5 107q10 58 35.5 106.5t62.5 83.5t82 54t95 19q48 0 78.5 -16.5t42.5 -31.5q3 -3 6 -2t4 5l40 228q2 5 6 5h110q6 0 4 -5l-122 -694q-2 -5 -5 -5h-96q-8 0 -9 5l-5 32q-2 7 -11 0z
M167 253q-12 -68 13 -110.5t89 -42.5q60 0 97 42.5t49 110.5q13 75 -10 114t-83 39q-64 0 -104 -42.5t-51 -110.5zM655 626q-4 0 -4 5l12 69q2 5 6 5h90q6 0 4 -5l-12 -71q-5 -27 -16.5 -42.5t-26.5 -23t-32.5 -9.5t-33.5 -2q-4 0 -4 5l5 29q2 5 6 5t12 0.5t16.5 3.5t15 9
t8.5 17q2 5 -4 5h-42z" />
    <glyph glyph-name="Dcroat" unicode="&#x110;" horiz-adv-x="672" 
d="M75 306q2 5 -4 5h-87q-4 0 -4 5l12 69q2 5 6 5h87q6 0 6 5l54 304q0 5 6 5h257q79 0 133 -27t85 -74.5t39 -113t-6 -144.5q-14 -80 -45 -143.5t-78 -108.5t-110.5 -69t-142.5 -24h-257q-4 0 -4 5zM201 311q-4 0 -6 -5l-33 -192q-2 -5 4 -5h137q91 0 151 60.5t80 175.5
q10 57 5.5 103t-23.5 78.5t-51 50.5t-77 18h-138q-4 0 -4 -4l-35 -196q0 -5 4 -5h115q6 0 4 -5l-12 -69q0 -5 -6 -5h-115z" />
    <glyph glyph-name="dcroat" unicode="&#x111;" horiz-adv-x="624" 
d="M365 37q-11 -9 -26 -17.5t-33 -15t-38 -10.5t-39 -4q-53 0 -92 19t-62.5 54t-31 83t3.5 107q10 58 35.5 106.5t62.5 83.5t82 54t95 19q48 0 78.5 -16.5t42.5 -31.5q3 -3 6 -2t4 5l13 75q2 5 -4 5h-115q-6 0 -4 5l12 69q2 5 6 5h115q4 0 6 5l11 64q2 5 6 5h110q6 0 4 -5
l-11 -64q-2 -5 4 -5h88q6 0 4 -5l-12 -69q-2 -5 -6 -5h-88q-4 0 -6 -5l-95 -541q-2 -5 -5 -5h-96q-8 0 -9 5l-5 32q-2 7 -11 0zM167 253q-12 -68 13 -110.5t89 -42.5q60 0 97 42.5t49 110.5q13 75 -10 114t-83 39q-64 0 -104 -42.5t-51 -110.5z" />
    <glyph glyph-name="Emacron" unicode="&#x112;" horiz-adv-x="647" 
d="M536 110q6 0 4 -5l-18 -100q0 -5 -6 -5h-489q-4 0 -4 5l123 694q0 5 6 5h489q4 0 4 -5l-18 -100q0 -5 -6 -5h-369q-4 0 -6 -5l-30 -172q-2 -5 4 -5h319q6 0 4 -5l-17 -100q-2 -5 -6 -5h-319q-6 0 -6 -5l-32 -182q-2 -5 4 -5h369zM270 770q-3 0 -3 5l13 70q0 5 5 5h266
q4 0 4 -5l-13 -70q0 -5 -6 -5h-266z" />
    <glyph glyph-name="emacron" unicode="&#x113;" horiz-adv-x="586" 
d="M521 212q-3 -5 -6 -5h-348q-6 0 -6 -5q-8 -42 19.5 -72t81.5 -30q33 0 60.5 9.5t44.5 35.5q2 5 9 5h117q6 0 4 -5q-15 -36 -40.5 -65t-59 -49t-73 -30.5t-82.5 -10.5q-55 0 -96.5 19t-67.5 54t-35 83t2 107q10 59 36 107.5t64.5 83t86.5 53.5t103 19t96.5 -19t67.5 -54
t35 -83.5t-1 -106.5q-4 -15 -6 -23.5t-6 -17.5zM410 307q5 0 5 4q3 15 -1 31.5t-15.5 31t-31.5 23.5t-51 9q-30 0 -54.5 -9.5t-41.5 -23.5t-27 -30.5t-13 -31.5q0 -4 3 -4h227zM215 572q-3 0 -3 5l13 70q0 5 5 5h266q4 0 4 -5l-13 -70q0 -5 -6 -5h-266z" />
    <glyph glyph-name="Ebreve" unicode="&#x114;" horiz-adv-x="647" 
d="M536 110q6 0 4 -5l-18 -100q0 -5 -6 -5h-489q-4 0 -4 5l123 694q0 5 6 5h489q4 0 4 -5l-18 -100q0 -5 -6 -5h-369q-4 0 -6 -5l-30 -172q-2 -5 4 -5h319q6 0 4 -5l-17 -100q-2 -5 -6 -5h-319q-6 0 -6 -5l-32 -182q-2 -5 4 -5h369zM556 897q-11 -63 -55.5 -100t-107.5 -37
q-62 0 -94 37t-21 100q2 5 6 5h77q6 0 4 -5q-3 -17 7.5 -34.5t35.5 -17.5q26 0 41.5 17.5t18.5 34.5q2 5 6 5h78z" />
    <glyph glyph-name="ebreve" unicode="&#x115;" horiz-adv-x="586" 
d="M521 212q-3 -5 -6 -5h-348q-6 0 -6 -5q-8 -42 19.5 -72t81.5 -30q33 0 60.5 9.5t44.5 35.5q2 5 9 5h117q6 0 4 -5q-15 -36 -40.5 -65t-59 -49t-73 -30.5t-82.5 -10.5q-55 0 -96.5 19t-67.5 54t-35 83t2 107q10 59 36 107.5t64.5 83t86.5 53.5t103 19t96.5 -19t67.5 -54
t35 -83.5t-1 -106.5q-4 -15 -6 -23.5t-6 -17.5zM410 307q5 0 5 4q3 15 -1 31.5t-15.5 31t-31.5 23.5t-51 9q-30 0 -54.5 -9.5t-41.5 -23.5t-27 -30.5t-13 -31.5q0 -4 3 -4h227zM509 699q-11 -63 -55.5 -100t-107.5 -37q-62 0 -94 37t-21 100q0 5 6 5h77q4 0 4 -5
q-3 -17 7.5 -34.5t35.5 -17.5q26 0 41.5 17.5t18.5 34.5q0 5 6 5h78z" />
    <glyph glyph-name="Edotaccent" unicode="&#x116;" horiz-adv-x="647" 
d="M536 110q6 0 4 -5l-18 -100q0 -5 -6 -5h-489q-4 0 -4 5l123 694q0 5 6 5h489q4 0 4 -5l-18 -100q0 -5 -6 -5h-369q-4 0 -6 -5l-30 -172q-2 -5 4 -5h319q6 0 4 -5l-17 -100q-2 -5 -6 -5h-319q-6 0 -6 -5l-32 -182q-2 -5 4 -5h369zM339 760q-4 0 -4 5l23 132q2 5 6 5h129
q6 0 4 -5l-23 -132q0 -5 -6 -5h-129z" />
    <glyph glyph-name="edotaccent" unicode="&#x117;" horiz-adv-x="586" 
d="M521 212q-3 -5 -6 -5h-348q-6 0 -6 -5q-8 -42 19.5 -72t81.5 -30q33 0 60.5 9.5t44.5 35.5q2 5 9 5h117q6 0 4 -5q-15 -36 -40.5 -65t-59 -49t-73 -30.5t-82.5 -10.5q-55 0 -96.5 19t-67.5 54t-35 83t2 107q10 59 36 107.5t64.5 83t86.5 53.5t103 19t96.5 -19t67.5 -54
t35 -83.5t-1 -106.5q-4 -15 -6 -23.5t-6 -17.5zM410 307q5 0 5 4q3 15 -1 31.5t-15.5 31t-31.5 23.5t-51 9q-30 0 -54.5 -9.5t-41.5 -23.5t-27 -30.5t-13 -31.5q0 -4 3 -4h227zM271 562q-6 0 -4 5l23 132q0 5 6 5h129q4 0 4 -5l-23 -132q-2 -5 -6 -5h-129z" />
    <glyph glyph-name="Eogonek" unicode="&#x118;" horiz-adv-x="647" 
d="M545 110q4 0 4 -5l-18 -100q0 -5 -6 -5h-11q-32 0 -56 -16.5t-29 -41.5q-5 -31 12.5 -43t49.5 -12h14q6 0 4 -5l-13 -75q0 -5 -6 -5h-44q-59 0 -86 29.5t-20 69.5q4 26 20.5 50.5t43.5 38.5q5 2 4.5 6t-5.5 4h-367q-4 0 -4 5l122 694q2 5 6 5h489q6 0 4 -5l-17 -100
q-2 -5 -6 -5h-369q-4 0 -6 -5l-30 -172q-2 -5 4 -5h319q4 0 4 -5l-18 -100q0 -5 -6 -5h-319q-5 0 -5 -5l-33 -182q0 -5 5 -5h369z" />
    <glyph glyph-name="eogonek" unicode="&#x119;" horiz-adv-x="586" 
d="M529 212q-3 -5 -6 -5h-348q-4 0 -6 -5q-8 -42 19.5 -72t81.5 -30q33 0 60.5 9.5t44.5 35.5q2 5 9 5h117q7 0 4 -5q-14 -34 -42 -65t-58 -50q-35 -21 -55 -42t-25 -46q-5 -31 13 -43t50 -12h14q4 0 4 -5l-14 -75q0 -5 -5 -5h-44q-59 0 -86 29.5t-21 69.5q4 24 17 45t31 38
q2 2 2 5t-5 3q-7 0 -15.5 -1t-14.5 -1q-55 0 -96.5 19t-67.5 54t-35 83t1 107t36.5 107.5t64.5 83t86 53.5t103 19t96.5 -19t67.5 -54t35 -83.5t-1 -106.5q-3 -15 -5.5 -23.5t-6.5 -17.5zM419 307q4 0 4 4q3 15 -1 31.5t-15.5 31t-31.5 23.5t-51 9q-30 0 -54.5 -9.5
t-41.5 -23.5t-27 -30.5t-13 -31.5q0 -4 4 -4h227z" />
    <glyph glyph-name="Ecaron" unicode="&#x11a;" horiz-adv-x="647" 
d="M536 110q6 0 4 -5l-18 -100q0 -5 -6 -5h-489q-4 0 -4 5l123 694q0 5 6 5h489q4 0 4 -5l-18 -100q0 -5 -6 -5h-369q-4 0 -6 -5l-30 -172q-2 -5 4 -5h319q6 0 4 -5l-17 -100q-2 -5 -6 -5h-319q-6 0 -6 -5l-32 -182q-2 -5 4 -5h369zM541 902q7 0 4 -7l-80 -128l-4.5 -4.5
t-6.5 -2.5h-111q-9 0 -9 7l-33 128q-2 3 0.5 5t5.5 2h80q4 0 4 -3l19 -47q2 -4 5 -3.5t5 3.5l35 47q3 3 6 3h80z" />
    <glyph glyph-name="ecaron" unicode="&#x11b;" horiz-adv-x="586" 
d="M521 212q-3 -5 -6 -5h-348q-6 0 -6 -5q-8 -42 19.5 -72t81.5 -30q33 0 60.5 9.5t44.5 35.5q2 5 9 5h117q6 0 4 -5q-15 -36 -40.5 -65t-59 -49t-73 -30.5t-82.5 -10.5q-55 0 -96.5 19t-67.5 54t-35 83t2 107q10 59 36 107.5t64.5 83t86.5 53.5t103 19t96.5 -19t67.5 -54
t35 -83.5t-1 -106.5q-4 -15 -6 -23.5t-6 -17.5zM410 307q5 0 5 4q3 15 -1 31.5t-15.5 31t-31.5 23.5t-51 9q-30 0 -54.5 -9.5t-41.5 -23.5t-27 -30.5t-13 -31.5q0 -4 3 -4h227zM489 704q7 0 4 -7l-80 -128l-4.5 -4.5t-6.5 -2.5h-111q-9 0 -9 7l-33 128q-2 3 0.5 5t5.5 2h80
q4 0 4 -3l19 -47q2 -4 5 -3.5t5 3.5l35 47q3 3 6 3h80z" />
    <glyph glyph-name="Gcircumflex" unicode="&#x11c;" horiz-adv-x="753" 
d="M430 603q-45 0 -84 -18t-69.5 -50.5t-51.5 -79t-31 -103.5q-21 -118 16 -184.5t131 -66.5q37 0 72.5 8.5t66 29t53.5 55.5t35 89l2 10q1 4 -3 4h-187q-5 0 -3 5l17 99q2 5 5 5h296q6 0 4 -5l-70 -397q0 -4 -6 -4h-91q-3 0 -4 4l-1 52q0 3 -2.5 4t-6.5 -2
q-41 -29 -88 -48.5t-108 -19.5q-75 0 -129.5 26.5t-86.5 74.5t-41.5 114.5t4.5 146.5q14 79 47 145.5t81.5 114.5t112.5 75t139 27q65 0 111 -15.5t77 -42.5t47 -63.5t21 -79.5q0 -7 -6 -7h-118q-11 0 -11 7q-14 46 -52 68t-88 22zM490 760q-4 0 -5 3l-18 47q-2 3 -5 3.5
t-5 -3.5l-36 -47q-2 -3 -5 -3h-80q-3 0 -4.5 2t0.5 5l79 128q2 7 11 7h111q7 0 9 -7l34 -128q2 -7 -6 -7h-80z" />
    <glyph glyph-name="gcircumflex" unicode="&#x11d;" horiz-adv-x="609" 
d="M55 253q10 58 36.5 106.5t63.5 83.5t82 54t92 19q44 0 76.5 -13.5t50.5 -34.5q5 -5 8 0l16 32q4 6 11 6h95q6 0 4 -5l-85 -486q-9 -51 -35 -92t-64 -70t-85.5 -45t-99.5 -16q-48 0 -86.5 13.5t-65 36t-38.5 52.5t-6 63q2 5 6 5h108q5 0 5 -5t4.5 -14.5t15.5 -18.5
t29.5 -15.5t47.5 -6.5q35 0 60 9.5t42 25t27 36t15 42.5l3 17v4q1 3 -2 4t-5 -1q-7 -6 -21 -14.5t-32.5 -16t-42 -13t-49.5 -5.5q-47 0 -85.5 19t-63 54t-34 83t1.5 107zM175 253q-12 -68 12.5 -110.5t88.5 -42.5q63 0 100 39t51 114q11 68 -11.5 110.5t-85.5 42.5
q-64 0 -104 -42.5t-51 -110.5zM404 562q-4 0 -5 3l-18 47q-2 3 -5 3.5t-5 -3.5l-36 -47q-2 -3 -5 -3h-80q-3 0 -4.5 2t0.5 5l79 128q2 7 11 7h111q7 0 9 -7l34 -128q2 -7 -6 -7h-80z" />
    <glyph glyph-name="Gbreve" unicode="&#x11e;" horiz-adv-x="753" 
d="M430 603q-45 0 -84 -18t-69.5 -50.5t-51.5 -79t-31 -103.5q-21 -118 16 -184.5t131 -66.5q37 0 72.5 8.5t66 29t53.5 55.5t35 89l2 10q1 4 -3 4h-187q-5 0 -3 5l17 99q2 5 5 5h296q6 0 4 -5l-70 -397q0 -4 -6 -4h-91q-3 0 -4 4l-1 52q0 3 -2.5 4t-6.5 -2
q-41 -29 -88 -48.5t-108 -19.5q-75 0 -129.5 26.5t-86.5 74.5t-41.5 114.5t4.5 146.5q14 79 47 145.5t81.5 114.5t112.5 75t139 27q65 0 111 -15.5t77 -42.5t47 -63.5t21 -79.5q0 -7 -6 -7h-118q-11 0 -11 7q-14 46 -52 68t-88 22zM639 897q-11 -63 -55.5 -100t-107.5 -37
q-62 0 -94 37t-21 100q2 5 6 5h77q6 0 4 -5q-3 -17 7.5 -34.5t35.5 -17.5q26 0 41.5 17.5t18.5 34.5q2 5 6 5h78z" />
    <glyph glyph-name="gbreve" unicode="&#x11f;" horiz-adv-x="609" 
d="M55 253q10 58 36.5 106.5t63.5 83.5t82 54t92 19q44 0 76.5 -13.5t50.5 -34.5q5 -5 8 0l16 32q4 6 11 6h95q6 0 4 -5l-85 -486q-9 -51 -35 -92t-64 -70t-85.5 -45t-99.5 -16q-48 0 -86.5 13.5t-65 36t-38.5 52.5t-6 63q2 5 6 5h108q5 0 5 -5t4.5 -14.5t15.5 -18.5
t29.5 -15.5t47.5 -6.5q35 0 60 9.5t42 25t27 36t15 42.5l3 17v4q1 3 -2 4t-5 -1q-7 -6 -21 -14.5t-32.5 -16t-42 -13t-49.5 -5.5q-47 0 -85.5 19t-63 54t-34 83t1.5 107zM175 253q-12 -68 12.5 -110.5t88.5 -42.5q63 0 100 39t51 114q11 68 -11.5 110.5t-85.5 42.5
q-64 0 -104 -42.5t-51 -110.5zM530 699q-11 -63 -55.5 -100t-107.5 -37q-62 0 -94 37t-21 100q0 5 6 5h77q4 0 4 -5q-3 -17 7.5 -34.5t35.5 -17.5q26 0 41.5 17.5t18.5 34.5q0 5 6 5h78z" />
    <glyph glyph-name="Gdotaccent" unicode="&#x120;" horiz-adv-x="753" 
d="M430 603q-45 0 -84 -18t-69.5 -50.5t-51.5 -79t-31 -103.5q-21 -118 16 -184.5t131 -66.5q37 0 72.5 8.5t66 29t53.5 55.5t35 89l2 10q1 4 -3 4h-187q-5 0 -3 5l17 99q2 5 5 5h296q6 0 4 -5l-70 -397q0 -4 -6 -4h-91q-3 0 -4 4l-1 52q0 3 -2.5 4t-6.5 -2
q-41 -29 -88 -48.5t-108 -19.5q-75 0 -129.5 26.5t-86.5 74.5t-41.5 114.5t4.5 146.5q14 79 47 145.5t81.5 114.5t112.5 75t139 27q65 0 111 -15.5t77 -42.5t47 -63.5t21 -79.5q0 -7 -6 -7h-118q-11 0 -11 7q-14 46 -52 68t-88 22zM402 760q-4 0 -4 5l23 132q2 5 6 5h129
q6 0 4 -5l-23 -132q0 -5 -6 -5h-129z" />
    <glyph glyph-name="gdotaccent" unicode="&#x121;" horiz-adv-x="609" 
d="M55 253q10 58 36.5 106.5t63.5 83.5t82 54t92 19q44 0 76.5 -13.5t50.5 -34.5q5 -5 8 0l16 32q4 6 11 6h95q6 0 4 -5l-85 -486q-9 -51 -35 -92t-64 -70t-85.5 -45t-99.5 -16q-48 0 -86.5 13.5t-65 36t-38.5 52.5t-6 63q2 5 6 5h108q5 0 5 -5t4.5 -14.5t15.5 -18.5
t29.5 -15.5t47.5 -6.5q35 0 60 9.5t42 25t27 36t15 42.5l3 17v4q1 3 -2 4t-5 -1q-7 -6 -21 -14.5t-32.5 -16t-42 -13t-49.5 -5.5q-47 0 -85.5 19t-63 54t-34 83t1.5 107zM175 253q-12 -68 12.5 -110.5t88.5 -42.5q63 0 100 39t51 114q11 68 -11.5 110.5t-85.5 42.5
q-64 0 -104 -42.5t-51 -110.5zM293 562q-6 0 -4 5l23 132q0 5 6 5h129q4 0 4 -5l-23 -132q-2 -5 -6 -5h-129z" />
    <glyph glyph-name="uni0122" unicode="&#x122;" horiz-adv-x="753" 
d="M439 603q-45 0 -84 -18t-69.5 -50.5t-52 -79t-31.5 -103.5q-20 -118 17 -184.5t131 -66.5q37 0 72.5 8.5t66 29t53.5 55.5t35 89l2 10q0 4 -3 4h-187q-4 0 -4 5l18 99q0 5 5 5h296q4 0 4 -5l-70 -397q-1 -4 -6 -4h-91q-4 0 -4 4l-1 52q0 3 -2.5 4t-7.5 -2
q-40 -29 -87.5 -48.5t-108.5 -19.5q-75 0 -129.5 26.5t-86.5 74.5t-41.5 114.5t4.5 146.5q14 79 47 145.5t82 114.5t113 75t139 27q65 0 111 -15.5t77 -42.5t47 -63.5t21 -79.5q0 -7 -7 -7h-118q-7 0 -8.5 2.5t-1.5 4.5q-15 46 -52.5 68t-87.5 22zM261 -134q-5 0 -5 5l13 69
q0 5 5 5h90q5 0 5 -5l-13 -71q-5 -27 -16 -42.5t-26 -23t-32.5 -9.5t-33.5 -2q-5 0 -5 5l6 29q0 5 5 5q4 0 12 0.5t16.5 3.5t15.5 9t9 17q0 5 -4 5h-42z" />
    <glyph glyph-name="uni0123" unicode="&#x123;" horiz-adv-x="609" 
d="M46 253q10 58 37 106.5t64 83.5t82 54t92 19q44 0 76.5 -13.5t50.5 -34.5q5 -5 8 0l16 32q4 6 11 6h96q5 0 3 -5l-86 -486q-9 -51 -34.5 -92t-63.5 -70t-85.5 -45t-99.5 -16q-48 0 -86.5 13.5t-65 36t-38.5 52.5t-6 63q2 5 6 5h109q4 0 4 -5t4.5 -14.5t15.5 -18.5
t29 -15.5t47 -6.5q35 0 60 9.5t42 25t27 36t15 42.5l3 17l1 4q1 3 -2 4t-5 -1q-7 -6 -21 -14.5t-32.5 -16t-42 -13t-49.5 -5.5q-47 0 -85.5 19t-63 54t-34 83t0.5 107zM166 253q-12 -68 12.5 -110.5t88.5 -42.5q63 0 100.5 39t50.5 114q12 68 -11 110.5t-86 42.5
q-64 0 -103.5 -42.5t-51.5 -110.5zM407 628q5 0 5 -5l-13 -69q0 -5 -5 -5h-90q-5 0 -5 5l13 71q5 27 16.5 42.5t26.5 23t32 9.5t34 2q4 0 4 -5l-5 -29q-2 -5 -6 -5q-5 0 -13 -0.5t-16 -3.5t-15 -9t-9 -17q0 -5 4 -5h42z" />
    <glyph glyph-name="Hcircumflex" unicode="&#x124;" horiz-adv-x="698" 
d="M448 0q-4 0 -4 5l52 293q1 4 -3 4h-283q-4 0 -5 -4l-52 -293q0 -5 -6 -5h-110q-4 0 -4 5l123 694q0 5 6 5h110q4 0 4 -5l-50 -283q-1 -4 3 -4h283q4 0 5 4l50 283q0 5 6 5h110q4 0 4 -5l-123 -694q0 -5 -6 -5h-110zM463 760q-4 0 -5 3l-18 47q-2 3 -5 3.5t-5 -3.5
l-36 -47q-2 -3 -5 -3h-80q-3 0 -4.5 2t0.5 5l79 128q2 7 11 7h111q7 0 9 -7l34 -128q2 -7 -6 -7h-80z" />
    <glyph glyph-name="hcircumflex" unicode="&#x125;" horiz-adv-x="608" 
d="M367 0q-4 0 -4 5l48 273q4 22 2 44.5t-12.5 40t-29.5 28.5t-49 11q-29 0 -51.5 -9.5t-38.5 -25t-26 -36.5t-14 -43l-50 -283q0 -5 -6 -5h-110q-4 0 -4 5l123 694q0 5 6 5h110q4 0 4 -5l-40 -227q-1 -5 1.5 -6t7.5 3t17 12t29 15.5t38 13.5t44 6q55 0 91.5 -19.5
t56.5 -52.5t25 -76t-4 -90l-48 -273q0 -5 -6 -5h-110zM254 760q-4 0 -5 3l-18 47q-2 3 -5 3.5t-5 -3.5l-36 -47q-2 -3 -5 -3h-80q-3 0 -4.5 2t0.5 5l79 128q2 7 11 7h111q7 0 9 -7l34 -128q2 -7 -6 -7h-80z" />
    <glyph glyph-name="Hbar" unicode="&#x126;" horiz-adv-x="688" 
d="M438 0q-4 0 -4 5l52 293q1 4 -3 4h-283q-4 0 -5 -4l-52 -293q0 -5 -6 -5h-110q-4 0 -4 5l96 541q0 5 -4 5h-89q-6 0 -4 5l12 69q0 5 6 5h89q5 0 5 5l12 64q0 5 6 5h110q4 0 4 -5l-12 -64q0 -5 5 -5h281q4 0 5 4l12 65q0 5 6 5h110q4 0 4 -5l-12 -64q0 -5 5 -5h89
q4 0 4 -5l-12 -69q-2 -5 -6 -5h-89q-6 0 -6 -5l-96 -541q0 -5 -6 -5h-110zM245 551q-6 0 -6 -5l-23 -130q-1 -4 3 -4h283q4 0 5 4l23 130q0 5 -4 5h-281z" />
    <glyph glyph-name="hbar" unicode="&#x127;" horiz-adv-x="608" 
d="M367 0q-4 0 -4 5l48 273q4 22 2 44.5t-12.5 40t-29.5 28.5t-49 11q-29 0 -51.5 -9.5t-38.5 -25t-26 -36.5t-14 -43l-50 -283q0 -5 -6 -5h-111q-3 0 -3 5l96 541q0 5 -4 5h-88q-6 0 -4 5l12 69q0 5 6 5h88q4 0 5 4l12 65q0 5 5 5h111q2 0 4 -3l-12 -66q0 -5 5 -5h115
q4 0 4 -5l-12 -69q-2 -5 -6 -5h-115q-6 0 -6 -5l-13 -74q-1 -5 1.5 -6t7.5 3t17 12t29 15.5t38 13.5t44 6q55 0 91.5 -19.5t56.5 -52.5t25 -76t-4 -90l-48 -273q0 -5 -6 -5h-110z" />
    <glyph glyph-name="Itilde" unicode="&#x128;" horiz-adv-x="276" 
d="M26 0q-4 0 -4 5l123 694q0 5 6 5h110q4 0 4 -5l-123 -694q0 -5 -6 -5h-110zM51 806q2 13 10 29.5t23.5 31.5t39 25t56.5 10q22 0 37 -7t26.5 -16t19.5 -16t16 -7q3 0 8.5 0.5t11.5 4t11 12t8 24.5q2 5 6 5h70q6 0 4 -5l-6 -34q-2 -13 -10 -29.5t-23.5 -31t-39 -24.5
t-56.5 -10q-20 0 -34.5 7t-26 16t-20.5 16t-18 7q-3 0 -8.5 -0.5t-11.5 -4t-11 -12t-8 -24.5q0 -5 -6 -5h-70q-4 0 -4 5z" />
    <glyph glyph-name="itilde" unicode="&#x129;" horiz-adv-x="277" 
d="M55 0q-4 0 -4 5l88 496q0 5 5 5h110q5 0 5 -5l-88 -496q0 -5 -6 -5h-110zM34 608q2 13 10 29.5t23 31.5t38.5 25t56.5 10q22 0 37 -7t26.5 -16t19.5 -16t16 -7q3 0 8.5 0.5t11.5 4t11.5 12t8.5 24.5q0 5 5 5h70q5 0 5 -5l-6 -34q-2 -13 -10 -29.5t-23.5 -31t-39 -24.5
t-56.5 -10q-20 0 -34.5 7t-26 16t-20.5 16t-18 7q-3 0 -8.5 -0.5t-11.5 -4t-11 -12t-8 -24.5q-2 -5 -6 -5h-70q-6 0 -4 5z" />
    <glyph glyph-name="Imacron" unicode="&#x12a;" horiz-adv-x="276" 
d="M26 0q-4 0 -4 5l123 694q0 5 6 5h110q4 0 4 -5l-123 -694q0 -5 -6 -5h-110zM86 770q-3 0 -3 5l13 70q0 5 5 5h266q4 0 4 -5l-13 -70q0 -5 -6 -5h-266z" />
    <glyph glyph-name="imacron" unicode="&#x12b;" horiz-adv-x="306" 
d="M55 0q-4 0 -4 5l88 496q0 5 5 5h110q5 0 5 -5l-88 -496q0 -5 -6 -5h-110zM76 572q-3 0 -3 5l13 70q0 5 5 5h266q4 0 4 -5l-13 -70q0 -5 -6 -5h-266z" />
    <glyph glyph-name="Iogonek" unicode="&#x12e;" horiz-adv-x="276" 
d="M119 0q-32 0 -56 -16.5t-29 -41.5q-5 -31 12.5 -43t49.5 -12h14q6 0 4 -5l-13 -75q0 -5 -6 -5h-44q-58 0 -85.5 25.5t-19.5 73.5q6 37 25 59.5t55 36.5q5 2 5 8l122 694q2 5 6 5h110q6 0 4 -5l-122 -694q0 -5 -6 -5h-26z" />
    <glyph glyph-name="iogonek" unicode="&#x12f;" horiz-adv-x="306" 
d="M144 562q-4 0 -4 5l23 132q2 5 6 5h130q6 0 4 -5l-23 -132q0 -5 -6 -5h-130zM139 0q-32 0 -56 -16.5t-29 -41.5q-5 -31 12.5 -43t49.5 -12h14q6 0 4 -5l-13 -75q0 -5 -6 -5h-44q-58 0 -85.5 25.5t-19.5 73.5q6 37 25 59.5t55 36.5q5 2 5 8l88 496q0 5 5 5h110q5 0 5 -5
l-88 -496q0 -5 -6 -5h-26z" />
    <glyph glyph-name="Idotaccent" unicode="&#x130;" horiz-adv-x="276" 
d="M26 0q-4 0 -4 5l123 694q0 5 6 5h110q4 0 4 -5l-123 -694q0 -5 -6 -5h-110zM154 760q-4 0 -4 5l23 132q2 5 6 5h129q6 0 4 -5l-23 -132q0 -5 -6 -5h-129z" />
    <glyph glyph-name="dotlessi" unicode="&#x131;" horiz-adv-x="306" 
d="M55 0q-4 0 -4 5l88 496q0 5 5 5h110q5 0 5 -5l-88 -496q0 -5 -6 -5h-110z" />
    <glyph glyph-name="IJ" unicode="&#x132;" 
d="M425 5q0 -5 -6 -5h-411q-4 0 -4 5l123 694q0 5 6 5h411q4 0 4 -5zM508 681h-346l119 -306zM392 24l-120 305l-226 -305h346zM409 48l107 608q-56 -75 -114 -152t-112 -152zM264 352l-120 305l-107 -610z" />
    <glyph glyph-name="ij" unicode="&#x133;" 
d="M425 5q0 -5 -6 -5h-411q-4 0 -4 5l123 694q0 5 6 5h411q4 0 4 -5zM508 681h-346l119 -306zM392 24l-120 305l-226 -305h346zM409 48l107 608q-56 -75 -114 -152t-112 -152zM264 352l-120 305l-107 -610z" />
    <glyph glyph-name="Jcircumflex" unicode="&#x134;" horiz-adv-x="517" 
d="M426 205q-8 -45 -24 -84t-44 -68t-71 -46t-104 -17q-57 0 -92.5 17t-54.5 46t-22.5 68t4.5 84l7 40q2 5 6 5h109q6 0 4 -5l-7 -40q-3 -18 -4 -36.5t5 -34.5t21 -26t44 -10q28 0 47 10t30 26t17 34.5t9 36.5l87 494q2 5 6 5h110q6 0 4 -5zM502 760q-4 0 -5 3l-18 47
q-2 3 -5 3.5t-5 -3.5l-36 -47q-2 -3 -5 -3h-80q-3 0 -4.5 2t0.5 5l79 128q2 7 11 7h111q7 0 9 -7l34 -128q2 -7 -6 -7h-80z" />
    <glyph glyph-name="jcircumflex" unicode="&#x135;" horiz-adv-x="310" 
d="M182 -57q-14 -75 -57.5 -108.5t-115.5 -32.5h-77q-3 0 -3 5l18 100q0 5 5 5h68q15 -2 27.5 7.5t14.5 24.5l98 557q2 5 6 5h110q6 0 4 -5zM262 562q-4 0 -5 3l-18 47q-2 3 -5 3.5t-5 -3.5l-36 -47q-2 -3 -5 -3h-80q-3 0 -4.5 2t0.5 5l79 128q2 7 11 7h111q7 0 9 -7
l34 -128q2 -7 -6 -7h-80z" />
    <glyph glyph-name="uni0136" unicode="&#x136;" horiz-adv-x="658" 
d="M459 0q-3 0 -4.5 3t-3.5 5l-157 325q-2 3 -4 1l-82 -70q-4 -3 -5.5 -4.5t-2.5 -6.5l-43 -248q-2 -5 -6 -5h-110q-6 0 -4 5l122 694q0 5 6 5h110q4 0 4 -5l-48 -269q0 -2 2 -3.5t5 0.5l327 276q1 1 4 1h146q4 0 4 -3.5t-2 -5.5l-323 -272q-3 -3 -1 -7l198 -408q2 -8 -5 -8
h-127zM207 -134q-6 0 -4 5l12 69q2 5 6 5h90q6 0 4 -5l-12 -71q-5 -27 -16.5 -42.5t-26.5 -23t-32.5 -9.5t-33.5 -2q-6 0 -4 5l5 29q0 5 6 5q4 0 12 0.5t16.5 3.5t15 9t8.5 17q2 5 -4 5h-42z" />
    <glyph glyph-name="uni0137" unicode="&#x137;" horiz-adv-x="616" 
d="M286 253q-13 -10 -29.5 -22.5t-31.5 -23.5q-18 -13 -37 -28q-3 -2 -5 -4t-3 -7l-28 -163q-2 -5 -6 -5h-110q-6 0 -4 5l122 694q0 5 6 5h110q4 0 4 -5l-64 -365q-1 -2 1 -3.5t5 0.5l226 169q7 5 11 5h161q4 0 4.5 -3.5t-3.5 -5.5l-218 -162q-4 -2 -2 -7l132 -319
q2 -8 -5 -8h-123q0 1 -1 1q-2 0 -2 1l-103 251q0 2 -2.5 2t-4.5 -2zM177 -134q-6 0 -4 5l12 69q2 5 6 5h90q6 0 4 -5l-12 -71q-5 -27 -16.5 -42.5t-26.5 -23t-32.5 -9.5t-33.5 -2q-6 0 -4 5l5 29q0 5 6 5q4 0 12 0.5t16.5 3.5t15 9t8.5 17q2 5 -4 5h-42z" />
    <glyph glyph-name="kgreenlandic" unicode="&#x138;" horiz-adv-x="616" 
d="M286 253q-13 -10 -30 -22.5t-32 -23.5q-18 -13 -36 -28q-7 -4 -8 -11l-29 -163q0 -5 -6 -5h-110q-4 0 -4 5l88 496q0 5 5 5h110q5 0 5 -5l-30 -167q0 -2 2 -3.5t5 0.5l225 169q8 5 11 5h161q4 0 4.5 -3.5t-2.5 -5.5l-219 -162q-3 -3 -1 -7l132 -319q2 -8 -6 -8h-123l-1 1
q-1 0 -1 1l-103 251q-2 5 -7 0z" />
    <glyph glyph-name="Lacute" unicode="&#x139;" horiz-adv-x="576" 
d="M27 0q-4 0 -4 5l123 694q0 5 6 5h110q4 0 4 -5l-103 -585q-1 -4 3 -4h340q6 0 4 -5l-18 -100q0 -5 -6 -5h-459zM178 760q-3 0 -4.5 2t0.5 5l77 128q2 7 11 7h117q7 0 4 -7l-106 -128q-2 -2 -5 -4.5t-7 -2.5h-87z" />
    <glyph glyph-name="lacute" unicode="&#x13a;" horiz-adv-x="276" 
d="M26 0q-4 0 -4 5l123 694q0 5 6 5h110q4 0 4 -5l-123 -694q0 -5 -6 -5h-110zM182 787q-3 0 -4.5 2t0.5 5l77 128q2 7 11 7h117q7 0 4 -7l-106 -128q-2 -2 -5 -4.5t-7 -2.5h-87z" />
    <glyph glyph-name="uni013B" unicode="&#x13b;" horiz-adv-x="576" 
d="M37 0q-6 0 -4 5l122 694q0 5 6 5h110q4 0 4 -5l-103 -585q-1 -4 3 -4h340q6 0 4 -5l-17 -100q-2 -5 -6 -5h-459zM197 -134q-6 0 -4 5l12 69q2 5 6 5h90q6 0 4 -5l-12 -71q-5 -27 -16.5 -42.5t-26.5 -23t-32.5 -9.5t-33.5 -2q-6 0 -4 5l5 29q0 5 6 5q4 0 12 0.5t16.5 3.5
t15 9t8.5 17q2 5 -4 5h-42z" />
    <glyph glyph-name="uni013C" unicode="&#x13c;" horiz-adv-x="276" 
d="M36 0q-6 0 -4 5l122 694q0 5 6 5h110q4 0 4 -5l-122 -694q-2 -5 -6 -5h-110zM21 -134q-6 0 -4 5l12 69q2 5 6 5h90q6 0 4 -5l-12 -71q-5 -27 -16.5 -42.5t-26.5 -23t-32.5 -9.5t-33.5 -2q-6 0 -4 5l5 29q0 5 6 5q4 0 12 0.5t16.5 3.5t15 9t8.5 17q2 5 -4 5h-42z" />
    <glyph glyph-name="Lcaron" unicode="&#x13d;" horiz-adv-x="576" 
d="M253 625q-4 0 -4 5l12 69q2 5 6 5h90q6 0 4 -5l-12 -71q-5 -27 -16.5 -42.5t-26.5 -23t-32.5 -9.5t-33.5 -2q-4 0 -4 5l5 29q2 5 6 5t12 0.5t16.5 3.5t15.5 9t9 17q0 5 -5 5h-42zM-28 0q-4 0 -4 5l123 694q0 5 6 5h110q4 0 4 -5l-103 -585q-1 -4 3 -4h340q6 0 4 -5
l-18 -100q0 -5 -6 -5h-459z" />
    <glyph glyph-name="lcaron" unicode="&#x13e;" horiz-adv-x="377" 
d="M252 625q-4 0 -4 5l12 69q2 5 6 5h90q6 0 4 -5l-12 -71q-5 -27 -16.5 -42.5t-26.5 -23t-32.5 -9.5t-33.5 -2q-4 0 -4 5l5 29q2 5 6 5t12 0.5t16.5 3.5t15.5 9t9 17q0 5 -5 5h-42zM-29 0q-4 0 -4 5l123 694q0 5 6 5h110q4 0 4 -5l-123 -694q0 -5 -6 -5h-110z" />
    <glyph glyph-name="Ldot" unicode="&#x13f;" horiz-adv-x="576" 
d="M27 0q-4 0 -4 5l123 694q0 5 6 5h110q4 0 4 -5l-103 -585q-1 -4 3 -4h340q6 0 4 -5l-18 -100q0 -5 -6 -5h-459zM290 276q-6 0 -4 5l26 151q2 5 6 5h149q6 0 4 -5l-26 -151q-2 -5 -6 -5h-149z" />
    <glyph glyph-name="ldot" unicode="&#x140;" horiz-adv-x="421" 
d="M26 0q-4 0 -4 5l123 694q0 5 6 5h110q4 0 4 -5l-123 -694q0 -5 -6 -5h-110zM244 276q-6 0 -4 5l26 151q2 5 6 5h149q6 0 4 -5l-26 -151q-2 -5 -6 -5h-149z" />
    <glyph glyph-name="Lslash" unicode="&#x141;" horiz-adv-x="633" 
d="M82 0q-4 0 -4 5l42 238q1 3 -1.5 4.5t-6.5 -0.5l-88 -61q-2 -2 -5 -1t-2 4l13 74q0 3 4 7l98 68q6 4 6 8l63 353q0 5 6 5h110q4 0 4 -5l-45 -253q-1 -3 2 -4.5t5 0.5l88 60q4 2 6.5 1t1.5 -4l-12 -72q-2 -6 -6 -8l-98 -68q-3 -2 -5 -7l-40 -230q-1 -4 3 -4h340q6 0 4 -5
l-18 -100q0 -5 -6 -5h-459z" />
    <glyph glyph-name="lslash" unicode="&#x142;" horiz-adv-x="378" 
d="M82 0q-4 0 -4 5l42 238q1 3 -1.5 4.5t-6.5 -0.5l-88 -61q-2 -2 -5 -1t-2 4l13 74q0 3 4 7l98 68q6 4 6 8l63 353q0 5 6 5h110q4 0 4 -5l-45 -253q-1 -3 2 -4.5t5 0.5l88 60q4 2 6.5 1t1.5 -4l-12 -72q-2 -6 -6 -8l-98 -68q-4 -4 -5 -9l-60 -337q0 -5 -6 -5h-110z" />
    <glyph glyph-name="Nacute" unicode="&#x143;" horiz-adv-x="732" 
d="M716 704q4 0 4 -5l-123 -694q0 -5 -6 -5h-149q-4 0 -6 5l-180 526q-2 5 -5.5 4.5t-4.5 -4.5l-93 -526q0 -5 -6 -5h-111q-3 0 -3 5l123 694q0 5 6 5h149q2 0 5 -5l181 -526q2 -5 5.5 -4.5t4.5 4.5l93 526q0 5 6 5h110zM355 760q-3 0 -4.5 2t0.5 5l77 128q2 7 11 7h117
q7 0 4 -7l-106 -128q-2 -2 -5 -4.5t-7 -2.5h-87z" />
    <glyph glyph-name="nacute" unicode="&#x144;" horiz-adv-x="598" 
d="M237 469q9 8 24.5 16.5t33 15t36 11t34.5 4.5q59 0 96 -19.5t56 -52.5t22 -76t-5 -90l-48 -273q-2 -5 -6 -5h-110q-6 0 -4 5l48 273q4 22 1.5 45t-12.5 41.5t-29 30t-49 11.5q-29 0 -51.5 -10t-39 -26.5t-26 -38t-13.5 -43.5l-50 -283q-2 -5 -6 -5h-110q-6 0 -4 5l87 496
q2 5 6 5h95q8 0 8 -5l6 -31q1 -3 4 -4t6 3zM309 562q-3 0 -4.5 2t0.5 5l77 128q2 7 11 7h117q7 0 4 -7l-106 -128q-2 -2 -5 -4.5t-7 -2.5h-87z" />
    <glyph glyph-name="uni0145" unicode="&#x145;" horiz-adv-x="732" 
d="M725 704q4 0 4 -5l-122 -694q-2 -5 -6 -5h-149q-6 0 -6 5l-181 526q-2 5 -5.5 4.5t-4.5 -4.5l-92 -526q-2 -5 -6 -5h-111q-5 0 -3 5l122 694q0 5 6 5h149q2 0 5 -5l181 -526q2 -5 5.5 -4.5t4.5 4.5l93 526q0 5 6 5h110zM257 -134q-6 0 -4 5l12 69q2 5 6 5h90q6 0 4 -5
l-12 -71q-5 -27 -16.5 -42.5t-26.5 -23t-32.5 -9.5t-33.5 -2q-6 0 -4 5l5 29q0 5 6 5q4 0 12 0.5t16.5 3.5t15 9t8.5 17q2 5 -4 5h-42z" />
    <glyph glyph-name="uni0146" unicode="&#x146;" horiz-adv-x="598" 
d="M247 469q9 8 24 16.5t32.5 15t36 11t34.5 4.5q59 0 96 -19.5t56 -52.5t22 -76t-5 -90l-48 -273q-2 -5 -6 -5h-110q-6 0 -4 5l48 273q4 22 2 45t-12 41.5t-29 30t-49 11.5q-29 0 -52 -10t-39 -26.5t-26 -38t-14 -43.5l-50 -283q-2 -5 -6 -5h-111q-5 0 -3 5l87 496q2 5 5 5
h96q7 0 9 -6l5 -30q1 -3 4 -4t7 3zM192 -134q-4 0 -4 5l12 69q2 5 6 5h90q6 0 4 -5l-12 -71q-5 -27 -16.5 -42.5t-26.5 -23t-32.5 -9.5t-33.5 -2q-4 0 -4 5l5 29q2 5 6 5t12 0.5t16.5 3.5t15 9t8.5 17q2 5 -4 5h-42z" />
    <glyph glyph-name="Ncaron" unicode="&#x147;" horiz-adv-x="718" 
d="M699 704q4 0 4 -5l-123 -694q0 -5 -6 -5h-149q-4 0 -6 5l-180 526q-2 5 -5.5 4.5t-4.5 -4.5l-93 -526q0 -5 -6 -5h-111q-3 0 -3 5l123 694q0 5 6 5h149q2 0 5 -5l181 -526q2 -5 5.5 -4.5t4.5 4.5l93 526q0 5 6 5h110zM581 902q7 0 4 -7l-80 -128l-4.5 -4.5t-6.5 -2.5
h-111q-9 0 -9 7l-33 128q-2 3 0.5 5t5.5 2h80q4 0 4 -3l19 -47q2 -4 5 -3.5t5 3.5l35 47q3 3 6 3h80z" />
    <glyph glyph-name="ncaron" unicode="&#x148;" horiz-adv-x="598" 
d="M237 469q9 8 24.5 16.5t33 15t36 11t34.5 4.5q59 0 96 -19.5t56 -52.5t22 -76t-5 -90l-48 -273q-2 -5 -6 -5h-110q-6 0 -4 5l48 273q4 22 1.5 45t-12.5 41.5t-29 30t-49 11.5q-29 0 -51.5 -10t-39 -26.5t-26 -38t-13.5 -43.5l-50 -283q-2 -5 -6 -5h-110q-6 0 -4 5l87 496
q2 5 6 5h95q8 0 8 -5l6 -31q1 -3 4 -4t6 3zM495 704q7 0 4 -7l-80 -128l-4.5 -4.5t-6.5 -2.5h-111q-9 0 -9 7l-33 128q-2 3 0.5 5t5.5 2h80q4 0 4 -3l19 -47q2 -4 5 -3.5t5 3.5l35 47q3 3 6 3h80z" />
    <glyph glyph-name="napostrophe" unicode="&#x149;" horiz-adv-x="598" 
d="M106 625q-4 0 -4 5l12 69q2 5 6 5h90q6 0 4 -5l-12 -71q-5 -27 -16.5 -42.5t-26.5 -23t-32.5 -9.5t-33.5 -2q-4 0 -4 5l5 29q2 5 6 5t12 0.5t16.5 3.5t15.5 9t9 17q0 5 -5 5h-42zM182 469q9 8 24.5 16.5t33 15t36 11t34.5 4.5q59 0 96 -19.5t56 -52.5t22 -76t-5 -90
l-48 -273q-2 -5 -6 -5h-110q-6 0 -4 5l48 273q4 22 1.5 45t-12.5 41.5t-29 30t-49 11.5q-29 0 -51.5 -10t-39 -26.5t-26 -38t-13.5 -43.5l-50 -283q-2 -5 -6 -5h-110q-6 0 -4 5l87 496q2 5 6 5h95q8 0 8 -5l6 -31q1 -3 4 -4t6 3z" />
    <glyph glyph-name="Omacron" unicode="&#x14c;" horiz-adv-x="760" 
d="M703 352q-14 -80 -46 -146.5t-80 -114.5t-112 -74.5t-143 -26.5t-134 26.5t-86 74.5t-39 114.5t6 146.5q14 79 45.5 145.5t79.5 114.5t112 75t143 27t134 -27t86 -75t39.5 -114.5t-5.5 -145.5zM341 100q94 0 155 67t82 185q20 118 -17 185t-131 67t-155 -67t-81 -185
q-21 -118 16 -185t131 -67zM336 770q-3 0 -3 5l13 70q0 5 5 5h266q4 0 4 -5l-13 -70q0 -5 -6 -5h-266z" />
    <glyph glyph-name="omacron" unicode="&#x14d;" horiz-adv-x="603" 
d="M552 253q-11 -59 -36.5 -107t-63.5 -83t-88 -54t-108 -19q-59 0 -101.5 19t-68 54t-34 83t2.5 107q10 59 35.5 107.5t63.5 83t87 53.5t108 19q58 0 101 -19t69 -54t34.5 -83.5t-1.5 -106.5zM432 253q12 71 -13 112t-89 41q-63 0 -103 -41t-52 -112q-13 -71 12.5 -112
t88.5 -41q64 0 103.5 41t52.5 112zM234 572q-3 0 -3 5l13 70q0 5 5 5h266q4 0 4 -5l-13 -70q0 -5 -6 -5h-266z" />
    <glyph glyph-name="Obreve" unicode="&#x14e;" horiz-adv-x="760" 
d="M703 352q-14 -80 -46 -146.5t-80 -114.5t-112 -74.5t-143 -26.5t-134 26.5t-86 74.5t-39 114.5t6 146.5q14 79 45.5 145.5t79.5 114.5t112 75t143 27t134 -27t86 -75t39.5 -114.5t-5.5 -145.5zM341 100q94 0 155 67t82 185q20 118 -17 185t-131 67t-155 -67t-81 -185
q-21 -118 16 -185t131 -67zM623 897q-11 -63 -55.5 -100t-107.5 -37q-62 0 -94 37t-21 100q2 5 6 5h77q6 0 4 -5q-3 -17 7.5 -34.5t35.5 -17.5q26 0 41.5 17.5t18.5 34.5q2 5 6 5h78z" />
    <glyph glyph-name="obreve" unicode="&#x14f;" horiz-adv-x="603" 
d="M552 253q-11 -59 -36.5 -107t-63.5 -83t-88 -54t-108 -19q-59 0 -101.5 19t-68 54t-34 83t2.5 107q10 59 35.5 107.5t63.5 83t87 53.5t108 19q58 0 101 -19t69 -54t34.5 -83.5t-1.5 -106.5zM432 253q12 71 -13 112t-89 41q-63 0 -103 -41t-52 -112q-13 -71 12.5 -112
t88.5 -41q64 0 103.5 41t52.5 112zM517 699q-11 -63 -55.5 -100t-107.5 -37q-62 0 -94 37t-21 100q0 5 6 5h77q4 0 4 -5q-3 -17 7.5 -34.5t35.5 -17.5q26 0 41.5 17.5t18.5 34.5q0 5 6 5h78z" />
    <glyph glyph-name="Ohungarumlaut" unicode="&#x150;" horiz-adv-x="760" 
d="M703 352q-14 -80 -46 -146.5t-80 -114.5t-112 -74.5t-143 -26.5t-134 26.5t-86 74.5t-39 114.5t6 146.5q14 79 45.5 145.5t79.5 114.5t112 75t143 27t134 -27t86 -75t39.5 -114.5t-5.5 -145.5zM341 100q94 0 155 67t82 185q20 118 -17 185t-131 67t-155 -67t-81 -185
q-21 -118 16 -185t131 -67zM292 760q-5 0 -3 5l52 132q0 5 7 5h129q3 0 3 -5l-52 -132q-2 -5 -7 -5h-129zM512 760q-5 0 -3 5l52 132q0 5 7 5h129q3 0 3 -5l-52 -132q-2 -5 -7 -5h-129z" />
    <glyph glyph-name="ohungarumlaut" unicode="&#x151;" horiz-adv-x="603" 
d="M552 253q-11 -59 -36.5 -107t-63.5 -83t-88 -54t-108 -19q-59 0 -101.5 19t-68 54t-34 83t2.5 107q10 59 35.5 107.5t63.5 83t87 53.5t108 19q58 0 101 -19t69 -54t34.5 -83.5t-1.5 -106.5zM432 253q12 71 -13 112t-89 41q-63 0 -103 -41t-52 -112q-13 -71 12.5 -112
t88.5 -41q64 0 103.5 41t52.5 112zM134 562q-5 0 -3 5l52 132q0 5 7 5h129q3 0 3 -5l-52 -132q-2 -5 -7 -5h-129zM354 562q-5 0 -3 5l52 132q0 5 7 5h129q3 0 3 -5l-52 -132q-2 -5 -7 -5h-129z" />
    <glyph glyph-name="OE" unicode="&#x152;" horiz-adv-x="1125" 
d="M509 36q1 3 -1.5 4.5t-5.5 -0.5q-77 -50 -175 -50q-72 0 -122.5 26.5t-80 74.5t-37 114.5t6.5 146.5q14 79 45 145.5t77 114.5t106 75t132 27q49 0 88.5 -13t69.5 -37q2 -2 5 -0.5t3 4.5l6 31q0 5 6 5h478q4 0 4 -5l-18 -100q0 -5 -6 -5h-359q-4 0 -6 -5l-30 -172
q-2 -5 4 -5h319q6 0 4 -5l-17 -100q-2 -5 -6 -5h-319q-6 0 -6 -5l-32 -182q-2 -5 4 -5h359q6 0 4 -5l-18 -100q0 -5 -6 -5h-478q-4 0 -4 5zM346 100q86 0 141 67t76 185q20 118 -11 185t-117 67t-141 -67t-75 -185q-21 -118 10 -185t117 -67z" />
    <glyph glyph-name="oe" unicode="&#x153;" horiz-adv-x="941" 
d="M433 63q-33 -40 -85.5 -56.5t-111.5 -16.5t-101.5 19t-68 54t-34 83t2.5 107q10 59 35.5 107.5t63.5 83t87 53.5t108 19q60 0 103.5 -20.5t69.5 -57.5q38 37 88.5 57.5t111.5 20.5q58 0 100.5 -19t67.5 -54t32.5 -83.5t-2.5 -106.5q-5 -20 -7 -27t-5 -18q-2 -5 -5 -5
h-351q-4 0 -5 -4q-8 -45 19.5 -74t81.5 -29q37 0 67 14t50 37q1 3 6 3h109q4 0 4 -5q-15 -36 -40.5 -65t-59 -49t-73 -30.5t-82.5 -10.5q-59 0 -103.5 16.5t-64.5 56.5q-2 6 -8 0zM411 253q12 71 -12.5 114t-88.5 43q-63 0 -102.5 -43t-51.5 -114q-13 -71 11.5 -114
t87.5 -43q64 0 103.5 43t52.5 114zM777 307q5 0 5 4q3 15 -1 32.5t-15.5 32t-31.5 24.5t-51 10q-30 0 -53.5 -10t-40.5 -25t-27.5 -32t-14.5 -32q0 -4 3 -4h227z" />
    <glyph glyph-name="Racute" unicode="&#x154;" horiz-adv-x="654" 
d="M621 487q-11 -63 -50 -113t-92 -77q-2 -2 -1 -4l77 -286q1 -3 -1.5 -5t-5.5 -2h-115q-1 0 -4 3l-70 262q0 5 -4 5h-157q-4 0 -5 -4l-46 -261q0 -5 -6 -5h-110q-4 0 -4 5l123 694q0 5 6 5h293q42 0 77.5 -17t59 -46t33.5 -68.5t2 -85.5zM385 380q19 1 38.5 9.5t35.5 23
t27.5 33.5t15.5 41t-1 41.5t-16.5 34t-28.5 23t-37 8.5h-164q-3 0 -5 -4l-36 -205q0 -5 4 -5h167zM316 760q-3 0 -4.5 2t0.5 5l77 128q2 7 11 7h117q7 0 4 -7l-106 -128q-2 -2 -5 -4.5t-7 -2.5h-87z" />
    <glyph glyph-name="racute" unicode="&#x155;" horiz-adv-x="408" 
d="M322 401q-29 0 -51.5 -9t-38.5 -25t-25.5 -36.5t-13.5 -42.5l-50 -283q-2 -5 -6 -5h-111q-5 0 -3 5l87 496q2 5 5 5h96q7 0 9 -6l5 -30q2 -8 8 -2q27 23 56 35.5t64 12.5h55q4 0 4 -5l-19 -105q0 -5 -6 -5h-65v0zM154 562q-3 0 -4.5 2t0.5 5l77 128q2 7 11 7h117
q7 0 4 -7l-106 -128q-2 -2 -5 -4.5t-7 -2.5h-87z" />
    <glyph glyph-name="uni0156" unicode="&#x156;" horiz-adv-x="654" 
d="M631 487q-6 -32 -19 -60.5t-32 -52.5t-42.5 -44t-49.5 -33q-1 -1 -1 -4l77 -286q2 -7 -6 -7h-115q-2 0 -5 3l-70 262q0 5 -4 5h-157q-4 0 -4 -4l-46 -261q-2 -5 -6 -5h-110q-6 0 -4 5l122 694q0 5 6 5h293q42 0 77.5 -17t59.5 -46t34 -68.5t2 -85.5zM395 380q19 1 38 9.5
t35.5 23t28 33.5t15.5 41t-1.5 41.5t-17 34t-28.5 23t-37 8.5h-164q-4 0 -4 -4l-36 -205q-2 -5 4 -5h167zM227 -134q-6 0 -4 5l12 69q2 5 6 5h90q6 0 4 -5l-12 -71q-5 -27 -16.5 -42.5t-26.5 -23t-32.5 -9.5t-33.5 -2q-6 0 -4 5l5 29q0 5 6 5q4 0 12 0.5t16.5 3.5t15 9
t8.5 17q2 5 -4 5h-42z" />
    <glyph glyph-name="uni0157" unicode="&#x157;" horiz-adv-x="408" 
d="M332 401q-29 0 -51.5 -9t-39 -25t-26 -36.5t-13.5 -42.5l-50 -283q-2 -5 -6 -5h-111q-5 0 -3 5l87 496q2 5 5 5h96q7 0 9 -6l5 -30q2 -8 8 -2q27 23 56 35.5t64 12.5h55q6 0 4 -5l-18 -105q-2 -5 -6 -5h-65zM22 -134q-4 0 -4 5l12 69q2 5 6 5h90q6 0 4 -5l-12 -71
q-5 -27 -16.5 -42.5t-26.5 -23t-32.5 -9.5t-33.5 -2q-4 0 -4 5l5 29q2 5 6 5t12 0.5t16.5 3.5t15 9t8.5 17q2 5 -4 5h-42z" />
    <glyph glyph-name="Rcaron" unicode="&#x158;" horiz-adv-x="674" 
d="M621 487q-11 -63 -50 -113t-92 -77q-2 -2 -1 -4l77 -286q1 -3 -1.5 -5t-5.5 -2h-115q-1 0 -4 3l-70 262q0 5 -4 5h-157q-4 0 -5 -4l-46 -261q0 -5 -6 -5h-110q-4 0 -4 5l123 694q0 5 6 5h293q42 0 77.5 -17t59 -46t33.5 -68.5t2 -85.5zM385 380q19 1 38.5 9.5t35.5 23
t27.5 33.5t15.5 41t-1 41.5t-16.5 34t-28.5 23t-37 8.5h-164q-3 0 -5 -4l-36 -205q0 -5 4 -5h167zM501 902q7 0 4 -7l-80 -128l-4.5 -4.5t-6.5 -2.5h-111q-9 0 -9 7l-33 128q-2 3 0.5 5t5.5 2h80q4 0 4 -3l19 -47q2 -4 5 -3.5t5 3.5l35 47q3 3 6 3h80z" />
    <glyph glyph-name="rcaron" unicode="&#x159;" horiz-adv-x="408" 
d="M322 401q-29 0 -51.5 -9t-38.5 -25t-25.5 -36.5t-13.5 -42.5l-50 -283q-2 -5 -6 -5h-111q-5 0 -3 5l87 496q2 5 5 5h96q7 0 9 -6l5 -30q2 -8 8 -2q27 23 56 35.5t64 12.5h55q4 0 4 -5l-19 -105q0 -5 -6 -5h-65v0zM380 704q7 0 4 -7l-80 -128l-4.5 -4.5t-6.5 -2.5h-111
q-9 0 -9 7l-33 128q-2 3 0.5 5t5.5 2h80q4 0 4 -3l19 -47q2 -4 5 -3.5t5 3.5l35 47q3 3 6 3h80z" />
    <glyph glyph-name="Sacute" unicode="&#x15a;" horiz-adv-x="645" 
d="M579 206q-9 -50 -34.5 -89.5t-65.5 -68t-92.5 -43.5t-115.5 -15q-75 0 -123.5 18.5t-76.5 47.5t-36.5 65.5t-2.5 71.5q2 5 6 5h115q6 0 4 -5q-3 -18 5.5 -35t26 -29.5t43.5 -20.5t58 -8q31 0 59 8.5t50 22.5t36.5 33.5t18.5 41.5q6 33 -23 61t-105 35q-61 6 -108.5 18.5
t-78 36t-43 60t-3.5 89.5q9 49 37 88t67.5 65.5t86.5 40.5t94 14q50 0 93.5 -13.5t74.5 -39.5t45.5 -63.5t6.5 -86.5q-2 -5 -5 -5h-116q-6 0 -4 5q3 16 -3 32.5t-20 30t-37 22t-54 8.5q-26 0 -49.5 -7.5t-43 -21t-32.5 -31.5t-16 -38q-4 -23 6 -38t29 -24t43.5 -14t50.5 -8
t55.5 -7.5t57.5 -13.5t53.5 -23.5t42.5 -37.5t24 -56t-1 -78zM321 760q-3 0 -4.5 2t0.5 5l77 128q2 7 11 7h117q7 0 4 -7l-106 -128q-2 -2 -5 -4.5t-7 -2.5h-87z" />
    <glyph glyph-name="sacute" unicode="&#x15b;" horiz-adv-x="546" 
d="M478 157q-7 -40 -28 -71t-54 -52.5t-76 -32.5t-94 -11q-56 0 -96 15t-64 39.5t-33.5 56t-3.5 65.5q2 5 6 5h115q6 0 4 -5q-4 -24 17 -45t75 -21q16 0 34 2t34.5 8t28.5 17.5t15 29.5q3 16 -5.5 25t-23 13.5t-32.5 6t-33 3.5q-38 4 -76 11t-66.5 23.5t-43 45t-5.5 75.5
q6 32 26 60.5t51 49.5t71.5 33.5t87.5 12.5q48 0 86 -11t63 -33.5t35.5 -55.5t3.5 -76q0 -5 -5 -5h-112q-4 0 -4 5q2 10 -1 22t-13 21.5t-27.5 16t-44.5 6.5q-45 0 -69.5 -13t-27.5 -33q-2 -12 4 -19.5t17.5 -12t27 -7.5t32.5 -5q32 -4 71.5 -9.5t72 -21t51 -45.5t9.5 -83z
M243 562q-3 0 -4.5 2t0.5 5l77 128q2 7 11 7h117q7 0 4 -7l-106 -128q-2 -2 -5 -4.5t-7 -2.5h-87z" />
    <glyph glyph-name="Scircumflex" unicode="&#x15c;" horiz-adv-x="645" 
d="M579 206q-9 -50 -34.5 -89.5t-65.5 -68t-92.5 -43.5t-115.5 -15q-75 0 -123.5 18.5t-76.5 47.5t-36.5 65.5t-2.5 71.5q2 5 6 5h115q6 0 4 -5q-3 -18 5.5 -35t26 -29.5t43.5 -20.5t58 -8q31 0 59 8.5t50 22.5t36.5 33.5t18.5 41.5q6 33 -23 61t-105 35q-61 6 -108.5 18.5
t-78 36t-43 60t-3.5 89.5q9 49 37 88t67.5 65.5t86.5 40.5t94 14q50 0 93.5 -13.5t74.5 -39.5t45.5 -63.5t6.5 -86.5q-2 -5 -5 -5h-116q-6 0 -4 5q3 16 -3 32.5t-20 30t-37 22t-54 8.5q-26 0 -49.5 -7.5t-43 -21t-32.5 -31.5t-16 -38q-4 -23 6 -38t29 -24t43.5 -14t50.5 -8
t55.5 -7.5t57.5 -13.5t53.5 -23.5t42.5 -37.5t24 -56t-1 -78zM416 760q-4 0 -5 3l-18 47q-2 3 -5 3.5t-5 -3.5l-36 -47q-2 -3 -5 -3h-80q-3 0 -4.5 2t0.5 5l79 128q2 7 11 7h111q7 0 9 -7l34 -128q2 -7 -6 -7h-80z" />
    <glyph glyph-name="scircumflex" unicode="&#x15d;" horiz-adv-x="546" 
d="M478 157q-7 -40 -28 -71t-54 -52.5t-76 -32.5t-94 -11q-56 0 -96 15t-64 39.5t-33.5 56t-3.5 65.5q2 5 6 5h115q6 0 4 -5q-4 -24 17 -45t75 -21q16 0 34 2t34.5 8t28.5 17.5t15 29.5q3 16 -5.5 25t-23 13.5t-32.5 6t-33 3.5q-38 4 -76 11t-66.5 23.5t-43 45t-5.5 75.5
q6 32 26 60.5t51 49.5t71.5 33.5t87.5 12.5q48 0 86 -11t63 -33.5t35.5 -55.5t3.5 -76q0 -5 -5 -5h-112q-4 0 -4 5q2 10 -1 22t-13 21.5t-27.5 16t-44.5 6.5q-45 0 -69.5 -13t-27.5 -33q-2 -12 4 -19.5t17.5 -12t27 -7.5t32.5 -5q32 -4 71.5 -9.5t72 -21t51 -45.5t9.5 -83z
M363 562q-4 0 -5 3l-18 47q-2 3 -5 3.5t-5 -3.5l-36 -47q-2 -3 -5 -3h-80q-3 0 -4.5 2t0.5 5l79 128q2 7 11 7h111q7 0 9 -7l34 -128q2 -7 -6 -7h-80z" />
    <glyph glyph-name="Scedilla" unicode="&#x15e;" horiz-adv-x="645" 
d="M264 -16q2 2 1.5 4.5t-5.5 2.5h-5q-67 3 -111 22.5t-69 48t-32.5 63t-1.5 68.5q2 5 6 5h115q6 0 4 -5q-3 -18 5.5 -35t26 -29.5t43.5 -20.5t58 -8q31 0 59 8.5t50 22.5t36.5 33.5t18.5 41.5q3 16 -2.5 32t-21 29t-41.5 22.5t-64 12.5q-60 6 -107.5 18.5t-78.5 36
t-43.5 60t-3.5 89.5q9 49 37 88t68 65.5t87 40.5t94 14q50 0 93.5 -13.5t74.5 -39.5t45.5 -63.5t5.5 -86.5q0 -5 -5 -5h-116q-4 0 -4 5q3 16 -2.5 32.5t-19.5 30t-37 22t-54 8.5q-26 0 -49.5 -7.5t-43 -21t-32.5 -31.5t-17 -38q-4 -23 6.5 -38t29.5 -24t43.5 -14t50.5 -8
q25 -3 54.5 -7.5t58 -13.5t53.5 -23.5t42.5 -37.5t24.5 -56t-1 -78q-17 -91 -87 -147.5t-178 -66.5l-26 -38q-2 -3 -0.5 -5t3.5 -2q12 -1 25.5 -5t24 -13t15.5 -22.5t2 -33.5q-7 -38 -38.5 -59.5t-80.5 -21.5q-19 0 -36 5.5t-29.5 16t-18.5 25.5t-3 34q0 5 6 5h50q4 0 4 -5
q-2 -11 7.5 -22.5t27.5 -11.5t33 9t18 25q3 14 -1 22t-11 11.5t-14.5 4.5t-11.5 1q-6 0 -11 -1t-10 4l-15 15q-4 4 -2.5 7t3.5 5z" />
    <glyph glyph-name="scedilla" unicode="&#x15f;" horiz-adv-x="546" 
d="M212 -17q1 2 0.5 4.5t-5.5 2.5q-50 0 -84.5 15.5t-55 41t-28 56.5t-1.5 63q2 5 6 5h115q6 0 4 -5q-4 -24 17 -45t75 -21q16 0 34 2t34.5 8t28.5 17.5t15 29.5q3 16 -6 25t-23.5 13.5t-32 6t-32.5 3.5q-38 4 -76 11t-66.5 23.5t-43 45t-6.5 75.5q6 32 26 60.5t51.5 49.5
t72 33.5t87.5 12.5q48 0 86 -11t63 -33.5t35.5 -55.5t3.5 -76q-2 -5 -5 -5h-112q-6 0 -4 5q2 10 -1 22t-13 21.5t-27.5 16t-44.5 6.5q-45 0 -69.5 -13t-28.5 -33q-2 -12 4.5 -19.5t18 -12t27 -7.5t32.5 -5q32 -4 71.5 -9.5t72 -21t51 -45.5t9.5 -83q-13 -73 -68.5 -115.5
t-143.5 -49.5q-4 -1 -4.5 -1.5t-1.5 -2.5l-23 -34q-2 -3 -0.5 -5t3.5 -2q12 -1 25.5 -5t24 -13t15.5 -22.5t2 -33.5q-7 -38 -39 -59.5t-81 -21.5q-19 0 -36 5.5t-29 16t-18 25.5t-3 34q0 5 5 5h50q5 0 5 -5q-2 -11 7.5 -22.5t27.5 -11.5t33 9t18 25q2 14 -2 22t-11 11.5
t-14.5 4.5t-11.5 1q-6 0 -10.5 -1t-9.5 4l-15 15q-5 4 -3 7t4 5z" />
    <glyph glyph-name="Scaron" unicode="&#x160;" horiz-adv-x="592" 
d="M546 206q-9 -50 -34.5 -89.5t-65.5 -68t-92.5 -43.5t-115.5 -15q-75 0 -123.5 18.5t-76.5 47.5t-36.5 65.5t-2.5 71.5q2 5 6 5h115q6 0 4 -5q-3 -18 5.5 -35t26 -29.5t43.5 -20.5t58 -8q31 0 59 8.5t50 22.5t36.5 33.5t18.5 41.5q6 33 -23 61t-105 35q-61 6 -108.5 18.5
t-78 36t-43 60t-3.5 89.5q9 49 37 88t67.5 65.5t86.5 40.5t94 14q50 0 93.5 -13.5t74.5 -39.5t45.5 -63.5t6.5 -86.5q-2 -5 -5 -5h-116q-6 0 -4 5q3 16 -3 32.5t-20 30t-37 22t-54 8.5q-26 0 -49.5 -7.5t-43 -21t-32.5 -31.5t-16 -38q-4 -23 6 -38t29 -24t43.5 -14t50.5 -8
t55.5 -7.5t57.5 -13.5t53.5 -23.5t42.5 -37.5t24 -56t-1 -78zM501 902q7 0 4 -7l-80 -128l-4.5 -4.5t-6.5 -2.5h-111q-9 0 -9 7l-33 128q-2 3 0.5 5t5.5 2h80q4 0 4 -3l19 -47q2 -4 5 -3.5t5 3.5l35 47q3 3 6 3h80z" />
    <glyph glyph-name="scaron" unicode="&#x161;" horiz-adv-x="543" 
d="M479 157q-7 -40 -28 -71t-54 -52.5t-76 -32.5t-94 -11q-56 0 -96 15t-64 39.5t-33.5 56t-3.5 65.5q2 5 6 5h115q6 0 4 -5q-4 -24 17 -45t75 -21q16 0 34 2t34.5 8t28.5 17.5t15 29.5q3 16 -5.5 25t-23 13.5t-32.5 6t-33 3.5q-38 4 -76 11t-66.5 23.5t-43 45t-5.5 75.5
q6 32 26 60.5t51 49.5t71.5 33.5t87.5 12.5q48 0 86 -11t63 -33.5t35.5 -55.5t3.5 -76q0 -5 -5 -5h-112q-4 0 -4 5q2 10 -1 22t-13 21.5t-27.5 16t-44.5 6.5q-45 0 -69.5 -13t-27.5 -33q-2 -12 4 -19.5t17.5 -12t27 -7.5t32.5 -5q32 -4 71.5 -9.5t72 -21t51 -45.5t9.5 -83z
M472 704q7 0 4 -7l-80 -128l-4.5 -4.5t-6.5 -2.5h-111q-9 0 -9 7l-33 128q-2 3 0.5 5t5.5 2h80q4 0 4 -3l19 -47q2 -4 5 -3.5t5 3.5l35 47q3 3 6 3h80z" />
    <glyph glyph-name="uni0162" unicode="&#x162;" horiz-adv-x="586" 
d="M210 -134q-4 0 -4 5l12 69q2 5 6 5h90q6 0 4 -5l-12 -71q-5 -27 -16.5 -42.5t-26.5 -23t-32.5 -9.5t-33.5 -2q-4 0 -4 5l5 29q2 5 6 5t12 0.5t16.5 3.5t15.5 9t9 17q0 5 -5 5h-42zM308 5q0 -5 -6 -5h-110q-4 0 -4 5l103 584q2 5 -4 5h-185q-4 0 -4 5l18 100q0 5 6 5h500
q4 0 4 -5l-18 -100q0 -5 -6 -5h-185q-4 0 -6 -5z" />
    <glyph glyph-name="uni0163" unicode="&#x163;" horiz-adv-x="400" 
d="M170 -134q-4 0 -4 5l12 69q2 5 6 5h90q6 0 4 -5l-12 -71q-5 -27 -16.5 -42.5t-26.5 -23t-32.5 -9.5t-33.5 -2q-4 0 -4 5l5 29q2 5 6 5t12 0.5t16.5 3.5t15.5 9t9 17q0 5 -5 5h-42zM71 401q-5 0 -5 5l17 95q2 5 6 5h82q4 0 6 5l24 135q0 5 6 5h110q4 0 4 -5l-24 -135
q-2 -5 4 -5h102q6 0 4 -5l-17 -95q0 -5 -5 -5h-102q-6 0 -6 -5l-45 -254q-3 -15 6 -23.5t24 -8.5h71q6 0 4 -5l-17 -100q-2 -5 -6 -5h-78q-79 0 -108.5 33t-15.5 108l45 255q0 5 -4 5h-82z" />
    <glyph glyph-name="Tcaron" unicode="&#x164;" horiz-adv-x="586" 
d="M297 5q0 -5 -6 -5h-110q-4 0 -4 5l103 584q2 5 -4 5h-185q-4 0 -4 5l18 100q0 5 6 5h500q4 0 4 -5l-18 -100q0 -5 -6 -5h-185q-4 0 -6 -5zM518 902q7 0 4 -7l-80 -128l-4.5 -4.5t-6.5 -2.5h-111q-9 0 -9 7l-33 128q-2 3 0.5 5t5.5 2h80q4 0 4 -3l19 -47q2 -4 5 -3.5
t5 3.5l35 47q3 3 6 3h80z" />
    <glyph glyph-name="tcaron" unicode="&#x165;" horiz-adv-x="390" 
d="M314 626q-5 0 -5 5l13 69q0 5 5 5h90q5 0 5 -5l-13 -71q-5 -27 -16.5 -42.5t-26.5 -23t-32.5 -9.5t-33.5 -2q-4 0 -4 5l5 29q2 5 6 5t12 0.5t16.5 3.5t15.5 9t9 17q0 5 -4 5h-42zM5 401q-5 0 -5 5l17 95q2 5 6 5h82q4 0 6 5l24 135q0 5 6 5h110q4 0 4 -5l-24 -135
q-2 -5 4 -5h102q6 0 4 -5l-17 -95q0 -5 -5 -5h-102q-6 0 -6 -5l-45 -254q-3 -15 6 -23.5t24 -8.5h71q6 0 4 -5l-17 -100q-2 -5 -6 -5h-78q-79 0 -108.5 33t-15.5 108l45 255q0 5 -4 5h-82z" />
    <glyph glyph-name="Tbar" unicode="&#x166;" horiz-adv-x="586" 
d="M280 590q0 4 -4 4h-181q-4 0 -4 5l18 100q0 5 6 5h491q4 0 4 -5l-18 -100q0 -5 -6 -5h-180q-4 0 -6 -5l-13 -78q-2 -5 4 -5h143q4 0 4 -5l-13 -70q0 -5 -5 -5h-143q-6 0 -6 -5l-74 -416q0 -5 -6 -5h-110q-4 0 -4 5l74 416q0 5 -4 5h-144q-5 0 -5 5l13 70q0 5 6 5h144
q4 0 6 5z" />
    <glyph glyph-name="tbar" unicode="&#x167;" horiz-adv-x="400" 
d="M225 159q-5 -23 5 -36.5t40 -13.5h51q6 0 4 -5l-17 -99q-2 -5 -6 -5h-69q-32 -1 -59 6t-46.5 21.5t-28.5 37t-3 53.5l17 99q2 5 -4 5h-80q-6 0 -4 5l11 65q2 5 6 5h80q6 0 6 5l17 94q0 5 -4 5h-80q-5 0 -5 5l17 95q2 5 6 5h80q4 0 6 5l24 135q0 5 6 5h112q4 0 4 -5
l-24 -135q-2 -5 4 -5h100q6 0 4 -5l-17 -95q0 -5 -5 -5h-100q-6 0 -6 -5l-17 -94q0 -5 4 -5h90q6 0 4 -5l-11 -65q-2 -5 -6 -5h-90q-4 0 -6 -5z" />
    <glyph glyph-name="Utilde" unicode="&#x168;" horiz-adv-x="655" 
d="M570 244q-9 -53 -37.5 -99t-69 -80.5t-90.5 -54.5t-103 -20t-96 20t-71.5 54.5t-40 80.5t-2.5 99l80 455q2 5 6 5h110q6 0 4 -5l-80 -455q-5 -28 1.5 -52.5t21.5 -42.5t37.5 -28.5t50.5 -10.5t54.5 10.5t48 28.5t36.5 42.5t20 52.5l80 455q2 5 6 5h110q6 0 4 -5zM240 806
q2 13 10 29.5t23.5 31.5t39 25t56.5 10q22 0 37 -7t26.5 -16t19.5 -16t16 -7q3 0 8.5 0.5t11.5 4t11 12t8 24.5q2 5 6 5h70q6 0 4 -5l-6 -34q-2 -13 -10 -29.5t-23.5 -31t-39 -24.5t-56.5 -10q-20 0 -34.5 7t-26 16t-20.5 16t-18 7q-3 0 -8.5 -0.5t-11.5 -4t-11 -12
t-8 -24.5q0 -5 -6 -5h-70q-4 0 -4 5z" />
    <glyph glyph-name="utilde" unicode="&#x169;" horiz-adv-x="587" 
d="M347 37q-19 -17 -52 -32t-65 -15q-63 0 -101.5 19.5t-58.5 52.5t-23.5 76t4.5 90l48 273q2 5 6 5h110q6 0 4 -5l-48 -273q-4 -23 -2 -45.5t12 -41t29 -30t49 -11.5q29 0 51.5 10t39 26.5t26.5 37.5t14 44l50 283q2 5 6 5h111q5 0 3 -5l-87 -496q-2 -5 -6 -5h-95
q-8 0 -9 6l-5 30q-1 3 -4 4t-7 -3zM179 608q2 13 10 29.5t23 31.5t38.5 25t56.5 10q22 0 37 -7t26.5 -16t19.5 -16t16 -7q3 0 8.5 0.5t11.5 4t11.5 12t8.5 24.5q0 5 5 5h70q5 0 5 -5l-6 -34q-2 -13 -10 -29.5t-23.5 -31t-39 -24.5t-56.5 -10q-20 0 -34.5 7t-26 16t-20.5 16
t-18 7q-3 0 -8.5 -0.5t-11.5 -4t-11 -12t-8 -24.5q-2 -5 -6 -5h-70q-6 0 -4 5z" />
    <glyph glyph-name="Umacron" unicode="&#x16a;" horiz-adv-x="655" 
d="M570 244q-9 -53 -37.5 -99t-69 -80.5t-90.5 -54.5t-103 -20t-96 20t-71.5 54.5t-40 80.5t-2.5 99l80 455q2 5 6 5h110q6 0 4 -5l-80 -455q-5 -28 1.5 -52.5t21.5 -42.5t37.5 -28.5t50.5 -10.5t54.5 10.5t48 28.5t36.5 42.5t20 52.5l80 455q2 5 6 5h110q6 0 4 -5zM274 770
q-3 0 -3 5l13 70q0 5 5 5h266q4 0 4 -5l-13 -70q0 -5 -6 -5h-266z" />
    <glyph glyph-name="umacron" unicode="&#x16b;" horiz-adv-x="587" 
d="M347 37q-19 -17 -52 -32t-65 -15q-63 0 -101.5 19.5t-58.5 52.5t-23.5 76t4.5 90l48 273q2 5 6 5h110q6 0 4 -5l-48 -273q-4 -23 -2 -45.5t12 -41t29 -30t49 -11.5q29 0 51.5 10t39 26.5t26.5 37.5t14 44l50 283q2 5 6 5h111q5 0 3 -5l-87 -496q-2 -5 -6 -5h-95
q-8 0 -9 6l-5 30q-1 3 -4 4t-7 -3zM206 572q-3 0 -3 5l13 70q0 5 5 5h266q4 0 4 -5l-13 -70q0 -5 -6 -5h-266z" />
    <glyph glyph-name="Ubreve" unicode="&#x16c;" horiz-adv-x="655" 
d="M570 244q-9 -53 -37.5 -99t-69 -80.5t-90.5 -54.5t-103 -20t-96 20t-71.5 54.5t-40 80.5t-2.5 99l80 455q2 5 6 5h110q6 0 4 -5l-80 -455q-5 -28 1.5 -52.5t21.5 -42.5t37.5 -28.5t50.5 -10.5t54.5 10.5t48 28.5t36.5 42.5t20 52.5l80 455q2 5 6 5h110q6 0 4 -5zM560 897
q-11 -63 -55.5 -100t-107.5 -37q-62 0 -94 37t-21 100q2 5 6 5h77q6 0 4 -5q-3 -17 7.5 -34.5t35.5 -17.5q26 0 41.5 17.5t18.5 34.5q2 5 6 5h78z" />
    <glyph glyph-name="ubreve" unicode="&#x16d;" horiz-adv-x="587" 
d="M347 37q-19 -17 -52 -32t-65 -15q-63 0 -101.5 19.5t-58.5 52.5t-23.5 76t4.5 90l48 273q2 5 6 5h110q6 0 4 -5l-48 -273q-4 -23 -2 -45.5t12 -41t29 -30t49 -11.5q29 0 51.5 10t39 26.5t26.5 37.5t14 44l50 283q2 5 6 5h111q5 0 3 -5l-87 -496q-2 -5 -6 -5h-95
q-8 0 -9 6l-5 30q-1 3 -4 4t-7 -3zM509 699q-11 -63 -55.5 -100t-107.5 -37q-62 0 -94 37t-21 100q0 5 6 5h77q4 0 4 -5q-3 -17 7.5 -34.5t35.5 -17.5q26 0 41.5 17.5t18.5 34.5q0 5 6 5h78z" />
    <glyph glyph-name="Uring" unicode="&#x16e;" horiz-adv-x="655" 
d="M570 244q-9 -53 -37.5 -99t-69 -80.5t-90.5 -54.5t-103 -20t-96 20t-71.5 54.5t-40 80.5t-2.5 99l80 455q2 5 6 5h110q6 0 4 -5l-80 -455q-5 -28 1.5 -52.5t21.5 -42.5t37.5 -28.5t50.5 -10.5t54.5 10.5t48 28.5t36.5 42.5t20 52.5l80 455q2 5 6 5h110q6 0 4 -5zM498 824
q-3 -18 -13 -34t-24.5 -27.5t-31.5 -18.5t-35 -7q-36 0 -57 25.5t-14 61.5q3 18 12.5 34t23.5 28t31 19t35 7q36 0 57.5 -26t15.5 -62zM452 824q3 17 -7.5 29.5t-27.5 12.5t-31.5 -12.5t-17.5 -29.5t7 -29.5t27 -12.5t32 12.5t18 29.5z" />
    <glyph glyph-name="uring" unicode="&#x16f;" horiz-adv-x="587" 
d="M347 37q-19 -17 -52 -32t-65 -15q-63 0 -101.5 19.5t-58.5 52.5t-23.5 76t4.5 90l48 273q2 5 6 5h110q6 0 4 -5l-48 -273q-4 -23 -2 -45.5t12 -41t29 -30t49 -11.5q29 0 51.5 10t39 26.5t26.5 37.5t14 44l50 283q2 5 6 5h111q5 0 3 -5l-87 -496q-2 -5 -6 -5h-95
q-8 0 -9 6l-5 30q-1 3 -4 4t-7 -3zM436 626q-3 -18 -13 -34t-24.5 -27.5t-31.5 -18.5t-35 -7q-36 0 -57 25.5t-14 61.5q3 18 12.5 34t23.5 28t31 19t35 7q36 0 57.5 -26t15.5 -62zM390 626q3 17 -7.5 29.5t-27.5 12.5t-31.5 -12.5t-17.5 -29.5t7 -29.5t27 -12.5t32 12.5
t18 29.5z" />
    <glyph glyph-name="Uhungarumlaut" unicode="&#x170;" horiz-adv-x="655" 
d="M570 244q-9 -53 -37.5 -99t-69 -80.5t-90.5 -54.5t-103 -20t-96 20t-71.5 54.5t-40 80.5t-2.5 99l80 455q2 5 6 5h110q6 0 4 -5l-80 -455q-5 -28 1.5 -52.5t21.5 -42.5t37.5 -28.5t50.5 -10.5t54.5 10.5t48 28.5t36.5 42.5t20 52.5l80 455q2 5 6 5h110q6 0 4 -5zM212 760
q-5 0 -3 5l52 132q0 5 7 5h129q3 0 3 -5l-52 -132q-2 -5 -7 -5h-129zM432 760q-5 0 -3 5l52 132q0 5 7 5h129q3 0 3 -5l-52 -132q-2 -5 -7 -5h-129z" />
    <glyph glyph-name="uhungarumlaut" unicode="&#x171;" horiz-adv-x="587" 
d="M347 37q-19 -17 -52 -32t-65 -15q-63 0 -101.5 19.5t-58.5 52.5t-23.5 76t4.5 90l48 273q2 5 6 5h110q6 0 4 -5l-48 -273q-4 -23 -2 -45.5t12 -41t29 -30t49 -11.5q29 0 51.5 10t39 26.5t26.5 37.5t14 44l50 283q2 5 6 5h111q5 0 3 -5l-87 -496q-2 -5 -6 -5h-95
q-8 0 -9 6l-5 30q-1 3 -4 4t-7 -3zM146 562q-5 0 -3 5l52 132q0 5 7 5h129q3 0 3 -5l-52 -132q-2 -5 -7 -5h-129zM366 562q-5 0 -3 5l52 132q0 5 7 5h129q3 0 3 -5l-52 -132q-2 -5 -7 -5h-129z" />
    <glyph glyph-name="Uogonek" unicode="&#x172;" horiz-adv-x="655" 
d="M578 244q-12 -69 -56 -126t-103 -91q-41 -23 -55.5 -43t-18.5 -42q-5 -31 12.5 -43t49.5 -12h14q6 0 4 -5l-13 -75q0 -5 -6 -5h-44q-59 0 -86 29.5t-20 69.5q6 49 44 81q3 2 2.5 6t-5.5 3t-9.5 -1h-9.5q-53 0 -96 20t-71.5 54.5t-40 80.5t-2.5 99l80 455q2 5 6 5h110
q6 0 4 -5l-80 -455q-5 -28 1.5 -52.5t22 -42.5t38 -28.5t50.5 -10.5t54 10.5t47.5 28.5t36.5 42.5t20 52.5l80 455q2 5 6 5h110q6 0 4 -5z" />
    <glyph glyph-name="uogonek" unicode="&#x173;" horiz-adv-x="587" 
d="M355 37q-18 -17 -51.5 -32t-65.5 -15q-63 0 -101.5 19.5t-58.5 52.5t-23.5 76t4.5 90l48 273q2 5 6 5h110q6 0 4 -5l-48 -273q-4 -23 -1.5 -45.5t12.5 -41t29 -30t49 -11.5q29 0 51.5 10t39 26.5t26 37.5t13.5 44l50 283q2 5 6 5h111q5 0 3 -5l-87 -496q-2 -5 -6 -5h-17
q-29 0 -52 -17t-27 -41q-6 -31 12 -43t50 -12h14q6 0 4 -5l-13 -75q-2 -5 -6 -5h-44q-59 0 -87 25.5t-20 73.5q6 37 26.5 59.5t51.5 35.5q5 2 4.5 5t-0.5 5l-5 30q-1 3 -4 4t-7 -3z" />
    <glyph glyph-name="Wcircumflex" unicode="&#x174;" horiz-adv-x="1032" 
d="M708 123q0 -5 4 -5t6 5l204 576q1 3 3 4t4 1h122q3 0 4 -2.5t-1 -4.5l-260 -692q-2 -5 -7 -5h-192q-4 0 -5 5l-15 577q0 5 -4.5 5t-6.5 -5l-219 -577q-2 -5 -6 -5h-193q-4 0 -5 5l-16 692q0 7 7 7h122q4 0 5 -5l1 -576q0 -5 4 -4.5t6 4.5l218 576q1 3 3 4t4 1h193
q4 0 5 -5zM640 760q-4 0 -5 3l-18 47q-2 3 -5 3.5t-5 -3.5l-36 -47q-2 -3 -5 -3h-80q-3 0 -4.5 2t0.5 5l79 128q2 7 11 7h111q7 0 9 -7l34 -128q2 -7 -6 -7h-80z" />
    <glyph glyph-name="wcircumflex" unicode="&#x175;" horiz-adv-x="856" 
d="M732 500q4 6 7 6h112q7 0 4 -6l-203 -495q-2 -5 -7 -5h-171q-3 0 -5 5l-20 387q0 5 -4 5t-6 -5l-156 -387q-2 -5 -7 -5h-171q-3 0 -5 5l-29 495q0 6 5 6h112q6 0 6 -6l12 -386q0 -5 4 -5t6 5l160 386q4 6 8 6h160q6 0 6 -6l24 -386q0 -4 4 -4t6 4zM508 562q-4 0 -5 3
l-18 47q-2 3 -5 3.5t-5 -3.5l-36 -47q-2 -3 -5 -3h-80q-3 0 -4.5 2t0.5 5l79 128q2 7 11 7h111q7 0 9 -7l34 -128q2 -7 -6 -7h-80z" />
    <glyph glyph-name="Ycircumflex" unicode="&#x176;" horiz-adv-x="694" 
d="M236 0q-4 0 -4 5l50 282q0 2 0.5 3.5t-1.5 3.5l-168 402q-2 8 6 8h131q3 0 6 -5l104 -285q4 -6 8 0l207 285q2 5 9 5h130q2 0 3.5 -2t-1.5 -6l-311 -402q-3 -5 -3 -7l-50 -282q0 -5 -6 -5h-110v0zM461 760q-4 0 -5 3l-18 47q-2 3 -5 3.5t-5 -3.5l-36 -47q-2 -3 -5 -3h-80
q-3 0 -4.5 2t0.5 5l79 128q2 7 11 7h111q7 0 9 -7l34 -128q2 -7 -6 -7h-80z" />
    <glyph glyph-name="ycircumflex" unicode="&#x177;" horiz-adv-x="588" 
d="M477 501q3 5 7 5h116q7 0 4 -5l-253 -496l-40 -77q-33 -64 -76.5 -95t-107.5 -31h-146q-6 0 -4 5l16 94q2 5 6 5h121q24 0 37 8t18.5 22t5 31.5t-3.5 37.5l-80 496q0 5 6 5h117q5 0 5 -5l53 -387q0 -4 4 -4t6 4zM386 562q-4 0 -5 3l-18 47q-2 3 -5 3.5t-5 -3.5l-36 -47
q-2 -3 -5 -3h-80q-3 0 -4.5 2t0.5 5l79 128q2 7 11 7h111q7 0 9 -7l34 -128q2 -7 -6 -7h-80z" />
    <glyph glyph-name="Ydieresis" unicode="&#x178;" horiz-adv-x="694" 
d="M236 0q-4 0 -4 5l50 282q0 2 0.5 3.5t-1.5 3.5l-168 402q-2 8 6 8h131q3 0 6 -5l104 -285q4 -6 8 0l207 285q2 5 9 5h130q2 0 3.5 -2t-1.5 -6l-311 -402q-3 -5 -3 -7l-50 -282q0 -5 -6 -5h-110v0zM259 760q-6 0 -4 5l23 132q0 5 6 5h129q4 0 4 -5l-23 -132q-2 -5 -6 -5
h-129zM479 760q-6 0 -4 5l23 132q0 5 6 5h129q4 0 4 -5l-23 -132q-2 -5 -6 -5h-129z" />
    <glyph glyph-name="Zacute" unicode="&#x179;" horiz-adv-x="592" 
d="M-11 0q-4 0 -4 5l16 93q1 5 3 7.5t4 4.5l427 476q2 2 1.5 5t-4.5 3h-339q-4 0 -4 5l18 100q0 5 5 5h499q4 0 4 -5l-17 -95q-2 -7 -5 -10l-429 -476q-2 -2 -1.5 -5t4.5 -3h339q6 0 4 -5l-18 -100q0 -5 -6 -5h-497zM285 760q-3 0 -4.5 2t0.5 5l77 128q2 7 11 7h117
q7 0 4 -7l-106 -128q-2 -2 -5 -4.5t-7 -2.5h-87z" />
    <glyph glyph-name="zacute" unicode="&#x17a;" horiz-adv-x="501" 
d="M25 0q-4 0 -4 5l17 96q1 6 6 9l290 278q2 2 2 5t-5 3h-226q-6 0 -4 5l18 100q0 5 5 5h376q5 0 5 -5l-18 -99q0 -2 -3 -5l-289 -279q-2 -2 -2 -5t5 -3h245q4 0 4 -5l-18 -100q0 -5 -6 -5h-398zM250 562q-3 0 -4.5 2t0.5 5l77 128q2 7 11 7h117q7 0 4 -7l-106 -128
q-2 -2 -5 -4.5t-7 -2.5h-87z" />
    <glyph glyph-name="Zdotaccent" unicode="&#x17b;" horiz-adv-x="592" 
d="M-11 0q-4 0 -4 5l16 93q1 5 3 7.5t4 4.5l427 476q2 2 1.5 5t-4.5 3h-339q-4 0 -4 5l18 100q0 5 5 5h499q4 0 4 -5l-17 -95q-2 -7 -5 -10l-429 -476q-2 -2 -1.5 -5t4.5 -3h339q6 0 4 -5l-18 -100q0 -5 -6 -5h-497zM296 760q-4 0 -4 5l23 132q2 5 6 5h129q6 0 4 -5
l-23 -132q0 -5 -6 -5h-129z" />
    <glyph glyph-name="zdotaccent" unicode="&#x17c;" horiz-adv-x="501" 
d="M25 0q-4 0 -4 5l17 96q1 6 6 9l290 278q2 2 2 5t-5 3h-226q-6 0 -4 5l18 100q0 5 5 5h376q5 0 5 -5l-18 -99q0 -2 -3 -5l-289 -279q-2 -2 -2 -5t5 -3h245q4 0 4 -5l-18 -100q0 -5 -6 -5h-398zM249 562q-6 0 -4 5l23 132q0 5 6 5h129q4 0 4 -5l-23 -132q-2 -5 -6 -5h-129z
" />
    <glyph glyph-name="Zcaron" unicode="&#x17d;" horiz-adv-x="592" 
d="M-11 0q-4 0 -4 5l16 93q1 5 3 7.5t4 4.5l427 476q2 2 1.5 5t-4.5 3h-339q-4 0 -4 5l18 100q0 5 5 5h499q4 0 4 -5l-17 -95q-2 -7 -5 -10l-429 -476q-2 -2 -1.5 -5t4.5 -3h339q6 0 4 -5l-18 -100q0 -5 -6 -5h-497zM521 902q7 0 4 -7l-80 -128l-4.5 -4.5t-6.5 -2.5h-111
q-9 0 -9 7l-33 128q-2 3 0.5 5t5.5 2h80q4 0 4 -3l19 -47q2 -4 5 -3.5t5 3.5l35 47q3 3 6 3h80z" />
    <glyph glyph-name="zcaron" unicode="&#x17e;" horiz-adv-x="501" 
d="M25 0q-4 0 -4 5l17 96q1 6 6 9l290 278q2 2 2 5t-5 3h-226q-6 0 -4 5l18 100q0 5 5 5h376q5 0 5 -5l-18 -99q0 -2 -3 -5l-289 -279q-2 -2 -2 -5t5 -3h245q4 0 4 -5l-18 -100q0 -5 -6 -5h-398zM470 704q7 0 4 -7l-80 -128l-4.5 -4.5t-6.5 -2.5h-111q-9 0 -9 7l-33 128
q-2 3 0.5 5t5.5 2h80q4 0 4 -3l19 -47q2 -4 5 -3.5t5 3.5l35 47q3 3 6 3h80z" />
    <glyph glyph-name="longs" unicode="&#x17f;" horiz-adv-x="357" 
d="M158 506q5 0 5 4l10 53q12 71 60.5 106.5t113.5 34.5h79q3 0 3 -5l-18 -100q0 -5 -6 -5h-71q-15 0 -27 -8.5t-14 -23.5l-99 -557q0 -5 -6 -5h-110q-4 0 -4 5l69 391q2 5 -4 5h-82q-4 0 -4 5l17 95q0 5 6 5h82z" />
    <glyph glyph-name="florin" unicode="&#x192;" horiz-adv-x="545" 
d="M296 506q2 0 4 1t2 3l20 53q13 36 34 62.5t47.5 44t57 26t62.5 8.5h79q2 0 3 -1.5t-1 -3.5l-36 -100q-3 -5 -7 -5h-71q-15 0 -29 -8.5t-19 -23.5l-20 -52q0 -4 4 -4h102q4 0 4 -5l-36 -95q-2 -5 -7 -5h-102q-2 0 -4 -2l-170 -456q-27 -75 -77.5 -108.5t-121.5 -32.5h-77
q-5 0 -2 5l37 100q2 5 7 5h68q14 -2 27.5 7.5t18.5 24.5l167 452q3 5 -3 5h-82q-5 0 -3 5l36 95q0 5 6 5h82z" />
    <glyph glyph-name="uni0218" unicode="&#x218;" horiz-adv-x="645" 
d="M588 206q-9 -50 -35 -89.5t-66 -68t-92.5 -43.5t-115.5 -15q-75 0 -123.5 18.5t-76 47.5t-36 65.5t-2.5 71.5q2 5 6 5h115q6 0 4 -5q-3 -18 5.5 -35t26 -29.5t43.5 -20.5t58 -8q31 0 59 8.5t50 22.5t36.5 33.5t18.5 41.5q3 16 -2.5 32t-21 29t-41.5 22.5t-64 12.5
q-60 6 -107.5 18.5t-78.5 36t-43.5 60t-3.5 89.5q9 49 37 88t68 65.5t87 40.5t94 14q50 0 93.5 -13.5t74.5 -39.5t45.5 -63.5t5.5 -86.5q0 -5 -5 -5h-116q-4 0 -4 5q3 16 -2.5 32.5t-19.5 30t-37 22t-54 8.5q-26 0 -49.5 -7.5t-43 -21t-32.5 -31.5t-17 -38q-4 -23 6.5 -38
t29.5 -24t43.5 -14t50.5 -8q25 -3 54.5 -7.5t58 -13.5t53.5 -23.5t42.5 -37.5t24.5 -56t-1 -78zM211 -134q-5 0 -5 5l13 69q0 5 5 5h90q5 0 5 -5l-13 -71q-5 -27 -16 -42.5t-26 -23t-32.5 -9.5t-33.5 -2q-5 0 -5 5l6 29q0 5 5 5q4 0 12 0.5t16.5 3.5t15.5 9t9 17q0 5 -4 5
h-42z" />
    <glyph glyph-name="uni0219" unicode="&#x219;" horiz-adv-x="546" 
d="M487 157q-7 -40 -28 -71t-54 -52.5t-76 -32.5t-94 -11q-56 0 -96 15t-64.5 39.5t-33.5 56t-3 65.5q2 5 6 5h115q6 0 4 -5q-4 -24 17 -45t75 -21q16 0 34 2t34.5 8t28.5 17.5t15 29.5q3 16 -6 25t-23.5 13.5t-32 6t-32.5 3.5q-38 4 -76 11t-66.5 23.5t-43 45t-6.5 75.5
q6 32 26 60.5t51.5 49.5t72 33.5t87.5 12.5q48 0 86 -11t63 -33.5t35.5 -55.5t3.5 -76q-2 -5 -5 -5h-112q-6 0 -4 5q2 10 -1 22t-13 21.5t-27.5 16t-44.5 6.5q-45 0 -69.5 -13t-28.5 -33q-2 -12 4.5 -19.5t18 -12t27 -7.5t32.5 -5q32 -4 71.5 -9.5t72 -21t51 -45.5t9.5 -83z
M167 -134q-4 0 -4 5l12 69q2 5 6 5h90q6 0 4 -5l-12 -71q-5 -27 -16.5 -42.5t-26.5 -23t-32.5 -9.5t-33.5 -2q-4 0 -4 5l5 29q2 5 6 5t12 0.5t16.5 3.5t15 9t8.5 17q2 5 -4 5h-42z" />
    <glyph glyph-name="uni021A" unicode="&#x21a;" horiz-adv-x="586" 
d="M170 -134q-4 0 -4 5l12 69q2 5 6 5h90q6 0 4 -5l-12 -71q-5 -27 -16.5 -42.5t-26.5 -23t-32.5 -9.5t-33.5 -2q-4 0 -4 5l5 29q2 5 6 5t12 0.5t16.5 3.5t15.5 9t9 17q0 5 -5 5h-42zM308 5q0 -5 -6 -5h-110q-4 0 -4 5l103 584q2 5 -4 5h-185q-4 0 -4 5l18 100q0 5 6 5h500
q4 0 4 -5l-18 -100q0 -5 -6 -5h-185q-4 0 -6 -5z" />
    <glyph glyph-name="uni021B" unicode="&#x21b;" horiz-adv-x="400" 
d="M130 -134q-4 0 -4 5l12 69q2 5 6 5h90q6 0 4 -5l-12 -71q-5 -27 -16.5 -42.5t-26.5 -23t-32.5 -9.5t-33.5 -2q-4 0 -4 5l5 29q2 5 6 5t12 0.5t16.5 3.5t15.5 9t9 17q0 5 -5 5h-42zM71 401q-5 0 -5 5l17 95q2 5 6 5h82q4 0 6 5l24 135q0 5 6 5h110q4 0 4 -5l-24 -135
q-2 -5 4 -5h102q6 0 4 -5l-17 -95q0 -5 -5 -5h-102q-6 0 -6 -5l-45 -254q-3 -15 6 -23.5t24 -8.5h71q6 0 4 -5l-17 -100q-2 -5 -6 -5h-78q-79 0 -108.5 33t-15.5 108l45 255q0 5 -4 5h-82z" />
    <glyph glyph-name="circumflex" unicode="&#x2c6;" horiz-adv-x="350" 
d="M235 562q-4 0 -5 3l-18 47q-2 3 -5 3.5t-5 -3.5l-36 -47q-2 -3 -5 -3h-80q-3 0 -4.5 2t0.5 5l79 128q2 7 11 7h111q7 0 9 -7l34 -128q2 -7 -6 -7h-80z" />
    <glyph glyph-name="caron" unicode="&#x2c7;" horiz-adv-x="350" 
d="M340 704q7 0 4 -7l-80 -128l-4.5 -4.5t-6.5 -2.5h-111q-9 0 -9 7l-33 128q-2 3 0.5 5t5.5 2h80q4 0 4 -3l19 -47q2 -4 5 -3.5t5 3.5l35 47q3 3 6 3h80z" />
    <glyph glyph-name="uni02C9" unicode="&#x2c9;" horiz-adv-x="377" 
d="M81 572q-3 0 -3 5l13 70q0 5 5 5h266q4 0 4 -5l-13 -70q0 -5 -6 -5h-266z" />
    <glyph glyph-name="breve" unicode="&#x2d8;" horiz-adv-x="384" 
d="M378 699q-11 -63 -55.5 -100t-107.5 -37q-62 0 -94 37t-21 100q0 5 6 5h77q4 0 4 -5q-3 -17 7.5 -34.5t35.5 -17.5q26 0 41.5 17.5t18.5 34.5q0 5 6 5h78z" />
    <glyph glyph-name="dotaccent" unicode="&#x2d9;" horiz-adv-x="277" 
d="M91 562q-6 0 -4 5l23 132q0 5 6 5h129q4 0 4 -5l-23 -132q-2 -5 -6 -5h-129z" />
    <glyph glyph-name="ring" unicode="&#x2da;" horiz-adv-x="281" 
d="M258 626q-3 -18 -13 -34t-24.5 -27.5t-31.5 -18.5t-35 -7q-36 0 -57 25.5t-14 61.5q3 18 12.5 34t23.5 28t31 19t35 7q36 0 57.5 -26t15.5 -62zM212 626q3 17 -7.5 29.5t-27.5 12.5t-31.5 -12.5t-17.5 -29.5t7 -29.5t27 -12.5t32 12.5t18 29.5z" />
    <glyph glyph-name="ogonek" unicode="&#x2db;" horiz-adv-x="290" 
d="M216 10q4 0 4 -5q-2 -5 -6 -5h-6q-32 0 -56.5 -16.5t-28.5 -41.5q-6 -31 12 -43t50 -12h14q6 0 4 -5l-13 -75q-2 -5 -6 -5h-44q-59 0 -87 25.5t-20 73.5q8 51 49.5 80t107.5 29h26z" />
    <glyph glyph-name="tilde" unicode="&#x2dc;" horiz-adv-x="487" 
d="M104 608q2 13 10 29.5t23 31.5t38.5 25t56.5 10q22 0 37 -7t26.5 -16t19.5 -16t16 -7q3 0 8.5 0.5t11.5 4t11.5 12t8.5 24.5q0 5 5 5h70q5 0 5 -5l-6 -34q-2 -13 -10 -29.5t-23.5 -31t-39 -24.5t-56.5 -10q-20 0 -34.5 7t-26 16t-20.5 16t-18 7q-3 0 -8.5 -0.5t-11.5 -4
t-11 -12t-8 -24.5q-2 -5 -6 -5h-70q-6 0 -4 5z" />
    <glyph glyph-name="hungarumlaut" unicode="&#x2dd;" horiz-adv-x="459" 
d="M57 562q-5 0 -3 5l52 132q0 5 7 5h129q3 0 3 -5l-52 -132q-2 -5 -7 -5h-129zM277 562q-5 0 -3 5l52 132q0 5 7 5h129q3 0 3 -5l-52 -132q-2 -5 -7 -5h-129z" />
    <glyph glyph-name="uni0394" unicode="&#x394;" horiz-adv-x="725" 
d="M27 0q-4 0 -4 5l16 88q1 4 3 8.5t4 6.5l308 591q2 5 7 5h153q2 0 4 -5l97 -591q0 -5 1 -8t0 -7l-16 -88q0 -5 -6 -5h-567zM170 116q-2 -2 0 -4t4 -2h313q8 0 6 7l-73 465q-1 4 -4.5 4t-5.5 -4z" />
    <glyph glyph-name="uni03A9" unicode="&#x3a9;" horiz-adv-x="546" 
d="M425 5q0 -5 -6 -5h-411q-4 0 -4 5l123 694q0 5 6 5h411q4 0 4 -5zM508 681h-346l119 -306zM392 24l-120 305l-226 -305h346zM409 48l107 608q-56 -75 -114 -152t-112 -152zM264 352l-120 305l-107 -610z" />
    <glyph glyph-name="uni03BC" unicode="&#x3bc;" horiz-adv-x="546" 
d="M425 5q0 -5 -6 -5h-411q-4 0 -4 5l123 694q0 5 6 5h411q4 0 4 -5zM508 681h-346l119 -306zM392 24l-120 305l-226 -305h346zM409 48l107 608q-56 -75 -114 -152t-112 -152zM264 352l-120 305l-107 -610z" />
    <glyph glyph-name="pi" unicode="&#x3c0;" horiz-adv-x="546" 
d="M425 5q0 -5 -6 -5h-411q-4 0 -4 5l123 694q0 5 6 5h411q4 0 4 -5zM508 681h-346l119 -306zM392 24l-120 305l-226 -305h346zM409 48l107 608q-56 -75 -114 -152t-112 -152zM264 352l-120 305l-107 -610z" />
    <glyph glyph-name="Wgrave" unicode="&#x1e80;" horiz-adv-x="1032" 
d="M708 123q0 -5 4 -5t6 5l204 576q1 3 3 4t4 1h122q3 0 4 -2.5t-1 -4.5l-260 -692q-2 -5 -7 -5h-192q-4 0 -5 5l-15 577q0 5 -4.5 5t-6.5 -5l-219 -577q-2 -5 -6 -5h-193q-4 0 -5 5l-16 692q0 7 7 7h122q4 0 5 -5l1 -576q0 -5 4 -4.5t6 4.5l218 576q1 3 3 4t4 1h193
q4 0 5 -5zM575 761q-8 0 -10 7l-60 128q-2 3 0.5 5t5.5 2h117q7 0 9 -7l31 -128q2 -7 -6 -7h-87z" />
    <glyph glyph-name="wgrave" unicode="&#x1e81;" horiz-adv-x="856" 
d="M732 500q4 6 7 6h112q7 0 4 -6l-203 -495q-2 -5 -7 -5h-171q-3 0 -5 5l-20 387q0 5 -4 5t-6 -5l-156 -387q-2 -5 -7 -5h-171q-3 0 -5 5l-29 495q0 6 5 6h112q6 0 6 -6l12 -386q0 -5 4 -5t6 5l160 386q4 6 8 6h160q6 0 6 -6l24 -386q0 -4 4 -4t6 4zM437 562q-8 0 -10 7
l-60 128q-2 3 0.5 5t5.5 2h117q7 0 9 -7l31 -128q2 -7 -6 -7h-87z" />
    <glyph glyph-name="Wacute" unicode="&#x1e82;" horiz-adv-x="1032" 
d="M708 123q0 -5 4 -5t6 5l204 576q1 3 3 4t4 1h122q3 0 4 -2.5t-1 -4.5l-260 -692q-2 -5 -7 -5h-192q-4 0 -5 5l-15 577q0 5 -4.5 5t-6.5 -5l-219 -577q-2 -5 -6 -5h-193q-4 0 -5 5l-16 692q0 7 7 7h122q4 0 5 -5l1 -576q0 -5 4 -4.5t6 4.5l218 576q1 3 3 4t4 1h193
q4 0 5 -5zM535 760q-3 0 -4.5 2t0.5 5l77 128q2 7 11 7h117q7 0 4 -7l-106 -128q-2 -2 -5 -4.5t-7 -2.5h-87z" />
    <glyph glyph-name="wacute" unicode="&#x1e83;" horiz-adv-x="856" 
d="M732 500q4 6 7 6h112q7 0 4 -6l-203 -495q-2 -5 -7 -5h-171q-3 0 -5 5l-20 387q0 5 -4 5t-6 -5l-156 -387q-2 -5 -7 -5h-171q-3 0 -5 5l-29 495q0 6 5 6h112q6 0 6 -6l12 -386q0 -5 4 -5t6 5l160 386q4 6 8 6h160q6 0 6 -6l24 -386q0 -4 4 -4t6 4zM418 562q-3 0 -4.5 2
t0.5 5l77 128q2 7 11 7h117q7 0 4 -7l-106 -128q-2 -2 -5 -4.5t-7 -2.5h-87z" />
    <glyph glyph-name="Wdieresis" unicode="&#x1e84;" horiz-adv-x="1032" 
d="M708 123q0 -5 4 -5t6 5l204 576q1 3 3 4t4 1h122q3 0 4 -2.5t-1 -4.5l-260 -692q-2 -5 -7 -5h-192q-4 0 -5 5l-15 577q0 5 -4.5 5t-6.5 -5l-219 -577q-2 -5 -6 -5h-193q-4 0 -5 5l-16 692q0 7 7 7h122q4 0 5 -5l1 -576q0 -5 4 -4.5t6 4.5l218 576q1 3 3 4t4 1h193
q4 0 5 -5zM418 760q-6 0 -4 5l23 132q0 5 6 5h129q4 0 4 -5l-23 -132q-2 -5 -6 -5h-129zM638 760q-6 0 -4 5l23 132q0 5 6 5h129q4 0 4 -5l-23 -132q-2 -5 -6 -5h-129z" />
    <glyph glyph-name="wdieresis" unicode="&#x1e85;" horiz-adv-x="856" 
d="M732 500q4 6 7 6h112q7 0 4 -6l-203 -495q-2 -5 -7 -5h-171q-3 0 -5 5l-20 387q0 5 -4 5t-6 -5l-156 -387q-2 -5 -7 -5h-171q-3 0 -5 5l-29 495q0 6 5 6h112q6 0 6 -6l12 -386q0 -5 4 -5t6 5l160 386q4 6 8 6h160q6 0 6 -6l24 -386q0 -4 4 -4t6 4zM297 562q-6 0 -4 5
l23 132q0 5 6 5h129q4 0 4 -5l-23 -132q-2 -5 -6 -5h-129zM517 562q-6 0 -4 5l23 132q0 5 6 5h129q4 0 4 -5l-23 -132q-2 -5 -6 -5h-129z" />
    <glyph glyph-name="endash" unicode="&#x2013;" horiz-adv-x="616" 
d="M71 197q-6 0 -4 5l18 100q0 5 5 5h448q5 0 5 -5l-18 -100q-2 -5 -6 -5h-448z" />
    <glyph glyph-name="emdash" unicode="&#x2014;" horiz-adv-x="876" 
d="M71 197q-6 0 -4 5l18 100q0 5 5 5h708q5 0 5 -5l-18 -100q-2 -5 -6 -5h-708z" />
    <glyph glyph-name="quoteleft" unicode="&#x2018;" horiz-adv-x="256" 
d="M198 563q6 0 4 -5l-27 -152q0 -5 -5 -5h-120q-5 0 -5 5l27 151q11 65 49 106t102 41q6 0 4 -5l-10 -55q0 -5 -5 -5q-23 0 -39 -18.5t-22 -52.5q-2 -5 4 -5h43z" />
    <glyph glyph-name="quoteright" unicode="&#x2019;" horiz-adv-x="256" 
d="M74 542q-4 0 -4 5l27 152q2 5 6 5h120q6 0 4 -5l-27 -151q-11 -65 -48.5 -106t-101.5 -41q-5 0 -5 5l10 55q2 5 6 5q23 0 39 18.5t22 52.5q0 5 -5 5h-43z" />
    <glyph glyph-name="quotesinglbase" unicode="&#x201a;" horiz-adv-x="216" 
d="M27 0q-6 0 -4 5l26 152q2 5 6 5h120q6 0 4 -5l-26 -151q-11 -65 -49 -106t-102 -41q-5 0 -3 5l8 55q2 5 6 5q23 0 39 18.5t22 52.5q0 5 -4 5h-43z" />
    <glyph glyph-name="quotedblleft" unicode="&#x201c;" horiz-adv-x="421" 
d="M403 563q6 0 4 -5l-27 -152q0 -5 -5 -5h-120q-5 0 -5 5l27 151q11 65 49 106t102 41q6 0 4 -5l-10 -55q0 -5 -5 -5q-23 0 -39 -18.5t-22 -52.5q-2 -5 4 -5h43zM198 563q6 0 4 -5l-27 -152q0 -5 -5 -5h-120q-5 0 -5 5l27 151q11 65 49 106t102 41q6 0 4 -5l-10 -55
q0 -5 -5 -5q-23 0 -39 -18.5t-22 -52.5q-2 -5 4 -5h43z" />
    <glyph glyph-name="quotedblright" unicode="&#x201d;" horiz-adv-x="421" 
d="M74 542q-4 0 -4 5l27 152q2 5 6 5h120q6 0 4 -5l-27 -151q-11 -65 -48.5 -106t-101.5 -41q-5 0 -5 5l10 55q2 5 6 5q23 0 39 18.5t22 52.5q0 5 -5 5h-43zM279 542q-4 0 -4 5l27 152q2 5 6 5h120q6 0 4 -5l-27 -151q-11 -65 -48.5 -106t-101.5 -41q-5 0 -5 5l10 55
q2 5 6 5q23 0 39 18.5t22 52.5q0 5 -5 5h-43z" />
    <glyph glyph-name="quotedblbase" unicode="&#x201e;" horiz-adv-x="421" 
d="M27 0q-6 0 -4 5l26 152q2 5 6 5h120q6 0 4 -5l-26 -151q-11 -65 -49 -106t-102 -41q-5 0 -3 5l8 55q2 5 6 5q23 0 39 18.5t22 52.5q0 5 -4 5h-43zM232 0q-6 0 -4 5l26 152q2 5 6 5h120q6 0 4 -5l-26 -151q-11 -65 -49 -106t-102 -41q-6 0 -4 5l9 55q2 5 6 5q23 0 39 18.5
t22 52.5q0 5 -4 5h-43z" />
    <glyph glyph-name="dagger" unicode="&#x2020;" horiz-adv-x="672" 
d="M317 506q6 0 6 5l34 189q0 5 6 5h100q4 0 4 -5l-34 -189q0 -5 4 -5h188q5 0 5 -5l-18 -99q0 -5 -6 -5h-188q-4 0 -6 -5l-103 -585q0 -5 -6 -5h-100q-4 0 -4 5l103 585q2 5 -4 5h-188q-4 0 -4 5l18 99q0 5 5 5h188z" />
    <glyph glyph-name="daggerdbl" unicode="&#x2021;" horiz-adv-x="672" 
d="M247 109q6 0 6 5l49 278q2 5 -4 5h-188q-4 0 -4 5l18 99q0 5 5 5h188q6 0 6 5l34 189q0 5 6 5h100q4 0 4 -5l-34 -189q0 -5 4 -5h188q5 0 5 -5l-18 -99q0 -5 -6 -5h-188q-4 0 -6 -5l-49 -279q0 -4 4 -4h188q5 0 5 -5l-18 -99q0 -5 -6 -5h-188q-5 0 -6 -4l-33 -189
q0 -5 -6 -5h-100q-4 0 -4 5l33 188q2 5 -4 5h-188q-4 0 -4 5l18 99q0 5 5 5h188z" />
    <glyph glyph-name="bullet" unicode="&#x2022;" horiz-adv-x="692" 
d="M85 253q10 55 39 103t70.5 83.5t93 56t106.5 20.5t99.5 -20.5t73.5 -56t41.5 -83.5t2.5 -103t-39 -103t-71 -83.5t-93.5 -56t-106.5 -20.5t-99 20.5t-73.5 56t-41.5 83.5t-2 103z" />
    <glyph glyph-name="ellipsis" unicode="&#x2026;" horiz-adv-x="664" 
d="M20 0q-4 0 -4 5l27 152q2 5 6 5h149q6 0 4 -5l-27 -152q0 -5 -6 -5h-149zM225 0q-4 0 -4 5l27 152q2 5 6 5h149q6 0 4 -5l-27 -152q0 -5 -6 -5h-149zM429 0q-4 0 -4 5l27 152q2 5 6 5h149q6 0 4 -5l-27 -152q0 -5 -6 -5h-149z" />
    <glyph glyph-name="perthousand" unicode="&#x2030;" horiz-adv-x="1187" 
d="M755 187q-7 -41 -20.5 -77t-35 -62.5t-52 -42t-71.5 -15.5t-66.5 15.5t-37.5 42t-13 62.5t6 77t21 77t35.5 62.5t52 42t71.5 15.5t66.5 -15.5t37.5 -42t12.5 -62.5t-6.5 -77zM680 187q11 58 0.5 90.5t-48.5 32.5t-59.5 -32.5t-32.5 -90.5q-10 -58 0.5 -90.5t48.5 -32.5
t59.5 32.5t31.5 90.5zM403 517q-8 -41 -21.5 -77t-35 -62.5t-52 -42t-71.5 -15.5t-66.5 15.5t-37.5 42t-13 62.5t7 77q7 41 20.5 77t35 62.5t52 42t71.5 15.5t66.5 -15.5t37.5 -42t13 -62.5t-6 -77zM328 517q10 58 -0.5 90.5t-48.5 32.5t-59.5 -32.5t-31.5 -90.5
q-11 -58 -0.5 -90.5t48.5 -32.5t59.5 32.5t32.5 90.5zM1085 187q-7 -41 -20.5 -77t-35 -62.5t-52 -42t-71.5 -15.5t-66.5 15.5t-37.5 42t-13 62.5t6 77t21 77t35.5 62.5t52 42t71.5 15.5t66.5 -15.5t37.5 -42t12.5 -62.5t-6.5 -77zM1010 187q11 58 0.5 90.5t-48.5 32.5
t-59.5 -32.5t-32.5 -90.5q-10 -58 0.5 -90.5t48.5 -32.5t59.5 32.5t31.5 90.5zM669 702q2 2 5 2h70q8 0 2 -8l-548 -694q-2 -2 -5 -2h-68q-8 0 -2 8z" />
    <glyph glyph-name="guilsinglleft" unicode="&#x2039;" horiz-adv-x="426" 
d="M168 258q-4 -4 -2 -9l169 -242q2 -7 -6 -7h-74q-4 0 -4 3l-169 246q-2 5 2 9l255 246q1 3 6 3h74q3 0 4 -2.5t-1 -4.5z" />
    <glyph glyph-name="guilsinglright" unicode="&#x203a;" horiz-adv-x="426" 
d="M124 500q0 7 7 7h74q2 0 4 -3l169 -246q2 -3 1.5 -4.5t-3.5 -4.5l-255 -246q-3 -3 -6 -3h-74q-6 0 -4 7l255 242q4 4 2 9z" />
    <glyph glyph-name="fraction" unicode="&#x2044;" horiz-adv-x="657" 
d="M538 702q2 2 5 2h64q8 0 2 -8l-548 -694q-2 -2 -5 -2h-61q-8 0 -2 8z" />
    <glyph glyph-name="franc" unicode="&#x20a3;" 
d="M425 5q0 -5 -6 -5h-411q-4 0 -4 5l123 694q0 5 6 5h411q4 0 4 -5zM508 681h-346l119 -306zM392 24l-120 305l-226 -305h346zM409 48l107 608q-56 -75 -114 -152t-112 -152zM264 352l-120 305l-107 -610z" />
    <glyph glyph-name="lira" unicode="&#x20a4;" 
d="M425 5q0 -5 -6 -5h-411q-4 0 -4 5l123 694q0 5 6 5h411q4 0 4 -5zM508 681h-346l119 -306zM392 24l-120 305l-226 -305h346zM409 48l107 608q-56 -75 -114 -152t-112 -152zM264 352l-120 305l-107 -610z" />
    <glyph glyph-name="peseta" unicode="&#x20a7;" 
d="M425 5q0 -5 -6 -5h-411q-4 0 -4 5l123 694q0 5 6 5h411q4 0 4 -5zM508 681h-346l119 -306zM392 24l-120 305l-226 -305h346zM409 48l107 608q-56 -75 -114 -152t-112 -152zM264 352l-120 305l-107 -610z" />
    <glyph glyph-name="Euro" unicode="&#x20ac;" horiz-adv-x="690" 
d="M160 393q0 5 -4 5h-83q-6 0 -4 5l36 71q2 5 6 5h69q4 0 7 4q19 52 46 94.5t64 73t85 47t109 16.5q31 0 53.5 -4.5t39.5 -12t30 -16t24 -17.5q4 -4 2 -9l-57 -114q-2 -3 -4.5 -2t-3.5 3q-8 22 -35.5 41t-67.5 20q-59 2 -97 -30.5t-61 -87.5q-3 -6 4 -6h227q6 0 4 -5
l-35 -71q-3 -5 -8 -5h-214q-6 0 -6 -5l-10 -48l-4 -23q0 -5 4 -5h187q6 0 4 -5l-35 -71q-3 -5 -8 -5h-154q-4 0 -6 -5q1 -62 27.5 -96t91.5 -34q47 0 92 32.5t79 77.5q2 2 5.5 2.5t2.5 -4.5l-25 -144q-2 -6 -8 -11q-12 -10 -29 -21t-39 -20.5t-49 -16t-58 -6.5
q-60 0 -102 17t-68 48t-37 75.5t-9 100.5q0 5 -6 5h-87q-6 0 -4 5l35 71q2 5 6 5h59q6 0 6 5l4 23l4 24t5 24z" />
    <glyph glyph-name="uni2113" unicode="&#x2113;" horiz-adv-x="506" 
d="M459 214q6 0 4 -5l-8 -44q-6 -35 -24.5 -65t-45 -52t-58.5 -35t-66 -13q-30 0 -55 10t-43.5 27t-29 41t-11.5 52l-129 -110q-7 -5 -7 3l21 123q1 3 1.5 5.5t4.5 4.5l130 111l46 258q6 34 24.5 64t44.5 52t58.5 35t66.5 13q33 0 60.5 -13t46 -35.5t26.5 -52.5t2 -63
q-6 -32 -23 -62t-46 -54l-212 -181q-1 -1 -3 -5l-10 -58q-5 -28 11 -47.5t43 -19.5t49.5 19.5t27.5 47.5l8 44q2 5 6 5h90zM420 525q5 26 -11 46t-44 20q-27 0 -49.5 -19t-27.5 -47l-26 -148q-1 -3 2 -4t5 1l122 104q24 20 29 47z" />
    <glyph glyph-name="trademark" unicode="&#x2122;" horiz-adv-x="521" 
d="M421 699q3 5 7 5h68q6 0 4 -5l-33 -188q0 -5 -6 -5h-32q-4 0 -4 5l27 152q1 2 -1 2.5t-4 -2.5l-67 -152q-2 -5 -7 -5h-55q-3 0 -5 5l-13 152q0 3 -2 2.5t-3 -2.5l-27 -152q0 -5 -6 -5h-32q-4 0 -4 5l33 188q2 5 6 5h68q5 0 5 -5l12 -153q1 -2 2.5 -2t2.5 2zM190 666
q-6 0 -6 -5l-27 -150q0 -5 -6 -5h-32q-4 0 -4 5l27 150q0 5 -4 5h-44q-5 0 -5 5l5 28q2 5 5 5h142q6 0 4 -5l-5 -28q0 -5 -5 -5h-45z" />
    <glyph glyph-name="Omega" unicode="&#x2126;" 
d="M425 5q0 -5 -6 -5h-411q-4 0 -4 5l123 694q0 5 6 5h411q4 0 4 -5zM508 681h-346l119 -306zM392 24l-120 305l-226 -305h346zM409 48l107 608q-56 -75 -114 -152t-112 -152zM264 352l-120 305l-107 -610z" />
    <glyph glyph-name="estimated" unicode="&#x212e;" horiz-adv-x="538" 
d="M448 128q5 -2 1 -6q-38 -57 -97 -89.5t-121 -32.5q-45 0 -82 17.5t-62 47.5t-35 70t-2 85l9 51q8 45 32.5 85.5t59.5 70.5t78.5 47.5t88.5 17.5t82 -17.5t61.5 -47.5t35 -70.5t2.5 -85.5l-5 -28q-2 -5 -6 -5h-364q-6 0 -6 -5l-26 -146q22 -33 58.5 -52t83.5 -19
q57 0 111 30t91 81q4 4 7 3zM315 476q-47 0 -90 -19.5t-77 -51.5l-25 -145q-2 -5 4 -5h297q4 0 6 5l25 146q-23 32 -58.5 51t-81.5 19z" />
    <glyph glyph-name="arrowleft" unicode="&#x2190;" horiz-adv-x="775" 
d="M83 320q-4 4 -3 10l9 52q1 5 6 10l144 108q8 5 11.5 5.5t11.5 0.5h75q4 0 4.5 -3.5t-2.5 -5.5l-142 -104q-3 -2 -2.5 -3.5t2.5 -1.5h506q4 0 4 -5l-10 -54q0 -5 -6 -5h-506q-2 0 -2.5 -1.5t1.5 -3.5l105 -104q2 -2 0.5 -5.5t-5.5 -3.5h-75q-8 0 -12 0.5t-9 5.5z" />
    <glyph glyph-name="arrowup" unicode="&#x2191;" horiz-adv-x="460" 
d="M419 575q4 -6 4 -10t-2 -12l-13 -75q-1 -4 -4.5 -5t-5.5 2l-82 123q-2 3 -3.5 2.5t-1.5 -2.5l-105 -593q0 -5 -6 -5h-54q-4 0 -4 5l105 593q0 5 -5 0l-126 -123q-2 -3 -5.5 -2t-2.5 5l13 75q2 8 2.5 12t7.5 10l130 125q4 4 11 4h52q5 0 9 -4z" />
    <glyph glyph-name="arrowright" unicode="&#x2192;" horiz-adv-x="775" 
d="M547 212q-7 -5 -11 -5.5t-12 -0.5h-75q-4 0 -4.5 3.5t3.5 5.5l141 104q4 2 3.5 3.5t-2.5 1.5h-506q-4 0 -4 5l10 54q0 5 6 5h506q2 0 2.5 1.5t-2.5 3.5l-104 104q-3 2 -1.5 5.5t5.5 3.5h75q8 0 12 -0.5t9 -5.5l106 -108q3 -3 2 -10l-9 -52q-1 -6 -5 -10z" />
    <glyph glyph-name="arrowdown" unicode="&#x2193;" horiz-adv-x="460" 
d="M210 4q-4 -4 -11 -4h-52q-5 0 -9 4l-86 125q-4 6 -4 10t2 12l13 75q1 4 4.5 5t5.5 -2l82 -123q2 -3 3.5 -2.5t1.5 2.5l105 593q0 5 6 5h54q4 0 4 -5l-105 -593q0 -5 5 0l126 123q3 3 6 2t2 -5l-13 -75q-2 -8 -2.5 -12t-7.5 -10z" />
    <glyph glyph-name="carriagereturn" unicode="&#x21b5;" horiz-adv-x="775" 
d="M692 344h-1l-3 -15q0 -5 -5 -5h-506q-2 0 -3 -1.5t2 -3.5l104 -104q3 -2 1.5 -5.5t-5.5 -3.5h-75q-8 0 -12 0.5t-9 5.5l-106 108q-3 3 -2 10l9 52q1 6 6 10l144 108q7 5 11 5.5t12 0.5h75q4 0 4.5 -3.5t-3.5 -5.5l-141 -104q-4 -2 -3.5 -3.5t2.5 -1.5h443q4 0 6 5l54 306
q0 5 6 5h54q4 0 4 -5z" />
    <glyph glyph-name="partialdiff" unicode="&#x2202;" 
d="M425 5q0 -5 -6 -5h-411q-4 0 -4 5l123 694q0 5 6 5h411q4 0 4 -5zM508 681h-346l119 -306zM392 24l-120 305l-226 -305h346zM409 48l107 608q-56 -75 -114 -152t-112 -152zM264 352l-120 305l-107 -610z" />
    <glyph glyph-name="Delta" unicode="&#x2206;" horiz-adv-x="725" 
d="M27 0q-4 0 -4 5l16 88q1 4 3 8.5t4 6.5l308 591q2 5 7 5h153q2 0 4 -5l97 -591q0 -5 1 -8t0 -7l-16 -88q0 -5 -6 -5h-567zM170 116q-2 -2 0 -4t4 -2h313q8 0 6 7l-73 465q-1 4 -4.5 4t-5.5 -4z" />
    <glyph glyph-name="product" unicode="&#x220f;" 
d="M425 5q0 -5 -6 -5h-411q-4 0 -4 5l123 694q0 5 6 5h411q4 0 4 -5zM508 681h-346l119 -306zM392 24l-120 305l-226 -305h346zM409 48l107 608q-56 -75 -114 -152t-112 -152zM264 352l-120 305l-107 -610z" />
    <glyph glyph-name="summation" unicode="&#x2211;" 
d="M425 5q0 -5 -6 -5h-411q-4 0 -4 5l123 694q0 5 6 5h411q4 0 4 -5zM508 681h-346l119 -306zM392 24l-120 305l-226 -305h346zM409 48l107 608q-56 -75 -114 -152t-112 -152zM264 352l-120 305l-107 -610z" />
    <glyph glyph-name="minus" unicode="&#x2212;" horiz-adv-x="672" 
d="M590 307q5 0 5 -5l-18 -99q0 -5 -6 -5h-496q-4 0 -4 5l18 99q0 5 5 5h496z" />
    <glyph glyph-name="uni2215" unicode="&#x2215;" horiz-adv-x="657" 
d="M538 702q2 2 5 2h64q8 0 2 -8l-548 -694q-2 -2 -5 -2h-61q-8 0 -2 8z" />
    <glyph glyph-name="uni2219" unicode="&#x2219;" horiz-adv-x="265" 
d="M55 276q-6 0 -4 5l26 151q2 5 6 5h149q6 0 4 -5l-26 -151q-2 -5 -6 -5h-149z" />
    <glyph glyph-name="radical" unicode="&#x221a;" horiz-adv-x="717" 
d="M175 401q0 5 -5 5h-74q-6 0 -4 5l16 90q0 5 5 5h154q3 0 5 -5l41 -402q0 -4 4 -4t6 4l347 788q2 5 5 5h102q7 0 5 -5l-397 -882q-2 -5 -6 -5h-150q-3 0 -5 5z" />
    <glyph glyph-name="infinity" unicode="&#x221e;" horiz-adv-x="931" 
d="M466 254q-5 5 -10 0l-118 -80q-24 -17 -55.5 -29t-65.5 -12q-40 0 -72 15t-53 41.5t-29.5 61.5t-1.5 75q7 39 28 73.5t51.5 60.5t67.5 41t77 15q32 0 62.5 -11.5t50.5 -31.5l83 -82q4 -4 8 0l105 82q28 21 65 32t67 11q39 0 71 -15t53.5 -41t30 -60.5t1.5 -73.5
q-7 -40 -28 -75t-51.5 -61.5t-68 -41.5t-76.5 -15q-32 0 -59.5 11.5t-46.5 29.5zM708 414q-16 0 -31 -4t-26 -12l-98 -68q-7 -4 -1 -8l74 -67q8 -7 21 -13.5t29 -6.5q18 0 35.5 7t32 19.5t24 29t12.5 35.5q3 18 -1 34t-13.5 28t-24.5 19t-33 7zM267 417q-19 0 -36 -7.5
t-31 -20.5t-23.5 -29t-12.5 -34q-6 -38 13.5 -64.5t57.5 -26.5q16 0 31.5 8t25.5 15l96 63q7 5 1 10l-72 66q-8 8 -21 14t-29 6z" />
    <glyph glyph-name="integral" unicode="&#x222b;" horiz-adv-x="387" 
d="M205 5v-1l-14 -76q-11 -64 -58 -95.5t-111 -30.5h-28q-3 0 -3 5l16 94q0 5 6 5h21q15 0 27 8.5t14 23.5l12 66v1l88 498v1l13 74q6 32 21 55.5t37.5 39.5t50.5 23.5t60 7.5h29q5 0 3 -5l-16 -94q-2 -5 -6 -5h-21q-15 0 -27 -8.5t-15 -23.5l-11 -64v-1z" />
    <glyph glyph-name="approxequal" unicode="&#x2248;" horiz-adv-x="546" 
d="M488 205q-4 -22 -18 -42t-34.5 -35.5t-46 -24.5t-53.5 -9q-29 0 -53.5 11t-46 24t-40.5 24t-37 11q-14 0 -27.5 -10.5t-16.5 -24.5l-5 -30q0 -5 -6 -5l-81 20q-6 0 -4 5l5 30q4 23 18 43.5t34 36t46 24.5t54 9q29 0 53.5 -11t45.5 -24.5t40 -24.5t38 -11q14 0 27.5 10
t15.5 24l6 32q0 5 6 5l81 -20q6 0 4 -5zM524 413q-4 -22 -17.5 -42t-34 -35.5t-46 -24.5t-53.5 -9q-29 0 -53.5 11t-46.5 24t-41 24t-37 11q-14 0 -27.5 -10.5t-15.5 -24.5l-5 -30q-2 -5 -6 -5l-82 20q-4 0 -4 5l6 30q4 23 17.5 43.5t34 36t46.5 24.5t54 9q29 0 53.5 -11
t45.5 -24.5t40 -24.5t38 -11q14 0 27.5 10t15.5 24l6 32q0 5 6 5l81 -20q6 0 4 -5z" />
    <glyph glyph-name="notequal" unicode="&#x2260;" horiz-adv-x="546" 
d="M66 87q2 3 1 6t-4 3h-45q-6 0 -4 5l18 100q0 5 6 5h139q3 0 6 4l81 84q3 3 2 6t-4 3h-207q-6 0 -4 5l17 100q2 5 6 5h301q3 0 7 4l83 86q1 3 5 3h75q3 0 4.5 -2.5t-0.5 -4.5l-76 -78q-2 -2 -1 -5t4 -3h45q6 0 4 -5l-17 -100q-2 -5 -6 -5h-137q-6 0 -9 -5l-82 -84
q-2 -2 -1 -5t4 -3h208q4 0 4 -5l-18 -100q-2 -5 -6 -5h-301q-2 0 -3.5 -1.5t-3.5 -2.5l-85 -89q-3 -3 -6 -3h-73q-6 0 -4 7z" />
    <glyph glyph-name="lessequal" unicode="&#x2264;" horiz-adv-x="538" 
d="M73 504q2 4 4 5l482 193q8 3 6 -5l-13 -78q-1 -3 -4 -4l-401 -164q-2 -1 -2.5 -3t1.5 -3l344 -160q2 -1 2 -4l-14 -78q0 -3 -2.5 -5t-5.5 0l-414 189q-4 2 -2 5zM455 99q6 0 4 -5l-16 -89q0 -5 -5 -5h-449q-5 0 -5 5l16 89q0 5 5 5h450z" />
    <glyph glyph-name="greaterequal" unicode="&#x2265;" horiz-adv-x="538" 
d="M455 99q6 0 4 -5l-16 -89q0 -5 -5 -5h-449q-5 0 -5 5l16 89q0 5 5 5h450zM510 392q-2 -4 -4 -5l-482 -189q-6 -3 -6 5l14 78q0 2 4 4l400 160q2 1 2.5 3t-1.5 3l-343 164q-3 2 -2 4l13 78q1 3 3.5 5t4.5 0l414 -193q4 -2 2 -5z" />
    <glyph glyph-name="lozenge" unicode="&#x25ca;" 
d="M425 5q0 -5 -6 -5h-411q-4 0 -4 5l123 694q0 5 6 5h411q4 0 4 -5zM508 681h-346l119 -306zM392 24l-120 305l-226 -305h346zM409 48l107 608q-56 -75 -114 -152t-112 -152zM264 352l-120 305l-107 -610z" />
    <glyph glyph-name="commaaccent" unicode="&#xf6c3;" horiz-adv-x="296" 
d="M68 198q-4 0 -4 5l27 152q0 5 6 5h150q4 0 4 -5l-27 -151q-4 -25 -16 -48t-33.5 -41t-53 -29t-74.5 -11q-5 0 -5 5l10 55q2 5 6 5q45 0 64.5 17t22.5 36q2 5 -4 5h-73z" />
    <glyph glyph-name="apple" unicode="&#xf8ff;" horiz-adv-x="683" 
d="M572 702q-6 -35 -18.5 -66t-46.5 -60q-21 -19 -46 -31.5t-57 -12.5q-1 0 -0.5 0.5t-1.5 0.5q5 32 19 59.5t42 53.5q24 20 51.5 35.5t57.5 20.5zM627 187q-66 -103 -113 -145q-46 -42 -95 -42q-21 0 -54 16q-17 8 -28.5 10.5t-21.5 2.5q-8 0 -22.5 -2.5t-34.5 -10.5
q-19 -8 -33.5 -12t-22.5 -4q-14 0 -27.5 4.5t-24.5 14.5q-29 24 -49.5 59.5t-32 76.5t-14 86t5.5 88q7 39 26.5 77t49.5 68t68 48.5t82 18.5q16 0 32 -4.5t33 -11.5q34 -14 49 -14q14 0 54 14q21 7 38 11.5t30 4.5q24 0 44.5 -5t37.5 -13q33 -16 59 -52q-40 -25 -71.5 -58.5
t-39.5 -81.5t11.5 -86t63.5 -58z" />
    <glyph glyph-name="f_f" unicode="&#xfb00;" horiz-adv-x="720" 
d="M148 506q5 0 5 4l10 53q12 71 60.5 106.5t113.5 34.5h79q3 0 3 -5l-18 -100q0 -5 -6 -5h-71q-15 0 -27 -8.5t-14 -23.5l-10 -52q0 -4 5 -4h102q4 0 4 -5l-17 -95q0 -5 -6 -5h-102q-4 0 -6 -5l-69 -391q0 -5 -6 -5h-110q-4 0 -4 5l69 391q2 5 -4 5h-82q-4 0 -4 5l17 95
q0 5 6 5h82zM488 506q5 0 5 4l10 53q12 71 60.5 106.5t113.5 34.5h79q3 0 3 -5l-18 -100q0 -5 -6 -5h-71q-15 0 -27 -8.5t-14 -23.5l-10 -52q0 -4 5 -4h102q4 0 4 -5l-17 -95q0 -5 -6 -5h-102q-4 0 -6 -5l-69 -391q0 -5 -6 -5h-110q-4 0 -4 5l69 391q2 5 -4 5h-82q-4 0 -4 5
l17 95q0 5 6 5h82z" />
    <glyph glyph-name="f_f_i" unicode="&#xfb03;" horiz-adv-x="986" 
d="M148 506q5 0 5 4l10 53q12 71 60.5 106.5t113.5 34.5h79q3 0 3 -5l-18 -100q0 -5 -6 -5h-71q-15 0 -27 -8.5t-14 -23.5l-10 -52q0 -4 5 -4h102q4 0 4 -5l-17 -95q0 -5 -6 -5h-102q-4 0 -6 -5l-69 -391q0 -5 -6 -5h-110q-4 0 -4 5l69 391q2 5 -4 5h-82q-4 0 -4 5l17 95
q0 5 6 5h82zM488 506q5 0 5 4l10 53q12 71 60.5 106.5t113.5 34.5h79q3 0 3 -5l-18 -100q0 -5 -6 -5h-71q-15 0 -27 -8.5t-14 -23.5l-10 -52q0 -4 5 -4h102q4 0 4 -5l-17 -95q0 -5 -6 -5h-102q-4 0 -6 -5l-69 -391q0 -5 -6 -5h-110q-4 0 -4 5l69 391q2 5 -4 5h-82q-4 0 -4 5
l17 95q0 5 6 5h82zM816 562q-5 0 -5 5l24 132q0 5 6 5h130q4 0 4 -5l-24 -132q0 -5 -5 -5h-130zM726 0q-4 0 -4 5l88 496q0 5 6 5h110q4 0 4 -5l-88 -496q0 -5 -6 -5h-110z" />
    <glyph glyph-name="f_f_l" unicode="&#xfb04;" horiz-adv-x="956" 
d="M148 506q5 0 5 4l10 53q12 71 60.5 106.5t113.5 34.5h79q3 0 3 -5l-18 -100q0 -5 -6 -5h-71q-15 0 -27 -8.5t-14 -23.5l-10 -52q0 -4 5 -4h102q4 0 4 -5l-17 -95q0 -5 -6 -5h-102q-4 0 -6 -5l-69 -391q0 -5 -6 -5h-110q-4 0 -4 5l69 391q2 5 -4 5h-82q-4 0 -4 5l17 95
q0 5 6 5h82zM488 506q5 0 5 4l10 53q12 71 60.5 106.5t113.5 34.5h79q3 0 3 -5l-18 -100q0 -5 -6 -5h-71q-15 0 -27 -8.5t-14 -23.5l-10 -52q0 -4 5 -4h102q4 0 4 -5l-17 -95q0 -5 -6 -5h-102q-4 0 -6 -5l-69 -391q0 -5 -6 -5h-110q-4 0 -4 5l69 391q2 5 -4 5h-82q-4 0 -4 5
l17 95q0 5 6 5h82zM706 0q-4 0 -4 5l123 694q0 5 6 5h110q4 0 4 -5l-123 -694q0 -5 -6 -5h-110z" />
    <glyph glyph-name="longs_t" unicode="&#xfb05;" 
d="M425 5q0 -5 -6 -5h-411q-4 0 -4 5l123 694q0 5 6 5h411q4 0 4 -5zM508 681h-346l119 -306zM392 24l-120 305l-226 -305h346zM409 48l107 608q-56 -75 -114 -152t-112 -152zM264 352l-120 305l-107 -610z" />
    <glyph glyph-name="parenleft.001" 
d="M425 5q0 -5 -6 -5h-411q-4 0 -4 5l123 694q0 5 6 5h411q4 0 4 -5zM508 681h-346l119 -306zM392 24l-120 305l-226 -305h346zM409 48l107 608q-56 -75 -114 -152t-112 -152zM264 352l-120 305l-107 -610z" />
    <glyph glyph-name="parenright.001" 
d="M425 5q0 -5 -6 -5h-411q-4 0 -4 5l123 694q0 5 6 5h411q4 0 4 -5zM508 681h-346l119 -306zM392 24l-120 305l-226 -305h346zM409 48l107 608q-56 -75 -114 -152t-112 -152zM264 352l-120 305l-107 -610z" />
    <glyph glyph-name="registered.001" horiz-adv-x="821" 
d="M599 458q-7 -42 -38 -75.5t-70 -49.5l54 -195q2 -7 -6 -7h-46q-4 0 -5 3l-51 192h-148l-34 -190q0 -5 -5 -5h-40q-5 0 -5 5q14 82 25 145.5t19.5 110.5t14 80t9.5 54q9 50 11 59q0 5 5 5h203q27 0 49 -10.5t36.5 -28.5t20.5 -42t1 -51zM549 458q6 35 -13.5 58.5
t-51.5 23.5h-157l-29 -163h157q16 0 31.5 6.5t28.5 17.5t22 25.5t12 31.5zM765 353q-13 -73 -52 -137t-95 -112t-125 -76t-142 -28q-72 0 -131 28t-98 76t-55 112t-3 137q13 72 51.5 136t94.5 112t125 76t141 28q73 0 132 -28t98 -76t55.5 -112t3.5 -136zM735 353
q12 66 -3.5 124.5t-51.5 102.5t-90 69.5t-120 25.5t-128.5 -25.5t-113.5 -69.5t-86.5 -102.5t-47.5 -124.5t3 -125t51 -102.5t89.5 -69t119.5 -25.5t129 25.5t114.5 69t87 102.5t47.5 125z" />
    <glyph glyph-name="copyright.001" horiz-adv-x="821" 
d="M447 554q-42 0 -75 -16.5t-56.5 -44.5t-38.5 -64t-22 -75t-4.5 -75t16.5 -64t41 -44.5t69 -16.5q38 0 65.5 9.5t58.5 41.5q2 2 3.5 4.5t4.5 2.5h44q6 0 4 -7q-26 -44 -77 -70.5t-111 -26.5q-53 0 -88.5 21.5t-55.5 56t-24.5 78.5t3.5 90t28 90t52 78.5t75 56t96 21.5
q60 0 101.5 -26.5t52.5 -70.5q0 -7 -6 -7h-44q-3 0 -3.5 2.5t-2.5 4.5q-19 32 -43.5 41.5t-62.5 9.5zM765 353q-13 -73 -52 -137t-95 -112t-125 -76t-142 -28q-72 0 -131 28t-98 76t-55 112t-3 137q13 72 51.5 136t94.5 112t125 76t141 28q73 0 132 -28t98 -76t55.5 -112
t3.5 -136zM735 353q12 66 -3.5 124.5t-51.5 102.5t-90 69.5t-120 25.5t-128.5 -25.5t-113.5 -69.5t-86.5 -102.5t-47.5 -124.5t3 -125t51 -102.5t89.5 -69t119.5 -25.5t129 25.5t114.5 69t87 102.5t47.5 125z" />
    <glyph glyph-name="zero.tnum" horiz-adv-x="660" 
d="M603 352q-14 -76 -39 -142t-64.5 -115t-96 -77t-131.5 -28t-121.5 28t-69 77t-24.5 115t12 142q13 76 38 142t64.5 115t96 77t131.5 28t121.5 -28t69 -77t24.5 -115t-11 -142zM478 352q9 55 9.5 101.5t-10.5 80t-34.5 52t-62.5 18.5t-69.5 -18.5t-53 -52t-38.5 -80
t-25 -101.5q-10 -55 -10.5 -101.5t10.5 -80t34.5 -52t62.5 -18.5t69.5 18.5t53.5 52t38.5 80t25.5 101.5z" />
    <glyph glyph-name="two.tnum" horiz-adv-x="660" 
d="M509 5q-2 -5 -6 -5h-447q-6 0 -4 5l16 92q1 7 7 13l315 266q7 6 20.5 17.5t27 27t24.5 34t14 39.5q3 18 0 37t-13.5 35t-29.5 26.5t-48 10.5q-25 0 -47 -9.5t-39 -25.5t-28 -35.5t-14 -38.5q0 -5 -6 -5h-109q-4 0 -4 5q8 46 32 86.5t59.5 70t80.5 46.5t95 17
q54 0 93.5 -17t64 -47t33 -70t0.5 -86q-7 -39 -23 -70t-35.5 -55.5t-39.5 -43t-36 -30.5l-221 -176q-3 -2 -3 -5.5t4 -3.5h280q5 0 5 -5z" />
    <glyph glyph-name="three.tnum" horiz-adv-x="660" 
d="M143 494q8 46 31 86.5t57 70t78 46.5t94 17t88.5 -16.5t63 -45t34 -66t2.5 -80.5q-5 -29 -17 -52t-27.5 -41t-32.5 -31t-32 -21q-4 -2 -4 -5t2 -5q12 -7 26 -20.5t24.5 -33.5t15 -46t-0.5 -57q-7 -41 -28 -77.5t-54.5 -64.5t-80.5 -45t-106 -17q-57 0 -96.5 17.5t-63 47
t-30.5 68.5t0 81q2 5 6 5h110q6 0 4 -5q-2 -14 0.5 -31.5t12.5 -34t28.5 -27.5t47.5 -11q25 0 47.5 8t39.5 21.5t28.5 30.5t14.5 34q5 28 -1 48t-19.5 33t-32.5 19.5t-41 6.5h-33q-5 0 -5 5l18 100q2 5 6 5h33q19 0 39 5.5t36.5 17t28.5 29.5t17 43q3 18 -1.5 35.5
t-15.5 31.5t-28.5 22.5t-41.5 8.5q-23 0 -44 -10t-37 -25.5t-27 -35.5t-14 -39q-2 -5 -6 -5h-109q-6 0 -4 5z" />
    <glyph glyph-name="four.tnum" horiz-adv-x="660" 
d="M591 156q-2 -5 -6 -5h-103q-4 0 -6 -5l-25 -141q0 -5 -6 -5h-110q-4 0 -4 5l25 141q2 5 -4 5h-329q-6 0 -4 5l16 92q2 6 4 10.5t4 7.5l399 433q2 5 8 5h120q4 0 4 -5l-77 -433q0 -5 3 -5h104q5 0 5 -5zM185 270q-3 -5 -1.5 -7t3.5 -2h184q6 0 6 5l45 254q1 4 -3.5 4
t-6.5 -3z" />
    <glyph glyph-name="five.tnum" horiz-adv-x="660" 
d="M300 594q-7 0 -7 -5l-36 -123q-2 -5 1.5 -6t5.5 1q15 13 46.5 21t63.5 8q56 0 97.5 -18t66.5 -50.5t33.5 -78t-1.5 -100.5q-11 -59 -36 -105.5t-63 -79.5t-87.5 -50.5t-107.5 -17.5q-68 0 -110.5 20.5t-66 51.5t-29 68.5t0.5 72.5q0 6 6 6h110q5 0 4 -5q-3 -19 3.5 -37.5
t20.5 -33.5t35 -24t46 -9q56 0 96.5 38t52.5 105q11 60 -16.5 98.5t-83.5 38.5q-36 0 -71.5 -16t-59.5 -51q-2 -3 -5 -3h-109q-5 0 -5 5l113 384q2 5 6 5h382q6 0 4 -5l-18 -101q0 -4 -7 -4h-275z" />
    <glyph glyph-name="six.tnum" horiz-adv-x="660" 
d="M344 490q-2 -3 -1 -6t6 -2q3 1 11 2.5t18 1.5q48 0 87.5 -17.5t66.5 -50t38.5 -78t1.5 -100.5t-35 -101t-63 -79t-87.5 -51.5t-107.5 -18.5q-59 0 -101.5 18.5t-68.5 51.5t-35 79t1 101q8 40 25.5 78.5t38.5 67.5l221 314q4 4 6 4h120q6 0 4 -7zM447 240q11 63 -12 101.5
t-87 38.5q-63 0 -100 -38.5t-48 -101.5t12.5 -101.5t86.5 -38.5q64 0 100.5 38.5t47.5 101.5z" />
    <glyph glyph-name="seven.tnum" horiz-adv-x="660" 
d="M615 599q0 -5 -5 -14l-327 -580q-2 -5 -7 -5h-116q-5 0 -3 5l330 580q3 5 1 7t-4 2h-323q-4 0 -4 5l18 100q0 5 6 5h448q4 0 4 -5z" />
    <glyph glyph-name="eight.tnum" horiz-adv-x="660" 
d="M81 194q5 31 19 57t31 46t35.5 33.5t33.5 20.5q4 2 5 5t-3 5q-12 8 -24.5 21t-21.5 31t-12.5 41t1.5 52q7 43 30 80.5t57.5 66t78.5 45t94 16.5h1h1q50 0 88.5 -16.5t63 -45t34 -66t2.5 -80.5q-5 -29 -17 -52t-27.5 -41t-32.5 -31t-32 -21q-4 -2 -4 -5t2 -5
q12 -7 26 -20.5t24.5 -33.5t15 -46t-0.5 -57q-7 -41 -28 -77.5t-54.5 -65t-80.5 -45t-107 -16.5t-101 16.5t-65 45t-31.5 65t-0.5 77.5zM429 194q5 28 -1 48.5t-19.5 34t-33 19.5t-41.5 6q-48 0 -85.5 -26.5t-47.5 -81.5q-3 -17 2 -34t18 -30.5t32 -21.5t45 -8q25 0 48 8
t40 21.5t28.5 30.5t14.5 34zM386 604q-24 0 -44.5 -8.5t-36.5 -22.5t-26.5 -31.5t-13.5 -35.5q-5 -25 1 -43t18.5 -29t30.5 -16.5t38 -5.5t40 5.5t36.5 16.5t28.5 29t17 43q3 18 -1.5 35.5t-15.5 31.5t-28.5 22.5t-41.5 8.5h-2z" />
    <glyph glyph-name="nine.tnum" horiz-adv-x="660" 
d="M342 214q2 3 1 6t-6 2q-3 -1 -11 -2.5t-18 -1.5q-48 0 -87.5 17.5t-66.5 50t-38.5 77.5t-1.5 101q10 55 35 101t63 79t87 51.5t108 18.5q58 0 101 -18.5t69 -51.5t35 -79t-1 -101q-8 -40 -25.5 -78.5t-38.5 -67.5l-221 -314q-4 -4 -6 -4h-120q-6 0 -4 7zM239 464
q-11 -63 12 -101.5t87 -38.5q63 0 100 38.5t48 101.5t-12 101.5t-86 38.5q-64 0 -101 -38.5t-48 -101.5z" />
    <glyph glyph-name="registered.002" horiz-adv-x="821" 
d="M765 353q-13 -73 -52 -137t-95 -112t-125 -76t-142 -28q-72 0 -131 28t-98 76t-55 112t-3 137q13 72 51.5 136t94.5 112t125 76t141 28q73 0 132 -28t98 -76t55.5 -112t3.5 -136zM735 353q12 66 -3.5 124.5t-51.5 102.5t-90 69.5t-120 25.5t-128.5 -25.5t-113.5 -69.5
t-86.5 -102.5t-47.5 -124.5t3 -125t51 -102.5t89.5 -69t119.5 -25.5t129 25.5t114.5 69t87 102.5t47.5 125zM285 558q0 5 6 5h207q25 0 45.5 -10t34 -27.5t19.5 -40.5t1 -50q-7 -39 -31 -69t-59 -44q-6 -2 -3 -7l46 -168q2 -3 -0.5 -4.5t-4.5 -1.5h-47q-7 0 -9 5l-41 159
q0 4 -6 4h-142q-3 0 -4 -3l-28 -160q0 -5 -6 -5h-47q-4 0 -4 5zM339 512q-6 0 -6 -5l-25 -142q-2 -5 4 -5h145q14 0 28 6t25.5 16.5t19.5 24t11 28.5q5 31 -12.5 54t-46.5 23h-143z" />
    <glyph glyph-name="copyright.002" horiz-adv-x="821" 
d="M765 353q-13 -73 -52 -137t-95 -112t-125 -76t-142 -28q-72 0 -131 28t-98 76t-55 112t-3 137q13 72 51.5 136t94.5 112t125 75.5t141 27.5q73 0 132 -27.5t98 -75.5t55.5 -112t3.5 -136zM735 353q12 66 -3.5 124.5t-51.5 102t-90 69t-120 25.5t-128.5 -25.5t-113.5 -69
t-86.5 -102t-47.5 -124.5t3 -125t51 -102.5t89.5 -69t119.5 -25.5t129 25.5t114.5 69t87 102.5t47.5 125zM516 270q1 3 5 3h51q4 0 4 -5q-3 -15 -18.5 -37.5t-42 -44t-63 -36.5t-81.5 -15t-77.5 16t-52 45t-25.5 68.5t3 87.5q8 48 28 87.5t49.5 68.5t68 45t83.5 16
q47 0 78 -16.5t49.5 -38.5t25 -45t4.5 -35q0 -3 -4 -3h-53q-2 0 -3 3q-2 10 -6.5 24t-16.5 27.5t-32 23t-51 9.5q-62 0 -104 -44t-56 -122t12.5 -122t88.5 -44q31 0 54 8.5t39.5 21.5t26.5 27.5t16 26.5z" />
    <glyph glyph-name="one.tnum" horiz-adv-x="660" 
d="M56 0q-4 0 -4 5l16 90q2 5 6 5h169q4 0 6 5l63 356q2 13 -4 20.5t-18 7.5h-148q-6 0 -4 5l15 90q2 5 6 5h122q22 0 41 16t21 36l11 58q0 5 6 5h110q4 0 4 -5l-105 -594q-2 -5 4 -5h149q6 0 4 -5l-16 -90q0 -5 -6 -5h-448z" />
    <glyph glyph-name="dollar.plf" 
d="M425 5q0 -5 -6 -5h-411q-4 0 -4 5l123 694q0 5 6 5h411q4 0 4 -5zM508 681h-346l119 -306zM392 24l-120 305l-226 -305h346zM409 48l107 608q-56 -75 -114 -152t-112 -152zM264 352l-120 305l-107 -610z" />
    <glyph glyph-name="cent.plf" 
d="M425 5q0 -5 -6 -5h-411q-4 0 -4 5l123 694q0 5 6 5h411q4 0 4 -5zM508 681h-346l119 -306zM392 24l-120 305l-226 -305h346zM409 48l107 608q-56 -75 -114 -152t-112 -152zM264 352l-120 305l-107 -610z" />
    <glyph glyph-name="sterling.plf" 
d="M425 5q0 -5 -6 -5h-411q-4 0 -4 5l123 694q0 5 6 5h411q4 0 4 -5zM508 681h-346l119 -306zM392 24l-120 305l-226 -305h346zM409 48l107 608q-56 -75 -114 -152t-112 -152zM264 352l-120 305l-107 -610z" />
    <glyph glyph-name="yen.plf" 
d="M425 5q0 -5 -6 -5h-411q-4 0 -4 5l123 694q0 5 6 5h411q4 0 4 -5zM508 681h-346l119 -306zM392 24l-120 305l-226 -305h346zM409 48l107 608q-56 -75 -114 -152t-112 -152zM264 352l-120 305l-107 -610z" />
    <glyph glyph-name="florin.plf" 
d="M425 5q0 -5 -6 -5h-411q-4 0 -4 5l123 694q0 5 6 5h411q4 0 4 -5zM508 681h-346l119 -306zM392 24l-120 305l-226 -305h346zM409 48l107 608q-56 -75 -114 -152t-112 -152zM264 352l-120 305l-107 -610z" />
    <glyph glyph-name="Euro.plf" 
d="M425 5q0 -5 -6 -5h-411q-4 0 -4 5l123 694q0 5 6 5h411q4 0 4 -5zM508 681h-346l119 -306zM392 24l-120 305l-226 -305h346zM409 48l107 608q-56 -75 -114 -152t-112 -152zM264 352l-120 305l-107 -610z" />
    <glyph glyph-name="currency.plf" 
d="M425 5q0 -5 -6 -5h-411q-4 0 -4 5l123 694q0 5 6 5h411q4 0 4 -5zM508 681h-346l119 -306zM392 24l-120 305l-226 -305h346zM409 48l107 608q-56 -75 -114 -152t-112 -152zM264 352l-120 305l-107 -610z" />
    <glyph glyph-name="numbersign.plf" 
d="M425 5q0 -5 -6 -5h-411q-4 0 -4 5l123 694q0 5 6 5h411q4 0 4 -5zM508 681h-346l119 -306zM392 24l-120 305l-226 -305h346zM409 48l107 608q-56 -75 -114 -152t-112 -152zM264 352l-120 305l-107 -610z" />
    <glyph glyph-name="grave.case" horiz-adv-x="296" 
d="M212 761q-8 0 -10 7l-60 128q-2 3 0.5 5t5.5 2h117q7 0 9 -7l31 -128q2 -7 -6 -7h-87z" />
    <glyph glyph-name="dieresis.case" horiz-adv-x="296" 
d="M32 760q-6 0 -4 5l23 132q0 5 6 5h129q4 0 4 -5l-23 -132q-2 -5 -6 -5h-129zM252 760q-6 0 -4 5l23 132q0 5 6 5h129q4 0 4 -5l-23 -132q-2 -5 -6 -5h-129z" />
    <glyph glyph-name="acute.case" horiz-adv-x="296" 
d="M123 760q-3 0 -4.5 2t0.5 5l77 128q2 7 11 7h117q7 0 4 -7l-106 -128q-2 -2 -5 -4.5t-7 -2.5h-87z" />
    <glyph glyph-name="caron.case" horiz-adv-x="296" 
d="M347 902q7 0 4 -7l-80 -128l-4.5 -4.5t-6.5 -2.5h-111q-9 0 -9 7l-33 128q-2 3 0.5 5t5.5 2h80q4 0 4 -3l19 -47q2 -4 5 -3.5t5 3.5l35 47q3 3 6 3h80z" />
    <glyph glyph-name="circumflex.case" horiz-adv-x="296" 
d="M242 760q-4 0 -5 3l-18 47q-2 3 -5 3.5t-5 -3.5l-36 -47q-2 -3 -5 -3h-80q-3 0 -4.5 2t0.5 5l79 128q2 7 11 7h111q7 0 9 -7l34 -128q2 -7 -6 -7h-80z" />
    <glyph glyph-name="breve.case" horiz-adv-x="384" 
d="M395 897q-11 -63 -55.5 -100t-107.5 -37q-62 0 -94 37t-21 100q2 5 6 5h77q6 0 4 -5q-3 -17 7.5 -34.5t35.5 -17.5q26 0 41.5 17.5t18.5 34.5q2 5 6 5h78z" />
    <glyph glyph-name="dotaccent.case" horiz-adv-x="296" 
d="M123 760q-4 0 -4 5l23 132q2 5 6 5h129q6 0 4 -5l-23 -132q0 -5 -6 -5h-129z" />
    <glyph glyph-name="ring.case" horiz-adv-x="296" 
d="M287 824q-3 -18 -12.5 -34t-24 -27.5t-31.5 -18.5t-35 -7q-36 0 -57 25.5t-15 61.5q3 18 13 34t24 28t31 19t35 7t33 -7t24.5 -19t13.5 -28t1 -34zM241 824q3 17 -7 29.5t-27 12.5t-32 -12.5t-18 -29.5t7.5 -29.5t27.5 -12.5t31.5 12.5t17.5 29.5z" />
    <glyph glyph-name="tilde.case" horiz-adv-x="296" 
d="M31 806q2 13 10 29.5t23.5 31.5t39 25t56.5 10q22 0 37 -7t26.5 -16t19.5 -16t16 -7q3 0 8.5 0.5t11.5 4t11 12t8 24.5q2 5 6 5h70q6 0 4 -5l-6 -34q-2 -13 -10 -29.5t-23.5 -31t-39 -24.5t-56.5 -10q-20 0 -34.5 7t-26 16t-20.5 16t-18 7q-3 0 -8.5 -0.5t-11.5 -4
t-11 -12t-8 -24.5q0 -5 -6 -5h-70q-4 0 -4 5z" />
    <glyph glyph-name="hungarumlaut.case" horiz-adv-x="296" 
d="M-1 760q-3 0 -3 5l51 132q2 5 7 5h129q5 0 3 -5l-52 -132q0 -5 -7 -5h-128zM218 760q-3 0 -3 5l52 132q2 5 7 5h129q5 0 3 -5l-52 -132q0 -5 -7 -5h-129z" />
    <glyph glyph-name="caron.salt" horiz-adv-x="350" 
d="M340 704q7 0 4 -7l-80 -128l-4.5 -4.5t-6.5 -2.5h-111q-9 0 -9 7l-33 128q-2 3 0.5 5t5.5 2h80q4 0 4 -3l19 -47q2 -4 5 -3.5t5 3.5l35 47q3 3 6 3h80z" />
    <glyph glyph-name="commaaccent.salt" horiz-adv-x="296" 
d="M68 198q-4 0 -4 5l27 152q0 5 6 5h150q4 0 4 -5l-27 -151q-4 -25 -16 -48t-33.5 -41t-53 -29t-74.5 -11q-5 0 -5 5l10 55q2 5 6 5q45 0 64.5 17t22.5 36q2 5 -4 5h-73z" />
    <glyph glyph-name="macron.case" horiz-adv-x="296" 
d="M76 770q-3 0 -3 5l13 70q0 5 5 5h266q4 0 4 -5l-13 -70q0 -5 -6 -5h-266z" />
    <glyph glyph-name="_0127" 
d="M425 5q0 -5 -6 -5h-411q-4 0 -4 5l123 694q0 5 6 5h411q4 0 4 -5zM508 681h-346l119 -306zM392 24l-120 305l-226 -305h346zM409 48l107 608q-56 -75 -114 -152t-112 -152zM264 352l-120 305l-107 -610z" />
    </font>
</defs>
</svg>
