<?xml version="1.0" standalone="no"?>
<!DOCTYPE svg PUBLIC "-//W3C//DTD SVG 1.1//EN" "http://www.w3.org/Graphics/SVG/1.1/DTD/svg11.dtd" >
<svg xmlns="http://www.w3.org/2000/svg" xmlns:xlink="http://www.w3.org/1999/xlink" version="1.1">
<metadata>
Created by FontForge 20160405 at Mon Jan 21 16:24:03 2019
 By www-data
Copyright (c) 2008 by Stefan Gandl. All rights reserved.
</metadata>
<defs>
<font id="NBInternationalPro-Bold" horiz-adv-x="496" >
  <font-face 
    font-family="NB International Bold"
    font-weight="700"
    font-stretch="normal"
    units-per-em="1000"
    panose-1="2 11 8 3 3 1 0 2 0 4"
    ascent="800"
    descent="-200"
    x-height="506"
    cap-height="704"
    bbox="-66 -208 1084 929"
    underline-thickness="85"
    underline-position="-217"
    unicode-range="U+0009-FB05"
  />
<missing-glyph 
d="M456 5q0 -5 -5 -5h-411q-5 0 -5 5v694q0 5 5 5h411q5 0 5 -5v-694zM419 681h-346l173 -306zM419 24l-173 305l-173 -305h346zM432 48v608q-43 -75 -87 -152t-86 -152zM233 352l-173 305v-610z" />
    <glyph glyph-name="fi" unicode="fi" horiz-adv-x="590" 
d="M90 506q5 0 5 4v53q0 71 42 106.5t107 34.5h79q4 0 4 -5v-100q0 -5 -5 -5h-71q-15 0 -25.5 -8.5t-10.5 -23.5v-52q0 -4 5 -4h102q5 0 5 -5v-95q0 -5 -5 -5h-102q-5 0 -5 -5v-391q0 -5 -5 -5h-110q-5 0 -5 5v391q0 5 -5 5h-82q-5 0 -5 5v95q0 5 5 5h82zM377 562q-5 0 -5 5
v132q0 5 5 5h130q5 0 5 -5v-132q0 -5 -5 -5h-130zM387 0q-5 0 -5 5v496q0 5 5 5h110q5 0 5 -5v-496q0 -5 -5 -5h-110z" />
    <glyph glyph-name="fl" unicode="fl" horiz-adv-x="591" 
d="M90 506q5 0 5 4v53q0 71 42 106.5t107 34.5h79q4 0 4 -5v-100q0 -5 -5 -5h-71q-15 0 -25.5 -8.5t-10.5 -23.5v-52q0 -4 5 -4h102q5 0 5 -5v-95q0 -5 -5 -5h-102q-5 0 -5 -5v-391q0 -5 -5 -5h-110q-5 0 -5 5v391q0 5 -5 5h-82q-5 0 -5 5v95q0 5 5 5h82zM388 0q-5 0 -5 5
v694q0 5 5 5h110q5 0 5 -5v-694q0 -5 -5 -5h-110z" />
    <glyph glyph-name=".notdef" 
d="M456 5q0 -5 -5 -5h-411q-5 0 -5 5v694q0 5 5 5h411q5 0 5 -5v-694zM419 681h-346l173 -306zM419 24l-173 305l-173 -305h346zM432 48v608q-43 -75 -87 -152t-86 -152zM233 352l-173 305v-610z" />
    <glyph glyph-name=".null" horiz-adv-x="25" 
 />
    <glyph glyph-name=".null" horiz-adv-x="25" 
 />
    <glyph glyph-name="nonmarkingreturn" unicode="&#xd;" horiz-adv-x="35" 
 />
    <glyph glyph-name="HT" unicode="&#x9;" horiz-adv-x="285" 
 />
    <glyph glyph-name="LF" unicode="&#xa;" horiz-adv-x="285" 
 />
    <glyph glyph-name="DLE" horiz-adv-x="285" 
 />
    <glyph glyph-name="DC1" horiz-adv-x="285" 
 />
    <glyph glyph-name="DC2" horiz-adv-x="285" 
 />
    <glyph glyph-name="DC3" horiz-adv-x="285" 
 />
    <glyph glyph-name="DC4" horiz-adv-x="285" 
 />
    <glyph glyph-name="RS" horiz-adv-x="35" 
 />
    <glyph glyph-name="US" horiz-adv-x="35" 
 />
    <glyph glyph-name="space" unicode=" " horiz-adv-x="281" 
 />
    <glyph glyph-name="exclam" unicode="!" horiz-adv-x="262" 
d="M69 208q-5 0 -5 5l-10 293v193q0 5 5 5h110q5 0 5 -5v-193l-10 -293q0 -5 -5 -5h-90zM39 0q-5 0 -5 5v152q0 5 5 5h150q5 0 5 -5v-152q0 -5 -5 -5h-150z" />
    <glyph glyph-name="quotedbl" unicode="&#x22;" horiz-adv-x="397" 
d="M48 401q-5 0 -5 5l-10 135v158q0 5 5 5h110q5 0 5 -5v-158l-10 -135q0 -5 -5 -5h-90zM224 401q-5 0 -5 5l-10 135v158q0 5 5 5h110q5 0 5 -5v-158l-10 -135q0 -5 -5 -5h-90z" />
    <glyph glyph-name="numbersign" unicode="#" horiz-adv-x="601" 
d="M168 402q1 6 -5 6h-135q-5 0 -5 5v69q0 5 5 5h154q5 0 6 4l48 210q1 3 5 3h75q7 0 5 -7l-47 -204q-2 -6 5 -6h102q5 0 6 5l48 209q1 3 5 3h75q7 0 5 -7l-47 -204q-2 -6 5 -6h99q5 0 5 -5v-69q0 -5 -5 -5h-118q-4 0 -6 -5l-25 -110q-2 -6 5 -6h144q5 0 5 -5v-69
q0 -5 -5 -5h-164q-4 0 -5 -4l-45 -201q-2 -3 -5 -3h-74q-7 0 -5 7l44 196q2 5 -4 5h-105q-3 0 -5 -5l-45 -200q-2 -3 -5 -3h-74q-7 0 -5 7l43 195q2 6 -5 6h-90q-5 0 -5 5v69q0 5 5 5h110q5 0 6 5zM260 408q-4 0 -6 -5l-25 -109q-2 -7 5 -7h104q3 0 5 5l24 110q2 6 -4 6
h-103z" />
    <glyph glyph-name="dollar" unicode="$" horiz-adv-x="630" 
d="M260 -13q0 6 -6 6q-61 6 -103.5 26t-69.5 48t-39 61t-12 65q0 5 5 5h115q5 0 5 -5q0 -29 27 -53t72 -35q6 -2 6 5v193q0 5 -5 5q-51 7 -92 21.5t-69.5 37.5t-43.5 57t-15 82q0 45 18 82t48.5 63.5t70.5 42t83 19.5q5 0 5 5v79q0 5 4 5h69q5 0 5 -5v-83q0 -5 4 -6
q40 -7 76 -23t63 -41t42.5 -58.5t15.5 -74.5q0 -5 -4 -5h-116q-5 0 -5 5q1 23 -17 46.5t-52 36.5q-7 2 -7 -5v-165q0 -5 5 -6q38 -5 79 -16.5t74.5 -35t55.5 -62t22 -98.5q0 -92 -60.5 -148.5t-169.5 -64.5q-6 0 -6 -6v-82q0 -5 -5 -5h-69q-4 0 -4 5v82zM449 206
q0 29 -24 54t-80 36q-7 1 -7 -5v-183q0 -7 7 -5q47 9 75.5 37t28.5 66zM160 506q0 -35 27 -52t66 -25q7 -2 7 5v162q0 7 -7 5q-42 -8 -67.5 -34.5t-25.5 -60.5z" />
    <glyph glyph-name="percent" unicode="%" horiz-adv-x="842" 
d="M754 187q0 -41 -7 -77t-24 -62.5t-45 -42t-69 -15.5t-69 15.5t-45 42t-24 62.5t-7 77t7 77t24 62.5t45 42t69 15.5t69 -15.5t45 -42t24 -62.5t7 -77zM679 187q0 58 -16 90.5t-54 32.5t-54 -32.5t-16 -90.5t16 -90.5t54 -32.5t54 32.5t16 90.5zM343 517q0 -41 -7 -77
t-24 -62.5t-45 -42t-69 -15.5t-69 15.5t-45 42t-24 62.5t-7 77t7 77t24 62.5t45 42t69 15.5t69 -15.5t45 -42t24 -62.5t7 -77zM268 517q0 58 -16 90.5t-54 32.5t-54 -32.5t-16 -90.5t16 -90.5t54 -32.5t54 32.5t16 90.5zM577 702q2 2 4 2h70q8 0 4 -8l-426 -694q-2 -2 -4 -2
h-68q-8 0 -4 8z" />
    <glyph glyph-name="ampersand" unicode="&#x26;" horiz-adv-x="693" 
d="M43 214q0 33 10 61.5t26.5 52.5t37 43t40.5 32q3 2 0 6q-12 13 -22.5 27.5t-18.5 31t-12.5 37t-4.5 46.5q0 30 13.5 59t39 52.5t61.5 37.5t80 14q43 0 78 -14t60 -37.5t39 -55t14 -66.5q0 -36 -10.5 -63t-29 -47t-44 -33.5t-54.5 -23.5q-4 -2 0 -6l120 -131q4 -4 5 0
t1 14v87q0 5 5 5h100q5 0 5 -5v-84q0 -41 -6.5 -63t-18.5 -45q-2 -4 -1.5 -4.5l1.5 -1.5l13 -13t15 -13t16 -9.5t14 -3.5h10q5 0 5 -5v-91q0 -5 -5 -5h-10q-31 0 -49.5 4t-30.5 11t-21.5 16t-22.5 19q-3 2 -5 0q-33 -27 -83 -43.5t-110 -16.5q-63 0 -110 17.5t-78 48
t-46.5 71.5t-15.5 87zM293 103q34 0 64.5 9t49.5 22q3 2 0 5l-168 183q-3 3 -7 0q-26 -19 -46 -43.5t-20 -64.5q0 -46 34 -78.5t93 -32.5zM293 611q-33 0 -56.5 -17.5t-23.5 -52.5q-1 -29 17 -48.5t38 -39.5q3 -3 5.5 -3t6.5 2q20 9 37 17t30 17.5t20 22.5t7 32
q0 35 -24.5 52.5t-56.5 17.5z" />
    <glyph glyph-name="quotesingle" unicode="'" horiz-adv-x="222" 
d="M48 401q-5 0 -5 5l-10 135v158q0 5 5 5h110q5 0 5 -5v-158l-10 -135q0 -5 -5 -5h-90z" />
    <glyph glyph-name="parenleft" unicode="(" horiz-adv-x="292" 
d="M119 253q0 -53 8 -110.5t24 -116t39.5 -114.5t55.5 -105q3 -5 -3 -5h-77q-5 0 -7 5q-26 41 -50.5 91.5t-43.5 108t-30.5 120t-11.5 126.5t11.5 126.5t30.5 120t43.5 108t50.5 91.5q2 5 7 5h77q6 0 3 -5q-32 -49 -55.5 -105t-39.5 -114.5t-24 -116.5t-8 -110z" />
    <glyph glyph-name="parenright" unicode=")" horiz-adv-x="292" 
d="M151 253q0 52 -8 110t-24 116.5t-40 114.5t-55 105q-3 5 3 5h77q4 0 7 -5q26 -41 50.5 -91.5t43.5 -108t30.5 -120t11.5 -126.5t-11.5 -126.5t-30.5 -120t-43.5 -108t-50.5 -91.5q-3 -5 -7 -5h-77q-6 0 -3 5q31 49 55 105t40 114.5t24 116t8 110.5z" />
    <glyph glyph-name="asterisk" unicode="*" horiz-adv-x="475" 
d="M264 604q0 -8 8 -4l38 18l48 16q6 2 6 -3l25 -77q2 -4 -3 -6l-48 -16l-46 -9q-3 -1 -3.5 -4t1.5 -5l30 -32l30 -41q3 -5 -1 -7l-66 -47q-1 -2 -3 -1.5t-3 2.5l-30 40l-19 33q-4 6 -8 0l-19 -33l-30 -40q-1 -2 -3 -2.5t-3 1.5l-66 47q-4 2 -1 7l30 41l30 32q5 7 -3 9
l-45 9l-48 16q-5 2 -3 6l25 77q0 5 6 3l48 -16l38 -18q3 -2 6 -0.5t2 4.5l-5 44v51q0 5 5 5h80q5 0 5 -5v-51z" />
    <glyph glyph-name="plus" unicode="+" horiz-adv-x="657" 
d="M251 307q5 0 5 5v189q0 5 5 5h100q5 0 5 -5v-189q0 -5 5 -5h188q5 0 5 -5v-100q0 -5 -5 -5h-188q-5 0 -5 -5v-187q0 -5 -5 -5h-100q-5 0 -5 5v187q0 5 -5 5h-188q-5 0 -5 5v100q0 5 5 5h188z" />
    <glyph glyph-name="comma" unicode="," horiz-adv-x="251" 
d="M38 0q-5 0 -5 5v152q0 5 5 5h150q5 0 5 -5v-151q0 -25 -8 -48t-26.5 -41t-48 -29t-72.5 -11q-5 0 -5 5v55q0 5 5 5q45 0 61.5 17t16.5 36q0 5 -5 5h-73z" />
    <glyph glyph-name="hyphen" unicode="-" horiz-adv-x="484" 
d="M68 197q-5 0 -5 5v100q0 5 5 5h313q5 0 5 -5v-100q0 -5 -5 -5h-313z" />
    <glyph glyph-name="period" unicode="." horiz-adv-x="251" 
d="M38 0q-5 0 -5 5v152q0 5 5 5h150q5 0 5 -5v-152q0 -5 -5 -5h-150z" />
    <glyph glyph-name="slash" unicode="/" horiz-adv-x="367" 
d="M98 3q-2 -3 -5 -3h-74q-7 0 -5 7l219 694q1 3 5 3h75q7 0 5 -7z" />
    <glyph glyph-name="zero" unicode="0" horiz-adv-x="645" 
d="M572 352q0 -76 -13.5 -142t-44.5 -115t-82.5 -77t-126.5 -28t-126.5 28t-82.5 77t-44.5 115t-13.5 142t13.5 142t44.5 115t82.5 77t126.5 28t126.5 -28t82.5 -77t44.5 -115t13.5 -142zM447 352q0 55 -7.5 101.5t-24.5 80t-44 52t-66 18.5t-66 -18.5t-44 -52t-24.5 -80
t-7.5 -101.5t7.5 -101.5t24.5 -80t44 -52t66 -18.5t66 18.5t44 52t24.5 80t7.5 101.5z" />
    <glyph glyph-name="one" unicode="1" horiz-adv-x="431" 
d="M213 461q0 13 -7.5 20.5t-19.5 7.5h-148q-5 0 -5 5v90q0 5 5 5h122q23 0 38.5 16t14.5 36v58q0 5 5 5h110q5 0 5 -5v-694q0 -5 -5 -5h-110q-5 0 -5 5v456v0z" />
    <glyph glyph-name="two" unicode="2" horiz-adv-x="568" 
d="M490 5q0 -5 -5 -5h-447q-5 0 -5 5v92q0 8 5 13l268 266l17.5 17.5t22 27t18 34t7.5 39.5q0 18 -6.5 37t-19.5 35t-34 26.5t-50 10.5q-25 0 -45 -9.5t-34.5 -25.5t-22 -35.5t-7.5 -38.5q0 -5 -5 -5h-109q-5 0 -5 5q0 46 17 86.5t47 70t72 46.5t92 17q54 0 96.5 -17
t72.5 -47t45.5 -70t15.5 -86q0 -39 -10.5 -70t-25.5 -55.5t-32.5 -43t-30.5 -30.5l-190 -176q-2 -2 -1.5 -5.5t4.5 -3.5h280q5 0 5 -5v-100z" />
    <glyph glyph-name="three" unicode="3" horiz-adv-x="580" 
d="M34 494q0 46 16 86.5t45 70t70 46.5t91 17t91.5 -16.5t71 -45t45.5 -66t16 -80.5q0 -29 -8 -52t-20 -41t-27 -31t-28 -21q-4 -2 -3.5 -5t3.5 -5q13 -7 29.5 -20.5t30 -33.5t23 -46t9.5 -57q0 -41 -14 -77.5t-43 -64.5t-73 -45t-103 -17q-57 0 -100 17.5t-71 47t-42 68.5
t-14 81q0 5 5 5h110q5 0 5 -5q0 -14 6 -31.5t18.5 -34t33 -27.5t49.5 -11q25 0 46 8t36 21.5t23 30.5t8 34q0 28 -9.5 48t-25 33t-36 19.5t-42.5 6.5h-33q-5 0 -5 5v100q0 5 5 5h33q19 0 38 5.5t33.5 17t23.5 29.5t9 43q0 18 -7.5 35.5t-21 31.5t-32.5 22.5t-43 8.5
q-23 0 -42 -10t-32.5 -25.5t-21 -35.5t-7.5 -39q0 -5 -5 -5h-109q-5 0 -5 5z" />
    <glyph glyph-name="four" unicode="4" horiz-adv-x="613" 
d="M565 156q0 -5 -5 -5h-103q-5 0 -5 -5v-141q0 -5 -5 -5h-110q-5 0 -5 5v141q0 5 -5 5h-329q-5 0 -5 5v92q0 6 1.5 10.5t3.5 7.5l322 433q2 5 7 5h120q5 0 5 -5v-433q0 -5 4 -5h104q5 0 5 -5v-100zM139 270q-2 -5 0 -7t4 -2h184q5 0 5 5v254q0 4 -4 4t-6 -3z" />
    <glyph glyph-name="five" unicode="5" horiz-adv-x="599" 
d="M208 594q-6 0 -6 -5l-15 -133q-1 -5 2.5 -6t5.5 1q13 13 43.5 26t62.5 13q52 0 96 -18t76 -50.5t49.5 -78t17.5 -100.5q0 -59 -18.5 -105.5t-51.5 -79.5t-78.5 -50.5t-100.5 -17.5q-64 0 -110 20.5t-75.5 51.5t-43.5 68.5t-14 72.5q0 6 5 6h110q5 0 5 -5q0 -19 10 -37.5
t26.5 -33.5t39 -24t47.5 -9q56 0 90 38t34 105q0 60 -34 98.5t-90 38.5q-36 0 -68.5 -16t-50.5 -51q-2 -3 -5 -3h-109q-5 0 -5 5l45 384q0 5 5 5h382q5 0 5 -5v-101q0 -4 -7 -4h-275z" />
    <glyph glyph-name="six" unicode="6" horiz-adv-x="608" 
d="M263 490q-2 -3 -0.5 -6t6.5 -2q3 1 15.5 2.5t22.5 1.5q48 0 89.5 -17.5t72 -50t48.5 -78t18 -100.5t-17 -101t-49 -79t-78.5 -51.5t-104.5 -18.5q-59 0 -105 18.5t-77.5 51.5t-48.5 79t-17 101q0 40 11 78.5t27 67.5l166 314q2 4 5 4h120q7 0 5 -7zM410 240q0 28 -7.5 53
t-22.5 44.5t-38.5 31t-55.5 11.5t-55 -11.5t-38 -31t-22.5 -44.5t-7.5 -53t7.5 -53t22.5 -44.5t38 -31t55 -11.5t55.5 11.5t38.5 31t22.5 44.5t7.5 53z" />
    <glyph glyph-name="seven" unicode="7" horiz-adv-x="519" 
d="M471 599q0 -2 -0.5 -5.5t-2.5 -8.5l-224 -580q-2 -5 -6 -5h-116q-6 0 -4 5l227 580q2 5 0 7t-4 2h-323q-5 0 -5 5v100q0 5 5 5h448q5 0 5 -5v-100z" />
    <glyph glyph-name="eight" unicode="8" horiz-adv-x="621" 
d="M58 194q0 31 9.5 57t23.5 46t30 33.5t30 20.5q3 2 3.5 5t-3.5 5q-14 8 -28.5 21t-26.5 31t-20 41t-8 52q0 43 16 80.5t45.5 66t71 45t91.5 16.5h1h1q50 0 91.5 -16.5t71 -45t45.5 -66t16 -80.5q0 -29 -8 -52t-20 -41t-27 -31t-28 -21q-4 -2 -3.5 -5t3.5 -5
q13 -7 29.5 -20.5t30.5 -33.5t23.5 -46t9.5 -57q0 -41 -14.5 -77.5t-43.5 -65t-73 -45t-104 -16.5t-104 16.5t-73 45t-43.5 65t-14.5 77.5zM408 194q0 28 -9.5 48.5t-25.5 34t-37 19.5t-43 6q-24 0 -44.5 -6.5t-36.5 -20t-25 -34t-9 -47.5q0 -17 8.5 -34t23.5 -30.5
t36 -21.5t47 -8q25 0 46.5 8t36.5 21.5t23.5 30.5t8.5 34zM292 604q-24 0 -43 -8.5t-32.5 -22.5t-21 -31.5t-7.5 -35.5q0 -25 9 -43t23.5 -29t33.5 -16.5t39 -5.5t39 5.5t33.5 16.5t23.5 29t9 43q0 18 -7.5 35.5t-21 31.5t-32.5 22.5t-43 8.5h-2z" />
    <glyph glyph-name="nine" unicode="9" horiz-adv-x="608" 
d="M310 214q2 3 0.5 6t-6.5 2q-3 -1 -15.5 -2.5t-22.5 -1.5q-48 0 -89.5 17.5t-72 50t-48.5 77.5t-18 101q0 55 17 101t49 79t78 51.5t105 18.5q58 0 104.5 -18.5t78 -51.5t48.5 -79t17 -101q0 -40 -11 -78.5t-27 -67.5l-166 -314q-2 -4 -5 -4h-120q-7 0 -5 7zM163 464
q0 -28 7.5 -53t22.5 -44.5t38.5 -31t55.5 -11.5q31 0 54.5 11.5t38.5 31t22.5 44.5t7.5 53t-7.5 53t-22.5 44.5t-38.5 31t-54.5 11.5q-32 0 -55.5 -11.5t-38.5 -31t-22.5 -44.5t-7.5 -53z" />
    <glyph glyph-name="colon" unicode=":" horiz-adv-x="240" 
d="M28 0q-5 0 -5 5v152q0 5 5 5h149q5 0 5 -5v-152q0 -5 -5 -5h-149zM28 344q-5 0 -5 5v152q0 5 5 5h149q5 0 5 -5v-152q0 -5 -5 -5h-149z" />
    <glyph glyph-name="semicolon" unicode=";" horiz-adv-x="241" 
d="M29 344q-5 0 -5 5v152q0 5 5 5h149q5 0 5 -5v-152q0 -5 -5 -5h-149zM28 0q-5 0 -5 5v152q0 5 5 5h149q5 0 5 -5v-151q0 -25 -8 -48t-26 -41t-47.5 -29t-72.5 -11q-5 0 -5 5v55q0 5 5 5q45 0 61.5 17t16.5 36q0 5 -5 5h-73z" />
    <glyph glyph-name="less" unicode="&#x3c;" horiz-adv-x="539" 
d="M23 307q0 3 3 5l448 193q7 3 7 -5v-78q0 -3 -3 -4l-367 -162q-4 -2 -4 -5t4 -5l367 -158q3 -2 3 -4v-78q0 -3 -2 -5t-5 0l-448 189q-3 1 -3 5v112z" />
    <glyph glyph-name="equal" unicode="=" horiz-adv-x="531" 
d="M24 96q-5 0 -5 5v100q0 5 5 5h447q5 0 5 -5v-100q0 -5 -5 -5h-447zM24 303q-5 0 -5 5v100q0 5 5 5h447q5 0 5 -5v-100q0 -5 -5 -5h-447z" />
    <glyph glyph-name="greater" unicode="&#x3e;" horiz-adv-x="539" 
d="M481 195q0 -4 -3 -5l-448 -189q-3 -2 -5 0t-2 5v78q0 2 3 4l367 158q4 2 4 5t-4 5l-367 162q-3 1 -3 4v78q0 8 7 5l448 -193q3 -2 3 -5v-112z" />
    <glyph glyph-name="question" unicode="?" horiz-adv-x="531" 
d="M475 505q0 -46 -10.5 -74t-30 -48t-47.5 -36t-62 -37q-16 -10 -18.5 -23t-2.5 -25v-44q0 -5 -5 -5h-111q-4 0 -4 5v44q0 33 5 55.5t15 39t24.5 28t32.5 20.5q31 16 50 28.5t28.5 24t12.5 22.5t3 25q0 35 -29 62t-87 27q-25 0 -44.5 -7.5t-33 -19.5t-20.5 -28t-7 -34v-11
q0 -5 -5 -5h-108q-5 0 -5 5v11q0 43 16.5 80.5t45.5 66t70 45t91 16.5q54 0 97.5 -16.5t74.5 -45t47.5 -66t16.5 -80.5zM164 157q0 5 5 5h151q5 0 5 -5v-152q0 -5 -5 -5h-151q-5 0 -5 5v152z" />
    <glyph glyph-name="at" unicode="@" horiz-adv-x="1006" 
d="M420 -208q-111 0 -193.5 39.5t-133.5 107t-68.5 157t2.5 188.5t68 178.5t117.5 135.5t158.5 86t190 30q96 0 173 -33.5t127 -94t70 -144t1 -183.5q-14 -77 -40.5 -129t-59 -83t-68 -44t-68.5 -13q-21 0 -37 9t-27 21.5t-17.5 25.5t-7.5 21q-1 2 -3.5 3t-4.5 -2
q-15 -20 -37 -34.5t-46.5 -24.5t-49.5 -14.5t-47 -4.5q-59 0 -102 19.5t-69.5 54t-36 83t0.5 106.5q11 66 39.5 115.5t69.5 82t91 49t105 16.5q25 0 45.5 -6.5t35.5 -15.5t24.5 -18.5t13.5 -15.5q2 -4 5.5 -3t5.5 5l14 39q2 5 8 5h89q6 0 4 -5l-78 -375q-2 -7 -2 -15.5
t3 -16t10 -12.5t20 -5q41 0 77 52.5t53 144.5q18 94 2 163.5t-58 115.5t-107 69t-146 23q-78 0 -148.5 -29t-126.5 -80t-94.5 -120.5t-53.5 -150.5q-14 -78 -0.5 -150.5t53 -128t106 -89t158.5 -33.5q45 0 86.5 8.5t79 22t71.5 30.5t65 34q5 3 5 -3v1l-18 -85q-2 -6 -5 -8
q-21 -14 -53 -27t-71 -23t-82.5 -16t-87.5 -6zM326 253q-16 -81 9.5 -128.5t91.5 -47.5t114 47.5t64 128.5q17 91 -12 133.5t-95 42.5t-111 -47.5t-61 -128.5z" />
    <glyph glyph-name="A" unicode="A" horiz-adv-x="723" 
d="M210 145q-5 0 -7 -5l-6 -19l-37 -116q-1 -5 -6 -5h-115q-7 0 -5 7l222 692q2 5 6 5h180q4 0 6 -5l221 -692q2 -7 -5 -7h-115q-4 0 -6 5l-33 105l-10 30q-2 5 -7 5h-283zM241 260q-2 -5 4 -5h214q5 0 3 5l-105 330q-2 4 -5 4t-5 -4z" />
    <glyph glyph-name="B" unicode="B" horiz-adv-x="666" 
d="M603 206q0 -46 -15 -84t-42.5 -65t-65.5 -42t-84 -15h-333q-5 0 -5 5v694q0 5 5 5h333q42 0 77 -16.5t60 -44.5t39 -65.5t14 -79.5q0 -21 -6.5 -42t-17 -39.5t-24.5 -33t-30 -22.5q-4 -2 -4 -5t4 -5q18 -9 35.5 -24t30.5 -33.5t21 -41t8 -46.5zM379 110q20 0 38.5 8
t33 21.5t23.5 31t9 35.5t-7.5 35.5t-21 31t-31 21.5t-37.5 8h-204q-4 0 -4 -5v-182q0 -5 5 -5h196zM468 498q0 18 -5.5 35.5t-16 31t-25.5 21.5t-35 8h-204q-4 0 -4 -4v-173q0 -5 4 -5h197q16 1 32 7.5t28.5 18t20.5 27t8 33.5z" />
    <glyph glyph-name="C" unicode="C" horiz-adv-x="703" 
d="M353 101q48 0 79.5 16.5t51 38.5t29 43.5t12.5 30.5q2 5 6 5h114q5 0 5 -5q0 -11 -5.5 -33.5t-19 -49t-35.5 -54.5t-55 -51t-78 -37.5t-104 -14.5q-79 0 -138 25.5t-98.5 72.5t-59 112t-19.5 145q0 79 19.5 146.5t59 117t98.5 77.5t138 28q56 0 99.5 -13.5t76.5 -35
t56 -48.5t37.5 -53.5t21 -50.5t6.5 -39q0 -5 -5 -5h-115q-4 0 -6 5q-4 11 -13 32.5t-28.5 43t-50.5 37.5t-79 16q-45 0 -80.5 -19t-59.5 -53t-37 -81.5t-13 -104.5q0 -115 49.5 -179.5t140.5 -64.5z" />
    <glyph glyph-name="D" unicode="D" horiz-adv-x="708" 
d="M320 110q91 0 140.5 60t49.5 175q0 57 -13 103t-37 78.5t-59.5 50t-80.5 17.5h-138q-4 0 -4 -4v-475q0 -5 5 -5h137zM63 0q-5 0 -5 5v694q0 5 5 5h257q79 0 138 -27t98.5 -74.5t59 -113t19.5 -144.5q0 -80 -19.5 -143.5t-59 -108.5t-98.5 -69t-138 -24h-257z" />
    <glyph glyph-name="E" unicode="E" horiz-adv-x="632" 
d="M548 110q5 0 5 -5v-100q0 -5 -5 -5h-489q-5 0 -5 5v694q0 5 5 5h489q5 0 5 -5v-100q0 -5 -5 -5h-369q-5 0 -5 -5v-172q0 -5 5 -5h319q5 0 5 -5v-100q0 -5 -5 -5h-319q-5 0 -5 -5v-182q0 -5 5 -5h369z" />
    <glyph glyph-name="F" unicode="F" horiz-adv-x="600" 
d="M63 0q-5 0 -5 5v694q0 5 5 5h489q5 0 5 -5v-100q0 -5 -5 -5h-370q-4 0 -4 -4v-174q0 -4 4 -4h320q5 0 5 -5v-100q0 -5 -5 -5h-320q-4 0 -4 -4v-293q0 -5 -5 -5h-110v0z" />
    <glyph glyph-name="G" unicode="G" horiz-adv-x="738" 
d="M355 603q-45 0 -80.5 -18t-60.5 -50.5t-38 -79t-13 -103.5q0 -118 49 -184.5t143 -66.5q37 0 71 8.5t61 29t43.5 55.5t19.5 89v10q0 4 -4 4h-187q-4 0 -4 5v99q0 5 4 5h296q5 0 5 -5v-397q0 -4 -5 -4h-91q-4 0 -5 4l-10 52q-2 8 -10 2q-35 -29 -79 -48.5t-105 -19.5
q-75 0 -134 26.5t-99.5 74.5t-62 114.5t-21.5 146.5q0 79 21.5 145.5t62 114.5t99.5 75t134 27q65 0 114 -15.5t84 -42.5t58 -63.5t35 -79.5q2 -7 -5 -7h-118q-7 0 -9 2.5t-3 4.5q-23 46 -64.5 68t-91.5 22z" />
    <glyph glyph-name="H" unicode="H" horiz-adv-x="683" 
d="M480 0q-5 0 -5 5v293q0 4 -4 4h-283q-4 0 -4 -4v-293q0 -5 -5 -5h-110q-5 0 -5 5v694q0 5 5 5h110q5 0 5 -5v-283q0 -4 4 -4h283q4 0 4 4v283q0 5 5 5h110q5 0 5 -5v-694q0 -5 -5 -5h-110z" />
    <glyph glyph-name="I" unicode="I" horiz-adv-x="261" 
d="M58 0q-5 0 -5 5v694q0 5 5 5h110q5 0 5 -5v-694q0 -5 -5 -5h-110z" />
    <glyph glyph-name="J" unicode="J" horiz-adv-x="502" 
d="M421 205q0 -45 -9 -84t-32 -68t-63 -46t-101 -17q-57 0 -96 17t-62.5 46t-34 68t-10.5 84v25q0 5 5 5h109q5 0 5 -5v-25q0 -18 2.5 -36.5t11 -34.5t25.5 -26t46 -10q28 0 45 10t25.5 26t11 34.5t2.5 36.5v494q0 5 5 5h110q5 0 5 -5v-494z" />
    <glyph glyph-name="K" unicode="K" horiz-adv-x="643" 
d="M481 0q-3 0 -5 3t-4 5l-214 325q-3 3 -5 1l-69 -70l-4.5 -4.5t-1.5 -6.5v-248q0 -5 -5 -5h-110q-5 0 -5 5v694q0 5 5 5h110q5 0 5 -5v-269q0 -2 2.5 -3.5t4.5 0.5l278 276q1 1 4 1h146q4 0 5 -3.5t-1 -5.5l-275 -272q-3 -3 0 -7l270 -408q4 -8 -4 -8h-127z" />
    <glyph glyph-name="L" unicode="L" horiz-adv-x="561" 
d="M59 0q-5 0 -5 5v694q0 5 5 5h110q5 0 5 -5v-585q0 -4 4 -4h340q5 0 5 -5v-100q0 -5 -5 -5h-459z" />
    <glyph glyph-name="M" unicode="M" horiz-adv-x="869" 
d="M665 0q-5 0 -5 5v577q0 4 -4 4.5t-6 -4.5l-131 -579q0 -3 -5 -3h-185q-5 0 -5 3l-130 579q-2 5 -6 4.5t-4 -4.5v-577q0 -5 -5 -5h-110q-5 0 -5 5v694q0 5 5 5h208q6 0 7 -5l133 -575q2 -5 5 -5t5 5l133 575q1 5 6 5h209q5 0 5 -5v-694q0 -5 -5 -5h-110z" />
    <glyph glyph-name="N" unicode="N" horiz-adv-x="717" 
d="M623 704q5 0 5 -5v-694q0 -5 -5 -5h-149q-5 0 -7 5l-273 526q-2 5 -6 4.5t-4 -4.5v-526q0 -5 -5 -5h-111q-4 0 -4 5v694q0 5 5 5h149q3 0 6 -5l274 -526q2 -5 6 -4.5t4 4.5v526q0 5 5 5h110z" />
    <glyph glyph-name="O" unicode="O" horiz-adv-x="745" 
d="M672 352q0 -80 -20 -146.5t-59.5 -114.5t-99 -74.5t-138.5 -26.5t-138.5 26.5t-99 74.5t-59.5 114.5t-20 146.5q0 79 20 145.5t59.5 114.5t99 75t138.5 27t138.5 -27t99 -75t59.5 -114.5t20 -145.5zM355 100q94 0 143 67t49 185t-49 185t-143 67t-143 -67t-49 -185
t49 -185t143 -67z" />
    <glyph glyph-name="P" unicode="P" horiz-adv-x="615" 
d="M567 487q0 -46 -17 -85.5t-46 -69t-67.5 -46t-80.5 -16.5h-174q-4 0 -4 -4v-261q0 -5 -5 -5h-110q-5 0 -5 5v694q0 5 5 5h293q42 0 80.5 -17t67.5 -46t46 -68.5t17 -85.5zM346 380q20 0 38.5 8.5t32.5 23t22.5 34t8.5 41.5t-8.5 41.5t-22.5 34t-32.5 23t-38.5 8.5h-164
q-4 0 -4 -4v-205q0 -5 5 -5h163z" />
    <glyph glyph-name="Q" unicode="Q" horiz-adv-x="751" 
d="M672 352q0 -79 -21.5 -148t-59.5 -117q-5 -7 -1 -11l111 -107q2 -2 1 -5.5t-5 -3.5h-118q-5 0 -9 4l-56 56q-4 4 -11 1q-29 -12 -70 -21t-82 -10q-78 -2 -137 25t-98 75.5t-58.5 115.5t-19.5 146t20 145.5t59.5 114.5t99 75t138.5 27t138.5 -27t99 -75t59.5 -114.5
t20 -145.5zM505 174q20 31 31 77t11 101q0 118 -49 184.5t-143 66.5t-143 -66.5t-49 -184.5q0 -115 47 -183t136 -68q11 0 29.5 1.5t38.5 6.5q3 1 3 4t-2 5l-104 103q-2 2 -1 5.5t5 3.5h118q5 0 8 -3l55 -54q5 -5 9 1z" />
    <glyph glyph-name="R" unicode="R" horiz-adv-x="639" 
d="M567 487q0 -63 -30.5 -113t-78.5 -77q-1 -1 0 -4l127 -286q3 -7 -5 -7h-115q-2 0 -5 3l-116 262q-3 5 -5 5h-157q-4 0 -4 -4v-261q0 -5 -5 -5h-110q-5 0 -5 5v694q0 5 5 5h293q42 0 80.5 -17t67.5 -46t46 -68.5t17 -85.5zM350 380q19 1 37 9.5t31.5 23t21.5 33.5t8 41
t-8.5 41.5t-22.5 34t-32.5 23t-38.5 8.5h-164q-4 0 -4 -4v-205q0 -5 5 -5h167z" />
    <glyph glyph-name="S" unicode="S" horiz-adv-x="630" 
d="M574 206q0 -50 -18.5 -89.5t-53.5 -68t-85 -43.5t-113 -15q-75 0 -127 18.5t-84.5 47.5t-47.5 65.5t-15 71.5q0 5 5 5h115q5 0 5 -5q0 -18 11.5 -35t31.5 -29.5t47 -20.5t59 -8q31 0 57.5 8.5t46 22.5t30.5 33.5t11 41.5q0 33 -34 61t-111 35q-62 6 -111.5 18.5t-84.5 36
t-54 60t-19 89.5q0 49 21.5 88t56.5 65.5t79.5 40.5t91.5 14q50 0 96 -13.5t81.5 -39.5t56.5 -63.5t21 -86.5q0 -5 -4 -5h-116q-5 0 -5 5q0 16 -8.5 32.5t-25 30t-41 22t-55.5 8.5q-26 0 -48.5 -7.5t-39 -21t-26.5 -31.5t-10 -38q0 -23 13 -38t33.5 -24t46 -14t51.5 -8
t56.5 -7.5t60.5 -13.5t57.5 -23.5t49 -37.5t34 -56t12.5 -78z" />
    <glyph glyph-name="T" unicode="T" horiz-adv-x="571" 
d="M328 5q0 -5 -5 -5h-110q-5 0 -5 5v584q0 5 -5 5h-185q-5 0 -5 5v100q0 5 5 5h500q5 0 5 -5v-100q0 -5 -5 -5h-185q-5 0 -5 -5v-584z" />
    <glyph glyph-name="U" unicode="U" horiz-adv-x="640" 
d="M558 244q0 -53 -20 -99t-54.5 -80.5t-81 -54.5t-99.5 -20t-99.5 20t-81 54.5t-54.5 80.5t-20 99v455q0 5 5 5h110q5 0 5 -5v-455q0 -28 10.5 -52.5t29 -42.5t43 -28.5t52.5 -10.5t52.5 10.5t43 28.5t29 42.5t10.5 52.5v455q0 5 5 5h110q5 0 5 -5v-455z" />
    <glyph glyph-name="V" unicode="V" horiz-adv-x="722" 
d="M349 122q2 -4 5 -4t5 4l187 579q1 3 5 3h115q7 0 5 -7l-224 -692q-2 -5 -6 -5h-174q-4 0 -6 5l-225 692q-2 7 5 7h115q3 0 5 -3z" />
    <glyph glyph-name="W" unicode="W" horiz-adv-x="1017" 
d="M718 123q1 -5 5 -5t5 5l102 576q1 5 6 5h122q7 0 5 -7l-138 -692q-2 -5 -6 -5h-192q-5 0 -6 5l-117 577q-1 5 -5.5 5t-5.5 -5l-117 -577q-2 -5 -5 -5h-193q-5 0 -6 5l-138 692q-2 7 5 7h122q5 0 6 -5l103 -576q1 -5 5 -4.5t5 4.5l116 576q1 5 6 5h193q5 0 6 -5z" />
    <glyph glyph-name="X" unicode="X" horiz-adv-x="666" 
d="M14 696q-2 3 -0.5 5.5t4.5 2.5h132q2 0 4 -3t4 -5l154 -239q3 -5 6 0l155 239q2 2 4 5t4 3h132q3 0 4.5 -2.5t-0.5 -5.5l-230 -341q-2 -4 0 -7l230 -340q2 -2 0.5 -5t-4.5 -3h-131q-3 0 -5 3t-4 5l-155 240q-3 4 -6 0l-154 -240q-2 -3 -4 -5.5t-5 -2.5h-131
q-3 0 -4.5 2.5t0.5 5.5l230 340q2 3 0 7z" />
    <glyph glyph-name="Y" unicode="Y" horiz-adv-x="679" 
d="M268 0q-5 0 -5 5v282q0 4 -2 7l-239 402q-4 8 4 8h131q4 0 7 -5l155 -285q4 -6 8 0l156 285q2 5 8 5h130q2 0 4 -2t0 -6l-240 -402q-2 -3 -2 -7v-282q0 -5 -5 -5h-110v0z" />
    <glyph glyph-name="Z" unicode="Z" horiz-adv-x="577" 
d="M20 0q-5 0 -5 5v93q0 5 1.5 7.5t3.5 4.5l343 476q2 2 1 5t-5 3h-339q-5 0 -5 5v100q0 5 4 5h499q5 0 5 -5v-95q0 -6 -3 -10l-345 -476q-2 -2 -1 -5t5 -3h339q5 0 5 -5v-100q0 -5 -5 -5h-498z" />
    <glyph glyph-name="bracketleft" unicode="[" horiz-adv-x="326" 
d="M286 -128q5 0 5 -4v-61q0 -5 -5 -5h-228q-5 0 -5 5v892q0 5 5 5h228q5 0 5 -5v-61q0 -4 -5 -4h-128q-5 0 -5 -5v-752q0 -5 5 -5h128z" />
    <glyph glyph-name="backslash" unicode="\" horiz-adv-x="367" 
d="M14 697q-2 7 5 7h75q3 0 5 -3l219 -694q2 -7 -5 -7h-74q-4 0 -5 3z" />
    <glyph glyph-name="bracketright" unicode="]" horiz-adv-x="326" 
d="M143 -128q5 0 5 5v752q0 5 -5 5h-128q-5 0 -5 4v61q0 5 5 5h228q5 0 5 -5v-892q0 -5 -5 -5h-228q-5 0 -5 5v61q0 4 5 4h128z" />
    <glyph glyph-name="asciicircum" unicode="^" horiz-adv-x="568" 
d="M272 590q-1 4 -5 4t-5 -4l-122 -293q-2 -3 -5 -3h-116q-3 0 -5 2t0 5l166 398q2 5 6 5h162q4 0 6 -5l165 -398q3 -7 -5 -7h-115q-4 0 -5 3z" />
    <glyph glyph-name="underscore" unicode="_" horiz-adv-x="619" 
d="M68 0q-5 0 -5 5v90q0 5 5 5h448q5 0 5 -5v-90q0 -5 -5 -5h-448z" />
    <glyph glyph-name="grave" unicode="`" horiz-adv-x="299" 
d="M125 562q-4 0 -6.5 2.5l-4.5 4.5l-83 128q-2 3 0 5t5 2h117q8 0 10 -7l54 -128q3 -7 -5 -7h-87z" />
    <glyph glyph-name="a" unicode="a" horiz-adv-x="591" 
d="M382 48q-20 -20 -59 -39t-99 -19q-51 0 -88.5 12.5t-61.5 34t-36 51t-12 63.5q0 32 13.5 61.5t41 52t68.5 35.5t96 13h94q15 0 22.5 7t7.5 15t-2.5 20t-13 23.5t-31.5 19.5t-58 8q-29 0 -47.5 -5.5t-30 -14.5t-17 -21t-6.5 -25q0 -5 -5 -5h-109q-5 0 -5 5q0 44 18 77
t48 55t70 33t84 11q104 0 164.5 -48t60.5 -142v-194q0 -15 10 -23.5t26 -8.5h15q5 0 5 -5v-90q0 -5 -5 -5h-51q-39 0 -61.5 13.5t-36.5 34.5q-4 5 -9 0zM224 100q39 0 66.5 10t45 25.5t25.5 34.5t8 38q0 5 -5 5h-114q-33 0 -53.5 -6t-32 -15t-15 -20t-3.5 -21q0 -8 3.5 -17
t12.5 -16.5t24 -12.5t38 -5z" />
    <glyph glyph-name="b" unicode="b" horiz-adv-x="609" 
d="M194 37q-7 7 -11 0l-10 -32q-3 -5 -10 -5h-95q-5 0 -5 5v694q0 5 5 5h110q5 0 5 -5v-228q0 -4 3 -5t6 2q15 15 48.5 31.5t81.5 16.5q49 0 91 -19t73 -54t48 -83.5t17 -106.5q0 -59 -16 -107t-45.5 -83t-72 -54t-95.5 -19q-38 0 -74 14.5t-54 32.5zM431 253
q0 68 -32.5 110.5t-96.5 42.5q-60 0 -89.5 -39t-29.5 -114q0 -68 29.5 -110.5t89.5 -42.5q64 0 96.5 42.5t32.5 110.5z" />
    <glyph glyph-name="c" unicode="c" horiz-adv-x="562" 
d="M278 516q96 0 158 -47.5t75 -128.5q1 -5 -5 -5h-113q-5 0 -7 5q-13 33 -38.5 51.5t-69.5 18.5q-32 0 -55 -12t-38.5 -33t-23 -50t-7.5 -62t7.5 -62t23 -50t38.5 -33t55 -12q50 0 73.5 18.5t36.5 51.5q2 5 7 5h113q6 0 5 -5q-16 -86 -78 -131t-157 -45q-59 0 -104.5 19
t-76.5 54t-47.5 83t-16.5 107t16.5 107.5t47.5 83t76.5 53.5t104.5 19z" />
    <glyph glyph-name="d" unicode="d" horiz-adv-x="609" 
d="M390 37q-18 -18 -54 -32.5t-74 -14.5q-53 0 -95.5 19t-72 54t-45.5 83t-16 107q0 58 17 106.5t48 83.5t72.5 54t91.5 19q48 0 81.5 -16.5t48.5 -31.5q3 -3 6 -2t3 5v228q0 5 5 5h110q5 0 5 -5v-694q0 -5 -5 -5h-95q-8 0 -10 5l-10 32q-4 7 -11 0zM153 253
q0 -68 32.5 -110.5t96.5 -42.5q60 0 89.5 42.5t29.5 110.5q0 75 -29.5 114t-89.5 39q-64 0 -96.5 -42.5t-32.5 -110.5z" />
    <glyph glyph-name="e" unicode="e" horiz-adv-x="571" 
d="M506 212q-2 -5 -5 -5h-348q-5 0 -5 -5q0 -21 8.5 -39.5t24.5 -32.5t37.5 -22t48.5 -8q33 0 58.5 9.5t38.5 35.5q2 5 8 5h117q7 0 5 -5q-17 -73 -79 -114t-148 -41q-55 0 -100 19t-77 54t-49.5 83t-17.5 107t17.5 107.5t49.5 83t77 53.5t100 19t100 -19t77 -54t49.5 -83.5
t17.5 -106.5q-1 -15 -2 -23.5t-3 -17.5zM379 307q4 0 4 4q0 15 -6.5 31.5t-20.5 31t-36 23.5t-53 9q-30 0 -52.5 -9.5t-37.5 -23.5t-22 -30.5t-7 -31.5q0 -4 4 -4h227z" />
    <glyph glyph-name="f" unicode="f" horiz-adv-x="365" 
d="M90 506q5 0 5 4v53q0 71 42 106.5t107 34.5h79q4 0 4 -5v-100q0 -5 -5 -5h-71q-15 0 -25.5 -8.5t-10.5 -23.5v-52q0 -4 5 -4h102q5 0 5 -5v-95q0 -5 -5 -5h-102q-5 0 -5 -5v-391q0 -5 -5 -5h-110q-5 0 -5 5v391q0 5 -5 5h-82q-5 0 -5 5v95q0 5 5 5h82z" />
    <glyph glyph-name="g" unicode="g" horiz-adv-x="594" 
d="M24 253q0 58 18 106.5t49 83.5t72.5 54t88.5 19q44 0 79 -13.5t57 -34.5q5 -5 8 0l10 32q2 6 10 6h95q5 0 5 -5v-486q0 -51 -18.5 -92t-51.5 -70t-77.5 -45t-96.5 -16q-48 0 -89 13.5t-71.5 36t-47.5 52.5t-17 63q0 5 5 5h108q4 0 6 -5q1 -5 7 -14.5t18.5 -18.5t32 -15.5
t48.5 -6.5q35 0 58 9.5t37.5 25t21 36t7.5 42.5v17v4q0 3 -3 4t-5 -1q-6 -6 -18 -14.5t-29.5 -16t-40 -13t-48.5 -5.5q-47 0 -88.5 19t-72.5 54t-49 83t-18 107zM144 253q0 -68 32 -110.5t96 -42.5q63 0 93.5 39t30.5 114q0 68 -30.5 110.5t-93.5 42.5q-64 0 -96 -42.5
t-32 -110.5z" />
    <glyph glyph-name="h" unicode="h" horiz-adv-x="593" 
d="M399 0q-5 0 -5 5v273q0 22 -6 44.5t-19.5 40t-34.5 28.5t-51 11q-29 0 -50 -9.5t-34.5 -25t-19.5 -36.5t-6 -43v-283q0 -5 -5 -5h-110q-5 0 -5 5v694q0 5 5 5h110q5 0 5 -5v-227q0 -5 3 -6t7 3t14.5 12t26.5 15.5t36 13.5t43 6q55 0 94.5 -19.5t65.5 -52.5t38.5 -76
t12.5 -90v-273q0 -5 -5 -5h-110z" />
    <glyph glyph-name="i" unicode="i" horiz-adv-x="281" 
d="M58 562q-5 0 -5 5v132q0 5 5 5h130q5 0 5 -5v-132q0 -5 -5 -5h-130zM68 0q-5 0 -5 5v496q0 5 5 5h110q5 0 5 -5v-496q0 -5 -5 -5h-110z" />
    <glyph glyph-name="j" unicode="j" horiz-adv-x="286" 
d="M206 -57q0 -75 -38 -108.5t-110 -32.5h-78q-4 0 -4 5v100q0 5 5 5h69q15 -2 25.5 7.5t10.5 24.5v557q0 5 5 5h110q5 0 5 -5v-558zM81 562q-5 0 -5 5v132q0 5 5 5h130q5 0 5 -5v-132q0 -5 -5 -5h-130z" />
    <glyph glyph-name="k" unicode="k" horiz-adv-x="601" 
d="M264 253q-11 -10 -25 -22.5t-28 -23.5q-16 -13 -32 -28q-3 -2 -4.5 -4t-1.5 -7v-163q0 -5 -5 -5h-110q-5 0 -5 5v694q0 5 5 5h110q5 0 5 -5v-365q0 -2 2.5 -3.5t4.5 0.5l196 169q7 5 10 5h161q4 0 5 -3.5t-2 -5.5l-190 -162q-3 -3 0 -7l188 -319q4 -8 -4 -8h-123
q0 1 -1 1q-2 0 -2 1l-147 251q-2 5 -7 0z" />
    <glyph glyph-name="l" unicode="l" horiz-adv-x="253" 
d="M58 0q-5 0 -5 5v694q0 5 5 5h110q5 0 5 -5v-694q0 -5 -5 -5h-110z" />
    <glyph glyph-name="m" unicode="m" horiz-adv-x="846" 
d="M656 0q-5 0 -5 5v277q0 22 -4.5 44.5t-15 40t-28 28.5t-43.5 11t-43 -9.5t-27.5 -26t-15 -39.5t-4.5 -49v-277q0 -5 -5 -5h-110q-5 0 -5 5v277q0 22 -4.5 44.5t-15 40t-28 28.5t-43.5 11t-43 -9.5t-27.5 -26t-15 -39.5t-4.5 -49v-277q0 -5 -5 -5h-110q-5 0 -5 5v496
q0 5 5 5h95q7 0 10 -6l10 -30q4 -7 9 -2q8 8 21.5 16.5t30 15.5t34.5 11.5t35 4.5q45 0 77.5 -16.5t52.5 -42.5q4 -6 8 0q21 23 53 41t80 18q94 0 147.5 -55.5t53.5 -172.5v-283q0 -5 -5 -5h-110z" />
    <glyph glyph-name="n" unicode="n" horiz-adv-x="583" 
d="M178 469q8 8 21.5 16.5t30 15t34 11t33.5 4.5q59 0 99.5 -19.5t65 -52.5t35.5 -76t11 -90v-273q0 -5 -5 -5h-110q-5 0 -5 5v273q0 22 -6 45t-19.5 41.5t-34.5 30t-51 11.5q-29 0 -50 -10t-34.5 -26.5t-19.5 -38t-6 -43.5v-283q0 -5 -5 -5h-110q-5 0 -5 5v496q0 5 5 5h95
q8 0 9 -5l11 -31q2 -3 5 -4t6 3z" />
    <glyph glyph-name="o" unicode="o" horiz-adv-x="588" 
d="M530 253q0 -59 -17 -107t-49 -83t-78.5 -54t-104.5 -19q-59 0 -105 19t-77.5 54t-48.5 83t-17 107t17 107.5t48.5 83t77.5 53.5t105 19q58 0 104.5 -19t78.5 -54t49 -83.5t17 -106.5zM410 253q0 71 -32.5 112t-96.5 41q-63 0 -95.5 -41t-32.5 -112t32.5 -112t95.5 -41
q64 0 96.5 41t32.5 112z" />
    <glyph glyph-name="p" unicode="p" horiz-adv-x="609" 
d="M184 469q18 18 54 32.5t74 14.5q53 0 95.5 -19t72 -54t45.5 -83.5t16 -106.5q0 -59 -17 -107t-48 -83t-73 -54t-91 -19q-48 0 -81.5 16.5t-48.5 31.5q-3 3 -6 2t-3 -5v-228q0 -5 -5 -5h-110q-5 0 -5 5v694q0 5 5 5h95q7 0 10 -5l10 -32q4 -7 11 0zM421 253
q0 68 -32.5 110.5t-96.5 42.5q-60 0 -89.5 -42.5t-29.5 -110.5q0 -75 29.5 -114t89.5 -39q64 0 96.5 42.5t32.5 110.5z" />
    <glyph glyph-name="q" unicode="q" horiz-adv-x="609" 
d="M390 469q7 -7 11 0l10 32q2 5 10 5h95q5 0 5 -5v-694q0 -5 -5 -5h-110q-5 0 -5 5v228q0 4 -3 5t-6 -2q-15 -15 -48.5 -31.5t-81.5 -16.5q-50 0 -91.5 19t-72.5 54t-48 83t-17 107q0 58 16 106.5t45.5 83.5t72 54t95.5 19q38 0 74 -14.5t54 -32.5zM153 253
q0 -68 32.5 -110.5t96.5 -42.5q60 0 89.5 39t29.5 114q0 68 -29.5 110.5t-89.5 42.5q-64 0 -96.5 -42.5t-32.5 -110.5z" />
    <glyph glyph-name="r" unicode="r" horiz-adv-x="384" 
d="M275 401q-29 0 -50 -9t-34.5 -25t-19.5 -36.5t-6 -42.5v-283q0 -5 -5 -5h-111q-4 0 -4 5v496q0 5 4 5h96q7 0 10 -6l10 -30q4 -7 9 -2q23 23 49.5 35.5t61.5 12.5h55q5 0 5 -5v-105q0 -5 -5 -5h-65v0z" />
    <glyph glyph-name="s" unicode="s" horiz-adv-x="531" 
d="M473 157q0 -81 -59.5 -124t-162.5 -43q-56 0 -98.5 15t-71.5 39.5t-43.5 56t-14.5 65.5q0 5 5 5h115q5 0 5 -5q0 -24 24.5 -45t78.5 -21q16 0 34 2t33 8t25 17.5t10 29.5q0 16 -10 25t-25.5 13.5t-33.5 6t-33 3.5q-39 4 -78 11t-70.5 23.5t-51 45t-19.5 75.5
q0 32 15 60.5t42.5 49.5t66 33.5t85.5 12.5q48 0 88 -11t69 -33.5t45.5 -55.5t16.5 -76q0 -5 -4 -5h-112q-5 0 -5 5q0 10 -5 22t-16.5 21.5t-30.5 16t-46 6.5q-45 0 -67 -13t-22 -33q0 -12 7.5 -19.5t20 -12t28.5 -7.5t33 -5q33 -4 73.5 -9.5t75.5 -21t59 -45.5t24 -83z" />
    <glyph glyph-name="t" unicode="t" horiz-adv-x="385" 
d="M18 401q-5 0 -5 5v95q0 5 5 5h82q5 0 5 5v135q0 5 5 5h110q5 0 5 -5v-135q0 -5 5 -5h102q5 0 5 -5v-95q0 -5 -5 -5h-102q-5 0 -5 -5v-254q0 -15 10.5 -23.5t25.5 -8.5h71q5 0 5 -5v-100q0 -5 -5 -5h-78q-79 0 -114 33t-35 108v255q0 5 -5 5h-82z" />
    <glyph glyph-name="u" unicode="u" horiz-adv-x="572" 
d="M363 37q-16 -17 -46.5 -32t-62.5 -15q-63 0 -105 19.5t-68 52.5t-37 76t-11 90v273q0 5 5 5h110q5 0 5 -5v-273q0 -23 6 -45.5t19.5 -41t34.5 -30t51 -11.5q29 0 50 10t34.5 26.5t19.5 37.5t6 44v283q0 5 5 5h111q4 0 4 -5v-496q0 -5 -5 -5h-95q-7 0 -10 6l-10 30
q-2 3 -5 4t-6 -3z" />
    <glyph glyph-name="v" unicode="v" horiz-adv-x="565" 
d="M388 499q2 7 8 7h113q8 0 5 -7l-165 -494q-2 -5 -6 -5h-162q-4 0 -6 5l-166 494q-2 3 0 5t5 2h115q5 0 7 -7l121 -385q1 -4 5 -4t5 4z" />
    <glyph glyph-name="w" unicode="w" horiz-adv-x="841" 
d="M667 500q2 6 6 6h112q6 0 5 -6l-116 -495q-2 -5 -6 -5h-171q-4 0 -6 5l-88 387q-1 5 -5 5t-5 -5l-88 -387q-2 -5 -6 -5h-171q-4 0 -6 5l-116 495q-2 6 4 6h112q5 0 7 -6l80 -386q1 -5 5 -5t5 5l92 386q2 6 7 6h160q5 0 7 -6l92 -386q1 -4 5 -4t5 4z" />
    <glyph glyph-name="x" unicode="x" horiz-adv-x="573" 
d="M523 8q2 -3 0.5 -5.5t-4.5 -2.5h-126q-6 0 -9 5l-112 149q-4 5 -7 0l-111 -149q-3 -5 -8 -5h-127q-3 0 -4.5 2.5t0.5 5.5l181 239q3 4 0 8l-181 243q-2 3 -0.5 5.5t4.5 2.5h123q5 0 8 -5l115 -153q4 -6 8 0l115 153q3 5 9 5h122q3 0 4.5 -2.5t-0.5 -5.5l-181 -243
q-3 -4 0 -8z" />
    <glyph glyph-name="y" unicode="y" horiz-adv-x="573" 
d="M403 501q2 5 6 5h116q7 0 5 -5l-166 -496l-26 -77q-22 -64 -60 -95t-102 -31h-147q-5 0 -5 5v94q0 5 5 5h122q24 0 35.5 8t14.5 22t-1 31.5t-10 37.5l-167 496q-2 5 5 5h117q4 0 6 -5l121 -387q1 -4 5 -4t5 4z" />
    <glyph glyph-name="z" unicode="z" horiz-adv-x="486" 
d="M48 0q-5 0 -5 5v96q0 5 4 9l241 278q2 2 1.5 5t-5.5 3h-226q-5 0 -5 5v100q0 5 5 5h376q5 0 5 -5v-99q0 -3 -2 -5l-240 -279q-2 -2 -1.5 -5t5.5 -3h245q5 0 5 -5v-100q0 -5 -5 -5h-398z" />
    <glyph glyph-name="braceleft" unicode="{" horiz-adv-x="365" 
d="M330 -193q0 -5 -5 -5h-55q-71 0 -97.5 35t-26.5 106v222q0 22 -15.5 37.5t-37.5 15.5h-25q-5 0 -5 5v60q0 5 5 5h25q21 0 37 15.5t16 38.5v220q0 71 26.5 106.5t97.5 35.5h55q5 0 5 -5v-61q0 -4 -5 -4h-35q-22 0 -38 -16t-16 -38v-213q0 -32 -5.5 -51.5t-14.5 -31.5
t-19.5 -18.5t-19.5 -10.5q-4 -2 0 -4q9 -4 19 -10.5t19 -18.5t15 -32t6 -50v-214q0 -22 16 -38t38 -16h35q5 0 5 -4v-61z" />
    <glyph glyph-name="bar" unicode="|" horiz-adv-x="221" 
d="M58 -198q-4 0 -4 5v892q0 5 4 5h79q5 0 5 -5v-892q0 -5 -5 -5h-79z" />
    <glyph glyph-name="braceright" unicode="}" horiz-adv-x="365" 
d="M10 -132q0 4 5 4h35q22 0 38 16t16 38v214q0 30 6 50t15 32t19 18.5t19 10.5q4 2 0 4q-9 4 -19.5 10.5t-19.5 18.5t-14.5 31.5t-5.5 51.5v213q0 22 -16 38t-38 16h-35q-5 0 -5 4v61q0 5 5 5h55q71 0 97.5 -35.5t26.5 -106.5v-220q0 -23 16 -38.5t37 -15.5h25q5 0 5 -5
v-60q0 -5 -5 -5h-25q-22 0 -37.5 -15.5t-15.5 -37.5v-222q0 -71 -26.5 -106t-97.5 -35h-55q-5 0 -5 5v61z" />
    <glyph glyph-name="asciitilde" unicode="~" horiz-adv-x="531" 
d="M477 300q0 -22 -10 -42t-28 -35.5t-42 -24.5t-52 -9q-29 0 -55.5 11t-50.5 24t-45 24t-39 11q-14 0 -25.5 -10.5t-11.5 -24.5v-30q0 -5 -5 -5l-85 20q-5 0 -5 5v30q0 23 10 43.5t28 36t42 24.5t52 9q29 0 55.5 -11t50 -24.5t44.5 -24.5t40 -11q14 0 25.5 10t11.5 24v32
q0 5 5 5l85 -20q5 0 5 -5v-32z" />
    <glyph glyph-name="DEL" horiz-adv-x="285" 
 />
    <glyph glyph-name="nonbreakingspace" unicode="&#xa0;" horiz-adv-x="285" 
 />
    <glyph glyph-name="exclamdown" unicode="&#xa1;" horiz-adv-x="262" 
d="M69 495.025q-5 0 -5 -4.99902l-10 -292.965v-192.977q0 -4.99902 5 -4.99902h110q5 0 5 4.99902v192.977l-10 292.965q0 4.99902 -5 4.99902h-90zM39 703q-5 0 -5 -4.99902v-151.981q0 -5 5 -5h150q5 0 5 5v151.981q0 4.99902 -5 4.99902h-150z" />
    <glyph glyph-name="cent" unicode="&#xa2;" horiz-adv-x="557" 
d="M307 518q0 -5 5 -5q78 -10 127.5 -54.5t61.5 -116.5q2 -6 -5 -6h-114q-4 0 -5 3q-13 33 -39 52t-70 19q-32 0 -55 -12t-38.5 -33t-23 -50t-7.5 -62t7.5 -62t23 -50t38.5 -33t55 -12q50 0 74 21.5t37 54.5q1 3 5 3h114q7 0 5 -6q-12 -74 -64.5 -120.5t-131.5 -55.5v-89
q0 -5 -5 -5h-69q-4 0 -4 5v89q-50 6 -88 27.5t-64.5 55t-40 78.5t-13.5 99q0 106 52 175.5t149 83.5q5 1 5 6v84q0 5 4 5h69q5 0 5 -5v-84z" />
    <glyph glyph-name="sterling" unicode="&#xa3;" horiz-adv-x="639" 
d="M576 216q5 0 5 -5v-206q0 -5 -5 -5h-548q-5 0 -5 5v100q0 5 5 5h71q15 0 25.5 8.5t10.5 23.5v162q0 5 -5 5h-102q-5 0 -5 5v95q0 5 5 5h102q5 0 5 5v87q0 43 16 80.5t45.5 66t71 45t91.5 16.5t91 -17t70 -46.5t45 -70t16 -86.5q0 -5 -5 -5h-109q-5 0 -5 5q0 19 -7.5 39
t-21 35.5t-32.5 25.5t-42 10q-24 0 -43 -8.5t-32.5 -22.5t-21 -31.5t-7.5 -35.5v-87q0 -5 5 -5h93q5 0 5 -5v-95q0 -5 -5 -5h-93q-5 0 -5 -5v-153q0 -14 -2 -22t-4 -13q-2 -6 5 -6h210q5 0 5 5v96q0 5 5 5h102z" />
    <glyph glyph-name="currency" unicode="&#xa4;" horiz-adv-x="660" 
d="M447 350q0 71 -32.5 112t-96.5 41q-63 0 -95.5 -41t-32.5 -112t32.5 -112t95.5 -41q64 0 96.5 41t32.5 112zM34 119q-5 3 0 7l69 69q4 4 1 8q-34 63 -34 147q0 41 8.5 78.5t25.5 67.5q3 5 -1 9l-69 70q-5 3 0 7l53 53q3 5 7 0l63 -64q6 -6 11 -2q29 20 67 32t83 12
q88 0 148 -43q7 -5 13 1l64 64q3 5 7 0l53 -53q5 -4 0 -7l-70 -70q-4 -4 -1 -10q16 -31 25 -67t9 -78q0 -86 -35 -148q-2 -3 2 -7l70 -69q5 -4 0 -7l-53 -53q-4 -5 -7 0l-65 64q-5 5 -12 0q-60 -43 -148 -43q-90 0 -151 43q-5 4 -9 0l-64 -64q-4 -5 -7 0z" />
    <glyph glyph-name="yen" unicode="&#xa5;" horiz-adv-x="679" 
d="M459 420q-4 -8 4 -8h82q5 0 5 -5v-99q0 -5 -5 -5h-157q-5 0 -5 -5v-88q0 -5 5 -5h157q5 0 5 -5v-99q0 -5 -5 -5h-158q-4 -1 -4 -5v-86q0 -5 -5 -5h-110q-5 0 -5 5v86q0 5 -5 5h-160q-5 0 -5 5v99q0 5 5 5h160q5 0 5 5v88q0 5 -5 5h-160q-5 0 -5 5v99q0 5 5 5h85q4 0 5 3
t-1 5l-165 276q-4 8 4 8h132q2 0 4 -2l159 -287q2 -4 4 0l160 287q2 2 4 2h132q8 0 4 -8z" />
    <glyph glyph-name="brokenbar" unicode="&#xa6;" horiz-adv-x="221" 
d="M58 293q-4 0 -4 5v401q0 5 4 5h69q5 0 5 -5v-401q0 -5 -5 -5h-69zM58 -198q-4 0 -4 5v401q0 5 4 5h69q5 0 5 -5v-401q0 -5 -5 -5h-69z" />
    <glyph glyph-name="section" unicode="&#xa7;" horiz-adv-x="633" 
d="M411 -27q0 21 -12.5 37t-33 28t-47.5 21.5t-57 16.5q-44 11 -86 26t-74 38t-51.5 58t-19.5 87q0 27 4.5 48t13 38t21 30.5t28.5 27.5q6 4 0 10q-15 15 -23.5 37t-8.5 57q0 43 18.5 76.5t50 56.5t73.5 35t89 12q49 0 92.5 -11.5t77.5 -36t54.5 -63t22.5 -91.5q0 -5 -5 -5
h-117q-5 0 -5 5q0 40 -33 66.5t-87 26.5q-47 0 -73 -22.5t-26 -48.5q0 -21 12.5 -35t33.5 -24.5t48 -18t56 -14.5q45 -11 86.5 -26t73.5 -38t51.5 -58t19.5 -87q0 -28 -7 -50t-18.5 -40t-25.5 -32t-29 -24q-7 -4 0 -10q18 -17 31.5 -42.5t13.5 -60.5q0 -43 -18.5 -76.5
t-50 -56.5t-73.5 -35t-89 -12q-49 0 -92.5 11.5t-77.5 36t-54.5 63t-22.5 91.5q0 5 5 5h117q5 0 5 -5q0 -40 33 -66.5t87 -26.5q47 0 73 22.5t26 48.5zM295 327q-22 5 -43.5 11t-47.5 16q-17 -8 -32 -21.5t-17 -31.5q-3 -25 7 -42t31 -29.5t51 -22t67 -19.5
q26 -5 50.5 -11.5t44.5 -14.5q16 7 30.5 21.5t17.5 32.5q4 25 -6.5 42t-31.5 29.5t-52 21.5t-69 18z" />
    <glyph glyph-name="dieresis" unicode="&#xa8;" horiz-adv-x="444" 
d="M30 562q-5 0 -5 5v132q0 5 5 5h129q5 0 5 -5v-132q0 -5 -5 -5h-129zM250 562q-5 0 -5 5v132q0 5 5 5h129q5 0 5 -5v-132q0 -5 -5 -5h-129z" />
    <glyph glyph-name="copyright" unicode="&#xa9;" horiz-adv-x="806" 
d="M734 353q0 -73 -27.5 -137t-75 -112t-111.5 -76t-137 -28q-72 0 -136 28t-111.5 76t-75 112t-27.5 137q0 72 27.5 136t75 112t111.5 75.5t136 27.5q73 0 137 -27.5t111.5 -75.5t75 -112t27.5 -136zM704 353q0 66 -25.5 124.5t-69 102t-102 69t-124.5 25.5t-124.5 -25.5
t-102 -69t-68.5 -102t-25 -124.5t25 -125t68.5 -102.5t102 -69t124.5 -25.5t124.5 25.5t102 69t69 102.5t25.5 125zM500 270q1 3 4 3h51q5 0 5 -5q0 -15 -11.5 -37.5t-34 -44t-56.5 -36.5t-79 -15t-80.5 16t-60 45t-37.5 68.5t-13 87.5t13 87.5t37.5 68.5t60 45t80.5 16
q47 0 81 -16.5t56.5 -38.5t33 -45t10.5 -35q0 -3 -3 -3h-53q-3 0 -4 3q-3 10 -10.5 24t-21.5 27.5t-36 23t-53 9.5q-62 0 -96.5 -44t-34.5 -122t34.5 -122t96.5 -44q31 0 52.5 8.5t35.5 21.5t22 27.5t11 26.5z" />
    <glyph glyph-name="ordfeminine" unicode="&#xaa;" horiz-adv-x="284" 
d="M196.271 455.919q-10.7998 -10.7998 -31.8584 -21.0596q-21.0596 -10.2588 -53.458 -10.2588q-27.5391 0 -47.7881 6.74902q-20.249 6.75 -33.209 18.3594q-12.959 11.6094 -19.4385 27.5391q-6.48047 15.9297 -6.48047 34.2891q0 17.2793 7.29004 33.208
q7.29004 15.9297 22.1387 28.0791q14.8496 12.1494 36.9893 19.1689q22.1387 7.01953 51.8379 7.01953h50.7578q8.09961 0 12.1494 3.78027t4.0498 8.09961q0 4.32031 -1.34961 10.7998q-1.35059 6.47949 -7.02051 12.6895q-5.66895 6.20996 -17.0088 10.5293
q-11.3398 4.32031 -31.3184 4.32031q-15.6602 0 -25.6494 -2.9707q-9.98926 -2.96973 -16.1992 -7.8291q-6.20996 -4.86035 -9.17969 -11.3398t-3.50977 -13.499q0 -2.7002 -2.7002 -2.7002h-58.8574q-2.7002 0 -2.7002 2.7002q0 23.7588 9.71973 41.5781t25.9189 29.6982
q16.1992 11.8799 37.7988 17.8193q21.5986 5.94043 45.3584 5.94043q56.1572 0 88.8262 -25.9189q32.668 -25.9189 32.668 -76.6768v-104.756q0 -8.09961 5.40039 -12.6895q5.39941 -4.58984 14.0391 -4.58984h8.09961q2.7002 0 2.7002 -2.7002v-48.5977
q0 -2.7002 -2.7002 -2.7002h-27.5391q-21.0586 0 -33.208 7.29004q-12.1494 7.28906 -19.709 18.6289q-2.16016 2.7002 -4.86035 0zM110.955 483.998q21.0596 0 35.9082 5.39941q14.8496 5.39941 24.2998 13.7695q9.44922 8.37012 13.7686 18.6289
q4.32031 10.2598 4.32031 20.5195q0 2.7002 -2.7002 2.7002h-61.5576q-17.8193 0 -28.8887 -3.24023t-17.2793 -8.09961t-8.09961 -10.7998q-1.88965 -5.93945 -1.88965 -11.3389q0 -4.32031 1.88965 -9.17969q1.88965 -4.86035 6.75 -8.91016q4.85938 -4.0498 12.959 -6.75
q8.09961 -2.69922 20.5195 -2.69922z" />
    <glyph glyph-name="guillemotleft" unicode="&#xab;" horiz-adv-x="596" 
d="M145 258q-3 -4 0 -9l210 -242q2 -2 1 -4.5t-4 -2.5h-73q-3 0 -6 3l-212 246q-4 5 0 9l212 245q1 3 5 3h74q3 0 4 -3t-1 -5zM330 258q-3 -4 0 -9l210 -242q2 -2 1 -4.5t-4 -2.5h-73q-3 0 -6 3l-212 246q-4 5 0 9l212 245q1 3 5 3h74q3 0 4 -3t-1 -5z" />
    <glyph glyph-name="logicalnot" unicode="&#xac;" horiz-adv-x="656" 
d="M451 199q0 5 -5 5h-383q-5 0 -5 5v100q0 5 5 5h495q5 0 5 -5v-304q0 -5 -5 -5h-102q-5 0 -5 5v194z" />
    <glyph glyph-name="uni00AD" unicode="&#xad;" 
d="M456 5q0 -5 -5 -5h-411q-5 0 -5 5v694q0 5 5 5h411q5 0 5 -5v-694zM419 681h-346l173 -306zM419 24l-173 305l-173 -305h346zM432 48v608q-43 -75 -87 -152t-86 -152zM233 352l-173 305v-610z" />
    <glyph glyph-name="registered" unicode="&#xae;" horiz-adv-x="806" 
d="M734 353q0 -73 -27.5 -137t-75 -112t-111.5 -76t-137 -28q-72 0 -136 28t-111.5 76t-75 112t-27.5 137q0 72 27.5 136t75 112t111.5 76t136 28q73 0 137 -28t111.5 -76t75 -112t27.5 -136zM704 353q0 66 -25.5 124.5t-69 102.5t-102 69.5t-124.5 25.5t-124.5 -25.5
t-102 -69.5t-68.5 -102.5t-25 -124.5t25 -125t68.5 -102.5t102 -69t124.5 -25.5t124.5 25.5t102 69t69 102.5t25.5 125zM218 558q0 5 5 5h207q25 0 47 -10t39 -27.5t27 -40.5t10 -50q0 -39 -19 -69t-51 -44q-5 -2 -2 -7l76 -168q3 -6 -4 -6h-47q-2 0 -5 1t-5 4l-69 159
q-1 4 -7 4h-142q-3 0 -3 -3v-160q0 -5 -5 -5h-47q-5 0 -5 5v412zM280 512q-5 0 -5 -5v-142q0 -5 5 -5h145q28 1 49.5 22.5t21.5 52.5t-22 54t-51 23h-143z" />
    <glyph glyph-name="macron" unicode="&#xaf;" horiz-adv-x="362" 
d="M35 572q-4 0 -4 5v70q0 5 4 5h266q5 0 5 -5v-70q0 -5 -5 -5h-266z" />
    <glyph glyph-name="degree" unicode="&#xb0;" horiz-adv-x="394" 
d="M33 563q0 31 12 59t32 48.5t47.5 32.5t59.5 12q31 0 59 -12t48.5 -32.5t32.5 -48.5t12 -59q0 -32 -12 -59.5t-32.5 -47.5t-48.5 -32t-59 -12q-32 0 -59.5 12t-47.5 32t-32 47.5t-12 59.5zM111 563q0 -30 21.5 -51.5t51.5 -21.5q31 0 52.5 21.5t21.5 51.5q0 31 -21.5 52.5
t-52.5 21.5q-30 0 -51.5 -21.5t-21.5 -52.5z" />
    <glyph glyph-name="plusminus" unicode="&#xb1;" horiz-adv-x="657" 
d="M251 505q5 0 5 5v189q0 5 5 5h100q5 0 5 -5v-189q0 -5 5 -5h188q5 0 5 -5v-99q0 -5 -5 -5h-188q-5 0 -5 -5v-188q0 -5 -5 -5h-100q-5 0 -5 5v188q0 5 -5 5h-188q-5 0 -5 5v99q0 5 5 5h188zM559 109q5 0 5 -5v-99q0 -5 -5 -5h-496q-5 0 -5 5v99q0 5 5 5h496z" />
    <glyph glyph-name="twosuperior" unicode="&#xb2;" horiz-adv-x="388" 
d="M299.589 320.7q0 -2.7002 -2.69922 -2.7002h-241.37q-2.7002 0 -2.7002 2.7002v49.6777q0 4.31934 2.7002 7.01953l144.714 143.634q3.23926 3.24023 9.44922 9.4502t11.8799 14.5791q5.66992 8.37012 9.71973 18.3594t4.0498 21.3291q0 9.71973 -3.50977 19.9795
t-10.5303 18.8994q-7.01953 8.63965 -18.3584 14.3086q-11.3398 5.66992 -26.999 5.66992q-13.5 0 -24.2998 -5.12988q-10.7988 -5.12891 -18.6289 -13.7695q-7.8291 -8.63867 -11.8789 -19.1689q-4.05078 -10.5293 -4.05078 -20.7891q0 -2.7002 -2.69922 -2.7002h-58.8574
q-2.7002 0 -2.7002 2.7002q0 24.8389 9.17969 46.708t25.3789 37.7988t38.8779 25.1084q22.6797 9.17969 49.6787 9.17969q29.1582 0 52.1074 -9.17969q22.9492 -9.17871 39.1484 -25.3789q16.1992 -16.1992 24.5693 -37.7979q8.36914 -21.5996 8.36914 -46.4385
q0 -21.0586 -5.66992 -37.7979q-5.66895 -16.7402 -13.7686 -29.9697q-8.10059 -13.2295 -17.5498 -23.2188t-16.4688 -16.4688l-102.597 -95.0361q-1.0791 -1.08008 -0.80957 -2.9707q0.269531 -1.88965 2.42969 -1.88965h151.194q2.69922 0 2.69922 -2.7002v-53.9971z" />
    <glyph glyph-name="threesuperior" unicode="&#xb3;" horiz-adv-x="389" 
d="M55.3594 584.749q0 24.8389 8.63965 46.708t24.2988 37.7988t37.7988 25.1084q22.1387 9.17969 49.1377 9.17969t49.4082 -8.90918q22.4092 -8.91016 38.3379 -24.2988q15.9297 -15.3896 24.5693 -35.6387t8.63965 -43.4688q0 -15.6592 -4.32031 -28.0781
q-4.31934 -12.4199 -10.7988 -22.1396q-6.48047 -9.71973 -14.5801 -16.7393t-15.1191 -11.3398q-2.16016 -1.0791 -1.88965 -2.69922q0.269531 -1.62012 1.88965 -2.7002q7.01953 -3.78027 15.9297 -11.0693q8.90918 -7.29004 16.1992 -18.0898
q7.29004 -10.7988 12.4199 -24.8389q5.12891 -14.0391 5.12891 -30.7783q0 -22.1396 -7.55957 -41.8486t-23.2188 -34.8281q-15.6592 -15.1201 -39.418 -24.2988q-23.7598 -9.17969 -55.6182 -9.17969q-30.7783 0 -53.998 9.44922q-23.2188 9.44922 -38.3379 25.3789
q-15.1201 15.9297 -22.6797 36.9883q-7.55957 21.0596 -7.55957 43.7383q0 2.7002 2.7002 2.7002h59.3975q2.7002 0 2.7002 -2.7002q0 -7.55957 3.23926 -17.0088q3.24023 -9.4502 9.99023 -18.3594q6.74902 -8.91016 17.8193 -14.8496q11.0693 -5.93945 26.7285 -5.93945
q13.499 0 24.8389 4.31934q11.3398 4.32031 19.4395 11.6094q8.09961 7.29004 12.4189 16.4697q4.32031 9.17969 4.32031 18.3594q0 15.1191 -5.12988 25.9189t-13.499 17.8193q-8.37012 7.01953 -19.4395 10.5293t-22.9492 3.50977h-17.8193q-2.7002 0 -2.7002 2.7002
v53.998q0 2.69922 2.7002 2.69922h17.8193q10.2598 0 20.5195 2.96973q10.2588 2.9707 18.0889 9.17969q7.83008 6.20996 12.6895 15.9297q4.86035 9.71973 4.86035 23.2188q0 9.71973 -4.05078 19.1699q-4.0498 9.44922 -11.3389 17.0088
q-7.29004 7.55957 -17.5498 12.1494t-23.2188 4.58984q-12.4199 0 -22.6787 -5.39941q-10.2598 -5.39941 -17.5498 -13.7695q-7.28906 -8.37012 -11.3398 -19.1689q-4.0498 -10.7998 -4.0498 -21.0596q0 -2.7002 -2.69922 -2.7002h-58.8574q-2.7002 0 -2.7002 2.7002z" />
    <glyph glyph-name="acute" unicode="&#xb4;" horiz-adv-x="299" 
d="M46 562q-3 0 -5 2t0 5l54 128q2 7 10 7h117q8 0 5 -7l-83 -128l-4.5 -4.5t-6.5 -2.5h-87z" />
    <glyph glyph-name="mu" unicode="&#xb5;" 
d="M456 5q0 -5 -5 -5h-411q-5 0 -5 5v694q0 5 5 5h411q5 0 5 -5v-694zM419 681h-346l173 -306zM419 24l-173 305l-173 -305h346zM432 48v608q-43 -75 -87 -152t-86 -152zM233 352l-173 305v-610z" />
    <glyph glyph-name="paragraph" unicode="&#xb6;" horiz-adv-x="634" 
d="M220 311q0 5 -5 5q-38 0 -71 15.5t-58 42t-39 61.5t-14 75q0 38 13.5 72.5t37.5 61t57 42.5t71 18h331q5 0 5 -5v-893q0 -5 -5 -5h-100q-5 0 -5 5v803q0 5 -5 5h-99q-5 0 -5 -5v-803q0 -5 -5 -5h-99q-5 0 -5 5v505z" />
    <glyph glyph-name="periodcentered" unicode="&#xb7;" horiz-adv-x="240" 
d="M28 276q-5 0 -5 5v151q0 5 5 5h149q5 0 5 -5v-151q0 -5 -5 -5h-149z" />
    <glyph glyph-name="cedilla" unicode="&#xb8;" horiz-adv-x="290" 
d="M104 -17q1 2 0 4.5t-6 2.5q-7 0 -7 7.5t7 7.5h63q7 0 5 -5l-23 -46q-2 -3 0 -5t4 -2q13 -1 27 -5t26 -13t19.5 -22.5t7.5 -33.5q0 -38 -28 -59.5t-77 -21.5q-19 0 -37 5.5t-32.5 16t-23 25.5t-8.5 34q0 5 5 5h50q5 0 5 -5q0 -11 11.5 -22.5t29.5 -11.5t31.5 9t13.5 25
q0 14 -5.5 22t-12.5 11.5t-15 4.5t-12 1q-6 0 -11 -1t-10 4l-18 15q-5 4 -4 7t3 5z" />
    <glyph glyph-name="onesuperior" unicode="&#xb9;" horiz-adv-x="303" 
d="M150.016 572.93q0 7.01953 -4.0498 11.0693t-10.5303 4.0498h-79.916q-2.7002 0 -2.7002 2.7002v48.5986q0 2.69922 2.7002 2.69922h65.877q12.4199 0 20.7891 8.63965q8.37012 8.63965 7.83008 19.4395v31.3184q0 2.7002 2.69922 2.7002h59.3984
q2.69922 0 2.69922 -2.7002v-374.744q0 -2.7002 -2.69922 -2.7002h-59.3984q-2.69922 0 -2.69922 2.7002v246.229v0z" />
    <glyph glyph-name="ordmasculine" unicode="&#xba;" horiz-adv-x="305" 
d="M270.188 563.614q0 -31.8584 -9.17969 -57.7773t-26.459 -44.8184t-42.3887 -29.1592q-25.1084 -10.2588 -56.4277 -10.2588q-31.8584 0 -56.6973 10.2588q-24.8389 10.2598 -41.8486 29.1592q-17.0088 18.8994 -26.1885 44.8184t-9.17969 57.7773t9.17969 58.0479
q9.17969 26.1885 26.1885 44.8184q17.0098 18.6289 41.8486 28.8887t56.6973 10.2598q31.3193 0 56.4277 -10.2598q25.1094 -10.2598 42.3887 -29.1592t26.459 -45.0879t9.17969 -57.5078zM205.391 563.614q0 38.3389 -17.5488 60.4775q-17.5498 22.1396 -52.1084 22.1396
q-34.0186 0 -51.5674 -22.1396q-17.5498 -22.1387 -17.5498 -60.4775q0 -38.3379 17.5498 -60.4775q17.5488 -22.1387 51.5674 -22.1387q34.5586 0 52.1084 22.1387q17.5488 22.1396 17.5488 60.4775z" />
    <glyph glyph-name="guillemotright" unicode="&#xbb;" horiz-adv-x="596" 
d="M61 498q-2 2 -1 5t4 3h74q3 0 5 -3l212 -245q4 -4 0 -9l-212 -246q-3 -3 -6 -3h-73q-3 0 -4 2.5t1 4.5l210 242q3 5 0 9zM246 498q-2 2 -1 5t4 3h74q3 0 5 -3l212 -245q4 -4 0 -9l-212 -246q-3 -3 -6 -3h-73q-3 0 -4 2.5t1 4.5l210 242q3 5 0 9z" />
    <glyph glyph-name="onequarter" unicode="&#xbc;" horiz-adv-x="791" 
d="M530 702q2 2 4 2h64q8 0 4 -8l-426 -694q-2 -2 -4 -2h-62q-8 0 -4 8zM150 574q0 15 -15 15h-79q-3 0 -3 3v48q0 3 3 3h65q13 0 21.5 8.5t7.5 19.5v31q0 3 3 3h59q3 0 3 -3v-374q0 -3 -3 -3h-59q-3 0 -3 3v246zM703 84q0 -2 -3 -2h-55q-3 0 -3 -3v-76q0 -3 -3 -3h-59
q-3 0 -3 3v76q0 3 -2 3h-178q-3 0 -3 2v50q0 3 1 5.5t2 4.5l174 233q0 3 4 3h64q3 0 3 -3v-233q0 -3 2 -3h56q3 0 3 -3v-54zM473 146q-2 -2 -0.5 -3.5t2.5 -1.5h100q2 0 2 3v137q0 2 -2 2t-3 -2z" />
    <glyph glyph-name="onehalf" unicode="&#xbd;" horiz-adv-x="807" 
d="M537 702q2 2 4 2h64q8 0 4 -8l-426 -694q-2 -2 -4 -2h-62q-8 0 -4 8zM150 573q0 15 -15 15h-79q-3 0 -3 3v48q0 3 3 3h65q13 0 21.5 8.5t7.5 19.5v31q0 3 3 3h59q3 0 3 -3v-374q0 -3 -3 -3h-59q-3 0 -3 3v246zM719 3q0 -3 -3 -3h-241q-3 0 -3 3v49q0 5 3 7l144 144
q3 3 9 9.5t12 14.5t10 18.5t4 21.5q0 19 -14 39t-45 20q-27 0 -43 -19t-16 -40q0 -3 -3 -3h-58q-3 0 -3 3q0 25 9 47t25.5 38t39 25t49.5 9q59 0 91.5 -34.5t32.5 -84.5q0 -21 -5.5 -38t-14 -30.5t-17.5 -23t-16 -16.5l-103 -95q-2 -1 -1 -3t3 -2h151q3 0 3 -2v-54z" />
    <glyph glyph-name="threequarters" unicode="&#xbe;" horiz-adv-x="778" 
d="M553 702q2 2 4 2h64q8 0 4 -8l-426 -694q-2 -2 -4 -2h-62q-8 0 -4 8zM55 585q0 25 8.5 47t24.5 38t38 25t49 9t49.5 -9t38.5 -24.5t24.5 -36t8.5 -43.5q0 -31 -15 -50t-30 -28q-3 -3 0 -5q15 -8 32.5 -29.5t17.5 -55.5q0 -22 -7.5 -42t-23 -35t-39.5 -24t-56 -9
q-31 0 -54 9.5t-38 25t-22.5 36.5t-7.5 44q0 3 2 3h60q2 0 2 -3q0 -7 3.5 -16.5t10.5 -18.5t18 -15t26 -6q27 0 44 16t17 35q0 30 -18.5 43.5t-42.5 14.5h-18q-2 0 -2 2v54q0 3 2 3h18q21 0 38.5 12t17.5 39q0 20 -15 36.5t-41 16.5q-25 0 -40 -19t-15 -40q0 -3 -3 -3h-59
q-3 0 -3 3zM690 84q0 -2 -3 -2h-55q-3 0 -3 -3v-76q0 -3 -3 -3h-59q-3 0 -3 3v76q0 3 -2 3h-178q-3 0 -3 2v50q0 3 1 5.5t2 4.5l174 233q0 3 4 3h64q3 0 3 -3v-233q0 -3 2 -3h56q3 0 3 -3v-54zM460 146q-2 -2 -0.5 -3.5t2.5 -1.5h100q2 0 2 3v137q0 2 -2 2t-3 -2z" />
    <glyph glyph-name="questiondown" unicode="&#xbf;" horiz-adv-x="531" 
d="M59.0576 195.062q0 45.9941 10.499 73.9912q10.499 27.9961 29.9961 47.9941q19.498 19.9971 47.4941 35.9951q27.9971 15.998 61.9932 36.9961q15.998 9.99902 18.4971 22.9971q2.5 12.998 2.5 24.9971v43.9941q0 5 4.99902 5h110.987q3.99902 0 3.99902 -5v-43.9941
q0 -32.9961 -4.99902 -55.4932q-5 -22.498 -14.998 -38.9951q-9.99902 -16.498 -24.4971 -27.9971q-14.499 -11.498 -32.4961 -20.4971q-30.9971 -15.998 -49.9941 -28.4971q-18.998 -12.498 -28.4971 -23.9971q-9.49805 -11.498 -12.498 -22.4971t-3 -24.9971
q0 -34.9951 28.9971 -61.9922q28.9961 -26.9971 86.9893 -26.9971q24.9971 0 44.4941 7.49902q19.498 7.49902 32.9961 19.498q13.498 11.998 20.498 27.9961q6.99902 15.998 6.99902 33.9961v10.999q0 4.99902 4.99902 4.99902h107.987q4.99902 0 4.99902 -4.99902v-10.999
q0 -42.9951 -16.498 -80.4902t-45.4941 -65.9922q-28.9971 -28.4961 -69.9922 -44.9941q-40.9941 -16.498 -90.9883 -16.498q-53.9932 0 -97.4883 16.498q-43.4941 16.498 -74.4912 44.9941q-30.9961 28.4971 -47.4941 65.9922t-16.498 80.4902zM370.02 543.02
q0 -5 -4.99902 -5h-150.981q-4.99902 0 -4.99902 5v151.981q0 4.99902 4.99902 4.99902h150.981q4.99902 0 4.99902 -4.99902v-151.981z" />
    <glyph glyph-name="Agrave" unicode="&#xc0;" horiz-adv-x="723" 
d="M210 145q-5 0 -7 -5l-6 -19l-37 -116q-1 -5 -6 -5h-115q-7 0 -5 7l222 692q2 5 6 5h180q4 0 6 -5l221 -692q2 -7 -5 -7h-115q-4 0 -6 5l-33 105l-10 30q-2 5 -7 5h-283zM241 260q-2 -5 4 -5h214q5 0 3 5l-105 330q-2 4 -5 4t-5 -4zM350 761q-4 0 -6.5 2.5l-4.5 4.5
l-83 128q-2 3 0 5t5 2h117q8 0 10 -7l54 -128q3 -7 -5 -7h-87z" />
    <glyph glyph-name="Aacute" unicode="&#xc1;" horiz-adv-x="723" 
d="M210 145q-5 0 -7 -5l-6 -19l-37 -116q-1 -5 -6 -5h-115q-7 0 -5 7l222 692q2 5 6 5h180q4 0 6 -5l221 -692q2 -7 -5 -7h-115q-4 0 -6 5l-33 105l-10 30q-2 5 -7 5h-283zM241 260q-2 -5 4 -5h214q5 0 3 5l-105 330q-2 4 -5 4t-5 -4zM261 760q-3 0 -5 2t0 5l54 128
q2 7 10 7h117q8 0 5 -7l-83 -128l-4.5 -4.5t-6.5 -2.5h-87z" />
    <glyph glyph-name="Acircumflex" unicode="&#xc2;" horiz-adv-x="723" 
d="M210 145q-5 0 -7 -5l-6 -19l-37 -116q-1 -5 -6 -5h-115q-7 0 -5 7l222 692q2 5 6 5h180q4 0 6 -5l221 -692q2 -7 -5 -7h-115q-4 0 -6 5l-33 105l-10 30q-2 5 -7 5h-283zM241 260q-2 -5 4 -5h214q5 0 3 5l-105 330q-2 4 -5 4t-5 -4zM386 760q-4 0 -5 3l-27 47q-2 3 -5 3.5
t-5 -3.5l-27 -47q-2 -3 -5 -3h-80q-3 0 -5 2t0 5l56 128q2 7 10 7h111q8 0 10 -7l57 -128q3 -7 -5 -7h-80z" />
    <glyph glyph-name="Atilde" unicode="&#xc3;" horiz-adv-x="723" 
d="M210 145q-5 0 -7 -5l-6 -19l-37 -116q-1 -5 -6 -5h-115q-7 0 -5 7l222 692q2 5 6 5h180q4 0 6 -5l221 -692q2 -7 -5 -7h-115q-4 0 -6 5l-33 105l-10 30q-2 5 -7 5h-283zM241 260q-2 -5 4 -5h214q5 0 3 5l-105 330q-2 4 -5 4t-5 -4zM183 806q0 13 5 29.5t17.5 31.5
t34.5 25t55 10q22 0 38.5 -7t29 -16t22 -16t17.5 -7q3 0 8.5 0.5t11 4t9 12t3.5 24.5q0 5 5 5h70q5 0 5 -5v-34q0 -13 -5 -29.5t-18 -31t-34.5 -24.5t-54.5 -10q-20 0 -36 7t-29 16t-23 16t-19 7q-3 0 -8.5 -0.5t-11 -4t-9 -12t-3.5 -24.5q0 -5 -5 -5h-70q-5 0 -5 5v33z" />
    <glyph glyph-name="Adieresis" unicode="&#xc4;" horiz-adv-x="723" 
d="M210 145q-5 0 -7 -5l-6 -19l-37 -116q-1 -5 -6 -5h-115q-7 0 -5 7l222 692q2 5 6 5h180q4 0 6 -5l221 -692q2 -7 -5 -7h-115q-4 0 -6 5l-33 105l-10 30q-2 5 -7 5h-283zM241 260q-2 -5 4 -5h214q5 0 3 5l-105 330q-2 4 -5 4t-5 -4zM174 760q-5 0 -5 5v132q0 5 5 5h129
q5 0 5 -5v-132q0 -5 -5 -5h-129zM394 760q-5 0 -5 5v132q0 5 5 5h129q5 0 5 -5v-132q0 -5 -5 -5h-129z" />
    <glyph glyph-name="Aring" unicode="&#xc5;" horiz-adv-x="723" 
d="M210 145q-5 0 -7 -5l-6 -19l-37 -116q-1 -5 -6 -5h-115q-7 0 -5 7l222 692q2 5 6 5h180q4 0 6 -5l221 -692q2 -7 -5 -7h-115q-4 0 -6 5l-33 105l-10 30q-2 5 -7 5h-283zM241 260q-2 -5 4 -5h214q5 0 3 5l-105 330q-2 4 -5 4t-5 -4zM439 824q0 -36 -26 -61.5t-62 -25.5
t-61.5 25.5t-25.5 61.5t25.5 62t61.5 26q18 0 34 -7t28 -19t19 -28t7 -34zM393 824q0 17 -12.5 29.5t-29.5 12.5t-29.5 -12.5t-12.5 -29.5t12.5 -29.5t29.5 -12.5t29.5 12.5t12.5 29.5z" />
    <glyph glyph-name="AE" unicode="&#xc6;" horiz-adv-x="1034" 
d="M477 140q0 5 -5 5h-249q-4 0 -8 -6l-76 -136q-2 -3 -5 -3h-115q-7 0 -5 7l390 692q2 5 6 5h551q5 0 5 -5v-100q0 -5 -5 -5h-359q-5 0 -5 -5v-172q0 -5 5 -5h319q5 0 5 -5v-100q0 -5 -5 -5h-319q-5 0 -5 -5v-182q0 -5 5 -5h359q5 0 5 -5v-100q0 -5 -5 -5h-480q-2 0 -2 1
q-2 0 -2 2v137zM285 260v-5h187q5 0 5 5v320q-2 4 -5 4t-5 -4z" />
    <glyph glyph-name="Ccedilla" unicode="&#xc7;" horiz-adv-x="643" 
d="M274 -19q2 2 1.5 6.5t-8.5 5.5q-68 8 -118 36.5t-84 74t-50.5 106.5t-16.5 135q0 79 19.5 146.5t59 117t98.5 77.5t138 28q56 0 99.5 -13.5t76.5 -35t56 -48.5t37.5 -53.5t21 -50.5t6.5 -39q0 -5 -5 -5h-115q-4 0 -6 5q-4 11 -13 32.5t-28.5 43t-50.5 37.5t-79 16
q-45 0 -80.5 -19t-59.5 -53t-37 -81.5t-13 -104.5q0 -115 49.5 -179.5t140.5 -64.5q48 0 79.5 16.5t51 38.5t29 43.5t12.5 30.5q2 5 6 5h114q5 0 5 -5q0 -11 -5 -32.5t-17.5 -47t-32.5 -52.5t-50.5 -50t-72 -38.5t-95.5 -18.5q-4 0 -4.5 -1.5t-2.5 -3.5l-16 -32q-2 -3 0 -5
t4 -2q13 -1 27 -5t26 -13t19.5 -22.5t7.5 -33.5q0 -38 -28 -59.5t-77 -21.5q-19 0 -37 5.5t-32.5 16t-23 25.5t-8.5 34q0 5 5 5h50q5 0 5 -5q0 -11 11.5 -22.5t29.5 -11.5t31.5 9t13.5 25q0 14 -5.5 22t-12.5 11.5t-15 4.5t-12 1q-6 0 -11 -1t-10 4l-18 15q-5 4 -4 7t3 5z
" />
    <glyph glyph-name="Egrave" unicode="&#xc8;" horiz-adv-x="632" 
d="M548 110q5 0 5 -5v-100q0 -5 -5 -5h-489q-5 0 -5 5v694q0 5 5 5h489q5 0 5 -5v-100q0 -5 -5 -5h-369q-5 0 -5 -5v-172q0 -5 5 -5h319q5 0 5 -5v-100q0 -5 -5 -5h-319q-5 0 -5 -5v-182q0 -5 5 -5h369zM304 761q-4 0 -6.5 2.5l-4.5 4.5l-83 128q-2 3 0 5t5 2h117q8 0 10 -7
l54 -128q3 -7 -5 -7h-87z" />
    <glyph glyph-name="Eacute" unicode="&#xc9;" horiz-adv-x="632" 
d="M548 110q5 0 5 -5v-100q0 -5 -5 -5h-489q-5 0 -5 5v694q0 5 5 5h489q5 0 5 -5v-100q0 -5 -5 -5h-369q-5 0 -5 -5v-172q0 -5 5 -5h319q5 0 5 -5v-100q0 -5 -5 -5h-319q-5 0 -5 -5v-182q0 -5 5 -5h369zM215 760q-3 0 -5 2t0 5l54 128q2 7 10 7h117q8 0 5 -7l-83 -128
l-4.5 -4.5t-6.5 -2.5h-87z" />
    <glyph glyph-name="Ecircumflex" unicode="&#xca;" horiz-adv-x="632" 
d="M548 110q5 0 5 -5v-100q0 -5 -5 -5h-489q-5 0 -5 5v694q0 5 5 5h489q5 0 5 -5v-100q0 -5 -5 -5h-369q-5 0 -5 -5v-172q0 -5 5 -5h319q5 0 5 -5v-100q0 -5 -5 -5h-319q-5 0 -5 -5v-182q0 -5 5 -5h369zM340 760q-4 0 -5 3l-27 47q-2 3 -5 3.5t-5 -3.5l-27 -47q-2 -3 -5 -3
h-80q-3 0 -5 2t0 5l56 128q2 7 10 7h111q8 0 10 -7l57 -128q3 -7 -5 -7h-80z" />
    <glyph glyph-name="Edieresis" unicode="&#xcb;" horiz-adv-x="632" 
d="M548 110q5 0 5 -5v-100q0 -5 -5 -5h-489q-5 0 -5 5v694q0 5 5 5h489q5 0 5 -5v-100q0 -5 -5 -5h-369q-5 0 -5 -5v-172q0 -5 5 -5h319q5 0 5 -5v-100q0 -5 -5 -5h-319q-5 0 -5 -5v-182q0 -5 5 -5h369zM129 760q-5 0 -5 5v132q0 5 5 5h129q5 0 5 -5v-132q0 -5 -5 -5h-129z
M349 760q-5 0 -5 5v132q0 5 5 5h129q5 0 5 -5v-132q0 -5 -5 -5h-129z" />
    <glyph glyph-name="Igrave" unicode="&#xcc;" horiz-adv-x="261" 
d="M58 0q-5 0 -5 5v694q0 5 5 5h110q5 0 5 -5v-694q0 -5 -5 -5h-110zM119 761q-4 0 -6.5 2.5l-4.5 4.5l-83 128q-2 3 0 5t5 2h117q8 0 10 -7l54 -128q3 -7 -5 -7h-87z" />
    <glyph glyph-name="Iacute" unicode="&#xcd;" horiz-adv-x="261" 
d="M58 0q-5 0 -5 5v694q0 5 5 5h110q5 0 5 -5v-694q0 -5 -5 -5h-110zM30 760q-3 0 -5 2t0 5l54 128q2 7 10 7h117q8 0 5 -7l-83 -128l-4.5 -4.5t-6.5 -2.5h-87z" />
    <glyph glyph-name="Icircumflex" unicode="&#xce;" horiz-adv-x="261" 
d="M58 0q-5 0 -5 5v694q0 5 5 5h110q5 0 5 -5v-694q0 -5 -5 -5h-110zM155 760q-4 0 -5 3l-27 47q-2 3 -5 3.5t-5 -3.5l-27 -47q-2 -3 -5 -3h-80q-3 0 -5 2t0 5l56 128q2 7 10 7h111q8 0 10 -7l57 -128q3 -7 -5 -7h-80z" />
    <glyph glyph-name="Idieresis" unicode="&#xcf;" horiz-adv-x="261" 
d="M58 0q-5 0 -5 5v694q0 5 5 5h110q5 0 5 -5v-694q0 -5 -5 -5h-110zM-56 760q-5 0 -5 5v132q0 5 5 5h129q5 0 5 -5v-132q0 -5 -5 -5h-129zM164 760q-5 0 -5 5v132q0 5 5 5h129q5 0 5 -5v-132q0 -5 -5 -5h-129z" />
    <glyph glyph-name="Eth" unicode="&#xd0;" horiz-adv-x="657" 
d="M53 296q0 5 -5 5h-88q-5 0 -5 5v89q0 5 5 5h88q5 0 5 5v294q0 5 5 5h257q79 0 138 -27t98.5 -74.5t59 -113t19.5 -144.5q0 -80 -19.5 -143.5t-59 -108.5t-98.5 -69t-138 -24h-257q-5 0 -5 5v291zM178 301q-5 0 -5 -5v-182q0 -5 5 -5h137q91 0 140.5 60.5t49.5 175.5
q0 57 -13 103t-37 78.5t-59.5 50.5t-80.5 18h-138q-4 0 -4 -4v-186q0 -5 5 -5h95q5 0 5 -5v-89q0 -5 -5 -5h-95z" />
    <glyph glyph-name="Ntilde" unicode="&#xd1;" horiz-adv-x="713" 
d="M611 704q5 0 5 -5v-694q0 -5 -5 -5h-149q-5 0 -7 5l-273 526q-2 5 -6 4.5t-4 -4.5v-526q0 -5 -5 -5h-111q-4 0 -4 5v694q0 5 5 5h149q3 0 6 -5l274 -526q2 -5 6 -4.5t4 4.5v526q0 5 5 5h110zM173 806q0 13 5 29.5t17.5 31.5t34.5 25t55 10q22 0 38.5 -7t29 -16t22 -16
t17.5 -7q3 0 8.5 0.5t11 4t9 12t3.5 24.5q0 5 5 5h70q5 0 5 -5v-34q0 -13 -5 -29.5t-18 -31t-34.5 -24.5t-54.5 -10q-20 0 -36 7t-29 16t-23 16t-19 7q-3 0 -8.5 -0.5t-11 -4t-9 -12t-3.5 -24.5q0 -5 -5 -5h-70q-5 0 -5 5v33z" />
    <glyph glyph-name="Ograve" unicode="&#xd2;" horiz-adv-x="745" 
d="M672 352q0 -80 -20 -146.5t-59.5 -114.5t-99 -74.5t-138.5 -26.5t-138.5 26.5t-99 74.5t-59.5 114.5t-20 146.5q0 79 20 145.5t59.5 114.5t99 75t138.5 27t138.5 -27t99 -75t59.5 -114.5t20 -145.5zM355 100q94 0 143 67t49 185t-49 185t-143 67t-143 -67t-49 -185
t49 -185t143 -67zM361 761q-4 0 -6.5 2.5l-4.5 4.5l-83 128q-2 3 0 5t5 2h117q8 0 10 -7l54 -128q3 -7 -5 -7h-87z" />
    <glyph glyph-name="Oacute" unicode="&#xd3;" horiz-adv-x="745" 
d="M672 352q0 -80 -20 -146.5t-59.5 -114.5t-99 -74.5t-138.5 -26.5t-138.5 26.5t-99 74.5t-59.5 114.5t-20 146.5q0 79 20 145.5t59.5 114.5t99 75t138.5 27t138.5 -27t99 -75t59.5 -114.5t20 -145.5zM355 100q94 0 143 67t49 185t-49 185t-143 67t-143 -67t-49 -185
t49 -185t143 -67zM272 760q-3 0 -5 2t0 5l54 128q2 7 10 7h117q8 0 5 -7l-83 -128l-4.5 -4.5t-6.5 -2.5h-87z" />
    <glyph glyph-name="Ocircumflex" unicode="&#xd4;" horiz-adv-x="745" 
d="M672 352q0 -80 -20 -146.5t-59.5 -114.5t-99 -74.5t-138.5 -26.5t-138.5 26.5t-99 74.5t-59.5 114.5t-20 146.5q0 79 20 145.5t59.5 114.5t99 75t138.5 27t138.5 -27t99 -75t59.5 -114.5t20 -145.5zM355 100q94 0 143 67t49 185t-49 185t-143 67t-143 -67t-49 -185
t49 -185t143 -67zM397 760q-4 0 -5 3l-27 47q-2 3 -5 3.5t-5 -3.5l-27 -47q-2 -3 -5 -3h-80q-3 0 -5 2t0 5l56 128q2 7 10 7h111q8 0 10 -7l57 -128q3 -7 -5 -7h-80z" />
    <glyph glyph-name="Otilde" unicode="&#xd5;" horiz-adv-x="745" 
d="M672 352q0 -80 -20 -146.5t-59.5 -114.5t-99 -74.5t-138.5 -26.5t-138.5 26.5t-99 74.5t-59.5 114.5t-20 146.5q0 79 20 145.5t59.5 114.5t99 75t138.5 27t138.5 -27t99 -75t59.5 -114.5t20 -145.5zM355 100q94 0 143 67t49 185t-49 185t-143 67t-143 -67t-49 -185
t49 -185t143 -67zM184 806q0 13 5 29.5t17.5 31.5t34.5 25t55 10q22 0 38.5 -7t29 -16t22 -16t17.5 -7q3 0 8.5 0.5t11 4t9 12t3.5 24.5q0 5 5 5h70q5 0 5 -5v-34q0 -13 -5 -29.5t-18 -31t-34.5 -24.5t-54.5 -10q-20 0 -36 7t-29 16t-23 16t-19 7q-3 0 -8.5 -0.5t-11 -4
t-9 -12t-3.5 -24.5q0 -5 -5 -5h-70q-5 0 -5 5v33z" />
    <glyph glyph-name="Odieresis" unicode="&#xd6;" horiz-adv-x="745" 
d="M672 352q0 -80 -20 -146.5t-59.5 -114.5t-99 -74.5t-138.5 -26.5t-138.5 26.5t-99 74.5t-59.5 114.5t-20 146.5q0 79 20 145.5t59.5 114.5t99 75t138.5 27t138.5 -27t99 -75t59.5 -114.5t20 -145.5zM355 100q94 0 143 67t49 185t-49 185t-143 67t-143 -67t-49 -185
t49 -185t143 -67zM185 760q-5 0 -5 5v132q0 5 5 5h129q5 0 5 -5v-132q0 -5 -5 -5h-129zM405 760q-5 0 -5 5v132q0 5 5 5h129q5 0 5 -5v-132q0 -5 -5 -5h-129z" />
    <glyph glyph-name="multiply" unicode="&#xd7;" horiz-adv-x="587" 
d="M362 257q-5 -4 0 -7l168 -168q2 -5 0 -9l-69 -69q-5 -2 -9 0l-168 168q-4 5 -7 0l-169 -168q-3 -3 -7 0l-69 69q-2 4 0 9l168 167q3 4 0 8l-168 167q-2 4 0 9l69 69q4 2 9 0l167 -168q4 -3 8 0l167 168q4 2 9 0l69 -69q3 -4 0 -7z" />
    <glyph glyph-name="Oslash" unicode="&#xd8;" horiz-adv-x="745" 
d="M672 352q0 -80 -20 -146.5t-59.5 -114.5t-99 -74.5t-138.5 -26.5q-73 0 -128.5 22t-95.5 63q-2 2 -4.5 2.5t-4.5 -1.5l-36 -36q-4 -4 -7 0l-39 39q-4 3 0 7l45 45q3 3 0 8q-47 88 -47 213q0 79 20 145.5t59.5 114.5t99 75t138.5 27q71 0 126.5 -21.5t94.5 -61.5q4 -5 9 0
l39 39q3 3 7 0l39 -39q3 -4 0 -7l-47 -47q-2 -2 -2 -5t2 -5q25 -44 37 -98t12 -117zM355 100q94 0 143 67t49 185q0 71 -17 121q-1 2 -4 3t-5 -1l-305 -305q-4 -4 0 -8q51 -62 139 -62zM163 352q0 -68 16 -116q1 -3 3.5 -4t4.5 1l302 302q5 5 0 11q-25 27 -58 42.5t-76 15.5
q-94 0 -143 -67t-49 -185z" />
    <glyph glyph-name="Ugrave" unicode="&#xd9;" horiz-adv-x="640" 
d="M558 244q0 -53 -20 -99t-54.5 -80.5t-81 -54.5t-99.5 -20t-99.5 20t-81 54.5t-54.5 80.5t-20 99v455q0 5 5 5h110q5 0 5 -5v-455q0 -28 10.5 -52.5t29 -42.5t43 -28.5t52.5 -10.5t52.5 10.5t43 28.5t29 42.5t10.5 52.5v455q0 5 5 5h110q5 0 5 -5v-455zM308 761
q-4 0 -6.5 2.5l-4.5 4.5l-83 128q-2 3 0 5t5 2h117q8 0 10 -7l54 -128q3 -7 -5 -7h-87z" />
    <glyph glyph-name="Uacute" unicode="&#xda;" horiz-adv-x="640" 
d="M558 244q0 -53 -20 -99t-54.5 -80.5t-81 -54.5t-99.5 -20t-99.5 20t-81 54.5t-54.5 80.5t-20 99v455q0 5 5 5h110q5 0 5 -5v-455q0 -28 10.5 -52.5t29 -42.5t43 -28.5t52.5 -10.5t52.5 10.5t43 28.5t29 42.5t10.5 52.5v455q0 5 5 5h110q5 0 5 -5v-455zM219 760q-3 0 -5 2
t0 5l54 128q2 7 10 7h117q8 0 5 -7l-83 -128l-4.5 -4.5t-6.5 -2.5h-87z" />
    <glyph glyph-name="Ucircumflex" unicode="&#xdb;" horiz-adv-x="640" 
d="M558 244q0 -53 -20 -99t-54.5 -80.5t-81 -54.5t-99.5 -20t-99.5 20t-81 54.5t-54.5 80.5t-20 99v455q0 5 5 5h110q5 0 5 -5v-455q0 -28 10.5 -52.5t29 -42.5t43 -28.5t52.5 -10.5t52.5 10.5t43 28.5t29 42.5t10.5 52.5v455q0 5 5 5h110q5 0 5 -5v-455zM344 760q-4 0 -5 3
l-27 47q-2 3 -5 3.5t-5 -3.5l-27 -47q-2 -3 -5 -3h-80q-3 0 -5 2t0 5l56 128q2 7 10 7h111q8 0 10 -7l57 -128q3 -7 -5 -7h-80z" />
    <glyph glyph-name="Udieresis" unicode="&#xdc;" horiz-adv-x="640" 
d="M558 244q0 -53 -20 -99t-54.5 -80.5t-81 -54.5t-99.5 -20t-99.5 20t-81 54.5t-54.5 80.5t-20 99v455q0 5 5 5h110q5 0 5 -5v-455q0 -28 10.5 -52.5t29 -42.5t43 -28.5t52.5 -10.5t52.5 10.5t43 28.5t29 42.5t10.5 52.5v455q0 5 5 5h110q5 0 5 -5v-455zM133 760q-5 0 -5 5
v132q0 5 5 5h129q5 0 5 -5v-132q0 -5 -5 -5h-129zM353 760q-5 0 -5 5v132q0 5 5 5h129q5 0 5 -5v-132q0 -5 -5 -5h-129z" />
    <glyph glyph-name="Yacute" unicode="&#xdd;" horiz-adv-x="679" 
d="M268 0q-5 0 -5 5v282q0 4 -2 7l-239 402q-4 8 4 8h131q4 0 7 -5l155 -285q4 -6 8 0l156 285q2 5 8 5h130q2 0 4 -2t0 -6l-240 -402q-2 -3 -2 -7v-282q0 -5 -5 -5h-110v0zM239 760q-3 0 -5 2t0 5l54 128q2 7 10 7h117q8 0 5 -7l-83 -128l-4.5 -4.5t-6.5 -2.5h-87z" />
    <glyph glyph-name="Thorn" unicode="&#xde;" horiz-adv-x="610" 
d="M53 699q0 5 5 5h110q5 0 5 -5v-137q0 -3 4 -3h204q42 0 79 -16.5t64 -44.5t42.5 -66t15.5 -80t-15.5 -80t-42.5 -66t-64 -44.5t-79 -16.5h-204q-4 0 -4 -3v-137q0 -5 -5 -5h-110q-5 0 -5 5v694zM178 450q-5 0 -5 -5v-186q0 -5 5 -5h203q16 0 31 8.5t26 22t18 31.5t7 36
t-7 36t-18 31.5t-26 22t-31 8.5h-203z" />
    <glyph glyph-name="germandbls" unicode="&#xdf;" horiz-adv-x="578" 
d="M532 201q0 -99 -58.5 -155t-181.5 -56h-43q-4 0 -4 5v100q0 5 4 5h43q60 0 91 25t31 76q0 25 -10.5 43.5t-27 31.5t-36 19.5t-37.5 6.5h-27q-5 0 -5 5v100q0 5 5 5h27q18 0 35 4.5t30.5 15t22 27.5t8.5 42t-9.5 45.5t-25.5 34.5t-38 21.5t-47 7.5q-29 0 -49.5 -9.5
t-34.5 -25.5t-20.5 -36.5t-6.5 -42.5v-491q0 -5 -5 -5h-108q-5 0 -5 5v491q0 46 14.5 86t43 69.5t71.5 46t100 16.5t101 -17.5t73.5 -46.5t44.5 -67.5t15 -81.5q0 -24 -6 -47t-17 -42t-26 -32t-32 -19q-2 -1 -2 -3t2 -3q18 -6 36 -19t32 -32.5t23 -45.5t9 -57z" />
    <glyph glyph-name="agrave" unicode="&#xe0;" horiz-adv-x="581" 
d="M372 48q-20 -20 -59 -39t-99 -19q-51 0 -88.5 12.5t-61.5 34t-36 51t-12 63.5q0 32 13.5 61.5t41 52t68.5 35.5t96 13h94q15 0 22.5 7t7.5 15t-2.5 20t-13 23.5t-31.5 19.5t-58 8q-29 0 -47.5 -5.5t-30 -14.5t-17 -21t-6.5 -25q0 -5 -5 -5h-109q-5 0 -5 5q0 44 18 77
t48 55t70 33t84 11q104 0 164.5 -48t60.5 -142v-194q0 -15 10 -23.5t26 -8.5h15q5 0 5 -5v-90q0 -5 -5 -5h-51q-39 0 -61.5 13.5t-36.5 34.5q-4 5 -9 0zM214 100q39 0 66.5 10t45 25.5t25.5 34.5t8 38q0 5 -5 5h-114q-33 0 -53.5 -6t-32 -15t-15 -20t-3.5 -21q0 -8 3.5 -17
t12.5 -16.5t24 -12.5t38 -5zM217 562q-4 0 -6.5 2.5l-4.5 4.5l-83 128q-2 3 0 5t5 2h117q8 0 10 -7l54 -128q3 -7 -5 -7h-87z" />
    <glyph glyph-name="aacute" unicode="&#xe1;" horiz-adv-x="581" 
d="M372 48q-20 -20 -59 -39t-99 -19q-51 0 -88.5 12.5t-61.5 34t-36 51t-12 63.5q0 32 13.5 61.5t41 52t68.5 35.5t96 13h94q15 0 22.5 7t7.5 15t-2.5 20t-13 23.5t-31.5 19.5t-58 8q-29 0 -47.5 -5.5t-30 -14.5t-17 -21t-6.5 -25q0 -5 -5 -5h-109q-5 0 -5 5q0 44 18 77
t48 55t70 33t84 11q104 0 164.5 -48t60.5 -142v-194q0 -15 10 -23.5t26 -8.5h15q5 0 5 -5v-90q0 -5 -5 -5h-51q-39 0 -61.5 13.5t-36.5 34.5q-4 5 -9 0zM214 100q39 0 66.5 10t45 25.5t25.5 34.5t8 38q0 5 -5 5h-114q-33 0 -53.5 -6t-32 -15t-15 -20t-3.5 -21q0 -8 3.5 -17
t12.5 -16.5t24 -12.5t38 -5zM218 562q-3 0 -5 2t0 5l54 128q2 7 10 7h117q8 0 5 -7l-83 -128l-4.5 -4.5t-6.5 -2.5h-87z" />
    <glyph glyph-name="acircumflex" unicode="&#xe2;" horiz-adv-x="581" 
d="M372 48q-20 -20 -59 -39t-99 -19q-51 0 -88.5 12.5t-61.5 34t-36 51t-12 63.5q0 32 13.5 61.5t41 52t68.5 35.5t96 13h94q15 0 22.5 7t7.5 15t-2.5 20t-13 23.5t-31.5 19.5t-58 8q-29 0 -47.5 -5.5t-30 -14.5t-17 -21t-6.5 -25q0 -5 -5 -5h-109q-5 0 -5 5q0 44 18 77
t48 55t70 33t84 11q104 0 164.5 -48t60.5 -142v-194q0 -15 10 -23.5t26 -8.5h15q5 0 5 -5v-90q0 -5 -5 -5h-51q-39 0 -61.5 13.5t-36.5 34.5q-4 5 -9 0zM214 100q39 0 66.5 10t45 25.5t25.5 34.5t8 38q0 5 -5 5h-114q-33 0 -53.5 -6t-32 -15t-15 -20t-3.5 -21q0 -8 3.5 -17
t12.5 -16.5t24 -12.5t38 -5zM298 562q-4 0 -5 3l-27 47q-2 3 -5 3.5t-5 -3.5l-27 -47q-2 -3 -5 -3h-80q-3 0 -5 2t0 5l56 128q2 7 10 7h111q8 0 10 -7l57 -128q3 -7 -5 -7h-80z" />
    <glyph glyph-name="atilde" unicode="&#xe3;" horiz-adv-x="581" 
d="M372 48q-20 -20 -59 -39t-99 -19q-51 0 -88.5 12.5t-61.5 34t-36 51t-12 63.5q0 32 13.5 61.5t41 52t68.5 35.5t96 13h94q15 0 22.5 7t7.5 15t-2.5 20t-13 23.5t-31.5 19.5t-58 8q-29 0 -47.5 -5.5t-30 -14.5t-17 -21t-6.5 -25q0 -5 -5 -5h-109q-5 0 -5 5q0 44 18 77
t48 55t70 33t84 11q104 0 164.5 -48t60.5 -142v-194q0 -15 10 -23.5t26 -8.5h15q5 0 5 -5v-90q0 -5 -5 -5h-51q-39 0 -61.5 13.5t-36.5 34.5q-4 5 -9 0zM214 100q39 0 66.5 10t45 25.5t25.5 34.5t8 38q0 5 -5 5h-114q-33 0 -53.5 -6t-32 -15t-15 -20t-3.5 -21q0 -8 3.5 -17
t12.5 -16.5t24 -12.5t38 -5zM94 608q0 13 5 29.5t17.5 31.5t34.5 25t55 10q22 0 38.5 -7t29 -16t22 -16t17.5 -7q3 0 8.5 0.5t11 4t9 12t3.5 24.5q0 5 5 5h70q5 0 5 -5v-34q0 -13 -5 -29.5t-18 -31t-34.5 -24.5t-54.5 -10q-20 0 -36 7t-29 16t-23 16t-19 7q-3 0 -8.5 -0.5
t-11 -4t-9 -12t-3.5 -24.5q0 -5 -5 -5h-70q-5 0 -5 5v33z" />
    <glyph glyph-name="adieresis" unicode="&#xe4;" horiz-adv-x="581" 
d="M372 48q-20 -20 -59 -39t-99 -19q-51 0 -88.5 12.5t-61.5 34t-36 51t-12 63.5q0 32 13.5 61.5t41 52t68.5 35.5t96 13h94q15 0 22.5 7t7.5 15t-2.5 20t-13 23.5t-31.5 19.5t-58 8q-29 0 -47.5 -5.5t-30 -14.5t-17 -21t-6.5 -25q0 -5 -5 -5h-109q-5 0 -5 5q0 44 18 77
t48 55t70 33t84 11q104 0 164.5 -48t60.5 -142v-194q0 -15 10 -23.5t26 -8.5h15q5 0 5 -5v-90q0 -5 -5 -5h-51q-39 0 -61.5 13.5t-36.5 34.5q-4 5 -9 0zM214 100q39 0 66.5 10t45 25.5t25.5 34.5t8 38q0 5 -5 5h-114q-33 0 -53.5 -6t-32 -15t-15 -20t-3.5 -21q0 -8 3.5 -17
t12.5 -16.5t24 -12.5t38 -5zM87 562q-5 0 -5 5v132q0 5 5 5h129q5 0 5 -5v-132q0 -5 -5 -5h-129zM307 562q-5 0 -5 5v132q0 5 5 5h129q5 0 5 -5v-132q0 -5 -5 -5h-129z" />
    <glyph glyph-name="aring" unicode="&#xe5;" horiz-adv-x="581" 
d="M372 48q-20 -20 -59 -39t-99 -19q-51 0 -88.5 12.5t-61.5 34t-36 51t-12 63.5q0 32 13.5 61.5t41 52t68.5 35.5t96 13h94q15 0 22.5 7t7.5 15t-2.5 20t-13 23.5t-31.5 19.5t-58 8q-29 0 -47.5 -5.5t-30 -14.5t-17 -21t-6.5 -25q0 -5 -5 -5h-109q-5 0 -5 5q0 44 18 77
t48 55t70 33t84 11q104 0 164.5 -48t60.5 -142v-194q0 -15 10 -23.5t26 -8.5h15q5 0 5 -5v-90q0 -5 -5 -5h-51q-39 0 -61.5 13.5t-36.5 34.5q-4 5 -9 0zM214 100q39 0 66.5 10t45 25.5t25.5 34.5t8 38q0 5 -5 5h-114q-33 0 -53.5 -6t-32 -15t-15 -20t-3.5 -21q0 -8 3.5 -17
t12.5 -16.5t24 -12.5t38 -5zM339 626q0 -36 -26 -61.5t-62 -25.5t-61.5 25.5t-25.5 61.5t25.5 62t61.5 26q18 0 34 -7t28 -19t19 -28t7 -34zM293 626q0 17 -12.5 29.5t-29.5 12.5t-29.5 -12.5t-12.5 -29.5t12.5 -29.5t29.5 -12.5t29.5 12.5t12.5 29.5z" />
    <glyph glyph-name="ae" unicode="&#xe6;" horiz-adv-x="915" 
d="M846 218q-2 -5 -6 -5h-348q-5 0 -5 -5q0 -52 32.5 -82t86.5 -30q37 0 63.5 13t43.5 36q2 5 7 5h108q6 0 5 -6q-17 -73 -79 -113.5t-148 -40.5q-59 0 -104 19.5t-77 54.5q-4 3 -7 0q-20 -25 -47.5 -40t-55 -22.5t-51.5 -9.5t-39 -2q-51 0 -89.5 12.5t-64 34t-38.5 51
t-13 63.5q0 32 13 61.5t39.5 52t67 35.5t95.5 13q16 1 34.5 1h35.5t29.5 1t17.5 3q7 2 7 10q0 12 -2.5 26.5t-13 27t-31.5 20.5t-58 8q-29 0 -47.5 -6t-30 -16t-17 -22t-6.5 -25q0 -5 -5 -5h-109q-5 0 -5 5q0 44 18 77t48 54.5t70 32.5t84 11q118 0 178 -62q2 -2 4 0
q32 32 77 47t93 15q58 0 103.5 -19t77 -54t47.5 -83.5t16 -106.5q-1 -20 -1.5 -24.5t-2.5 -10.5zM220 88q39 0 65.5 12t43.5 30.5t25 40t9 41.5q0 5 -1 6.5t-7 1.5l-115 -5q-33 -2 -54 -8.5t-32.5 -15.5t-15.5 -19.5t-4 -20.5q0 -23 20.5 -43t65.5 -20zM717 307q5 0 5 5
q0 15 -6.5 32t-20.5 32t-36 24.5t-53 9.5q-30 0 -52 -10t-36 -25t-21.5 -32t-9.5 -32q0 -4 4 -4h226z" />
    <glyph glyph-name="ccedilla" unicode="&#xe7;" horiz-adv-x="557" 
d="M235 -17q2 3 0.5 6t-4.5 3q-50 6 -89 27.5t-65.5 55.5t-40 79t-13.5 99q0 59 16.5 107.5t47.5 83t76.5 53.5t104.5 19q96 0 158 -47.5t75 -128.5q1 -5 -5 -5h-114q-4 0 -5 3q-13 33 -39 52.5t-70 19.5q-32 0 -55 -12t-38.5 -33t-23 -50t-7.5 -62t7.5 -62t23 -50t38.5 -33
t55 -12q50 0 74 19.5t37 52.5q1 3 5 3h114q6 0 5 -5q-15 -81 -67.5 -125t-137.5 -50q-4 0 -6 -5l-21 -32q-2 -3 0 -5t4 -2q13 -1 27 -5t26 -13t19.5 -22.5t7.5 -33.5q0 -34 -28 -57.5t-77 -23.5q-19 0 -37 5.5t-32.5 16t-23 25.5t-8.5 34q0 5 5 5h50q5 0 5 -5
q0 -11 11.5 -22.5t29.5 -11.5t31.5 9t13.5 25q0 14 -5.5 22t-12.5 11.5t-15 4.5t-12 1q-6 0 -11 -1t-10 4l-18 15q-5 4 -4 7t3 5z" />
    <glyph glyph-name="egrave" unicode="&#xe8;" horiz-adv-x="558" 
d="M516 212q-2 -5 -5 -5h-348q-5 0 -5 -5q0 -21 8.5 -39.5t24.5 -32.5t37.5 -22t48.5 -8q33 0 58.5 9.5t38.5 35.5q2 5 8 5h117q7 0 5 -5q-17 -73 -79 -114t-148 -41q-55 0 -100 19t-77 54t-49.5 83t-17.5 107t17.5 107.5t49.5 83t77 53.5t100 19t100 -19t77 -54t49.5 -83.5
t17.5 -106.5q-1 -15 -2 -23.5t-3 -17.5zM389 307q4 0 4 4q0 15 -6.5 31.5t-20.5 31t-36 23.5t-53 9q-30 0 -52.5 -9.5t-37.5 -23.5t-22 -30.5t-7 -31.5q0 -4 4 -4h227zM247 562q-4 0 -6.5 2.5l-4.5 4.5l-83 128q-2 3 0 5t5 2h117q8 0 10 -7l54 -128q3 -7 -5 -7h-87z" />
    <glyph glyph-name="eacute" unicode="&#xe9;" horiz-adv-x="558" 
d="M516 212q-2 -5 -5 -5h-348q-5 0 -5 -5q0 -21 8.5 -39.5t24.5 -32.5t37.5 -22t48.5 -8q33 0 58.5 9.5t38.5 35.5q2 5 8 5h117q7 0 5 -5q-17 -73 -79 -114t-148 -41q-55 0 -100 19t-77 54t-49.5 83t-17.5 107t17.5 107.5t49.5 83t77 53.5t100 19t100 -19t77 -54t49.5 -83.5
t17.5 -106.5q-1 -15 -2 -23.5t-3 -17.5zM389 307q4 0 4 4q0 15 -6.5 31.5t-20.5 31t-36 23.5t-53 9q-30 0 -52.5 -9.5t-37.5 -23.5t-22 -30.5t-7 -31.5q0 -4 4 -4h227zM228 562q-3 0 -5 2t0 5l54 128q2 7 10 7h117q8 0 5 -7l-83 -128l-4.5 -4.5t-6.5 -2.5h-87z" />
    <glyph glyph-name="ecircumflex" unicode="&#xea;" horiz-adv-x="558" 
d="M516 212q-2 -5 -5 -5h-348q-5 0 -5 -5q0 -21 8.5 -39.5t24.5 -32.5t37.5 -22t48.5 -8q33 0 58.5 9.5t38.5 35.5q2 5 8 5h117q7 0 5 -5q-17 -73 -79 -114t-148 -41q-55 0 -100 19t-77 54t-49.5 83t-17.5 107t17.5 107.5t49.5 83t77 53.5t100 19t100 -19t77 -54t49.5 -83.5
t17.5 -106.5q-1 -15 -2 -23.5t-3 -17.5zM389 307q4 0 4 4q0 15 -6.5 31.5t-20.5 31t-36 23.5t-53 9q-30 0 -52.5 -9.5t-37.5 -23.5t-22 -30.5t-7 -31.5q0 -4 4 -4h227zM312 562q-4 0 -5 3l-27 47q-2 3 -5 3.5t-5 -3.5l-27 -47q-2 -3 -5 -3h-80q-3 0 -5 2t0 5l56 128
q2 7 10 7h111q8 0 10 -7l57 -128q3 -7 -5 -7h-80z" />
    <glyph glyph-name="edieresis" unicode="&#xeb;" horiz-adv-x="558" 
d="M516 212q-2 -5 -5 -5h-348q-5 0 -5 -5q0 -21 8.5 -39.5t24.5 -32.5t37.5 -22t48.5 -8q33 0 58.5 9.5t38.5 35.5q2 5 8 5h117q7 0 5 -5q-17 -73 -79 -114t-148 -41q-55 0 -100 19t-77 54t-49.5 83t-17.5 107t17.5 107.5t49.5 83t77 53.5t100 19t100 -19t77 -54t49.5 -83.5
t17.5 -106.5q-1 -15 -2 -23.5t-3 -17.5zM389 307q4 0 4 4q0 15 -6.5 31.5t-20.5 31t-36 23.5t-53 9q-30 0 -52.5 -9.5t-37.5 -23.5t-22 -30.5t-7 -31.5q0 -4 4 -4h227zM107 562q-5 0 -5 5v132q0 5 5 5h129q5 0 5 -5v-132q0 -5 -5 -5h-129zM327 562q-5 0 -5 5v132q0 5 5 5
h129q5 0 5 -5v-132q0 -5 -5 -5h-129z" />
    <glyph glyph-name="igrave" unicode="&#xec;" horiz-adv-x="291" 
d="M78 0q-5 0 -5 5v496q0 5 5 5h110q5 0 5 -5v-496q0 -5 -5 -5h-110zM99 562q-4 0 -6.5 2.5l-4.5 4.5l-83 128q-2 3 0 5t5 2h117q8 0 10 -7l54 -128q3 -7 -5 -7h-87z" />
    <glyph glyph-name="iacute" unicode="&#xed;" horiz-adv-x="291" 
d="M78 0q-5 0 -5 5v496q0 5 5 5h110q5 0 5 -5v-496q0 -5 -5 -5h-110zM80 562q-3 0 -5 2t0 5l54 128q2 7 10 7h117q8 0 5 -7l-83 -128l-4.5 -4.5t-6.5 -2.5h-87z" />
    <glyph glyph-name="icircumflex" unicode="&#xee;" horiz-adv-x="291" 
d="M78 0q-5 0 -5 5v496q0 5 5 5h110q5 0 5 -5v-496q0 -5 -5 -5h-110zM170 562q-4 0 -5 3l-27 47q-2 3 -5 3.5t-5 -3.5l-27 -47q-2 -3 -5 -3h-80q-3 0 -5 2t0 5l56 128q2 7 10 7h111q8 0 10 -7l57 -128q3 -7 -5 -7h-80z" />
    <glyph glyph-name="idieresis" unicode="&#xef;" horiz-adv-x="291" 
d="M78 0q-5 0 -5 5v496q0 5 5 5h110q5 0 5 -5v-496q0 -5 -5 -5h-110zM-41 562q-5 0 -5 5v132q0 5 5 5h129q5 0 5 -5v-132q0 -5 -5 -5h-129zM179 562q-5 0 -5 5v132q0 5 5 5h129q5 0 5 -5v-132q0 -5 -5 -5h-129z" />
    <glyph glyph-name="eth" unicode="&#xf0;" horiz-adv-x="608" 
d="M281 556q-2 4 -6 2l-62 -33q-4 -2 -6 3l-23 44q-4 6 1 6l62 33q4 2 1 7l-41 78q-2 3 0 5.5t5 2.5h117q5 0 7 -4l16 -28q2 -4 6 -2l62 33q4 1 7 -2l23 -45q4 -4 -2 -6l-62 -33q-4 -2 -2 -6l113 -215q16 -30 24.5 -66t8.5 -77q0 -59 -17 -107t-49 -83t-78.5 -54t-104.5 -19
q-59 0 -105 19t-77.5 54t-48.5 83t-17 107t17.5 107.5t48 83t71.5 53.5t88 19q13 0 22.5 -1.5t14.5 -3.5t7 1t0 6zM410 253q0 71 -32.5 112t-96.5 41q-63 0 -95.5 -41t-32.5 -112t32.5 -112t95.5 -41q64 0 96.5 41t32.5 112z" />
    <glyph glyph-name="ntilde" unicode="&#xf1;" horiz-adv-x="583" 
d="M178 469q8 8 21.5 16.5t30 15t34 11t33.5 4.5q59 0 99.5 -19.5t65 -52.5t35.5 -76t11 -90v-273q0 -5 -5 -5h-110q-5 0 -5 5v273q0 22 -6 45t-19.5 41.5t-34.5 30t-51 11.5q-29 0 -50 -10t-34.5 -26.5t-19.5 -38t-6 -43.5v-283q0 -5 -5 -5h-110q-5 0 -5 5v496q0 5 5 5h95
q8 0 9 -5l11 -31q2 -3 5 -4t6 3zM117 608q0 13 5 29.5t17.5 31.5t34.5 25t55 10q22 0 38.5 -7t29 -16t22 -16t17.5 -7q3 0 8.5 0.5t11 4t9 12t3.5 24.5q0 5 5 5h70q5 0 5 -5v-34q0 -13 -5 -29.5t-18 -31t-34.5 -24.5t-54.5 -10q-20 0 -36 7t-29 16t-23 16t-19 7
q-3 0 -8.5 -0.5t-11 -4t-9 -12t-3.5 -24.5q0 -5 -5 -5h-70q-5 0 -5 5v33z" />
    <glyph glyph-name="ograve" unicode="&#xf2;" horiz-adv-x="588" 
d="M530 253q0 -59 -17 -107t-49 -83t-78.5 -54t-104.5 -19q-59 0 -105 19t-77.5 54t-48.5 83t-17 107t17 107.5t48.5 83t77.5 53.5t105 19q58 0 104.5 -19t78.5 -54t49 -83.5t17 -106.5zM410 253q0 71 -32.5 112t-96.5 41q-63 0 -95.5 -41t-32.5 -112t32.5 -112t95.5 -41
q64 0 96.5 41t32.5 112zM247 562q-4 0 -6.5 2.5l-4.5 4.5l-83 128q-2 3 0 5t5 2h117q8 0 10 -7l54 -128q3 -7 -5 -7h-87z" />
    <glyph glyph-name="oacute" unicode="&#xf3;" horiz-adv-x="588" 
d="M530 253q0 -59 -17 -107t-49 -83t-78.5 -54t-104.5 -19q-59 0 -105 19t-77.5 54t-48.5 83t-17 107t17 107.5t48.5 83t77.5 53.5t105 19q58 0 104.5 -19t78.5 -54t49 -83.5t17 -106.5zM410 253q0 71 -32.5 112t-96.5 41q-63 0 -95.5 -41t-32.5 -112t32.5 -112t95.5 -41
q64 0 96.5 41t32.5 112zM238 562q-3 0 -5 2t0 5l54 128q2 7 10 7h117q8 0 5 -7l-83 -128l-4.5 -4.5t-6.5 -2.5h-87z" />
    <glyph glyph-name="ocircumflex" unicode="&#xf4;" horiz-adv-x="588" 
d="M530 253q0 -59 -17 -107t-49 -83t-78.5 -54t-104.5 -19q-59 0 -105 19t-77.5 54t-48.5 83t-17 107t17 107.5t48.5 83t77.5 53.5t105 19q58 0 104.5 -19t78.5 -54t49 -83.5t17 -106.5zM410 253q0 71 -32.5 112t-96.5 41q-63 0 -95.5 -41t-32.5 -112t32.5 -112t95.5 -41
q64 0 96.5 41t32.5 112zM318 562q-4 0 -5 3l-27 47q-2 3 -5 3.5t-5 -3.5l-27 -47q-2 -3 -5 -3h-80q-3 0 -5 2t0 5l56 128q2 7 10 7h111q8 0 10 -7l57 -128q3 -7 -5 -7h-80z" />
    <glyph glyph-name="otilde" unicode="&#xf5;" horiz-adv-x="588" 
d="M530 253q0 -59 -17 -107t-49 -83t-78.5 -54t-104.5 -19q-59 0 -105 19t-77.5 54t-48.5 83t-17 107t17 107.5t48.5 83t77.5 53.5t105 19q58 0 104.5 -19t78.5 -54t49 -83.5t17 -106.5zM410 253q0 71 -32.5 112t-96.5 41q-63 0 -95.5 -41t-32.5 -112t32.5 -112t95.5 -41
q64 0 96.5 41t32.5 112zM116 608q0 13 5 29.5t17.5 31.5t34.5 25t55 10q22 0 38.5 -7t29 -16t22 -16t17.5 -7q3 0 8.5 0.5t11 4t9 12t3.5 24.5q0 5 5 5h70q5 0 5 -5v-34q0 -13 -5 -29.5t-18 -31t-34.5 -24.5t-54.5 -10q-20 0 -36 7t-29 16t-23 16t-19 7q-3 0 -8.5 -0.5
t-11 -4t-9 -12t-3.5 -24.5q0 -5 -5 -5h-70q-5 0 -5 5v33z" />
    <glyph glyph-name="odieresis" unicode="&#xf6;" horiz-adv-x="588" 
d="M530 253q0 -59 -17 -107t-49 -83t-78.5 -54t-104.5 -19q-59 0 -105 19t-77.5 54t-48.5 83t-17 107t17 107.5t48.5 83t77.5 53.5t105 19q58 0 104.5 -19t78.5 -54t49 -83.5t17 -106.5zM410 253q0 71 -32.5 112t-96.5 41q-63 0 -95.5 -41t-32.5 -112t32.5 -112t95.5 -41
q64 0 96.5 41t32.5 112zM107 562q-5 0 -5 5v132q0 5 5 5h129q5 0 5 -5v-132q0 -5 -5 -5h-129zM327 562q-5 0 -5 5v132q0 5 5 5h129q5 0 5 -5v-132q0 -5 -5 -5h-129z" />
    <glyph glyph-name="divide" unicode="&#xf7;" horiz-adv-x="580" 
d="M197 0q-5 0 -5 5v152q0 5 5 5h149q5 0 5 -5v-152q0 -5 -5 -5h-149zM197 344q-5 0 -5 5v152q0 5 5 5h149q5 0 5 -5v-152q0 -5 -5 -5h-149zM520 307q5 0 5 -5v-99q0 -5 -5 -5h-496q-5 0 -5 5v99q0 5 5 5h496z" />
    <glyph glyph-name="oslash" unicode="&#xf8;" horiz-adv-x="588" 
d="M530 253q0 -59 -17 -107t-49 -83t-78.5 -54t-104.5 -19q-97 0 -158 50q-4 4 -8 0l-38 -38q-4 -4 -7 0l-39 39q-4 3 0 7l41 42q4 4 0 9q-19 32 -29 70t-10 84q0 59 17 107.5t48.5 83t77.5 53.5t105 19q48 0 87 -13.5t71 -36.5q4 -5 9 0l38 38q3 3 7 0l39 -39q3 -4 0 -7
l-41 -41q-4 -4 0 -10q19 -32 29 -70.5t10 -83.5zM205 131q-5 -5 0 -9q29 -22 76 -22q64 0 96.5 41t32.5 112q0 17 -1.5 33.5t-6.5 30.5q-3 8 -10 1zM153 253q0 -34 8 -64q1 -3 4 -3.5t5 1.5l187 188q4 4 -1 9q-31 22 -75 22q-63 0 -95.5 -41t-32.5 -112z" />
    <glyph glyph-name="ugrave" unicode="&#xf9;" horiz-adv-x="583" 
d="M369 37q-16 -17 -46.5 -32t-62.5 -15q-63 0 -105 19.5t-68 52.5t-37 76t-11 90v273q0 5 5 5h110q5 0 5 -5v-273q0 -23 6 -45.5t19.5 -41t34.5 -30t51 -11.5q29 0 50 10t34.5 26.5t19.5 37.5t6 44v283q0 5 5 5h111q4 0 4 -5v-496q0 -5 -5 -5h-95q-7 0 -10 6l-10 30
q-2 3 -5 4t-6 -3zM240 562q-4 0 -6.5 2.5l-4.5 4.5l-83 128q-2 3 0 5t5 2h117q8 0 10 -7l54 -128q3 -7 -5 -7h-87z" />
    <glyph glyph-name="uacute" unicode="&#xfa;" horiz-adv-x="583" 
d="M369 37q-16 -17 -46.5 -32t-62.5 -15q-63 0 -105 19.5t-68 52.5t-37 76t-11 90v273q0 5 5 5h110q5 0 5 -5v-273q0 -23 6 -45.5t19.5 -41t34.5 -30t51 -11.5q29 0 50 10t34.5 26.5t19.5 37.5t6 44v283q0 5 5 5h111q4 0 4 -5v-496q0 -5 -5 -5h-95q-7 0 -10 6l-10 30
q-2 3 -5 4t-6 -3zM213 562q-3 0 -5 2t0 5l54 128q2 7 10 7h117q8 0 5 -7l-83 -128l-4.5 -4.5t-6.5 -2.5h-87z" />
    <glyph glyph-name="ucircumflex" unicode="&#xfb;" horiz-adv-x="583" 
d="M369 37q-16 -17 -46.5 -32t-62.5 -15q-63 0 -105 19.5t-68 52.5t-37 76t-11 90v273q0 5 5 5h110q5 0 5 -5v-273q0 -23 6 -45.5t19.5 -41t34.5 -30t51 -11.5q29 0 50 10t34.5 26.5t19.5 37.5t6 44v283q0 5 5 5h111q4 0 4 -5v-496q0 -5 -5 -5h-95q-7 0 -10 6l-10 30
q-2 3 -5 4t-6 -3zM310 562q-4 0 -5 3l-27 47q-2 3 -5 3.5t-5 -3.5l-27 -47q-2 -3 -5 -3h-80q-3 0 -5 2t0 5l56 128q2 7 10 7h111q8 0 10 -7l57 -128q3 -7 -5 -7h-80z" />
    <glyph glyph-name="udieresis" unicode="&#xfc;" horiz-adv-x="583" 
d="M369 37q-16 -17 -46.5 -32t-62.5 -15q-63 0 -105 19.5t-68 52.5t-37 76t-11 90v273q0 5 5 5h110q5 0 5 -5v-273q0 -23 6 -45.5t19.5 -41t34.5 -30t51 -11.5q29 0 50 10t34.5 26.5t19.5 37.5t6 44v283q0 5 5 5h111q4 0 4 -5v-496q0 -5 -5 -5h-95q-7 0 -10 6l-10 30
q-2 3 -5 4t-6 -3zM99 562q-5 0 -5 5v132q0 5 5 5h129q5 0 5 -5v-132q0 -5 -5 -5h-129zM319 562q-5 0 -5 5v132q0 5 5 5h129q5 0 5 -5v-132q0 -5 -5 -5h-129z" />
    <glyph glyph-name="yacute" unicode="&#xfd;" horiz-adv-x="524" 
d="M389 501q2 5 6 5h116q7 0 5 -5l-166 -496l-26 -77q-22 -64 -60 -95t-102 -31h-147q-5 0 -5 5v94q0 5 5 5h122q24 0 35.5 8t14.5 22t-1 31.5t-10 37.5l-167 496q-2 5 5 5h117q4 0 6 -5l121 -387q1 -4 5 -4t5 4zM201 562q-3 0 -5 2t0 5l54 128q2 7 10 7h117q8 0 5 -7
l-83 -128l-4.5 -4.5t-6.5 -2.5h-87z" />
    <glyph glyph-name="thorn" unicode="&#xfe;" horiz-adv-x="573" 
d="M276 516q58 0 104.5 -19t78.5 -54t49 -83.5t17 -106.5q0 -59 -17 -107t-49 -83t-78.5 -54t-104.5 -19q-32 0 -63 8t-48 20q-2 2 -5 1t-3 -5v-207q0 -5 -5 -5h-109q-5 0 -5 5v892q0 5 5 5h109q5 0 5 -5v-207q0 -4 3 -5t5 1q17 12 48 20t63 8zM404 253q0 71 -32 114t-96 43
q-63 0 -93 -39.5t-30 -117.5t30 -117.5t93 -39.5q64 0 96 43t32 114z" />
    <glyph glyph-name="ydieresis" unicode="&#xff;" horiz-adv-x="573" 
d="M403 501q2 5 6 5h116q7 0 5 -5l-166 -496l-26 -77q-22 -64 -60 -95t-102 -31h-147q-5 0 -5 5v94q0 5 5 5h122q24 0 35.5 8t14.5 22t-1 31.5t-10 37.5l-167 496q-2 5 5 5h117q4 0 6 -5l121 -387q1 -4 5 -4t5 4zM104 562q-5 0 -5 5v132q0 5 5 5h129q5 0 5 -5v-132
q0 -5 -5 -5h-129zM324 562q-5 0 -5 5v132q0 5 5 5h129q5 0 5 -5v-132q0 -5 -5 -5h-129z" />
    <glyph glyph-name="Amacron" unicode="&#x100;" horiz-adv-x="723" 
d="M210 145q-5 0 -7 -5l-6 -19l-37 -116q-1 -5 -6 -5h-115q-7 0 -5 7l222 692q2 5 6 5h180q4 0 6 -5l221 -692q2 -7 -5 -7h-115q-4 0 -6 5l-33 105l-10 30q-2 5 -7 5h-283zM241 260q-2 -5 4 -5h214q5 0 3 5l-105 330q-2 4 -5 4t-5 -4zM215 770q-4 0 -4 5v70q0 5 4 5h266
q5 0 5 -5v-70q0 -5 -5 -5h-266z" />
    <glyph glyph-name="amacron" unicode="&#x101;" horiz-adv-x="567" 
d="M382 48q-20 -20 -59 -39t-99 -19q-51 0 -88.5 12.5t-61.5 34t-36 51t-12 63.5q0 32 13.5 61.5t41 52t68.5 35.5t96 13h94q15 0 22.5 7t7.5 15t-2.5 20t-13 23.5t-31.5 19.5t-58 8q-29 0 -47.5 -5.5t-30 -14.5t-17 -21t-6.5 -25q0 -5 -5 -5h-109q-5 0 -5 5q0 44 18 77
t48 55t70 33t84 11q104 0 164.5 -48t60.5 -142v-194q0 -15 10 -23.5t26 -8.5h15q5 0 5 -5v-90q0 -5 -5 -5h-51q-39 0 -61.5 13.5t-36.5 34.5q-4 5 -9 0zM224 100q39 0 66.5 10t45 25.5t25.5 34.5t8 38q0 5 -5 5h-114q-33 0 -53.5 -6t-32 -15t-15 -20t-3.5 -21q0 -8 3.5 -17
t12.5 -16.5t24 -12.5t38 -5zM137 572q-4 0 -4 5v70q0 5 4 5h266q5 0 5 -5v-70q0 -5 -5 -5h-266z" />
    <glyph glyph-name="Abreve" unicode="&#x102;" horiz-adv-x="723" 
d="M210 145q-5 0 -7 -5l-6 -19l-37 -116q-1 -5 -6 -5h-115q-7 0 -5 7l222 692q2 5 6 5h180q4 0 6 -5l221 -692q2 -7 -5 -7h-115q-4 0 -6 5l-33 105l-10 30q-2 5 -7 5h-283zM241 260q-2 -5 4 -5h214q5 0 3 5l-105 330q-2 4 -5 4t-5 -4zM488 897q0 -63 -38 -100t-101 -37
q-62 0 -100.5 37t-38.5 100q0 5 5 5h77q5 0 5 -5q0 -17 13.5 -34.5t38.5 -17.5q26 0 38.5 17.5t12.5 34.5q0 5 5 5h78z" />
    <glyph glyph-name="abreve" unicode="&#x103;" horiz-adv-x="567" 
d="M382 48q-20 -20 -59 -39t-99 -19q-51 0 -88.5 12.5t-61.5 34t-36 51t-12 63.5q0 32 13.5 61.5t41 52t68.5 35.5t96 13h94q15 0 22.5 7t7.5 15t-2.5 20t-13 23.5t-31.5 19.5t-58 8q-29 0 -47.5 -5.5t-30 -14.5t-17 -21t-6.5 -25q0 -5 -5 -5h-109q-5 0 -5 5q0 44 18 77
t48 55t70 33t84 11q104 0 164.5 -48t60.5 -142v-194q0 -15 10 -23.5t26 -8.5h15q5 0 5 -5v-90q0 -5 -5 -5h-51q-39 0 -61.5 13.5t-36.5 34.5q-4 5 -9 0zM224 100q39 0 66.5 10t45 25.5t25.5 34.5t8 38q0 5 -5 5h-114q-33 0 -53.5 -6t-32 -15t-15 -20t-3.5 -21q0 -8 3.5 -17
t12.5 -16.5t24 -12.5t38 -5zM410 699q0 -63 -38 -100t-101 -37q-62 0 -100.5 37t-38.5 100q0 5 5 5h77q5 0 5 -5q0 -17 13.5 -34.5t38.5 -17.5q26 0 38.5 17.5t12.5 34.5q0 5 5 5h78z" />
    <glyph glyph-name="Aogonek" unicode="&#x104;" horiz-adv-x="723" 
d="M210 145q-5 0 -7 -5l-6 -19l-38 -118q-2 -3 -5 -3h-115q-7 0 -5 7l222 692q2 5 6 5h180q4 0 6 -5l221 -692q2 -7 -5 -7h-40q-29 0 -49 -17t-20 -41q0 -31 20 -43t52 -12h14q5 0 5 -5v-75q0 -5 -5 -5h-44q-59 0 -91 29.5t-33 69.5q-1 37 17 62t50 36q5 2 3 7l-33 104
l-10 30q-2 5 -7 5h-283zM241 260q-2 -5 4 -5h214q5 0 3 5l-105 330q-2 4 -5 4t-5 -4z" />
    <glyph glyph-name="aogonek" unicode="&#x105;" horiz-adv-x="591" 
d="M382 48q-20 -20 -59 -39t-99 -19q-51 0 -88.5 12.5t-61.5 34t-36 51t-12 63.5q0 32 13.5 61.5t41 52t68.5 35.5t96 13h94q15 0 22.5 7t7.5 15t-2.5 20t-13 23.5t-31.5 19.5t-58 8q-29 0 -47.5 -5.5t-30 -14.5t-17 -21t-6.5 -25q0 -5 -5 -5h-109q-5 0 -5 5q0 44 18 77
t48 55t70 33t84 11q104 0 164.5 -48t60.5 -142v-194q0 -15 10 -23.5t26 -8.5h15q5 0 5 -5v-90q0 -5 -5 -5h-13q-29 0 -51 -17t-22 -41q0 -31 20 -43t52 -12h14q5 0 5 -5v-75q0 -5 -5 -5h-44q-59 0 -91 29.5t-33 69.5q-2 72 65 98q4 2 4 5t-4 5q-16 6 -27 16t-19 23
q-4 5 -9 0zM224 100q39 0 66.5 10t45 25.5t25.5 34.5t8 38q0 5 -5 5h-114q-33 0 -53.5 -6t-32 -15t-15 -20t-3.5 -21q0 -8 3.5 -17t12.5 -16.5t24 -12.5t38 -5z" />
    <glyph glyph-name="Cacute" unicode="&#x106;" horiz-adv-x="703" 
d="M353 101q48 0 79.5 16.5t51 38.5t29 43.5t12.5 30.5q2 5 6 5h114q5 0 5 -5q0 -11 -5.5 -33.5t-19 -49t-35.5 -54.5t-55 -51t-78 -37.5t-104 -14.5q-79 0 -138 25.5t-98.5 72.5t-59 112t-19.5 145q0 79 19.5 146.5t59 117t98.5 77.5t138 28q56 0 99.5 -13.5t76.5 -35
t56 -48.5t37.5 -53.5t21 -50.5t6.5 -39q0 -5 -5 -5h-115q-4 0 -6 5q-4 11 -13 32.5t-28.5 43t-50.5 37.5t-79 16q-45 0 -80.5 -19t-59.5 -53t-37 -81.5t-13 -104.5q0 -115 49.5 -179.5t140.5 -64.5zM251 760q-3 0 -5 2t0 5l54 128q2 7 10 7h117q8 0 5 -7l-83 -128l-4.5 -4.5
t-6.5 -2.5h-87z" />
    <glyph glyph-name="cacute" unicode="&#x107;" horiz-adv-x="562" 
d="M278 516q96 0 158 -47.5t75 -128.5q1 -5 -5 -5h-113q-5 0 -7 5q-13 33 -38.5 51.5t-69.5 18.5q-32 0 -55 -12t-38.5 -33t-23 -50t-7.5 -62t7.5 -62t23 -50t38.5 -33t55 -12q50 0 73.5 18.5t36.5 51.5q2 5 7 5h113q6 0 5 -5q-16 -86 -78 -131t-157 -45q-59 0 -104.5 19
t-76.5 54t-47.5 83t-16.5 107t16.5 107.5t47.5 83t76.5 53.5t104.5 19zM235 562q-3 0 -5 2t0 5l54 128q2 7 10 7h117q8 0 5 -7l-83 -128l-4.5 -4.5t-6.5 -2.5h-87z" />
    <glyph glyph-name="Ccircumflex" unicode="&#x108;" horiz-adv-x="703" 
d="M353 101q48 0 79.5 16.5t51 38.5t29 43.5t12.5 30.5q2 5 6 5h114q5 0 5 -5q0 -11 -5.5 -33.5t-19 -49t-35.5 -54.5t-55 -51t-78 -37.5t-104 -14.5q-79 0 -138 25.5t-98.5 72.5t-59 112t-19.5 145q0 79 19.5 146.5t59 117t98.5 77.5t138 28q56 0 99.5 -13.5t76.5 -35
t56 -48.5t37.5 -53.5t21 -50.5t6.5 -39q0 -5 -5 -5h-115q-4 0 -6 5q-4 11 -13 32.5t-28.5 43t-50.5 37.5t-79 16q-45 0 -80.5 -19t-59.5 -53t-37 -81.5t-13 -104.5q0 -115 49.5 -179.5t140.5 -64.5zM376 760q-4 0 -5 3l-27 47q-2 3 -5 3.5t-5 -3.5l-27 -47q-2 -3 -5 -3h-80
q-3 0 -5 2t0 5l56 128q2 7 10 7h111q8 0 10 -7l57 -128q3 -7 -5 -7h-80z" />
    <glyph glyph-name="ccircumflex" unicode="&#x109;" horiz-adv-x="562" 
d="M278 516q96 0 158 -47.5t75 -128.5q1 -5 -5 -5h-113q-5 0 -7 5q-13 33 -38.5 51.5t-69.5 18.5q-32 0 -55 -12t-38.5 -33t-23 -50t-7.5 -62t7.5 -62t23 -50t38.5 -33t55 -12q50 0 73.5 18.5t36.5 51.5q2 5 7 5h113q6 0 5 -5q-16 -86 -78 -131t-157 -45q-59 0 -104.5 19
t-76.5 54t-47.5 83t-16.5 107t16.5 107.5t47.5 83t76.5 53.5t104.5 19zM305 562q-4 0 -5 3l-27 47q-2 3 -5 3.5t-5 -3.5l-27 -47q-2 -3 -5 -3h-80q-3 0 -5 2t0 5l56 128q2 7 10 7h111q8 0 10 -7l57 -128q3 -7 -5 -7h-80z" />
    <glyph glyph-name="Cdotaccent" unicode="&#x10a;" horiz-adv-x="703" 
d="M353 101q48 0 79.5 16.5t51 38.5t29 43.5t12.5 30.5q2 5 6 5h114q5 0 5 -5q0 -11 -5.5 -33.5t-19 -49t-35.5 -54.5t-55 -51t-78 -37.5t-104 -14.5q-79 0 -138 25.5t-98.5 72.5t-59 112t-19.5 145q0 79 19.5 146.5t59 117t98.5 77.5t138 28q56 0 99.5 -13.5t76.5 -35
t56 -48.5t37.5 -53.5t21 -50.5t6.5 -39q0 -5 -5 -5h-115q-4 0 -6 5q-4 11 -13 32.5t-28.5 43t-50.5 37.5t-79 16q-45 0 -80.5 -19t-59.5 -53t-37 -81.5t-13 -104.5q0 -115 49.5 -179.5t140.5 -64.5zM284 760q-5 0 -5 5v132q0 5 5 5h129q5 0 5 -5v-132q0 -5 -5 -5h-129z" />
    <glyph glyph-name="cdotaccent" unicode="&#x10b;" horiz-adv-x="562" 
d="M278 516q96 0 158 -47.5t75 -128.5q1 -5 -5 -5h-113q-5 0 -7 5q-13 33 -38.5 51.5t-69.5 18.5q-32 0 -55 -12t-38.5 -33t-23 -50t-7.5 -62t7.5 -62t23 -50t38.5 -33t55 -12q50 0 73.5 18.5t36.5 51.5q2 5 7 5h113q6 0 5 -5q-16 -86 -78 -131t-157 -45q-59 0 -104.5 19
t-76.5 54t-47.5 83t-16.5 107t16.5 107.5t47.5 83t76.5 53.5t104.5 19zM204 562q-5 0 -5 5v132q0 5 5 5h129q5 0 5 -5v-132q0 -5 -5 -5h-129z" />
    <glyph glyph-name="Ccaron" unicode="&#x10c;" horiz-adv-x="703" 
d="M353 101q48 0 79.5 16.5t51 38.5t29 43.5t12.5 30.5q2 5 6 5h114q5 0 5 -5q0 -11 -5.5 -33.5t-19 -49t-35.5 -54.5t-55 -51t-78 -37.5t-104 -14.5q-79 0 -138 25.5t-98.5 72.5t-59 112t-19.5 145q0 79 19.5 146.5t59 117t98.5 77.5t138 28q56 0 99.5 -13.5t76.5 -35
t56 -48.5t37.5 -53.5t21 -50.5t6.5 -39q0 -5 -5 -5h-115q-4 0 -6 5q-4 11 -13 32.5t-28.5 43t-50.5 37.5t-79 16q-45 0 -80.5 -19t-59.5 -53t-37 -81.5t-13 -104.5q0 -115 49.5 -179.5t140.5 -64.5zM479 902q8 0 5 -7l-57 -128q-2 -7 -10 -7h-111q-8 0 -10 7l-56 128
q-2 3 0 5t5 2h80q3 0 5 -3l27 -47q2 -4 5 -3.5t5 3.5l27 47q1 3 5 3h80z" />
    <glyph glyph-name="ccaron" unicode="&#x10d;" horiz-adv-x="562" 
d="M278 516q96 0 158 -47.5t75 -128.5q1 -5 -5 -5h-113q-5 0 -7 5q-13 33 -38.5 51.5t-69.5 18.5q-32 0 -55 -12t-38.5 -33t-23 -50t-7.5 -62t7.5 -62t23 -50t38.5 -33t55 -12q50 0 73.5 18.5t36.5 51.5q2 5 7 5h113q6 0 5 -5q-16 -86 -78 -131t-157 -45q-59 0 -104.5 19
t-76.5 54t-47.5 83t-16.5 107t16.5 107.5t47.5 83t76.5 53.5t104.5 19zM406 704q8 0 5 -7l-57 -128q-2 -7 -10 -7h-111q-8 0 -10 7l-56 128q-2 3 0 5t5 2h80q3 0 5 -3l27 -47q2 -4 5 -3.5t5 3.5l27 47q1 3 5 3h80z" />
    <glyph glyph-name="Dcaron" unicode="&#x10e;" horiz-adv-x="708" 
d="M320 110q91 0 140.5 60t49.5 175q0 57 -13 103t-37 78.5t-59.5 50t-80.5 17.5h-138q-4 0 -4 -4v-475q0 -5 5 -5h137zM63 0q-5 0 -5 5v694q0 5 5 5h257q79 0 138 -27t98.5 -74.5t59 -113t19.5 -144.5q0 -80 -19.5 -143.5t-59 -108.5t-98.5 -69t-138 -24h-257zM419 902
q8 0 5 -7l-57 -128q-2 -7 -10 -7h-111q-8 0 -10 7l-56 128q-2 3 0 5t5 2h80q3 0 5 -3l27 -47q2 -4 5 -3.5t5 3.5l27 47q1 3 5 3h80z" />
    <glyph glyph-name="dcaron" unicode="&#x10f;" horiz-adv-x="609" 
d="M390 37q-18 -18 -54 -32.5t-74 -14.5q-53 0 -95.5 19t-72 54t-45.5 83t-16 107q0 58 17 106.5t48 83.5t72.5 54t91.5 19q48 0 81.5 -16.5t48.5 -31.5q3 -3 6 -2t3 5v228q0 5 5 5h110q5 0 5 -5v-694q0 -5 -4 -5h-96q-8 0 -10 5l-10 32q-4 7 -11 0zM153 253
q0 -68 32.5 -110.5t96.5 -42.5q60 0 89.5 42.5t29.5 110.5q0 75 -29.5 114t-89.5 39q-64 0 -96.5 -42.5t-32.5 -110.5zM576 626q-5 0 -5 5v69q0 5 5 5h90q5 0 5 -5v-71q0 -27 -8.5 -42.5t-22.5 -23t-31 -9.5t-33 -2q-5 0 -5 5v29q0 5 5 5q4 0 12 0.5t16 3.5t13.5 9t5.5 17
q0 5 -5 5h-42z" />
    <glyph glyph-name="Dcroat" unicode="&#x110;" horiz-adv-x="657" 
d="M53 306q0 5 -5 5h-88q-5 0 -5 5v69q0 5 5 5h88q5 0 5 5v304q0 5 5 5h257q79 0 138 -27t98.5 -74.5t59 -113t19.5 -144.5q0 -80 -19.5 -143.5t-59 -108.5t-98.5 -69t-138 -24h-257q-5 0 -5 5v301zM178 311q-5 0 -5 -5v-192q0 -5 5 -5h137q91 0 140.5 60.5t49.5 175.5
q0 57 -13 103t-37 78.5t-59.5 50.5t-80.5 18h-138q-4 0 -4 -4v-196q0 -5 5 -5h115q5 0 5 -5v-69q0 -5 -5 -5h-115z" />
    <glyph glyph-name="dcroat" unicode="&#x111;" horiz-adv-x="609" 
d="M390 37q-18 -18 -54 -32.5t-74 -14.5q-53 0 -95.5 19t-72 54t-45.5 83t-16 107q0 58 17 106.5t48 83.5t72.5 54t91.5 19q48 0 81.5 -16.5t48.5 -31.5q3 -3 6 -2t3 5v75q0 5 -5 5h-115q-5 0 -5 5v69q0 5 5 5h115q5 0 5 5v64q0 5 5 5h110q5 0 5 -5v-64q0 -5 5 -5h88
q5 0 5 -5v-69q0 -5 -5 -5h-88q-5 0 -5 -5v-541q0 -5 -4 -5h-96q-8 0 -10 5l-10 32q-4 7 -11 0zM153 253q0 -68 32.5 -110.5t96.5 -42.5q60 0 89.5 42.5t29.5 110.5q0 75 -29.5 114t-89.5 39q-64 0 -96.5 -42.5t-32.5 -110.5z" />
    <glyph glyph-name="Emacron" unicode="&#x112;" horiz-adv-x="632" 
d="M548 110q5 0 5 -5v-100q0 -5 -5 -5h-489q-5 0 -5 5v694q0 5 5 5h489q5 0 5 -5v-100q0 -5 -5 -5h-369q-5 0 -5 -5v-172q0 -5 5 -5h319q5 0 5 -5v-100q0 -5 -5 -5h-319q-5 0 -5 -5v-182q0 -5 5 -5h369zM170 770q-4 0 -4 5v70q0 5 4 5h266q5 0 5 -5v-70q0 -5 -5 -5h-266z
" />
    <glyph glyph-name="emacron" unicode="&#x113;" horiz-adv-x="571" 
d="M506 212q-2 -5 -5 -5h-348q-5 0 -5 -5q0 -21 8.5 -39.5t24.5 -32.5t37.5 -22t48.5 -8q33 0 58.5 9.5t38.5 35.5q2 5 8 5h117q7 0 5 -5q-17 -73 -79 -114t-148 -41q-55 0 -100 19t-77 54t-49.5 83t-17.5 107t17.5 107.5t49.5 83t77 53.5t100 19t100 -19t77 -54t49.5 -83.5
t17.5 -106.5q-1 -15 -2 -23.5t-3 -17.5zM379 307q4 0 4 4q0 15 -6.5 31.5t-20.5 31t-36 23.5t-53 9q-30 0 -52.5 -9.5t-37.5 -23.5t-22 -30.5t-7 -31.5q0 -4 4 -4h227zM139 572q-4 0 -4 5v70q0 5 4 5h266q5 0 5 -5v-70q0 -5 -5 -5h-266z" />
    <glyph glyph-name="Ebreve" unicode="&#x114;" horiz-adv-x="632" 
d="M548 110q5 0 5 -5v-100q0 -5 -5 -5h-489q-5 0 -5 5v694q0 5 5 5h489q5 0 5 -5v-100q0 -5 -5 -5h-369q-5 0 -5 -5v-172q0 -5 5 -5h319q5 0 5 -5v-100q0 -5 -5 -5h-319q-5 0 -5 -5v-182q0 -5 5 -5h369zM442 897q0 -63 -38 -100t-101 -37q-62 0 -100.5 37t-38.5 100q0 5 5 5
h77q5 0 5 -5q0 -17 13.5 -34.5t38.5 -17.5q26 0 38.5 17.5t12.5 34.5q0 5 5 5h78z" />
    <glyph glyph-name="ebreve" unicode="&#x115;" horiz-adv-x="571" 
d="M506 212q-2 -5 -5 -5h-348q-5 0 -5 -5q0 -21 8.5 -39.5t24.5 -32.5t37.5 -22t48.5 -8q33 0 58.5 9.5t38.5 35.5q2 5 8 5h117q7 0 5 -5q-17 -73 -79 -114t-148 -41q-55 0 -100 19t-77 54t-49.5 83t-17.5 107t17.5 107.5t49.5 83t77 53.5t100 19t100 -19t77 -54t49.5 -83.5
t17.5 -106.5q-1 -15 -2 -23.5t-3 -17.5zM379 307q4 0 4 4q0 15 -6.5 31.5t-20.5 31t-36 23.5t-53 9q-30 0 -52.5 -9.5t-37.5 -23.5t-22 -30.5t-7 -31.5q0 -4 4 -4h227zM412 699q0 -63 -38 -100t-101 -37q-62 0 -100.5 37t-38.5 100q0 5 5 5h77q5 0 5 -5q0 -17 13.5 -34.5
t38.5 -17.5q26 0 38.5 17.5t12.5 34.5q0 5 5 5h78z" />
    <glyph glyph-name="Edotaccent" unicode="&#x116;" horiz-adv-x="632" 
d="M548 110q5 0 5 -5v-100q0 -5 -5 -5h-489q-5 0 -5 5v694q0 5 5 5h489q5 0 5 -5v-100q0 -5 -5 -5h-369q-5 0 -5 -5v-172q0 -5 5 -5h319q5 0 5 -5v-100q0 -5 -5 -5h-319q-5 0 -5 -5v-182q0 -5 5 -5h369zM239 760q-5 0 -5 5v132q0 5 5 5h129q5 0 5 -5v-132q0 -5 -5 -5h-129z
" />
    <glyph glyph-name="edotaccent" unicode="&#x117;" horiz-adv-x="571" 
d="M506 212q-2 -5 -5 -5h-348q-5 0 -5 -5q0 -21 8.5 -39.5t24.5 -32.5t37.5 -22t48.5 -8q33 0 58.5 9.5t38.5 35.5q2 5 8 5h117q7 0 5 -5q-17 -73 -79 -114t-148 -41q-55 0 -100 19t-77 54t-49.5 83t-17.5 107t17.5 107.5t49.5 83t77 53.5t100 19t100 -19t77 -54t49.5 -83.5
t17.5 -106.5q-1 -15 -2 -23.5t-3 -17.5zM379 307q4 0 4 4q0 15 -6.5 31.5t-20.5 31t-36 23.5t-53 9q-30 0 -52.5 -9.5t-37.5 -23.5t-22 -30.5t-7 -31.5q0 -4 4 -4h227zM208 562q-5 0 -5 5v132q0 5 5 5h129q5 0 5 -5v-132q0 -5 -5 -5h-129z" />
    <glyph glyph-name="Eogonek" unicode="&#x118;" horiz-adv-x="632" 
d="M548 110q5 0 5 -5v-100q0 -5 -5 -5h-11q-32 0 -53.5 -16.5t-21.5 -41.5q0 -31 20 -43t52 -12h14q5 0 5 -5v-75q0 -5 -5 -5h-44q-59 0 -91 29.5t-33 69.5q-1 26 11.5 50.5t37.5 38.5q4 2 3 6t-6 4h-367q-5 0 -5 5v694q0 5 5 5h489q5 0 5 -5v-100q0 -5 -5 -5h-369
q-5 0 -5 -5v-172q0 -5 5 -5h319q5 0 5 -5v-100q0 -5 -5 -5h-319q-5 0 -5 -5v-182q0 -5 5 -5h369z" />
    <glyph glyph-name="eogonek" unicode="&#x119;" horiz-adv-x="571" 
d="M506 212q-2 -5 -5 -5h-348q-5 0 -5 -5q0 -21 8.5 -39.5t24.5 -32.5t37.5 -22t48.5 -8q33 0 58.5 9.5t38.5 35.5q2 5 8 5h117q7 0 5 -5q-8 -34 -30.5 -65t-49.5 -50q-31 -21 -47.5 -42t-16.5 -46q0 -31 20 -43t52 -12h14q5 0 5 -5v-75q0 -5 -5 -5h-44q-59 0 -91 29.5
t-33 69.5q-1 24 8.5 45t24.5 38q2 2 1.5 5t-5.5 3q-7 0 -15.5 -1t-14.5 -1q-55 0 -100 19t-77 54t-49.5 83t-17.5 107t17.5 107.5t49.5 83t77 53.5t100 19t100 -19t77 -54t49.5 -83.5t17.5 -106.5q-1 -15 -2 -23.5t-3 -17.5zM379 307q4 0 4 4q0 15 -6.5 31.5t-20.5 31
t-36 23.5t-53 9q-30 0 -52.5 -9.5t-37.5 -23.5t-22 -30.5t-7 -31.5q0 -4 4 -4h227z" />
    <glyph glyph-name="Ecaron" unicode="&#x11a;" horiz-adv-x="632" 
d="M548 110q5 0 5 -5v-100q0 -5 -5 -5h-489q-5 0 -5 5v694q0 5 5 5h489q5 0 5 -5v-100q0 -5 -5 -5h-369q-5 0 -5 -5v-172q0 -5 5 -5h319q5 0 5 -5v-100q0 -5 -5 -5h-319q-5 0 -5 -5v-182q0 -5 5 -5h369zM439 902q8 0 5 -7l-57 -128q-2 -7 -10 -7h-111q-8 0 -10 7l-56 128
q-2 3 0 5t5 2h80q3 0 5 -3l27 -47q2 -4 5 -3.5t5 3.5l27 47q1 3 5 3h80z" />
    <glyph glyph-name="ecaron" unicode="&#x11b;" horiz-adv-x="571" 
d="M506 212q-2 -5 -5 -5h-348q-5 0 -5 -5q0 -21 8.5 -39.5t24.5 -32.5t37.5 -22t48.5 -8q33 0 58.5 9.5t38.5 35.5q2 5 8 5h117q7 0 5 -5q-17 -73 -79 -114t-148 -41q-55 0 -100 19t-77 54t-49.5 83t-17.5 107t17.5 107.5t49.5 83t77 53.5t100 19t100 -19t77 -54t49.5 -83.5
t17.5 -106.5q-1 -15 -2 -23.5t-3 -17.5zM379 307q4 0 4 4q0 15 -6.5 31.5t-20.5 31t-36 23.5t-53 9q-30 0 -52.5 -9.5t-37.5 -23.5t-22 -30.5t-7 -31.5q0 -4 4 -4h227zM401 704q8 0 5 -7l-57 -128q-2 -7 -10 -7h-111q-8 0 -10 7l-56 128q-2 3 0 5t5 2h80q3 0 5 -3l27 -47
q2 -4 5 -3.5t5 3.5l27 47q1 3 5 3h80z" />
    <glyph glyph-name="Gcircumflex" unicode="&#x11c;" horiz-adv-x="738" 
d="M355 603q-45 0 -80.5 -18t-60.5 -50.5t-38 -79t-13 -103.5q0 -118 49 -184.5t143 -66.5q37 0 71 8.5t61 29t43.5 55.5t19.5 89v10q0 4 -4 4h-187q-4 0 -4 5v99q0 5 4 5h296q5 0 5 -5v-397q0 -4 -5 -4h-91q-4 0 -5 4l-10 52q-2 8 -10 2q-35 -29 -79 -48.5t-105 -19.5
q-75 0 -134 26.5t-99.5 74.5t-62 114.5t-21.5 146.5q0 79 21.5 145.5t62 114.5t99.5 75t134 27q65 0 114 -15.5t84 -42.5t58 -63.5t35 -79.5q2 -7 -5 -7h-118q-7 0 -9 2.5t-3 4.5q-23 46 -64.5 68t-91.5 22zM393 760q-4 0 -5 3l-27 47q-2 3 -5 3.5t-5 -3.5l-27 -47
q-2 -3 -5 -3h-80q-3 0 -5 2t0 5l56 128q2 7 10 7h111q8 0 10 -7l57 -128q3 -7 -5 -7h-80z" />
    <glyph glyph-name="gcircumflex" unicode="&#x11d;" horiz-adv-x="594" 
d="M24 253q0 58 18 106.5t49 83.5t72.5 54t88.5 19q44 0 79 -13.5t57 -34.5q5 -5 8 0l10 32q2 6 10 6h95q5 0 5 -5v-486q0 -51 -18.5 -92t-51.5 -70t-77.5 -45t-96.5 -16q-48 0 -89 13.5t-71.5 36t-47.5 52.5t-17 63q0 5 5 5h108q4 0 6 -5q1 -5 7 -14.5t18.5 -18.5t32 -15.5
t48.5 -6.5q35 0 58 9.5t37.5 25t21 36t7.5 42.5v17v4q0 3 -3 4t-5 -1q-6 -6 -18 -14.5t-29.5 -16t-40 -13t-48.5 -5.5q-47 0 -88.5 19t-72.5 54t-49 83t-18 107zM144 253q0 -68 32 -110.5t96 -42.5q63 0 93.5 39t30.5 114q0 68 -30.5 110.5t-93.5 42.5q-64 0 -96 -42.5
t-32 -110.5zM321 562q-4 0 -5 3l-27 47q-2 3 -5 3.5t-5 -3.5l-27 -47q-2 -3 -5 -3h-80q-3 0 -5 2t0 5l56 128q2 7 10 7h111q8 0 10 -7l57 -128q3 -7 -5 -7h-80z" />
    <glyph glyph-name="Gbreve" unicode="&#x11e;" horiz-adv-x="738" 
d="M355 603q-45 0 -80.5 -18t-60.5 -50.5t-38 -79t-13 -103.5q0 -118 49 -184.5t143 -66.5q37 0 71 8.5t61 29t43.5 55.5t19.5 89v10q0 4 -4 4h-187q-4 0 -4 5v99q0 5 4 5h296q5 0 5 -5v-397q0 -4 -5 -4h-91q-4 0 -5 4l-10 52q-2 8 -10 2q-35 -29 -79 -48.5t-105 -19.5
q-75 0 -134 26.5t-99.5 74.5t-62 114.5t-21.5 146.5q0 79 21.5 145.5t62 114.5t99.5 75t134 27q65 0 114 -15.5t84 -42.5t58 -63.5t35 -79.5q2 -7 -5 -7h-118q-7 0 -9 2.5t-3 4.5q-23 46 -64.5 68t-91.5 22zM525 897q0 -63 -38 -100t-101 -37q-62 0 -100.5 37t-38.5 100
q0 5 5 5h77q5 0 5 -5q0 -17 13.5 -34.5t38.5 -17.5q26 0 38.5 17.5t12.5 34.5q0 5 5 5h78z" />
    <glyph glyph-name="gbreve" unicode="&#x11f;" horiz-adv-x="594" 
d="M24 253q0 58 18 106.5t49 83.5t72.5 54t88.5 19q44 0 79 -13.5t57 -34.5q5 -5 8 0l10 32q2 6 10 6h95q5 0 5 -5v-486q0 -51 -18.5 -92t-51.5 -70t-77.5 -45t-96.5 -16q-48 0 -89 13.5t-71.5 36t-47.5 52.5t-17 63q0 5 5 5h108q4 0 6 -5q1 -5 7 -14.5t18.5 -18.5t32 -15.5
t48.5 -6.5q35 0 58 9.5t37.5 25t21 36t7.5 42.5v17v4q0 3 -3 4t-5 -1q-6 -6 -18 -14.5t-29.5 -16t-40 -13t-48.5 -5.5q-47 0 -88.5 19t-72.5 54t-49 83t-18 107zM144 253q0 -68 32 -110.5t96 -42.5q63 0 93.5 39t30.5 114q0 68 -30.5 110.5t-93.5 42.5q-64 0 -96 -42.5
t-32 -110.5zM423 699q0 -63 -38 -100t-101 -37q-62 0 -100.5 37t-38.5 100q0 5 5 5h77q5 0 5 -5q0 -17 13.5 -34.5t38.5 -17.5q26 0 38.5 17.5t12.5 34.5q0 5 5 5h78z" />
    <glyph glyph-name="Gdotaccent" unicode="&#x120;" horiz-adv-x="738" 
d="M355 603q-45 0 -80.5 -18t-60.5 -50.5t-38 -79t-13 -103.5q0 -118 49 -184.5t143 -66.5q37 0 71 8.5t61 29t43.5 55.5t19.5 89v10q0 4 -4 4h-187q-4 0 -4 5v99q0 5 4 5h296q5 0 5 -5v-397q0 -4 -5 -4h-91q-4 0 -5 4l-10 52q-2 8 -10 2q-35 -29 -79 -48.5t-105 -19.5
q-75 0 -134 26.5t-99.5 74.5t-62 114.5t-21.5 146.5q0 79 21.5 145.5t62 114.5t99.5 75t134 27q65 0 114 -15.5t84 -42.5t58 -63.5t35 -79.5q2 -7 -5 -7h-118q-7 0 -9 2.5t-3 4.5q-23 46 -64.5 68t-91.5 22zM292 760q-5 0 -5 5v132q0 5 5 5h129q5 0 5 -5v-132q0 -5 -5 -5
h-129z" />
    <glyph glyph-name="gdotaccent" unicode="&#x121;" horiz-adv-x="594" 
d="M24 253q0 58 18 106.5t49 83.5t72.5 54t88.5 19q44 0 79 -13.5t57 -34.5q5 -5 8 0l10 32q2 6 10 6h95q5 0 5 -5v-486q0 -51 -18.5 -92t-51.5 -70t-77.5 -45t-96.5 -16q-48 0 -89 13.5t-71.5 36t-47.5 52.5t-17 63q0 5 5 5h108q4 0 6 -5q1 -5 7 -14.5t18.5 -18.5t32 -15.5
t48.5 -6.5q35 0 58 9.5t37.5 25t21 36t7.5 42.5v17v4q0 3 -3 4t-5 -1q-6 -6 -18 -14.5t-29.5 -16t-40 -13t-48.5 -5.5q-47 0 -88.5 19t-72.5 54t-49 83t-18 107zM144 253q0 -68 32 -110.5t96 -42.5q63 0 93.5 39t30.5 114q0 68 -30.5 110.5t-93.5 42.5q-64 0 -96 -42.5
t-32 -110.5zM220 562q-5 0 -5 5v132q0 5 5 5h129q5 0 5 -5v-132q0 -5 -5 -5h-129z" />
    <glyph glyph-name="uni0122" unicode="&#x122;" horiz-adv-x="738" 
d="M355 603q-45 0 -80.5 -18t-60.5 -50.5t-38 -79t-13 -103.5q0 -118 49 -184.5t143 -66.5q37 0 71 8.5t61 29t43.5 55.5t19.5 89v10q0 4 -4 4h-187q-4 0 -4 5v99q0 5 4 5h296q5 0 5 -5v-397q0 -4 -5 -4h-91q-4 0 -5 4l-10 52q-2 8 -10 2q-35 -29 -79 -48.5t-105 -19.5
q-75 0 -134 26.5t-99.5 74.5t-62 114.5t-21.5 146.5q0 79 21.5 145.5t62 114.5t99.5 75t134 27q65 0 114 -15.5t84 -42.5t58 -63.5t35 -79.5q2 -7 -5 -7h-118q-7 0 -9 2.5t-3 4.5q-23 46 -64.5 68t-91.5 22zM307 -134q-5 0 -5 5v69q0 5 5 5h90q5 0 5 -5v-71
q0 -27 -8.5 -42.5t-22.5 -23t-31 -9.5t-33 -2q-5 0 -5 5v29q0 5 5 5q4 0 12 0.5t16 3.5t13.5 9t5.5 17q0 5 -5 5h-42z" />
    <glyph glyph-name="uni0123" unicode="&#x123;" horiz-adv-x="594" 
d="M24 253q0 58 18 106.5t49 83.5t72.5 54t88.5 19q44 0 79 -13.5t57 -34.5q5 -5 8 0l10 32q2 6 10 6h96q4 0 4 -5v-486q0 -51 -18.5 -92t-51.5 -70t-77.5 -45t-96.5 -16q-48 0 -89 13.5t-71.5 36t-47.5 52.5t-17 63q0 5 5 5h109q3 0 5 -5q1 -5 7 -14.5t18.5 -18.5t32 -15.5
t48.5 -6.5q35 0 58 9.5t37.5 25t21 36t7.5 42.5v17v4q0 3 -3 4t-5 -1q-6 -6 -18 -14.5t-29.5 -16t-40 -13t-48.5 -5.5q-47 0 -88.5 19t-72.5 54t-49 83t-18 107zM144 253q0 -68 32 -110.5t96 -42.5q63 0 93.5 39t30.5 114q0 68 -30.5 110.5t-93.5 42.5q-64 0 -96 -42.5
t-32 -110.5zM319 628q5 0 5 -5v-69q0 -5 -5 -5h-90q-5 0 -5 5v71q0 27 8.5 42.5t22.5 23t30.5 9.5t33.5 2q5 0 5 -5v-29q0 -5 -5 -5t-12.5 -0.5t-15.5 -3.5t-13.5 -9t-5.5 -17q0 -5 5 -5h42z" />
    <glyph glyph-name="Hcircumflex" unicode="&#x124;" horiz-adv-x="683" 
d="M480 0q-5 0 -5 5v293q0 4 -4 4h-283q-4 0 -4 -4v-293q0 -5 -5 -5h-110q-5 0 -5 5v694q0 5 5 5h110q5 0 5 -5v-283q0 -4 4 -4h283q4 0 4 4v283q0 5 5 5h110q5 0 5 -5v-694q0 -5 -5 -5h-110zM366 760q-4 0 -5 3l-27 47q-2 3 -5 3.5t-5 -3.5l-27 -47q-2 -3 -5 -3h-80
q-3 0 -5 2t0 5l56 128q2 7 10 7h111q8 0 10 -7l57 -128q3 -7 -5 -7h-80z" />
    <glyph glyph-name="hcircumflex" unicode="&#x125;" horiz-adv-x="593" 
d="M399 0q-5 0 -5 5v273q0 22 -6 44.5t-19.5 40t-34.5 28.5t-51 11q-29 0 -50 -9.5t-34.5 -25t-19.5 -36.5t-6 -43v-283q0 -5 -5 -5h-110q-5 0 -5 5v694q0 5 5 5h110q5 0 5 -5v-227q0 -5 3 -6t7 3t14.5 12t26.5 15.5t36 13.5t43 6q55 0 94.5 -19.5t65.5 -52.5t38.5 -76
t12.5 -90v-273q0 -5 -5 -5h-110zM146 760q-4 0 -5 3l-27 47q-2 3 -5 3.5t-5 -3.5l-27 -47q-2 -3 -5 -3h-80q-3 0 -5 2t0 5l56 128q2 7 10 7h111q8 0 10 -7l57 -128q3 -7 -5 -7h-80z" />
    <glyph glyph-name="Hbar" unicode="&#x126;" horiz-adv-x="673" 
d="M470 0q-5 0 -5 5v293q0 4 -4 4h-283q-4 0 -4 -4v-293q0 -5 -5 -5h-110q-5 0 -5 5v541q0 5 -5 5h-89q-5 0 -5 5v69q0 5 5 5h89q5 0 5 5v64q0 5 5 5h110q5 0 5 -5v-64q0 -5 5 -5h281q4 0 5 4v65q0 5 5 5h110q5 0 5 -5v-64q0 -5 5 -5h89q5 0 5 -5v-69q0 -5 -5 -5h-89
q-5 0 -5 -5v-541q0 -5 -5 -5h-110zM179 551q-5 0 -5 -5v-130q0 -4 4 -4h283q4 0 4 4v130q0 5 -5 5h-281z" />
    <glyph glyph-name="hbar" unicode="&#x127;" horiz-adv-x="593" 
d="M399 0q-5 0 -5 5v273q0 22 -6 44.5t-19.5 40t-34.5 28.5t-51 11q-29 0 -50 -9.5t-34.5 -25t-19.5 -36.5t-6 -43v-283q0 -5 -5 -5h-111q-4 0 -4 5v541q0 5 -5 5h-88q-5 0 -5 5v69q0 5 5 5h88q4 0 5 4v65q0 5 4 5h111q3 0 5 -3v-66q0 -5 5 -5h115q5 0 5 -5v-69q0 -5 -5 -5
h-115q-5 0 -5 -5v-74q0 -5 3 -6t7 3t14.5 12t26.5 15.5t36 13.5t43 6q55 0 94.5 -19.5t65.5 -52.5t38.5 -76t12.5 -90v-273q0 -5 -5 -5h-110z" />
    <glyph glyph-name="Itilde" unicode="&#x128;" horiz-adv-x="261" 
d="M58 0q-5 0 -5 5v694q0 5 5 5h110q5 0 5 -5v-694q0 -5 -5 -5h-110zM-47 806q0 13 5 29.5t17.5 31.5t34.5 25t55 10q22 0 38.5 -7t29 -16t22 -16t17.5 -7q3 0 8.5 0.5t11 4t9 12t3.5 24.5q0 5 5 5h70q5 0 5 -5v-34q0 -13 -5 -29.5t-18 -31t-34.5 -24.5t-54.5 -10
q-20 0 -36 7t-29 16t-23 16t-19 7q-3 0 -8.5 -0.5t-11 -4t-9 -12t-3.5 -24.5q0 -5 -5 -5h-70q-5 0 -5 5v33z" />
    <glyph glyph-name="itilde" unicode="&#x129;" horiz-adv-x="262" 
d="M78 0q-5 0 -5 5v496q0 5 5 5h110q5 0 5 -5v-496q0 -5 -5 -5h-110zM-47 608q0 13 5 29.5t17.5 31.5t34.5 25t55 10q22 0 38.5 -7t29 -16t22 -16t17.5 -7q3 0 8.5 0.5t11 4t9 12t3.5 24.5q0 5 5 5h70q5 0 5 -5v-34q0 -13 -5 -29.5t-18 -31t-34.5 -24.5t-54.5 -10
q-20 0 -36 7t-29 16t-23 16t-19 7q-3 0 -8.5 -0.5t-11 -4t-9 -12t-3.5 -24.5q0 -5 -5 -5h-70q-5 0 -5 5v33z" />
    <glyph glyph-name="Imacron" unicode="&#x12a;" horiz-adv-x="261" 
d="M58 0q-5 0 -5 5v694q0 5 5 5h110q5 0 5 -5v-694q0 -5 -5 -5h-110zM-15 770q-4 0 -4 5v70q0 5 4 5h266q5 0 5 -5v-70q0 -5 -5 -5h-266z" />
    <glyph glyph-name="imacron" unicode="&#x12b;" horiz-adv-x="291" 
d="M78 0q-5 0 -5 5v496q0 5 5 5h110q5 0 5 -5v-496q0 -5 -5 -5h-110zM0 572q-4 0 -4 5v70q0 5 4 5h266q5 0 5 -5v-70q0 -5 -5 -5h-266z" />
    <glyph glyph-name="Iogonek" unicode="&#x12e;" horiz-adv-x="261" 
d="M142 0q-32 0 -53.5 -16.5t-21.5 -41.5q0 -31 20 -43t52 -12h14q5 0 5 -5v-75q0 -5 -5 -5h-44q-59 0 -91 25.5t-33 73.5q0 37 15 59.5t49 36.5q4 2 4 4v4v694q0 5 5 5h110q5 0 5 -5v-694q0 -5 -5 -5h-26z" />
    <glyph glyph-name="iogonek" unicode="&#x12f;" horiz-adv-x="291" 
d="M68 562q-5 0 -5 5v132q0 5 5 5h130q5 0 5 -5v-132q0 -5 -5 -5h-130zM162 0q-32 0 -53.5 -16.5t-21.5 -41.5q0 -31 20 -43t52 -12h14q5 0 5 -5v-75q0 -5 -5 -5h-44q-59 0 -91 25.5t-33 73.5q0 37 15 59.5t49 36.5q4 2 4 4v4v496q0 5 5 5h110q5 0 5 -5v-496q0 -5 -5 -5h-26
z" />
    <glyph glyph-name="Idotaccent" unicode="&#x130;" horiz-adv-x="261" 
d="M58 0q-5 0 -5 5v694q0 5 5 5h110q5 0 5 -5v-694q0 -5 -5 -5h-110zM54 760q-5 0 -5 5v132q0 5 5 5h129q5 0 5 -5v-132q0 -5 -5 -5h-129z" />
    <glyph glyph-name="dotlessi" unicode="&#x131;" horiz-adv-x="291" 
d="M78 0q-5 0 -5 5v496q0 5 5 5h110q5 0 5 -5v-496q0 -5 -5 -5h-110z" />
    <glyph glyph-name="IJ" unicode="&#x132;" 
d="M456 5q0 -5 -5 -5h-411q-5 0 -5 5v694q0 5 5 5h411q5 0 5 -5v-694zM419 681h-346l173 -306zM419 24l-173 305l-173 -305h346zM432 48v608q-43 -75 -87 -152t-86 -152zM233 352l-173 305v-610z" />
    <glyph glyph-name="ij" unicode="&#x133;" 
d="M456 5q0 -5 -5 -5h-411q-5 0 -5 5v694q0 5 5 5h411q5 0 5 -5v-694zM419 681h-346l173 -306zM419 24l-173 305l-173 -305h346zM432 48v608q-43 -75 -87 -152t-86 -152zM233 352l-173 305v-610z" />
    <glyph glyph-name="Jcircumflex" unicode="&#x134;" horiz-adv-x="502" 
d="M421 205q0 -45 -9 -84t-32 -68t-63 -46t-101 -17q-57 0 -96 17t-62.5 46t-34 68t-10.5 84v25q0 5 5 5h109q5 0 5 -5v-25q0 -18 2.5 -36.5t11 -34.5t25.5 -26t46 -10q28 0 45 10t25.5 26t11 34.5t2.5 36.5v494q0 5 5 5h110q5 0 5 -5v-494zM395 760q-4 0 -5 3l-27 47
q-2 3 -5 3.5t-5 -3.5l-27 -47q-2 -3 -5 -3h-80q-3 0 -5 2t0 5l56 128q2 7 10 7h111q8 0 10 -7l57 -128q3 -7 -5 -7h-80z" />
    <glyph glyph-name="jcircumflex" unicode="&#x135;" horiz-adv-x="295" 
d="M206 -57q0 -75 -38 -108.5t-110 -32.5h-78q-4 0 -4 5v100q0 5 5 5h69q15 -2 25.5 7.5t10.5 24.5v557q0 5 5 5h110q5 0 5 -5v-558zM182 562q-4 0 -5 3l-27 47q-2 3 -5 3.5t-5 -3.5l-27 -47q-2 -3 -5 -3h-80q-3 0 -5 2t0 5l56 128q2 7 10 7h111q8 0 10 -7l57 -128
q3 -7 -5 -7h-80z" />
    <glyph glyph-name="uni0136" unicode="&#x136;" horiz-adv-x="643" 
d="M481 0q-3 0 -5 3t-4 5l-214 325q-3 3 -5 1l-69 -70l-4.5 -4.5t-1.5 -6.5v-248q0 -5 -5 -5h-110q-5 0 -5 5v694q0 5 5 5h110q5 0 5 -5v-269q0 -2 2.5 -3.5t4.5 0.5l278 276q1 1 4 1h146q4 0 5 -3.5t-1 -5.5l-275 -272q-3 -3 0 -7l270 -408q4 -8 -4 -8h-127zM253 -134
q-5 0 -5 5v69q0 5 5 5h90q5 0 5 -5v-71q0 -27 -8.5 -42.5t-22.5 -23t-31 -9.5t-33 -2q-5 0 -5 5v29q0 5 5 5q4 0 12 0.5t16 3.5t13.5 9t5.5 17q0 5 -5 5h-42z" />
    <glyph glyph-name="uni0137" unicode="&#x137;" horiz-adv-x="601" 
d="M264 253q-11 -10 -25 -22.5t-28 -23.5q-16 -13 -32 -28q-3 -2 -4.5 -4t-1.5 -7v-163q0 -5 -5 -5h-110q-5 0 -5 5v694q0 5 5 5h110q5 0 5 -5v-365q0 -2 2.5 -3.5t4.5 0.5l196 169q7 5 10 5h161q4 0 5 -3.5t-2 -5.5l-190 -162q-3 -3 0 -7l188 -319q4 -8 -4 -8h-123
q0 1 -1 1q-2 0 -2 1l-147 251q-2 5 -7 0zM223 -134q-5 0 -5 5v69q0 5 5 5h90q5 0 5 -5v-71q0 -27 -8.5 -42.5t-22.5 -23t-31 -9.5t-33 -2q-5 0 -5 5v29q0 5 5 5q4 0 12 0.5t16 3.5t13.5 9t5.5 17q0 5 -5 5h-42z" />
    <glyph glyph-name="kgreenlandic" unicode="&#x138;" horiz-adv-x="601" 
d="M264 253q-11 -10 -25 -22.5t-28 -23.5q-16 -13 -32 -28q-3 -2 -4.5 -4t-1.5 -7v-163q0 -5 -5 -5h-110q-5 0 -5 5v496q0 5 5 5h110q5 0 5 -5v-167q0 -2 2.5 -3.5t4.5 0.5l196 169q7 5 10 5h161q4 0 5 -3.5t-2 -5.5l-190 -162q-3 -3 0 -7l188 -319q4 -8 -4 -8h-123
q0 1 -1 1q-2 0 -2 1l-147 251q-2 5 -7 0z" />
    <glyph glyph-name="Lacute" unicode="&#x139;" horiz-adv-x="561" 
d="M59 0q-5 0 -5 5v694q0 5 5 5h110q5 0 5 -5v-585q0 -4 4 -4h340q5 0 5 -5v-100q0 -5 -5 -5h-459zM71 760q-3 0 -5 2t0 5l54 128q2 7 10 7h117q8 0 5 -7l-83 -128l-4.5 -4.5t-6.5 -2.5h-87z" />
    <glyph glyph-name="lacute" unicode="&#x13a;" horiz-adv-x="261" 
d="M58 0q-5 0 -5 5v694q0 5 5 5h110q5 0 5 -5v-694q0 -5 -5 -5h-110zM70 787q-3 0 -5 2t0 5l54 128q2 7 10 7h117q8 0 5 -7l-83 -128l-4.5 -4.5t-6.5 -2.5h-87z" />
    <glyph glyph-name="uni013B" unicode="&#x13b;" horiz-adv-x="561" 
d="M59 0q-5 0 -5 5v694q0 5 5 5h110q5 0 5 -5v-585q0 -4 4 -4h340q5 0 5 -5v-100q0 -5 -5 -5h-459zM243 -134q-5 0 -5 5v69q0 5 5 5h90q5 0 5 -5v-71q0 -27 -8.5 -42.5t-22.5 -23t-31 -9.5t-33 -2q-5 0 -5 5v29q0 5 5 5q4 0 12 0.5t16 3.5t13.5 9t5.5 17q0 5 -5 5h-42z" />
    <glyph glyph-name="uni013C" unicode="&#x13c;" horiz-adv-x="261" 
d="M58 0q-5 0 -5 5v694q0 5 5 5h110q5 0 5 -5v-694q0 -5 -5 -5h-110zM67 -134q-5 0 -5 5v69q0 5 5 5h90q5 0 5 -5v-71q0 -27 -8.5 -42.5t-22.5 -23t-31 -9.5t-33 -2q-5 0 -5 5v29q0 5 5 5q4 0 12 0.5t16 3.5t13.5 9t5.5 17q0 5 -5 5h-42z" />
    <glyph glyph-name="Lcaron" unicode="&#x13d;" horiz-adv-x="561" 
d="M229 625q-5 0 -5 5v69q0 5 5 5h90q5 0 5 -5v-71q0 -27 -8.5 -42.5t-22.5 -23t-31 -9.5t-33 -2q-5 0 -5 5v29q0 5 5 5q4 0 12 0.5t16 3.5t13.5 9t5.5 17q0 5 -5 5h-42zM59 0q-5 0 -5 5v694q0 5 5 5h110q5 0 5 -5v-585q0 -4 4 -4h340q5 0 5 -5v-100q0 -5 -5 -5h-459z" />
    <glyph glyph-name="lcaron" unicode="&#x13e;" horiz-adv-x="362" 
d="M228 625q-5 0 -5 5v69q0 5 5 5h90q5 0 5 -5v-71q0 -27 -8.5 -42.5t-22.5 -23t-31 -9.5t-33 -2q-5 0 -5 5v29q0 5 5 5q4 0 12 0.5t16 3.5t13.5 9t5.5 17q0 5 -5 5h-42zM58 0q-5 0 -5 5v694q0 5 5 5h110q5 0 5 -5v-694q0 -5 -5 -5h-110z" />
    <glyph glyph-name="Ldot" unicode="&#x13f;" horiz-adv-x="561" 
d="M59 0q-5 0 -5 5v694q0 5 5 5h110q5 0 5 -5v-585q0 -4 4 -4h340q5 0 5 -5v-100q0 -5 -5 -5h-459zM273 276q-5 0 -5 5v151q0 5 5 5h149q5 0 5 -5v-151q0 -5 -5 -5h-149z" />
    <glyph glyph-name="ldot" unicode="&#x140;" horiz-adv-x="406" 
d="M58 0q-5 0 -5 5v694q0 5 5 5h110q5 0 5 -5v-694q0 -5 -5 -5h-110zM227 276q-5 0 -5 5v151q0 5 5 5h149q5 0 5 -5v-151q0 -5 -5 -5h-149z" />
    <glyph glyph-name="Lslash" unicode="&#x141;" horiz-adv-x="618" 
d="M114 0q-5 0 -5 5v238q0 3 -3 4.5t-6 -0.5l-77 -61q-2 -2 -5 -1t-3 4v74q0 4 3 7l86 68q5 3 5 8v353q0 5 5 5h110q5 0 5 -5v-253q0 -3 3 -4.5t5 0.5l77 60q3 2 6 1t3 -4v-72q0 -5 -4 -8l-86 -68q-4 -3 -4 -7v-230q0 -4 4 -4h340q5 0 5 -5v-100q0 -5 -5 -5h-459z" />
    <glyph glyph-name="lslash" unicode="&#x142;" horiz-adv-x="363" 
d="M114 0q-5 0 -5 5v238q0 3 -3 4.5t-6 -0.5l-77 -61q-2 -2 -5 -1t-3 4v74q0 4 3 7l86 68q5 3 5 8v353q0 5 5 5h110q5 0 5 -5v-253q0 -3 3 -4.5t5 0.5l77 60q3 2 6 1t3 -4v-72q0 -5 -4 -8l-86 -68q-4 -4 -4 -9v-337q0 -5 -5 -5h-110z" />
    <glyph glyph-name="Nacute" unicode="&#x143;" horiz-adv-x="717" 
d="M623 704q5 0 5 -5v-694q0 -5 -5 -5h-149q-5 0 -7 5l-273 526q-2 5 -6 4.5t-4 -4.5v-526q0 -5 -5 -5h-111q-4 0 -4 5v694q0 5 5 5h149q3 0 6 -5l274 -526q2 -5 6 -4.5t4 4.5v526q0 5 5 5h110zM258 760q-3 0 -5 2t0 5l54 128q2 7 10 7h117q8 0 5 -7l-83 -128l-4.5 -4.5
t-6.5 -2.5h-87z" />
    <glyph glyph-name="nacute" unicode="&#x144;" horiz-adv-x="583" 
d="M178 469q8 8 21.5 16.5t30 15t34 11t33.5 4.5q59 0 99.5 -19.5t65 -52.5t35.5 -76t11 -90v-273q0 -5 -5 -5h-110q-5 0 -5 5v273q0 22 -6 45t-19.5 41.5t-34.5 30t-51 11.5q-29 0 -50 -10t-34.5 -26.5t-19.5 -38t-6 -43.5v-283q0 -5 -5 -5h-110q-5 0 -5 5v496q0 5 5 5h95
q8 0 9 -5l11 -31q2 -3 5 -4t6 3zM246 562q-3 0 -5 2t0 5l54 128q2 7 10 7h117q8 0 5 -7l-83 -128l-4.5 -4.5t-6.5 -2.5h-87z" />
    <glyph glyph-name="uni0145" unicode="&#x145;" horiz-adv-x="717" 
d="M623 704q5 0 5 -5v-694q0 -5 -5 -5h-149q-5 0 -7 5l-273 526q-2 5 -6 4.5t-4 -4.5v-526q0 -5 -5 -5h-111q-4 0 -4 5v694q0 5 5 5h149q3 0 6 -5l274 -526q2 -5 6 -4.5t4 4.5v526q0 5 5 5h110zM303 -134q-5 0 -5 5v69q0 5 5 5h90q5 0 5 -5v-71q0 -27 -8.5 -42.5t-22.5 -23
t-31 -9.5t-33 -2q-5 0 -5 5v29q0 5 5 5q4 0 12 0.5t16 3.5t13.5 9t5.5 17q0 5 -5 5h-42z" />
    <glyph glyph-name="uni0146" unicode="&#x146;" horiz-adv-x="583" 
d="M178 469q8 8 21.5 16.5t30 15t34 11t33.5 4.5q59 0 99.5 -19.5t65 -52.5t35.5 -76t11 -90v-273q0 -5 -5 -5h-110q-5 0 -5 5v273q0 22 -6 45t-19.5 41.5t-34.5 30t-51 11.5q-29 0 -50 -10t-34.5 -26.5t-19.5 -38t-6 -43.5v-283q0 -5 -5 -5h-111q-4 0 -4 5v496q0 5 4 5h96
q7 0 10 -6l10 -30q2 -3 5 -4t6 3zM230 -134q-5 0 -5 5v69q0 5 5 5h90q5 0 5 -5v-71q0 -27 -8.5 -42.5t-22.5 -23t-31 -9.5t-33 -2q-5 0 -5 5v29q0 5 5 5q4 0 12 0.5t16 3.5t13.5 9t5.5 17q0 5 -5 5h-42z" />
    <glyph glyph-name="Ncaron" unicode="&#x147;" horiz-adv-x="703" 
d="M606 704q5 0 5 -5v-694q0 -5 -5 -5h-149q-5 0 -7 5l-273 526q-2 5 -6 4.5t-4 -4.5v-526q0 -5 -5 -5h-111q-4 0 -4 5v694q0 5 5 5h149q3 0 6 -5l274 -526q2 -5 6 -4.5t4 4.5v526q0 5 5 5h110zM459 902q8 0 5 -7l-57 -128q-2 -7 -10 -7h-111q-8 0 -10 7l-56 128q-2 3 0 5
t5 2h80q3 0 5 -3l27 -47q2 -4 5 -3.5t5 3.5l27 47q1 3 5 3h80z" />
    <glyph glyph-name="ncaron" unicode="&#x148;" horiz-adv-x="583" 
d="M178 469q8 8 21.5 16.5t30 15t34 11t33.5 4.5q59 0 99.5 -19.5t65 -52.5t35.5 -76t11 -90v-273q0 -5 -5 -5h-110q-5 0 -5 5v273q0 22 -6 45t-19.5 41.5t-34.5 30t-51 11.5q-29 0 -50 -10t-34.5 -26.5t-19.5 -38t-6 -43.5v-283q0 -5 -5 -5h-110q-5 0 -5 5v496q0 5 5 5h95
q8 0 9 -5l11 -31q2 -3 5 -4t6 3zM407 704q8 0 5 -7l-57 -128q-2 -7 -10 -7h-111q-8 0 -10 7l-56 128q-2 3 0 5t5 2h80q3 0 5 -3l27 -47q2 -4 5 -3.5t5 3.5l27 47q1 3 5 3h80z" />
    <glyph glyph-name="napostrophe" unicode="&#x149;" horiz-adv-x="583" 
d="M52 625q-5 0 -5 5v69q0 5 5 5h90q5 0 5 -5v-71q0 -27 -8.5 -42.5t-22.5 -23t-31 -9.5t-33 -2q-5 0 -5 5v29q0 5 5 5q4 0 12 0.5t16 3.5t13.5 9t5.5 17q0 5 -5 5h-42zM178 469q8 8 21.5 16.5t30 15t34 11t33.5 4.5q59 0 99.5 -19.5t65 -52.5t35.5 -76t11 -90v-273
q0 -5 -5 -5h-110q-5 0 -5 5v273q0 22 -6 45t-19.5 41.5t-34.5 30t-51 11.5q-29 0 -50 -10t-34.5 -26.5t-19.5 -38t-6 -43.5v-283q0 -5 -5 -5h-110q-5 0 -5 5v496q0 5 5 5h95q8 0 9 -5l11 -31q2 -3 5 -4t6 3z" />
    <glyph glyph-name="Omacron" unicode="&#x14c;" horiz-adv-x="745" 
d="M672 352q0 -80 -20 -146.5t-59.5 -114.5t-99 -74.5t-138.5 -26.5t-138.5 26.5t-99 74.5t-59.5 114.5t-20 146.5q0 79 20 145.5t59.5 114.5t99 75t138.5 27t138.5 -27t99 -75t59.5 -114.5t20 -145.5zM355 100q94 0 143 67t49 185t-49 185t-143 67t-143 -67t-49 -185
t49 -185t143 -67zM226 770q-4 0 -4 5v70q0 5 4 5h266q5 0 5 -5v-70q0 -5 -5 -5h-266z" />
    <glyph glyph-name="omacron" unicode="&#x14d;" horiz-adv-x="588" 
d="M530 253q0 -59 -17 -107t-49 -83t-78.5 -54t-104.5 -19q-59 0 -105 19t-77.5 54t-48.5 83t-17 107t17 107.5t48.5 83t77.5 53.5t105 19q58 0 104.5 -19t78.5 -54t49 -83.5t17 -106.5zM410 253q0 71 -32.5 112t-96.5 41q-63 0 -95.5 -41t-32.5 -112t32.5 -112t95.5 -41
q64 0 96.5 41t32.5 112zM148 572q-4 0 -4 5v70q0 5 4 5h266q5 0 5 -5v-70q0 -5 -5 -5h-266z" />
    <glyph glyph-name="Obreve" unicode="&#x14e;" horiz-adv-x="745" 
d="M672 352q0 -80 -20 -146.5t-59.5 -114.5t-99 -74.5t-138.5 -26.5t-138.5 26.5t-99 74.5t-59.5 114.5t-20 146.5q0 79 20 145.5t59.5 114.5t99 75t138.5 27t138.5 -27t99 -75t59.5 -114.5t20 -145.5zM355 100q94 0 143 67t49 185t-49 185t-143 67t-143 -67t-49 -185
t49 -185t143 -67zM489 897q0 -63 -38 -100t-101 -37q-62 0 -100.5 37t-38.5 100q0 5 5 5h77q5 0 5 -5q0 -17 13.5 -34.5t38.5 -17.5q26 0 38.5 17.5t12.5 34.5q0 5 5 5h78z" />
    <glyph glyph-name="obreve" unicode="&#x14f;" horiz-adv-x="588" 
d="M530 253q0 -59 -17 -107t-49 -83t-78.5 -54t-104.5 -19q-59 0 -105 19t-77.5 54t-48.5 83t-17 107t17 107.5t48.5 83t77.5 53.5t105 19q58 0 104.5 -19t78.5 -54t49 -83.5t17 -106.5zM410 253q0 71 -32.5 112t-96.5 41q-63 0 -95.5 -41t-32.5 -112t32.5 -112t95.5 -41
q64 0 96.5 41t32.5 112zM420 699q0 -63 -38 -100t-101 -37q-62 0 -100.5 37t-38.5 100q0 5 5 5h77q5 0 5 -5q0 -17 13.5 -34.5t38.5 -17.5q26 0 38.5 17.5t12.5 34.5q0 5 5 5h78z" />
    <glyph glyph-name="Ohungarumlaut" unicode="&#x150;" horiz-adv-x="745" 
d="M672 352q0 -80 -20 -146.5t-59.5 -114.5t-99 -74.5t-138.5 -26.5t-138.5 26.5t-99 74.5t-59.5 114.5t-20 146.5q0 79 20 145.5t59.5 114.5t99 75t138.5 27t138.5 -27t99 -75t59.5 -114.5t20 -145.5zM355 100q94 0 143 67t49 185t-49 185t-143 67t-143 -67t-49 -185
t49 -185t143 -67zM165 760q-4 0 -4 5l29 132q0 5 6 5h129q4 0 4 -5l-29 -132q0 -5 -6 -5h-129zM385 760q-4 0 -4 5l29 132q0 5 6 5h129q4 0 4 -5l-29 -132q0 -5 -6 -5h-129z" />
    <glyph glyph-name="ohungarumlaut" unicode="&#x151;" horiz-adv-x="588" 
d="M530 253q0 -59 -17 -107t-49 -83t-78.5 -54t-104.5 -19q-59 0 -105 19t-77.5 54t-48.5 83t-17 107t17 107.5t48.5 83t77.5 53.5t105 19q58 0 104.5 -19t78.5 -54t49 -83.5t17 -106.5zM410 253q0 71 -32.5 112t-96.5 41q-63 0 -95.5 -41t-32.5 -112t32.5 -112t95.5 -41
q64 0 96.5 41t32.5 112zM91 562q-4 0 -4 5l29 132q0 5 6 5h129q4 0 4 -5l-29 -132q0 -5 -6 -5h-129zM311 562q-4 0 -4 5l29 132q0 5 6 5h129q4 0 4 -5l-29 -132q0 -5 -6 -5h-129z" />
    <glyph glyph-name="OE" unicode="&#x152;" horiz-adv-x="1110" 
d="M534 36q0 3 -2.5 4.5t-5.5 -0.5q-68 -50 -166 -50q-72 0 -127 26.5t-93 74.5t-57.5 114.5t-19.5 146.5q0 79 19.5 145.5t57.5 114.5t93 75t127 27q49 0 90.5 -13t75.5 -37q3 -2 5.5 -0.5t2.5 4.5v31q0 5 5 5h478q5 0 5 -5v-100q0 -5 -5 -5h-359q-5 0 -5 -5v-172
q0 -5 5 -5h319q5 0 5 -5v-100q0 -5 -5 -5h-319q-5 0 -5 -5v-182q0 -5 5 -5h359q5 0 5 -5v-100q0 -5 -5 -5h-478q-5 0 -5 5v31zM360 100q86 0 129 67t43 185t-43 185t-129 67t-129 -67t-43 -185t43 -185t129 -67z" />
    <glyph glyph-name="oe" unicode="&#x153;" horiz-adv-x="926" 
d="M445 63q-26 -40 -75.5 -56.5t-108.5 -16.5t-105 19t-77.5 54t-48.5 83t-17 107t17 107.5t48.5 83t77.5 53.5t105 19q60 0 107.5 -20.5t79.5 -57.5q32 37 78.5 57.5t107.5 20.5q58 0 103.5 -19t77 -54t47.5 -83.5t16 -106.5q-1 -20 -1.5 -27t-2.5 -18q0 -5 -4 -5h-351
q-4 0 -4 -4q0 -45 32.5 -74t86.5 -29q37 0 64 14t44 37q1 3 5 3h109q5 0 5 -5q-17 -73 -79 -114t-148 -41q-59 0 -107 16.5t-74 56.5q-4 6 -8 0zM389 253q0 71 -32 114t-96 43q-63 0 -95 -43t-32 -114t32 -114t95 -43q64 0 96 43t32 114zM746 307q4 0 4 4q0 15 -6.5 32.5
t-20.5 32t-36 24.5t-53 10q-30 0 -52 -10t-36 -25t-21.5 -32t-9.5 -32q0 -4 4 -4h227z" />
    <glyph glyph-name="Racute" unicode="&#x154;" horiz-adv-x="639" 
d="M567 487q0 -63 -30.5 -113t-78.5 -77q-1 -1 0 -4l127 -286q3 -7 -5 -7h-115q-2 0 -5 3l-116 262q-3 5 -5 5h-157q-4 0 -4 -4v-261q0 -5 -5 -5h-110q-5 0 -5 5v694q0 5 5 5h293q42 0 80.5 -17t67.5 -46t46 -68.5t17 -85.5zM350 380q19 1 37 9.5t31.5 23t21.5 33.5t8 41
t-8.5 41.5t-22.5 34t-32.5 23t-38.5 8.5h-164q-4 0 -4 -4v-205q0 -5 5 -5h167zM219 760q-3 0 -5 2t0 5l54 128q2 7 10 7h117q8 0 5 -7l-83 -128l-4.5 -4.5t-6.5 -2.5h-87z" />
    <glyph glyph-name="racute" unicode="&#x155;" horiz-adv-x="393" 
d="M275 401q-29 0 -50 -9t-34.5 -25t-19.5 -36.5t-6 -42.5v-283q0 -5 -5 -5h-111q-4 0 -4 5v496q0 5 4 5h96q7 0 10 -6l10 -30q4 -7 9 -2q23 23 49.5 35.5t61.5 12.5h55q5 0 5 -5v-105q0 -5 -5 -5h-65v0zM121 562q-3 0 -5 2t0 5l54 128q2 7 10 7h117q8 0 5 -7l-83 -128
l-4.5 -4.5t-6.5 -2.5h-87z" />
    <glyph glyph-name="uni0156" unicode="&#x156;" horiz-adv-x="639" 
d="M567 487q0 -63 -30.5 -113t-78.5 -77q-1 -1 0 -4l127 -286q3 -7 -5 -7h-115q-2 0 -5 3l-116 262q-3 5 -5 5h-157q-4 0 -4 -4v-261q0 -5 -5 -5h-110q-5 0 -5 5v694q0 5 5 5h293q42 0 80.5 -17t67.5 -46t46 -68.5t17 -85.5zM350 380q19 1 37 9.5t31.5 23t21.5 33.5t8 41
t-8.5 41.5t-22.5 34t-32.5 23t-38.5 8.5h-164q-4 0 -4 -4v-205q0 -5 5 -5h167zM273 -134q-5 0 -5 5v69q0 5 5 5h90q5 0 5 -5v-71q0 -27 -8.5 -42.5t-22.5 -23t-31 -9.5t-33 -2q-5 0 -5 5v29q0 5 5 5q4 0 12 0.5t16 3.5t13.5 9t5.5 17q0 5 -5 5h-42z" />
    <glyph glyph-name="uni0157" unicode="&#x157;" horiz-adv-x="393" 
d="M275 401q-29 0 -50 -9t-34.5 -25t-19.5 -36.5t-6 -42.5v-283q0 -5 -5 -5h-111q-4 0 -4 5v496q0 5 4 5h96q7 0 10 -6l10 -30q4 -7 9 -2q23 23 49.5 35.5t61.5 12.5h55q5 0 5 -5v-105q0 -5 -5 -5h-65zM60 -134q-5 0 -5 5v69q0 5 5 5h90q5 0 5 -5v-71q0 -27 -8.5 -42.5
t-22.5 -23t-31 -9.5t-33 -2q-5 0 -5 5v29q0 5 5 5q4 0 12 0.5t16 3.5t13.5 9t5.5 17q0 5 -5 5h-42z" />
    <glyph glyph-name="Rcaron" unicode="&#x158;" horiz-adv-x="659" 
d="M567 487q0 -63 -30.5 -113t-78.5 -77q-1 -1 0 -4l127 -286q3 -7 -5 -7h-115q-2 0 -5 3l-116 262q-3 5 -5 5h-157q-4 0 -4 -4v-261q0 -5 -5 -5h-110q-5 0 -5 5v694q0 5 5 5h293q42 0 80.5 -17t67.5 -46t46 -68.5t17 -85.5zM350 380q19 1 37 9.5t31.5 23t21.5 33.5t8 41
t-8.5 41.5t-22.5 34t-32.5 23t-38.5 8.5h-164q-4 0 -4 -4v-205q0 -5 5 -5h167zM399 902q8 0 5 -7l-57 -128q-2 -7 -10 -7h-111q-8 0 -10 7l-56 128q-2 3 0 5t5 2h80q3 0 5 -3l27 -47q2 -4 5 -3.5t5 3.5l27 47q1 3 5 3h80z" />
    <glyph glyph-name="rcaron" unicode="&#x159;" horiz-adv-x="393" 
d="M275 401q-29 0 -50 -9t-34.5 -25t-19.5 -36.5t-6 -42.5v-283q0 -5 -5 -5h-111q-4 0 -4 5v496q0 5 4 5h96q7 0 10 -6l10 -30q4 -7 9 -2q23 23 49.5 35.5t61.5 12.5h55q5 0 5 -5v-105q0 -5 -5 -5h-65v0zM312 704q8 0 5 -7l-57 -128q-2 -7 -10 -7h-111q-8 0 -10 7l-56 128
q-2 3 0 5t5 2h80q3 0 5 -3l27 -47q2 -4 5 -3.5t5 3.5l27 47q1 3 5 3h80z" />
    <glyph glyph-name="Sacute" unicode="&#x15a;" horiz-adv-x="630" 
d="M574 206q0 -50 -18.5 -89.5t-53.5 -68t-85 -43.5t-113 -15q-75 0 -127 18.5t-84.5 47.5t-47.5 65.5t-15 71.5q0 5 5 5h115q5 0 5 -5q0 -18 11.5 -35t31.5 -29.5t47 -20.5t59 -8q31 0 57.5 8.5t46 22.5t30.5 33.5t11 41.5q0 33 -34 61t-111 35q-62 6 -111.5 18.5t-84.5 36
t-54 60t-19 89.5q0 49 21.5 88t56.5 65.5t79.5 40.5t91.5 14q50 0 96 -13.5t81.5 -39.5t56.5 -63.5t21 -86.5q0 -5 -4 -5h-116q-5 0 -5 5q0 16 -8.5 32.5t-25 30t-41 22t-55.5 8.5q-26 0 -48.5 -7.5t-39 -21t-26.5 -31.5t-10 -38q0 -23 13 -38t33.5 -24t46 -14t51.5 -8
t56.5 -7.5t60.5 -13.5t57.5 -23.5t49 -37.5t34 -56t12.5 -78zM214 760q-3 0 -5 2t0 5l54 128q2 7 10 7h117q8 0 5 -7l-83 -128l-4.5 -4.5t-6.5 -2.5h-87z" />
    <glyph glyph-name="sacute" unicode="&#x15b;" horiz-adv-x="531" 
d="M473 157q0 -81 -59.5 -124t-162.5 -43q-56 0 -98.5 15t-71.5 39.5t-43.5 56t-14.5 65.5q0 5 5 5h115q5 0 5 -5q0 -24 24.5 -45t78.5 -21q16 0 34 2t33 8t25 17.5t10 29.5q0 16 -10 25t-25.5 13.5t-33.5 6t-33 3.5q-39 4 -78 11t-70.5 23.5t-51 45t-19.5 75.5
q0 32 15 60.5t42.5 49.5t66 33.5t85.5 12.5q48 0 88 -11t69 -33.5t45.5 -55.5t16.5 -76q0 -5 -4 -5h-112q-5 0 -5 5q0 10 -5 22t-16.5 21.5t-30.5 16t-46 6.5q-45 0 -67 -13t-22 -33q0 -12 7.5 -19.5t20 -12t28.5 -7.5t33 -5q33 -4 73.5 -9.5t75.5 -21t59 -45.5t24 -83z
M200 562q-3 0 -5 2t0 5l54 128q2 7 10 7h117q8 0 5 -7l-83 -128l-4.5 -4.5t-6.5 -2.5h-87z" />
    <glyph glyph-name="Scircumflex" unicode="&#x15c;" horiz-adv-x="630" 
d="M574 206q0 -50 -18.5 -89.5t-53.5 -68t-85 -43.5t-113 -15q-75 0 -127 18.5t-84.5 47.5t-47.5 65.5t-15 71.5q0 5 5 5h115q5 0 5 -5q0 -18 11.5 -35t31.5 -29.5t47 -20.5t59 -8q31 0 57.5 8.5t46 22.5t30.5 33.5t11 41.5q0 33 -34 61t-111 35q-62 6 -111.5 18.5t-84.5 36
t-54 60t-19 89.5q0 49 21.5 88t56.5 65.5t79.5 40.5t91.5 14q50 0 96 -13.5t81.5 -39.5t56.5 -63.5t21 -86.5q0 -5 -4 -5h-116q-5 0 -5 5q0 16 -8.5 32.5t-25 30t-41 22t-55.5 8.5q-26 0 -48.5 -7.5t-39 -21t-26.5 -31.5t-10 -38q0 -23 13 -38t33.5 -24t46 -14t51.5 -8
t56.5 -7.5t60.5 -13.5t57.5 -23.5t49 -37.5t34 -56t12.5 -78zM339 760q-4 0 -5 3l-27 47q-2 3 -5 3.5t-5 -3.5l-27 -47q-2 -3 -5 -3h-80q-3 0 -5 2t0 5l56 128q2 7 10 7h111q8 0 10 -7l57 -128q3 -7 -5 -7h-80z" />
    <glyph glyph-name="scircumflex" unicode="&#x15d;" horiz-adv-x="531" 
d="M473 157q0 -81 -59.5 -124t-162.5 -43q-56 0 -98.5 15t-71.5 39.5t-43.5 56t-14.5 65.5q0 5 5 5h115q5 0 5 -5q0 -24 24.5 -45t78.5 -21q16 0 34 2t33 8t25 17.5t10 29.5q0 16 -10 25t-25.5 13.5t-33.5 6t-33 3.5q-39 4 -78 11t-70.5 23.5t-51 45t-19.5 75.5
q0 32 15 60.5t42.5 49.5t66 33.5t85.5 12.5q48 0 88 -11t69 -33.5t45.5 -55.5t16.5 -76q0 -5 -4 -5h-112q-5 0 -5 5q0 10 -5 22t-16.5 21.5t-30.5 16t-46 6.5q-45 0 -67 -13t-22 -33q0 -12 7.5 -19.5t20 -12t28.5 -7.5t33 -5q33 -4 73.5 -9.5t75.5 -21t59 -45.5t24 -83z
M290 562q-4 0 -5 3l-27 47q-2 3 -5 3.5t-5 -3.5l-27 -47q-2 -3 -5 -3h-80q-3 0 -5 2t0 5l56 128q2 7 10 7h111q8 0 10 -7l57 -128q3 -7 -5 -7h-80z" />
    <glyph glyph-name="Scedilla" unicode="&#x15e;" horiz-adv-x="630" 
d="M290 -16q1 2 0 4.5t-6 2.5h-5q-68 3 -115 22.5t-77 48t-43.5 63t-13.5 68.5q0 5 5 5h115q5 0 5 -5q0 -18 11.5 -35t31.5 -29.5t47 -20.5t59 -8q31 0 57.5 8.5t46 22.5t30.5 33.5t11 41.5q0 33 -34 61t-111 35q-62 6 -111.5 18.5t-84.5 36t-54 60t-19 89.5q0 49 21.5 88
t56.5 65.5t79.5 40.5t91.5 14q50 0 96 -13.5t81.5 -39.5t56.5 -63.5t21 -86.5q0 -5 -4 -5h-116q-5 0 -5 5q0 16 -8.5 32.5t-25 30t-41 22t-55.5 8.5q-26 0 -48.5 -7.5t-39 -21t-26.5 -31.5t-10 -38q0 -23 13 -38t33.5 -24t46 -14t51.5 -8t56.5 -7.5t60.5 -13.5t57.5 -23.5
t49 -37.5t34 -56t12.5 -78q0 -91 -60.5 -147.5t-166.5 -66.5l-19 -38q-2 -3 0 -5t4 -2q13 -1 27 -5t26 -13t19.5 -22.5t7.5 -33.5q0 -38 -28 -59.5t-77 -21.5q-19 0 -37 5.5t-32.5 16t-23 25.5t-8.5 34q0 5 5 5h50q5 0 5 -5q0 -11 11.5 -22.5t29.5 -11.5t31.5 9t13.5 25
q0 14 -5.5 22t-12.5 11.5t-15 4.5t-12 1q-6 0 -11 -1t-10 4l-18 15q-5 4 -4 7t3 5z" />
    <glyph glyph-name="scedilla" unicode="&#x15f;" horiz-adv-x="531" 
d="M229 -17q1 2 0 4.5t-6 2.5q-50 0 -87 15.5t-62.5 41t-38 56.5t-12.5 63q0 5 5 5h115q5 0 5 -5q0 -24 24.5 -45t78.5 -21q16 0 34 2t33 8t25 17.5t10 29.5q0 16 -10 25t-25.5 13.5t-33.5 6t-33 3.5q-39 4 -78 11t-70.5 23.5t-51 45t-19.5 75.5q0 32 15 60.5t42.5 49.5
t66 33.5t85.5 12.5q48 0 88 -11t69 -33.5t45.5 -55.5t16.5 -76q0 -5 -4 -5h-112q-5 0 -5 5q0 10 -5 22t-16.5 21.5t-30.5 16t-46 6.5q-45 0 -67 -13t-22 -33q0 -12 7.5 -19.5t20 -12t28.5 -7.5t33 -5q33 -4 73.5 -9.5t75.5 -21t59 -45.5t24 -83q0 -73 -48 -115.5t-135 -49.5
q-3 -1 -3.5 -1.5t-1.5 -2.5l-17 -34q-2 -3 0 -5t4 -2q13 -1 27 -5t26 -13t19.5 -22.5t7.5 -33.5q0 -38 -28 -59.5t-77 -21.5q-19 0 -37 5.5t-32.5 16t-23 25.5t-8.5 34q0 5 5 5h50q5 0 5 -5q0 -11 11.5 -22.5t29.5 -11.5t31.5 9t13.5 25q0 14 -5.5 22t-12.5 11.5t-15 4.5
t-12 1q-6 0 -11 -1t-10 4l-18 15q-5 4 -4 7t3 5z" />
    <glyph glyph-name="Scaron" unicode="&#x160;" horiz-adv-x="577" 
d="M541 206q0 -50 -18.5 -89.5t-53.5 -68t-85 -43.5t-113 -15q-75 0 -127 18.5t-84.5 47.5t-47.5 65.5t-15 71.5q0 5 5 5h115q5 0 5 -5q0 -18 11.5 -35t31.5 -29.5t47 -20.5t59 -8q31 0 57.5 8.5t46 22.5t30.5 33.5t11 41.5q0 33 -34 61t-111 35q-62 6 -111.5 18.5t-84.5 36
t-54 60t-19 89.5q0 49 21.5 88t56.5 65.5t79.5 40.5t91.5 14q50 0 96 -13.5t81.5 -39.5t56.5 -63.5t21 -86.5q0 -5 -4 -5h-116q-5 0 -5 5q0 16 -8.5 32.5t-25 30t-41 22t-55.5 8.5q-26 0 -48.5 -7.5t-39 -21t-26.5 -31.5t-10 -38q0 -23 13 -38t33.5 -24t46 -14t51.5 -8
t56.5 -7.5t60.5 -13.5t57.5 -23.5t49 -37.5t34 -56t12.5 -78zM369 902q8 0 5 -7l-57 -128q-2 -7 -10 -7h-111q-8 0 -10 7l-56 128q-2 3 0 5t5 2h80q3 0 5 -3l27 -47q2 -4 5 -3.5t5 3.5l27 47q1 3 5 3h80z" />
    <glyph glyph-name="scaron" unicode="&#x161;" horiz-adv-x="528" 
d="M474 157q0 -81 -59.5 -124t-162.5 -43q-56 0 -98.5 15t-71.5 39.5t-43.5 56t-14.5 65.5q0 5 5 5h115q5 0 5 -5q0 -24 24.5 -45t78.5 -21q16 0 34 2t33 8t25 17.5t10 29.5q0 16 -10 25t-25.5 13.5t-33.5 6t-33 3.5q-39 4 -78 11t-70.5 23.5t-51 45t-19.5 75.5
q0 32 15 60.5t42.5 49.5t66 33.5t85.5 12.5q48 0 88 -11t69 -33.5t45.5 -55.5t16.5 -76q0 -5 -4 -5h-112q-5 0 -5 5q0 10 -5 22t-16.5 21.5t-30.5 16t-46 6.5q-45 0 -67 -13t-22 -33q0 -12 7.5 -19.5t20 -12t28.5 -7.5t33 -5q33 -4 73.5 -9.5t75.5 -21t59 -45.5t24 -83z
M374 704q8 0 5 -7l-57 -128q-2 -7 -10 -7h-111q-8 0 -10 7l-56 128q-2 3 0 5t5 2h80q3 0 5 -3l27 -47q2 -4 5 -3.5t5 3.5l27 47q1 3 5 3h80z" />
    <glyph glyph-name="uni0162" unicode="&#x162;" horiz-adv-x="571" 
d="M223 -134q-5 0 -5 5v69q0 5 5 5h90q5 0 5 -5v-71q0 -27 -8.5 -42.5t-22.5 -23t-31 -9.5t-33 -2q-5 0 -5 5v29q0 5 5 5q4 0 12 0.5t16 3.5t13.5 9t5.5 17q0 5 -5 5h-42zM328 5q0 -5 -5 -5h-110q-5 0 -5 5v584q0 5 -5 5h-185q-5 0 -5 5v100q0 5 5 5h500q5 0 5 -5v-100
q0 -5 -5 -5h-185q-5 0 -5 -5v-584z" />
    <glyph glyph-name="uni0163" unicode="&#x163;" horiz-adv-x="385" 
d="M183 -134q-5 0 -5 5v69q0 5 5 5h90q5 0 5 -5v-71q0 -27 -8.5 -42.5t-22.5 -23t-31 -9.5t-33 -2q-5 0 -5 5v29q0 5 5 5q4 0 12 0.5t16 3.5t13.5 9t5.5 17q0 5 -5 5h-42zM18 401q-5 0 -5 5v95q0 5 5 5h82q5 0 5 5v135q0 5 5 5h110q5 0 5 -5v-135q0 -5 5 -5h102q5 0 5 -5
v-95q0 -5 -5 -5h-102q-5 0 -5 -5v-254q0 -15 10.5 -23.5t25.5 -8.5h71q5 0 5 -5v-100q0 -5 -5 -5h-78q-79 0 -114 33t-35 108v255q0 5 -5 5h-82z" />
    <glyph glyph-name="Tcaron" unicode="&#x164;" horiz-adv-x="571" 
d="M328 5q0 -5 -5 -5h-110q-5 0 -5 5v584q0 5 -5 5h-185q-5 0 -5 5v100q0 5 5 5h500q5 0 5 -5v-100q0 -5 -5 -5h-185q-5 0 -5 -5v-584zM386 902q8 0 5 -7l-57 -128q-2 -7 -10 -7h-111q-8 0 -10 7l-56 128q-2 3 0 5t5 2h80q3 0 5 -3l27 -47q2 -4 5 -3.5t5 3.5l27 47q1 3 5 3
h80z" />
    <glyph glyph-name="tcaron" unicode="&#x165;" horiz-adv-x="375" 
d="M279 626q-5 0 -5 5v69q0 5 5 5h90q5 0 5 -5v-71q0 -27 -8.5 -42.5t-22.5 -23t-31 -9.5t-33 -2q-5 0 -5 5v29q0 5 5 5q4 0 12 0.5t16 3.5t13.5 9t5.5 17q0 5 -5 5h-42zM18 401q-5 0 -5 5v95q0 5 5 5h82q5 0 5 5v135q0 5 5 5h110q5 0 5 -5v-135q0 -5 5 -5h102q5 0 5 -5v-95
q0 -5 -5 -5h-102q-5 0 -5 -5v-254q0 -15 10.5 -23.5t25.5 -8.5h71q5 0 5 -5v-100q0 -5 -5 -5h-78q-79 0 -114 33t-35 108v255q0 5 -5 5h-82z" />
    <glyph glyph-name="Tbar" unicode="&#x166;" horiz-adv-x="571" 
d="M208 590q-2 4 -5 4h-181q-5 0 -5 5v100q0 5 5 5h491q5 0 5 -5v-100q0 -5 -5 -5h-180q-5 0 -5 -5v-78q0 -5 5 -5h143q5 0 5 -5v-70q0 -5 -5 -5h-143q-5 0 -5 -5v-416q0 -5 -5 -5h-110q-5 0 -5 5v416q0 5 -5 5h-144q-5 0 -5 5v70q0 5 5 5h144q5 0 5 5v79z" />
    <glyph glyph-name="tbar" unicode="&#x167;" horiz-adv-x="385" 
d="M226 159q0 -23 12 -36.5t42 -13.5h51q5 0 5 -5v-99q0 -5 -5 -5h-69q-31 -1 -59.5 6t-50.5 21.5t-35 37t-13 53.5v99q0 5 -5 5h-80q-5 0 -5 5v65q0 5 5 5h80q5 0 5 5v94q0 5 -5 5h-80q-5 0 -5 5v95q0 5 5 5h80q5 0 5 5v135q0 5 5 5h112q5 0 5 -5v-135q0 -5 5 -5h100
q5 0 5 -5v-95q0 -5 -5 -5h-100q-5 0 -5 -5v-94q0 -5 5 -5h90q5 0 5 -5v-65q0 -5 -5 -5h-90q-5 0 -5 -5v-58z" />
    <glyph glyph-name="Utilde" unicode="&#x168;" horiz-adv-x="640" 
d="M558 244q0 -53 -20 -99t-54.5 -80.5t-81 -54.5t-99.5 -20t-99.5 20t-81 54.5t-54.5 80.5t-20 99v455q0 5 5 5h110q5 0 5 -5v-455q0 -28 10.5 -52.5t29 -42.5t43 -28.5t52.5 -10.5t52.5 10.5t43 28.5t29 42.5t10.5 52.5v455q0 5 5 5h110q5 0 5 -5v-455zM142 806
q0 13 5 29.5t17.5 31.5t34.5 25t55 10q22 0 38.5 -7t29 -16t22 -16t17.5 -7q3 0 8.5 0.5t11 4t9 12t3.5 24.5q0 5 5 5h70q5 0 5 -5v-34q0 -13 -5 -29.5t-18 -31t-34.5 -24.5t-54.5 -10q-20 0 -36 7t-29 16t-23 16t-19 7q-3 0 -8.5 -0.5t-11 -4t-9 -12t-3.5 -24.5q0 -5 -5 -5
h-70q-5 0 -5 5v33z" />
    <glyph glyph-name="utilde" unicode="&#x169;" horiz-adv-x="572" 
d="M363 37q-16 -17 -46.5 -32t-62.5 -15q-63 0 -105 19.5t-68 52.5t-37 76t-11 90v273q0 5 5 5h110q5 0 5 -5v-273q0 -23 6 -45.5t19.5 -41t34.5 -30t51 -11.5q29 0 50 10t34.5 26.5t19.5 37.5t6 44v283q0 5 5 5h111q4 0 4 -5v-496q0 -5 -5 -5h-95q-7 0 -10 6l-10 30
q-2 3 -5 4t-6 -3zM108 608q0 13 5 29.5t17.5 31.5t34.5 25t55 10q22 0 38.5 -7t29 -16t22 -16t17.5 -7q3 0 8.5 0.5t11 4t9 12t3.5 24.5q0 5 5 5h70q5 0 5 -5v-34q0 -13 -5 -29.5t-18 -31t-34.5 -24.5t-54.5 -10q-20 0 -36 7t-29 16t-23 16t-19 7q-3 0 -8.5 -0.5t-11 -4
t-9 -12t-3.5 -24.5q0 -5 -5 -5h-70q-5 0 -5 5v33z" />
    <glyph glyph-name="Umacron" unicode="&#x16a;" horiz-adv-x="640" 
d="M558 244q0 -53 -20 -99t-54.5 -80.5t-81 -54.5t-99.5 -20t-99.5 20t-81 54.5t-54.5 80.5t-20 99v455q0 5 5 5h110q5 0 5 -5v-455q0 -28 10.5 -52.5t29 -42.5t43 -28.5t52.5 -10.5t52.5 10.5t43 28.5t29 42.5t10.5 52.5v455q0 5 5 5h110q5 0 5 -5v-455zM174 770q-4 0 -4 5
v70q0 5 4 5h266q5 0 5 -5v-70q0 -5 -5 -5h-266z" />
    <glyph glyph-name="umacron" unicode="&#x16b;" horiz-adv-x="572" 
d="M363 37q-16 -17 -46.5 -32t-62.5 -15q-63 0 -105 19.5t-68 52.5t-37 76t-11 90v273q0 5 5 5h110q5 0 5 -5v-273q0 -23 6 -45.5t19.5 -41t34.5 -30t51 -11.5q29 0 50 10t34.5 26.5t19.5 37.5t6 44v283q0 5 5 5h111q4 0 4 -5v-496q0 -5 -5 -5h-95q-7 0 -10 6l-10 30
q-2 3 -5 4t-6 -3zM140 572q-4 0 -4 5v70q0 5 4 5h266q5 0 5 -5v-70q0 -5 -5 -5h-266z" />
    <glyph glyph-name="Ubreve" unicode="&#x16c;" horiz-adv-x="640" 
d="M558 244q0 -53 -20 -99t-54.5 -80.5t-81 -54.5t-99.5 -20t-99.5 20t-81 54.5t-54.5 80.5t-20 99v455q0 5 5 5h110q5 0 5 -5v-455q0 -28 10.5 -52.5t29 -42.5t43 -28.5t52.5 -10.5t52.5 10.5t43 28.5t29 42.5t10.5 52.5v455q0 5 5 5h110q5 0 5 -5v-455zM446 897
q0 -63 -38 -100t-101 -37q-62 0 -100.5 37t-38.5 100q0 5 5 5h77q5 0 5 -5q0 -17 13.5 -34.5t38.5 -17.5q26 0 38.5 17.5t12.5 34.5q0 5 5 5h78z" />
    <glyph glyph-name="ubreve" unicode="&#x16d;" horiz-adv-x="572" 
d="M363 37q-16 -17 -46.5 -32t-62.5 -15q-63 0 -105 19.5t-68 52.5t-37 76t-11 90v273q0 5 5 5h110q5 0 5 -5v-273q0 -23 6 -45.5t19.5 -41t34.5 -30t51 -11.5q29 0 50 10t34.5 26.5t19.5 37.5t6 44v283q0 5 5 5h111q4 0 4 -5v-496q0 -5 -5 -5h-95q-7 0 -10 6l-10 30
q-2 3 -5 4t-6 -3zM412 699q0 -63 -38 -100t-101 -37q-62 0 -100.5 37t-38.5 100q0 5 5 5h77q5 0 5 -5q0 -17 13.5 -34.5t38.5 -17.5q26 0 38.5 17.5t12.5 34.5q0 5 5 5h78z" />
    <glyph glyph-name="Uring" unicode="&#x16e;" horiz-adv-x="640" 
d="M558 244q0 -53 -20 -99t-54.5 -80.5t-81 -54.5t-99.5 -20t-99.5 20t-81 54.5t-54.5 80.5t-20 99v455q0 5 5 5h110q5 0 5 -5v-455q0 -28 10.5 -52.5t29 -42.5t43 -28.5t52.5 -10.5t52.5 10.5t43 28.5t29 42.5t10.5 52.5v455q0 5 5 5h110q5 0 5 -5v-455zM389 824
q0 -36 -26 -61.5t-62 -25.5t-61.5 25.5t-25.5 61.5t25.5 62t61.5 26q18 0 34 -7t28 -19t19 -28t7 -34zM343 824q0 17 -12.5 29.5t-29.5 12.5t-29.5 -12.5t-12.5 -29.5t12.5 -29.5t29.5 -12.5t29.5 12.5t12.5 29.5z" />
    <glyph glyph-name="uring" unicode="&#x16f;" horiz-adv-x="572" 
d="M363 37q-16 -17 -46.5 -32t-62.5 -15q-63 0 -105 19.5t-68 52.5t-37 76t-11 90v273q0 5 5 5h110q5 0 5 -5v-273q0 -23 6 -45.5t19.5 -41t34.5 -30t51 -11.5q29 0 50 10t34.5 26.5t19.5 37.5t6 44v283q0 5 5 5h111q4 0 4 -5v-496q0 -5 -5 -5h-95q-7 0 -10 6l-10 30
q-2 3 -5 4t-6 -3zM361 626q0 -36 -26 -61.5t-62 -25.5t-61.5 25.5t-25.5 61.5t25.5 62t61.5 26q18 0 34 -7t28 -19t19 -28t7 -34zM315 626q0 17 -12.5 29.5t-29.5 12.5t-29.5 -12.5t-12.5 -29.5t12.5 -29.5t29.5 -12.5t29.5 12.5t12.5 29.5z" />
    <glyph glyph-name="Uhungarumlaut" unicode="&#x170;" horiz-adv-x="640" 
d="M558 244q0 -53 -20 -99t-54.5 -80.5t-81 -54.5t-99.5 -20t-99.5 20t-81 54.5t-54.5 80.5t-20 99v455q0 5 5 5h110q5 0 5 -5v-455q0 -28 10.5 -52.5t29 -42.5t43 -28.5t52.5 -10.5t52.5 10.5t43 28.5t29 42.5t10.5 52.5v455q0 5 5 5h110q5 0 5 -5v-455zM115 760q-4 0 -4 5
l29 132q0 5 6 5h129q4 0 4 -5l-29 -132q0 -5 -6 -5h-129zM335 760q-4 0 -4 5l29 132q0 5 6 5h129q4 0 4 -5l-29 -132q0 -5 -6 -5h-129z" />
    <glyph glyph-name="uhungarumlaut" unicode="&#x171;" horiz-adv-x="572" 
d="M363 37q-16 -17 -46.5 -32t-62.5 -15q-63 0 -105 19.5t-68 52.5t-37 76t-11 90v273q0 5 5 5h110q5 0 5 -5v-273q0 -23 6 -45.5t19.5 -41t34.5 -30t51 -11.5q29 0 50 10t34.5 26.5t19.5 37.5t6 44v283q0 5 5 5h111q4 0 4 -5v-496q0 -5 -5 -5h-95q-7 0 -10 6l-10 30
q-2 3 -5 4t-6 -3zM83 562q-4 0 -4 5l29 132q0 5 6 5h129q4 0 4 -5l-29 -132q0 -5 -6 -5h-129zM303 562q-4 0 -4 5l29 132q0 5 6 5h129q4 0 4 -5l-29 -132q0 -5 -6 -5h-129z" />
    <glyph glyph-name="Uogonek" unicode="&#x172;" horiz-adv-x="640" 
d="M558 244q0 -69 -33.5 -126t-87.5 -91q-37 -23 -48 -42.5t-11 -42.5q0 -31 20 -43t52 -12h14q5 0 5 -5v-75q0 -5 -5 -5h-44q-59 0 -91 29.5t-33 69.5q-2 49 30 81q2 2 1 6t-6 3t-9 -1h-9q-53 0 -99.5 20t-81 54.5t-54.5 80.5t-20 99v455q0 5 5 5h110q5 0 5 -5v-455
q0 -28 10.5 -52.5t29 -42.5t43 -28.5t52.5 -10.5t52.5 10.5t43 28.5t29 42.5t10.5 52.5v455q0 5 5 5h110q5 0 5 -5v-455z" />
    <glyph glyph-name="uogonek" unicode="&#x173;" horiz-adv-x="572" 
d="M363 37q-16 -17 -46.5 -32t-62.5 -15q-63 0 -105 19.5t-68 52.5t-37 76t-11 90v273q0 5 5 5h110q5 0 5 -5v-273q0 -23 6 -45.5t19.5 -41t34.5 -30t51 -11.5q29 0 50 10t34.5 26.5t19.5 37.5t6 44v283q0 5 5 5h111q4 0 4 -5v-496q0 -5 -5 -5h-17q-29 0 -49 -17t-20 -41
q0 -31 20 -43t52 -12h14q5 0 5 -5v-75q0 -5 -5 -5h-44q-59 0 -91 25.5t-33 73.5q-1 37 15.5 59.5t45.5 35.5q4 2 3.5 5t-1.5 5l-10 30q-2 3 -5 4t-6 -3z" />
    <glyph glyph-name="Wcircumflex" unicode="&#x174;" horiz-adv-x="1017" 
d="M718 123q1 -5 5 -5t5 5l102 576q1 5 6 5h122q7 0 5 -7l-138 -692q-2 -5 -6 -5h-192q-5 0 -6 5l-117 577q-1 5 -5.5 5t-5.5 -5l-117 -577q-2 -5 -5 -5h-193q-5 0 -6 5l-138 692q-2 7 5 7h122q5 0 6 -5l103 -576q1 -5 5 -4.5t5 4.5l116 576q1 5 6 5h193q5 0 6 -5zM533 760
q-4 0 -5 3l-27 47q-2 3 -5 3.5t-5 -3.5l-27 -47q-2 -3 -5 -3h-80q-3 0 -5 2t0 5l56 128q2 7 10 7h111q8 0 10 -7l57 -128q3 -7 -5 -7h-80z" />
    <glyph glyph-name="wcircumflex" unicode="&#x175;" horiz-adv-x="841" 
d="M667 500q2 6 6 6h112q6 0 5 -6l-116 -495q-2 -5 -6 -5h-171q-4 0 -6 5l-88 387q-1 5 -5 5t-5 -5l-88 -387q-2 -5 -6 -5h-171q-4 0 -6 5l-116 495q-2 6 4 6h112q5 0 7 -6l80 -386q1 -5 5 -5t5 5l92 386q2 6 7 6h160q5 0 7 -6l92 -386q1 -4 5 -4t5 4zM435 562q-4 0 -5 3
l-27 47q-2 3 -5 3.5t-5 -3.5l-27 -47q-2 -3 -5 -3h-80q-3 0 -5 2t0 5l56 128q2 7 10 7h111q8 0 10 -7l57 -128q3 -7 -5 -7h-80z" />
    <glyph glyph-name="Ycircumflex" unicode="&#x176;" horiz-adv-x="679" 
d="M268 0q-5 0 -5 5v282q0 4 -2 7l-239 402q-4 8 4 8h131q4 0 7 -5l155 -285q4 -6 8 0l156 285q2 5 8 5h130q2 0 4 -2t0 -6l-240 -402q-2 -3 -2 -7v-282q0 -5 -5 -5h-110v0zM364 760q-4 0 -5 3l-27 47q-2 3 -5 3.5t-5 -3.5l-27 -47q-2 -3 -5 -3h-80q-3 0 -5 2t0 5l56 128
q2 7 10 7h111q8 0 10 -7l57 -128q3 -7 -5 -7h-80z" />
    <glyph glyph-name="ycircumflex" unicode="&#x177;" horiz-adv-x="573" 
d="M403 501q2 5 6 5h116q7 0 5 -5l-166 -496l-26 -77q-22 -64 -60 -95t-102 -31h-147q-5 0 -5 5v94q0 5 5 5h122q24 0 35.5 8t14.5 22t-1 31.5t-10 37.5l-167 496q-2 5 5 5h117q4 0 6 -5l121 -387q1 -4 5 -4t5 4zM313 562q-4 0 -5 3l-27 47q-2 3 -5 3.5t-5 -3.5l-27 -47
q-2 -3 -5 -3h-80q-3 0 -5 2t0 5l56 128q2 7 10 7h111q8 0 10 -7l57 -128q3 -7 -5 -7h-80z" />
    <glyph glyph-name="Ydieresis" unicode="&#x178;" horiz-adv-x="679" 
d="M268 0q-5 0 -5 5v282q0 4 -2 7l-239 402q-4 8 4 8h131q4 0 7 -5l155 -285q4 -6 8 0l156 285q2 5 8 5h130q2 0 4 -2t0 -6l-240 -402q-2 -3 -2 -7v-282q0 -5 -5 -5h-110v0zM152 760q-5 0 -5 5v132q0 5 5 5h129q5 0 5 -5v-132q0 -5 -5 -5h-129zM372 760q-5 0 -5 5v132
q0 5 5 5h129q5 0 5 -5v-132q0 -5 -5 -5h-129z" />
    <glyph glyph-name="Zacute" unicode="&#x179;" horiz-adv-x="577" 
d="M20 0q-5 0 -5 5v93q0 5 1.5 7.5t3.5 4.5l343 476q2 2 1 5t-5 3h-339q-5 0 -5 5v100q0 5 4 5h499q5 0 5 -5v-95q0 -6 -3 -10l-345 -476q-2 -2 -1 -5t5 -3h339q5 0 5 -5v-100q0 -5 -5 -5h-498zM188 760q-3 0 -5 2t0 5l54 128q2 7 10 7h117q8 0 5 -7l-83 -128l-4.5 -4.5
t-6.5 -2.5h-87z" />
    <glyph glyph-name="zacute" unicode="&#x17a;" horiz-adv-x="486" 
d="M48 0q-5 0 -5 5v96q0 5 4 9l241 278q2 2 1.5 5t-5.5 3h-226q-5 0 -5 5v100q0 5 5 5h376q5 0 5 -5v-99q0 -3 -2 -5l-240 -279q-2 -2 -1.5 -5t5.5 -3h245q5 0 5 -5v-100q0 -5 -5 -5h-398zM187 562q-3 0 -5 2t0 5l54 128q2 7 10 7h117q8 0 5 -7l-83 -128l-4.5 -4.5
t-6.5 -2.5h-87z" />
    <glyph glyph-name="Zdotaccent" unicode="&#x17b;" horiz-adv-x="577" 
d="M20 0q-5 0 -5 5v93q0 5 1.5 7.5t3.5 4.5l343 476q2 2 1 5t-5 3h-339q-5 0 -5 5v100q0 5 4 5h499q5 0 5 -5v-95q0 -6 -3 -10l-345 -476q-2 -2 -1 -5t5 -3h339q5 0 5 -5v-100q0 -5 -5 -5h-498zM206 760q-5 0 -5 5v132q0 5 5 5h129q5 0 5 -5v-132q0 -5 -5 -5h-129z" />
    <glyph glyph-name="zdotaccent" unicode="&#x17c;" horiz-adv-x="486" 
d="M48 0q-5 0 -5 5v96q0 5 4 9l241 278q2 2 1.5 5t-5.5 3h-226q-5 0 -5 5v100q0 5 5 5h376q5 0 5 -5v-99q0 -3 -2 -5l-240 -279q-2 -2 -1.5 -5t5.5 -3h245q5 0 5 -5v-100q0 -5 -5 -5h-398zM176 562q-5 0 -5 5v132q0 5 5 5h129q5 0 5 -5v-132q0 -5 -5 -5h-129z" />
    <glyph glyph-name="Zcaron" unicode="&#x17d;" horiz-adv-x="577" 
d="M20 0q-5 0 -5 5v93q0 5 1.5 7.5t3.5 4.5l343 476q2 2 1 5t-5 3h-339q-5 0 -5 5v100q0 5 4 5h499q5 0 5 -5v-95q0 -6 -3 -10l-345 -476q-2 -2 -1 -5t5 -3h339q5 0 5 -5v-100q0 -5 -5 -5h-498zM389 902q8 0 5 -7l-57 -128q-2 -7 -10 -7h-111q-8 0 -10 7l-56 128q-2 3 0 5
t5 2h80q3 0 5 -3l27 -47q2 -4 5 -3.5t5 3.5l27 47q1 3 5 3h80z" />
    <glyph glyph-name="zcaron" unicode="&#x17e;" horiz-adv-x="486" 
d="M48 0q-5 0 -5 5v96q0 5 4 9l241 278q2 2 1.5 5t-5.5 3h-226q-5 0 -5 5v100q0 5 5 5h376q5 0 5 -5v-99q0 -3 -2 -5l-240 -279q-2 -2 -1.5 -5t5.5 -3h245q5 0 5 -5v-100q0 -5 -5 -5h-398zM372 704q8 0 5 -7l-57 -128q-2 -7 -10 -7h-111q-8 0 -10 7l-56 128q-2 3 0 5t5 2h80
q3 0 5 -3l27 -47q2 -4 5 -3.5t5 3.5l27 47q1 3 5 3h80z" />
    <glyph glyph-name="longs" unicode="&#x17f;" horiz-adv-x="342" 
d="M100 506q5 0 5 4v53q0 71 42 106.5t107 34.5h79q4 0 4 -5v-100q0 -5 -5 -5h-71q-15 0 -25.5 -8.5t-10.5 -23.5v-557q0 -5 -5 -5h-110q-5 0 -5 5v391q0 5 -5 5h-82q-5 0 -5 5v95q0 5 5 5h82z" />
    <glyph glyph-name="florin" unicode="&#x192;" horiz-adv-x="530" 
d="M230 506q5 0 5 4l11 53q14 72 62 107t114 34h79q5 0 3 -5l-19 -100q-2 -5 -6 -5h-71q-15 0 -27.5 -8.5t-14.5 -23.5l-11 -52q0 -4 5 -4h102q4 0 4 -5l-19 -95q0 -5 -6 -5h-102q-2 0 -4 -2l-89 -456q-14 -75 -58.5 -108.5t-115.5 -32.5h-78q-2 0 -3 1.5t0 3.5l19 100
q2 5 6 5h69q14 -2 26.5 7.5t14.5 24.5l87 452q2 5 -4 5h-82q-4 0 -4 5l19 95q0 5 6 5h82z" />
    <glyph glyph-name="uni0218" unicode="&#x218;" horiz-adv-x="630" 
d="M574 206q0 -50 -18.5 -89.5t-53.5 -68t-85 -43.5t-113 -15q-75 0 -127 18.5t-84.5 47.5t-47.5 65.5t-15 71.5q0 5 5 5h115q5 0 5 -5q0 -18 11.5 -35t31.5 -29.5t47 -20.5t59 -8q31 0 57.5 8.5t46 22.5t30.5 33.5t11 41.5q0 33 -34 61t-111 35q-62 6 -111.5 18.5t-84.5 36
t-54 60t-19 89.5q0 49 21.5 88t56.5 65.5t79.5 40.5t91.5 14q50 0 96 -13.5t81.5 -39.5t56.5 -63.5t21 -86.5q0 -5 -4 -5h-116q-5 0 -5 5q0 16 -8.5 32.5t-25 30t-41 22t-55.5 8.5q-26 0 -48.5 -7.5t-39 -21t-26.5 -31.5t-10 -38q0 -23 13 -38t33.5 -24t46 -14t51.5 -8
t56.5 -7.5t60.5 -13.5t57.5 -23.5t49 -37.5t34 -56t12.5 -78zM257 -134q-5 0 -5 5v69q0 5 5 5h90q5 0 5 -5v-71q0 -27 -8.5 -42.5t-22.5 -23t-31 -9.5t-33 -2q-5 0 -5 5v29q0 5 5 5q4 0 12 0.5t16 3.5t13.5 9t5.5 17q0 5 -5 5h-42z" />
    <glyph glyph-name="uni0219" unicode="&#x219;" horiz-adv-x="531" 
d="M473 157q0 -81 -59.5 -124t-162.5 -43q-56 0 -98.5 15t-71.5 39.5t-43.5 56t-14.5 65.5q0 5 5 5h115q5 0 5 -5q0 -24 24.5 -45t78.5 -21q16 0 34 2t33 8t25 17.5t10 29.5q0 16 -10 25t-25.5 13.5t-33.5 6t-33 3.5q-39 4 -78 11t-70.5 23.5t-51 45t-19.5 75.5
q0 32 15 60.5t42.5 49.5t66 33.5t85.5 12.5q48 0 88 -11t69 -33.5t45.5 -55.5t16.5 -76q0 -5 -4 -5h-112q-5 0 -5 5q0 10 -5 22t-16.5 21.5t-30.5 16t-46 6.5q-45 0 -67 -13t-22 -33q0 -12 7.5 -19.5t20 -12t28.5 -7.5t33 -5q33 -4 73.5 -9.5t75.5 -21t59 -45.5t24 -83z
M205 -134q-5 0 -5 5v69q0 5 5 5h90q5 0 5 -5v-71q0 -27 -8.5 -42.5t-22.5 -23t-31 -9.5t-33 -2q-5 0 -5 5v29q0 5 5 5q4 0 12 0.5t16 3.5t13.5 9t5.5 17q0 5 -5 5h-42z" />
    <glyph glyph-name="uni021A" unicode="&#x21a;" horiz-adv-x="571" 
d="M223 -134q-5 0 -5 5v69q0 5 5 5h90q5 0 5 -5v-71q0 -27 -8.5 -42.5t-22.5 -23t-31 -9.5t-33 -2q-5 0 -5 5v29q0 5 5 5q4 0 12 0.5t16 3.5t13.5 9t5.5 17q0 5 -5 5h-42zM328 5q0 -5 -5 -5h-110q-5 0 -5 5v584q0 5 -5 5h-185q-5 0 -5 5v100q0 5 5 5h500q5 0 5 -5v-100
q0 -5 -5 -5h-185q-5 0 -5 -5v-584z" />
    <glyph glyph-name="uni021B" unicode="&#x21b;" horiz-adv-x="385" 
d="M183 -134q-5 0 -5 5v69q0 5 5 5h90q5 0 5 -5v-71q0 -27 -8.5 -42.5t-22.5 -23t-31 -9.5t-33 -2q-5 0 -5 5v29q0 5 5 5q4 0 12 0.5t16 3.5t13.5 9t5.5 17q0 5 -5 5h-42zM18 401q-5 0 -5 5v95q0 5 5 5h82q5 0 5 5v135q0 5 5 5h110q5 0 5 -5v-135q0 -5 5 -5h102q5 0 5 -5
v-95q0 -5 -5 -5h-102q-5 0 -5 -5v-254q0 -15 10.5 -23.5t25.5 -8.5h71q5 0 5 -5v-100q0 -5 -5 -5h-78q-79 0 -114 33t-35 108v255q0 5 -5 5h-82z" />
    <glyph glyph-name="circumflex" unicode="&#x2c6;" horiz-adv-x="335" 
d="M192 562q-4 0 -5 3l-27 47q-2 3 -5 3.5t-5 -3.5l-27 -47q-2 -3 -5 -3h-80q-3 0 -5 2t0 5l56 128q2 7 10 7h111q8 0 10 -7l57 -128q3 -7 -5 -7h-80z" />
    <glyph glyph-name="caron" unicode="&#x2c7;" horiz-adv-x="335" 
d="M272 704q8 0 5 -7l-57 -128q-2 -7 -10 -7h-111q-8 0 -10 7l-56 128q-2 3 0 5t5 2h80q3 0 5 -3l27 -47q2 -4 5 -3.5t5 3.5l27 47q1 3 5 3h80z" />
    <glyph glyph-name="uni02C9" unicode="&#x2c9;" horiz-adv-x="362" 
d="M35 572q-4 0 -4 5v70q0 5 4 5h266q5 0 5 -5v-70q0 -5 -5 -5h-266z" />
    <glyph glyph-name="breve" unicode="&#x2d8;" horiz-adv-x="369" 
d="M311 699q0 -63 -38 -100t-101 -37q-62 0 -100.5 37t-38.5 100q0 5 5 5h77q5 0 5 -5q0 -17 13.5 -34.5t38.5 -17.5q26 0 38.5 17.5t12.5 34.5q0 5 5 5h78z" />
    <glyph glyph-name="dotaccent" unicode="&#x2d9;" horiz-adv-x="262" 
d="M48 562q-5 0 -5 5v132q0 5 5 5h129q5 0 5 -5v-132q0 -5 -5 -5h-129z" />
    <glyph glyph-name="ring" unicode="&#x2da;" horiz-adv-x="266" 
d="M203 626q0 -36 -26 -61.5t-62 -25.5t-61.5 25.5t-25.5 61.5t25.5 62t61.5 26q18 0 34 -7t28 -19t19 -28t7 -34zM157 626q0 17 -12.5 29.5t-29.5 12.5t-29.5 -12.5t-12.5 -29.5t12.5 -29.5t29.5 -12.5t29.5 12.5t12.5 29.5z" />
    <glyph glyph-name="ogonek" unicode="&#x2db;" horiz-adv-x="275" 
d="M206 10q5 0 5 -5t-5 -5h-6q-32 0 -53.5 -16.5t-21.5 -41.5q0 -31 20 -43t52 -12h14q5 0 5 -5v-75q0 -5 -5 -5h-44q-59 0 -91 25.5t-33 73.5q-1 51 35 80t102 29h26z" />
    <glyph glyph-name="tilde" unicode="&#x2dc;" horiz-adv-x="472" 
d="M53 608q0 13 5 29.5t17.5 31.5t34.5 25t55 10q22 0 38.5 -7t29 -16t22 -16t17.5 -7q3 0 8.5 0.5t11 4t9 12t3.5 24.5q0 5 5 5h70q5 0 5 -5v-34q0 -13 -5 -29.5t-18 -31t-34.5 -24.5t-54.5 -10q-20 0 -36 7t-29 16t-23 16t-19 7q-3 0 -8.5 -0.5t-11 -4t-9 -12t-3.5 -24.5
q0 -5 -5 -5h-70q-5 0 -5 5v33z" />
    <glyph glyph-name="hungarumlaut" unicode="&#x2dd;" horiz-adv-x="444" 
d="M14 562q-4 0 -4 5l29 132q0 5 6 5h129q4 0 4 -5l-29 -132q0 -5 -6 -5h-129zM234 562q-4 0 -4 5l29 132q0 5 6 5h129q4 0 4 -5l-29 -132q0 -5 -6 -5h-129z" />
    <glyph glyph-name="uni0394" unicode="&#x394;" horiz-adv-x="710" 
d="M59 0q-5 0 -5 5v88q0 4 1.5 8.5t2.5 6.5l204 591q2 5 6 5h153q3 0 5 -5l201 -591q2 -5 3 -8t1 -7v-88q0 -5 -5 -5h-567zM181 116q-2 -6 5 -6h313q7 0 5 7l-155 465q-2 4 -5 4t-5 -4z" />
    <glyph glyph-name="uni03A9" unicode="&#x3a9;" horiz-adv-x="531" 
d="M456 5q0 -5 -5 -5h-411q-5 0 -5 5v694q0 5 5 5h411q5 0 5 -5v-694zM419 681h-346l173 -306zM419 24l-173 305l-173 -305h346zM432 48v608q-43 -75 -87 -152t-86 -152zM233 352l-173 305v-610z" />
    <glyph glyph-name="uni03BC" unicode="&#x3bc;" horiz-adv-x="531" 
d="M456 5q0 -5 -5 -5h-411q-5 0 -5 5v694q0 5 5 5h411q5 0 5 -5v-694zM419 681h-346l173 -306zM419 24l-173 305l-173 -305h346zM432 48v608q-43 -75 -87 -152t-86 -152zM233 352l-173 305v-610z" />
    <glyph glyph-name="pi" unicode="&#x3c0;" horiz-adv-x="531" 
d="M456 5q0 -5 -5 -5h-411q-5 0 -5 5v694q0 5 5 5h411q5 0 5 -5v-694zM419 681h-346l173 -306zM419 24l-173 305l-173 -305h346zM432 48v608q-43 -75 -87 -152t-86 -152zM233 352l-173 305v-610z" />
    <glyph glyph-name="Wgrave" unicode="&#x1e80;" horiz-adv-x="1017" 
d="M718 123q1 -5 5 -5t5 5l102 576q1 5 6 5h122q7 0 5 -7l-138 -692q-2 -5 -6 -5h-192q-5 0 -6 5l-117 577q-1 5 -5.5 5t-5.5 -5l-117 -577q-2 -5 -5 -5h-193q-5 0 -6 5l-138 692q-2 7 5 7h122q5 0 6 -5l103 -576q1 -5 5 -4.5t5 4.5l116 576q1 5 6 5h193q5 0 6 -5zM467 761
q-4 0 -6.5 2.5l-4.5 4.5l-83 128q-2 3 0 5t5 2h117q8 0 10 -7l54 -128q3 -7 -5 -7h-87z" />
    <glyph glyph-name="wgrave" unicode="&#x1e81;" horiz-adv-x="841" 
d="M667 500q2 6 6 6h112q6 0 5 -6l-116 -495q-2 -5 -6 -5h-171q-4 0 -6 5l-88 387q-1 5 -5 5t-5 -5l-88 -387q-2 -5 -6 -5h-171q-4 0 -6 5l-116 495q-2 6 4 6h112q5 0 7 -6l80 -386q1 -5 5 -5t5 5l92 386q2 6 7 6h160q5 0 7 -6l92 -386q1 -4 5 -4t5 4zM354 562
q-4 0 -6.5 2.5l-4.5 4.5l-83 128q-2 3 0 5t5 2h117q8 0 10 -7l54 -128q3 -7 -5 -7h-87z" />
    <glyph glyph-name="Wacute" unicode="&#x1e82;" horiz-adv-x="1017" 
d="M718 123q1 -5 5 -5t5 5l102 576q1 5 6 5h122q7 0 5 -7l-138 -692q-2 -5 -6 -5h-192q-5 0 -6 5l-117 577q-1 5 -5.5 5t-5.5 -5l-117 -577q-2 -5 -5 -5h-193q-5 0 -6 5l-138 692q-2 7 5 7h122q5 0 6 -5l103 -576q1 -5 5 -4.5t5 4.5l116 576q1 5 6 5h193q5 0 6 -5zM408 760
q-3 0 -5 2t0 5l54 128q2 7 10 7h117q8 0 5 -7l-83 -128l-4.5 -4.5t-6.5 -2.5h-87z" />
    <glyph glyph-name="wacute" unicode="&#x1e83;" horiz-adv-x="841" 
d="M667 500q2 6 6 6h112q6 0 5 -6l-116 -495q-2 -5 -6 -5h-171q-4 0 -6 5l-88 387q-1 5 -5 5t-5 -5l-88 -387q-2 -5 -6 -5h-171q-4 0 -6 5l-116 495q-2 6 4 6h112q5 0 7 -6l80 -386q1 -5 5 -5t5 5l92 386q2 6 7 6h160q5 0 7 -6l92 -386q1 -4 5 -4t5 4zM355 562q-3 0 -5 2
t0 5l54 128q2 7 10 7h117q8 0 5 -7l-83 -128l-4.5 -4.5t-6.5 -2.5h-87z" />
    <glyph glyph-name="Wdieresis" unicode="&#x1e84;" horiz-adv-x="1017" 
d="M718 123q1 -5 5 -5t5 5l102 576q1 5 6 5h122q7 0 5 -7l-138 -692q-2 -5 -6 -5h-192q-5 0 -6 5l-117 577q-1 5 -5.5 5t-5.5 -5l-117 -577q-2 -5 -5 -5h-193q-5 0 -6 5l-138 692q-2 7 5 7h122q5 0 6 -5l103 -576q1 -5 5 -4.5t5 4.5l116 576q1 5 6 5h193q5 0 6 -5zM321 760
q-5 0 -5 5v132q0 5 5 5h129q5 0 5 -5v-132q0 -5 -5 -5h-129zM541 760q-5 0 -5 5v132q0 5 5 5h129q5 0 5 -5v-132q0 -5 -5 -5h-129z" />
    <glyph glyph-name="wdieresis" unicode="&#x1e85;" horiz-adv-x="841" 
d="M667 500q2 6 6 6h112q6 0 5 -6l-116 -495q-2 -5 -6 -5h-171q-4 0 -6 5l-88 387q-1 5 -5 5t-5 -5l-88 -387q-2 -5 -6 -5h-171q-4 0 -6 5l-116 495q-2 6 4 6h112q5 0 7 -6l80 -386q1 -5 5 -5t5 5l92 386q2 6 7 6h160q5 0 7 -6l92 -386q1 -4 5 -4t5 4zM224 562q-5 0 -5 5
v132q0 5 5 5h129q5 0 5 -5v-132q0 -5 -5 -5h-129zM444 562q-5 0 -5 5v132q0 5 5 5h129q5 0 5 -5v-132q0 -5 -5 -5h-129z" />
    <glyph glyph-name="endash" unicode="&#x2013;" horiz-adv-x="601" 
d="M59 197q-5 0 -5 5v100q0 5 5 5h448q5 0 5 -5v-100q0 -5 -5 -5h-448z" />
    <glyph glyph-name="emdash" unicode="&#x2014;" horiz-adv-x="861" 
d="M59 197q-5 0 -5 5v100q0 5 5 5h708q5 0 5 -5v-100q0 -5 -5 -5h-708z" />
    <glyph glyph-name="quoteleft" unicode="&#x2018;" horiz-adv-x="241" 
d="M148 563q5 0 5 -5v-152q0 -5 -5 -5h-120q-5 0 -5 5v151q0 65 30.5 106t94.5 41q5 0 5 -5v-55q0 -5 -5 -5q-23 0 -35.5 -18.5t-12.5 -52.5q0 -5 5 -5h43z" />
    <glyph glyph-name="quoteright" unicode="&#x2019;" horiz-adv-x="241" 
d="M28 542q-5 0 -5 5v152q0 5 5 5h120q5 0 5 -5v-151q0 -65 -30.5 -106t-94.5 -41q-5 0 -5 5v55q0 5 5 5q23 0 35.5 18.5t12.5 52.5q0 5 -5 5h-43z" />
    <glyph glyph-name="quotesinglbase" unicode="&#x201a;" horiz-adv-x="201" 
d="M28 0q-5 0 -5 5v152q0 5 5 5h120q5 0 5 -5v-151q0 -65 -30.5 -106t-94.5 -41q-5 0 -5 5v55q0 5 5 5q23 0 35.5 18.5t12.5 52.5q0 5 -5 5h-43z" />
    <glyph glyph-name="quotedblleft" unicode="&#x201c;" horiz-adv-x="406" 
d="M353 563q5 0 5 -5v-152q0 -5 -5 -5h-120q-5 0 -5 5v151q0 65 30.5 106t94.5 41q5 0 5 -5v-55q0 -5 -5 -5q-23 0 -35.5 -18.5t-12.5 -52.5q0 -5 5 -5h43zM148 563q5 0 5 -5v-152q0 -5 -5 -5h-120q-5 0 -5 5v151q0 65 30.5 106t94.5 41q5 0 5 -5v-55q0 -5 -5 -5
q-23 0 -35.5 -18.5t-12.5 -52.5q0 -5 5 -5h43z" />
    <glyph glyph-name="quotedblright" unicode="&#x201d;" horiz-adv-x="406" 
d="M28 542q-5 0 -5 5v152q0 5 5 5h120q5 0 5 -5v-151q0 -65 -30.5 -106t-94.5 -41q-5 0 -5 5v55q0 5 5 5q23 0 35.5 18.5t12.5 52.5q0 5 -5 5h-43zM233 542q-5 0 -5 5v152q0 5 5 5h120q5 0 5 -5v-151q0 -65 -30.5 -106t-94.5 -41q-5 0 -5 5v55q0 5 5 5q23 0 35.5 18.5
t12.5 52.5q0 5 -5 5h-43z" />
    <glyph glyph-name="quotedblbase" unicode="&#x201e;" horiz-adv-x="406" 
d="M28 0q-5 0 -5 5v152q0 5 5 5h120q5 0 5 -5v-151q0 -65 -30.5 -106t-94.5 -41q-5 0 -5 5v55q0 5 5 5q23 0 35.5 18.5t12.5 52.5q0 5 -5 5h-43zM233 0q-5 0 -5 5v152q0 5 5 5h120q5 0 5 -5v-151q0 -65 -30.5 -106t-94.5 -41q-5 0 -5 5v55q0 5 5 5q23 0 35.5 18.5t12.5 52.5
q0 5 -5 5h-43z" />
    <glyph glyph-name="dagger" unicode="&#x2020;" horiz-adv-x="657" 
d="M251 506q5 0 5 5v189q0 5 5 5h100q5 0 5 -5v-189q0 -5 5 -5h188q5 0 5 -5v-99q0 -5 -5 -5h-188q-5 0 -5 -5v-585q0 -5 -5 -5h-100q-5 0 -5 5v585q0 5 -5 5h-188q-5 0 -5 5v99q0 5 5 5h188z" />
    <glyph glyph-name="daggerdbl" unicode="&#x2021;" horiz-adv-x="657" 
d="M251 109q5 0 5 5v278q0 5 -5 5h-188q-5 0 -5 5v99q0 5 5 5h188q5 0 5 5v189q0 5 5 5h100q5 0 5 -5v-189q0 -5 5 -5h188q5 0 5 -5v-99q0 -5 -5 -5h-188q-5 0 -5 -5v-279q0 -4 5 -4h188q5 0 5 -5v-99q0 -5 -5 -5h-188q-5 0 -5 -4v-189q0 -5 -5 -5h-100q-5 0 -5 5v188
q0 5 -5 5h-188q-5 0 -5 5v99q0 5 5 5h188z" />
    <glyph glyph-name="bullet" unicode="&#x2022;" horiz-adv-x="677" 
d="M63 253q0 55 20.5 103t56 83.5t83.5 56t103 20.5t103 -20.5t83.5 -56t56 -83.5t20.5 -103t-20.5 -103t-56 -83.5t-83.5 -56t-103 -20.5t-103 20.5t-83.5 56t-56 83.5t-20.5 103z" />
    <glyph glyph-name="ellipsis" unicode="&#x2026;" horiz-adv-x="649" 
d="M28 0q-5 0 -5 5v152q0 5 5 5h149q5 0 5 -5v-152q0 -5 -5 -5h-149zM233 0q-5 0 -5 5v152q0 5 5 5h149q5 0 5 -5v-152q0 -5 -5 -5h-149zM437 0q-5 0 -5 5v152q0 5 5 5h149q5 0 5 -5v-152q0 -5 -5 -5h-149z" />
    <glyph glyph-name="perthousand" unicode="&#x2030;" horiz-adv-x="1172" 
d="M754 187q0 -41 -7 -77t-24 -62.5t-45 -42t-69 -15.5t-69 15.5t-45 42t-24 62.5t-7 77t7 77t24 62.5t45 42t69 15.5t69 -15.5t45 -42t24 -62.5t7 -77zM679 187q0 58 -16 90.5t-54 32.5t-54 -32.5t-16 -90.5t16 -90.5t54 -32.5t54 32.5t16 90.5zM343 517q0 -41 -7 -77
t-24 -62.5t-45 -42t-69 -15.5t-69 15.5t-45 42t-24 62.5t-7 77t7 77t24 62.5t45 42t69 15.5t69 -15.5t45 -42t24 -62.5t7 -77zM268 517q0 58 -16 90.5t-54 32.5t-54 -32.5t-16 -90.5t16 -90.5t54 -32.5t54 32.5t16 90.5zM1084 187q0 -41 -7 -77t-24 -62.5t-45 -42t-69 -15.5
t-69 15.5t-45 42t-24 62.5t-7 77t7 77t24 62.5t45 42t69 15.5t69 -15.5t45 -42t24 -62.5t7 -77zM1009 187q0 58 -16 90.5t-54 32.5t-54 -32.5t-16 -90.5t16 -90.5t54 -32.5t54 32.5t16 90.5zM577 702q2 2 4 2h70q8 0 4 -8l-426 -694q-2 -2 -4 -2h-68q-8 0 -4 8z" />
    <glyph glyph-name="guilsinglleft" unicode="&#x2039;" horiz-adv-x="411" 
d="M145 258q-3 -4 0 -9l212 -242q2 -7 -5 -7h-74q-4 0 -5 3l-212 246q-3 4 0 9l212 246q1 3 5 3h74q7 0 5 -7z" />
    <glyph glyph-name="guilsinglright" unicode="&#x203a;" horiz-adv-x="411" 
d="M59 500q-2 7 5 7h74q3 0 5 -3l212 -246q3 -5 0 -9l-212 -246q-2 -3 -5 -3h-74q-7 0 -5 7l212 242q3 5 0 9z" />
    <glyph glyph-name="fraction" unicode="&#x2044;" horiz-adv-x="642" 
d="M446 702q2 2 4 2h64q8 0 4 -8l-426 -694q-2 -2 -4 -2h-62q-8 0 -4 8z" />
    <glyph glyph-name="franc" unicode="&#x20a3;" 
d="M456 5q0 -5 -5 -5h-411q-5 0 -5 5v694q0 5 5 5h411q5 0 5 -5v-694zM419 681h-346l173 -306zM419 24l-173 305l-173 -305h346zM432 48v608q-43 -75 -87 -152t-86 -152zM233 352l-173 305v-610z" />
    <glyph glyph-name="lira" unicode="&#x20a4;" 
d="M456 5q0 -5 -5 -5h-411q-5 0 -5 5v694q0 5 5 5h411q5 0 5 -5v-694zM419 681h-346l173 -306zM419 24l-173 305l-173 -305h346zM432 48v608q-43 -75 -87 -152t-86 -152zM233 352l-173 305v-610z" />
    <glyph glyph-name="peseta" unicode="&#x20a7;" 
d="M456 5q0 -5 -5 -5h-411q-5 0 -5 5v694q0 5 5 5h411q5 0 5 -5v-694zM419 681h-346l173 -306zM419 24l-173 305l-173 -305h346zM432 48v608q-43 -75 -87 -152t-86 -152zM233 352l-173 305v-610z" />
    <glyph glyph-name="Euro" unicode="&#x20ac;" horiz-adv-x="675" 
d="M122 393q0 5 -5 5h-83q-5 0 -5 5l24 71q0 5 5 5h69q5 0 6 4q10 52 29.5 94.5t51.5 73t77 47t106 16.5q31 0 54 -4.5t41.5 -12t32.5 -16t27 -17.5q6 -4 4 -9l-37 -114q-2 -3 -4.5 -2t-3.5 3q-12 22 -43 41t-71 20q-59 2 -91.5 -30.5t-45.5 -87.5q-2 -6 5 -6h227q5 0 5 -5
l-23 -71q-1 -5 -7 -5h-214q-5 0 -5 -5l-1 -48v-23q0 -5 5 -5h187q5 0 5 -5l-23 -71q-2 -5 -7 -5h-154q-5 0 -5 -5q11 -62 44 -96t98 -34q47 0 86 32.5t65 77.5q2 2 5.5 2.5t3.5 -4.5v-144q0 -5 -6 -11q-10 -10 -25 -21t-35.5 -20.5t-46.5 -16t-57 -6.5q-60 0 -105 17t-76 48
t-50 75.5t-27 100.5q-1 5 -7 5h-87q-5 0 -5 5l23 71q0 5 5 5h59q5 0 5 5v23q0 12 -0.5 24t0.5 24z" />
    <glyph glyph-name="uni2113" unicode="&#x2113;" horiz-adv-x="491" 
d="M452 214q5 0 5 -5v-44q0 -35 -13 -65t-35.5 -52t-52.5 -35t-64 -13q-30 0 -57 10t-48.5 27t-36 41t-20.5 52l-111 -110q-2 -2 -4.5 -1t-2.5 4v123q0 7 4 10l111 111v258q0 34 13 64t35.5 52t52.5 35t64 13q33 0 63 -13t52.5 -35.5t35.5 -52.5t13 -63q0 -32 -12 -62
t-36 -54l-180 -181q-2 -2 -2 -5v-58q0 -28 19.5 -47.5t46.5 -19.5t46 19.5t19 47.5v44q0 5 5 5h90zM358 525q0 26 -19 46t-47 20q-27 0 -46.5 -19t-19.5 -47v-148q0 -3 3 -4t5 1l104 104q20 20 20 47z" />
    <glyph glyph-name="trademark" unicode="&#x2122;" horiz-adv-x="506" 
d="M352 699q2 5 6 5h68q5 0 5 -5v-188q0 -5 -5 -5h-32q-5 0 -5 5v152q0 2 -2 2.5t-3 -2.5l-40 -152q-2 -5 -6 -5h-55q-4 0 -6 5l-40 152q-1 3 -3 2.5t-2 -2.5v-152q0 -5 -5 -5h-32q-5 0 -5 5v188q0 5 5 5h68q4 0 6 -5l39 -153q1 -2 2.5 -2t2.5 2zM126 666q-5 0 -5 -5v-150
q0 -5 -5 -5h-32q-5 0 -5 5v150q0 5 -5 5h-44q-5 0 -5 5v28q0 5 4 5h142q5 0 5 -5v-28q0 -5 -5 -5h-45z" />
    <glyph glyph-name="Omega" unicode="&#x2126;" 
d="M456 5q0 -5 -5 -5h-411q-5 0 -5 5v694q0 5 5 5h411q5 0 5 -5v-694zM419 681h-346l173 -306zM419 24l-173 305l-173 -305h346zM432 48v608q-43 -75 -87 -152t-86 -152zM233 352l-173 305v-610z" />
    <glyph glyph-name="estimated" unicode="&#x212e;" horiz-adv-x="523" 
d="M448 128q4 -2 2 -6q-29 -57 -81.5 -89.5t-115.5 -32.5q-45 0 -85 17.5t-70 47.5t-47.5 70t-17.5 85v51q0 45 17.5 85.5t47.5 70.5t70 47.5t85 17.5t85 -17.5t70 -47.5t47.5 -70.5t17.5 -85.5v-28q0 -5 -5 -5h-364q-5 0 -5 -5v-146q28 -33 67.5 -52t86.5 -19q57 0 106 30
t77 81q2 4 6 3zM253 476q-47 0 -86.5 -19.5t-67.5 -51.5v-145q0 -5 5 -5h297q5 0 5 5v146q-29 32 -68 51t-85 19z" />
    <glyph glyph-name="arrowleft" unicode="&#x2190;" horiz-adv-x="760" 
d="M58 320q-4 4 -4 10v52q0 6 4 10l125 108q6 5 10 5.5t12 0.5h75q4 0 5 -3.5t-2 -5.5l-123 -104q-3 -2 -2.5 -3.5t2.5 -1.5h506q5 0 5 -5v-54q0 -5 -5 -5h-506q-2 0 -2.5 -1.5t2.5 -3.5l123 -104q3 -2 2 -5.5t-5 -3.5h-75q-8 0 -12 0.5t-10 5.5z" />
    <glyph glyph-name="arrowup" unicode="&#x2191;" horiz-adv-x="445" 
d="M349 575q5 -6 5.5 -10t0.5 -12v-75q0 -4 -3.5 -5t-5.5 2l-104 123q-2 3 -3.5 2.5t-1.5 -2.5v-593q0 -5 -5 -5h-54q-5 0 -5 5v593q0 2 -1.5 2.5t-3.5 -2.5l-104 -123q-2 -3 -5.5 -2t-3.5 5v75q0 8 0.5 12t5.5 10l108 125q4 4 10 4h52q6 0 10 -4z" />
    <glyph glyph-name="arrowright" unicode="&#x2192;" horiz-adv-x="760" 
d="M542 212q-6 -5 -10 -5.5t-12 -0.5h-75q-4 0 -5 3.5t2 5.5l123 104q3 2 2.5 3.5t-2.5 1.5h-506q-5 0 -5 5v54q0 5 5 5h506q2 0 2.5 1.5t-2.5 3.5l-123 104q-3 2 -2 5.5t5 3.5h75q8 0 12 -0.5t10 -5.5l125 -108q4 -4 4 -10v-52q0 -6 -4 -10z" />
    <glyph glyph-name="arrowdown" unicode="&#x2193;" horiz-adv-x="445" 
d="M241 4q-4 -4 -10 -4h-52q-6 0 -10 4l-108 125q-5 6 -5.5 10t-0.5 12v75q0 4 3.5 5t5.5 -2l104 -123q2 -3 3.5 -2.5t1.5 2.5v593q0 5 5 5h54q5 0 5 -5v-593q0 -2 1.5 -2.5t3.5 2.5l104 123q2 3 5.5 2t3.5 -5v-75q0 -8 -0.5 -12t-5.5 -10z" />
    <glyph glyph-name="carriagereturn" unicode="&#x21b5;" horiz-adv-x="760" 
d="M672 344h-1v-15q0 -5 -5 -5h-506q-2 0 -2.5 -1.5t2.5 -3.5l123 -104q3 -2 2 -5.5t-5 -3.5h-75q-8 0 -12 0.5t-10 5.5l-125 108q-4 4 -4 10v52q0 6 4 10l125 108q6 5 10 5.5t12 0.5h75q4 0 5 -3.5t-2 -5.5l-123 -104q-3 -2 -2.5 -3.5t2.5 -1.5h443q5 0 5 5v306q0 5 5 5h54
q5 0 5 -5v-355z" />
    <glyph glyph-name="partialdiff" unicode="&#x2202;" 
d="M456 5q0 -5 -5 -5h-411q-5 0 -5 5v694q0 5 5 5h411q5 0 5 -5v-694zM419 681h-346l173 -306zM419 24l-173 305l-173 -305h346zM432 48v608q-43 -75 -87 -152t-86 -152zM233 352l-173 305v-610z" />
    <glyph glyph-name="Delta" unicode="&#x2206;" horiz-adv-x="710" 
d="M59 0q-5 0 -5 5v88q0 4 1.5 8.5t2.5 6.5l204 591q2 5 6 5h153q3 0 5 -5l201 -591q2 -5 3 -8t1 -7v-88q0 -5 -5 -5h-567zM181 116q-2 -6 5 -6h313q7 0 5 7l-155 465q-2 4 -5 4t-5 -4z" />
    <glyph glyph-name="product" unicode="&#x220f;" 
d="M456 5q0 -5 -5 -5h-411q-5 0 -5 5v694q0 5 5 5h411q5 0 5 -5v-694zM419 681h-346l173 -306zM419 24l-173 305l-173 -305h346zM432 48v608q-43 -75 -87 -152t-86 -152zM233 352l-173 305v-610z" />
    <glyph glyph-name="summation" unicode="&#x2211;" 
d="M456 5q0 -5 -5 -5h-411q-5 0 -5 5v694q0 5 5 5h411q5 0 5 -5v-694zM419 681h-346l173 -306zM419 24l-173 305l-173 -305h346zM432 48v608q-43 -75 -87 -152t-86 -152zM233 352l-173 305v-610z" />
    <glyph glyph-name="minus" unicode="&#x2212;" horiz-adv-x="657" 
d="M559 307q5 0 5 -5v-99q0 -5 -5 -5h-496q-5 0 -5 5v99q0 5 5 5h496z" />
    <glyph glyph-name="uni2215" unicode="&#x2215;" horiz-adv-x="642" 
d="M446 702q2 2 4 2h64q8 0 4 -8l-426 -694q-2 -2 -4 -2h-62q-8 0 -4 8z" />
    <glyph glyph-name="uni2219" unicode="&#x2219;" horiz-adv-x="250" 
d="M38 276q-5 0 -5 5v151q0 5 5 5h149q5 0 5 -5v-151q0 -5 -5 -5h-149z" />
    <glyph glyph-name="radical" unicode="&#x221a;" horiz-adv-x="702" 
d="M144 401q-1 5 -6 5h-74q-5 0 -5 5v90q0 5 5 5h154q3 0 5 -5l112 -402q1 -4 5 -4t5 4l208 788q2 5 5 5h102q7 0 5 -5l-241 -882q-2 -5 -5 -5h-150q-4 0 -6 5z" />
    <glyph glyph-name="infinity" unicode="&#x221e;" horiz-adv-x="916" 
d="M450 254q-5 5 -10 0l-104 -80q-21 -17 -50 -29t-63 -12q-40 0 -74.5 15t-60 41.5t-40.5 61.5t-15 75q0 39 15 73.5t40.5 60.5t60 41t74.5 15q32 0 65 -11.5t56 -31.5l97 -82q4 -4 8 0l91 82q24 21 59 32t65 11q39 0 74 -15t60.5 -41t40.5 -60.5t15 -73.5q0 -40 -15 -75
t-40.5 -61.5t-60.5 -41.5t-74 -15q-32 0 -61.5 11.5t-52.5 29.5zM664 414q-16 0 -30.5 -4t-23.5 -12l-86 -68q-6 -4 0 -8l86 -67q9 -7 23.5 -13.5t30.5 -6.5q37 0 62.5 26.5t25.5 64.5q0 18 -7 34t-19 28t-28 19t-34 7zM223 417q-19 0 -35 -7.5t-27.5 -20.5t-18 -29
t-6.5 -34q0 -38 24.5 -64.5t62.5 -26.5q16 0 30 8t23 15l84 63q7 5 0 10l-84 66q-9 8 -23 14t-30 6z" />
    <glyph glyph-name="integral" unicode="&#x222b;" horiz-adv-x="372" 
d="M227 5v-1v-76q0 -64 -41.5 -95.5t-105.5 -30.5h-29q-4 0 -4 5v94q0 5 5 5h21q15 0 25.5 8.5t10.5 23.5v66v1v498v1v74q0 64 41.5 95.5t105.5 30.5h29q4 0 4 -5v-94q0 -5 -5 -5h-21q-15 0 -25.5 -8.5t-10.5 -23.5v-64v-1v-498z" />
    <glyph glyph-name="approxequal" unicode="&#x2248;" horiz-adv-x="531" 
d="M477 205q0 -22 -10 -42t-28 -35.5t-42 -24.5t-52 -9q-29 0 -55.5 11t-50.5 24t-45 24t-39 11q-14 0 -25.5 -10.5t-11.5 -24.5v-30q0 -5 -5 -5l-85 20q-5 0 -5 5v30q0 23 10 43.5t28 36t42 24.5t52 9q29 0 55.5 -11t50 -24.5t44.5 -24.5t40 -11q14 0 25.5 10t11.5 24v32
q0 5 5 5l85 -20q5 0 5 -5v-32zM477 413q0 -22 -10 -42t-28 -35.5t-42 -24.5t-52 -9q-29 0 -55.5 11t-50.5 24t-45 24t-39 11q-14 0 -25.5 -10.5t-11.5 -24.5v-30q0 -5 -5 -5l-85 20q-5 0 -5 5v30q0 23 10 43.5t28 36t42 24.5t52 9q29 0 55.5 -11t50 -24.5t44.5 -24.5t40 -11
q14 0 25.5 10t11.5 24v32q0 5 5 5l85 -20q5 0 5 -5v-32z" />
    <glyph glyph-name="notequal" unicode="&#x2260;" horiz-adv-x="531" 
d="M73 87q2 3 0.5 6t-4.5 3h-45q-5 0 -5 5v100q0 5 5 5h139q3 0 6 4l66 84q2 3 0.5 6t-4.5 3h-207q-5 0 -5 5v100q0 5 5 5h301q4 0 6 4l68 86q1 3 5 3h75q7 0 5 -7l-62 -78q-2 -2 -0.5 -5t4.5 -3h45q5 0 5 -5v-100q0 -5 -5 -5h-137q-5 0 -8 -5l-67 -84q-2 -2 -0.5 -5t4.5 -3
h208q5 0 5 -5v-100q0 -5 -5 -5h-301q-2 0 -3.5 -1.5l-2.5 -2.5l-70 -89q-2 -3 -5 -3h-74q-7 0 -5 7z" />
    <glyph glyph-name="lessequal" unicode="&#x2264;" horiz-adv-x="523" 
d="M16 504q0 3 3 5l448 193q7 3 7 -5v-78q0 -3 -3 -4l-372 -164q-2 -1 -2 -3t2 -3l372 -160q3 -2 3 -4v-78q0 -3 -2 -5t-5 0l-448 189q-3 1 -3 5v112zM469 99q5 0 5 -5v-89q0 -5 -5 -5h-450q-5 0 -5 5v89q0 5 5 5h450z" />
    <glyph glyph-name="greaterequal" unicode="&#x2265;" horiz-adv-x="523" 
d="M469 99q5 0 5 -5v-89q0 -5 -5 -5h-450q-5 0 -5 5v89q0 5 5 5h450zM472 392q0 -4 -3 -5l-448 -189q-3 -2 -5 0t-2 5v78q0 2 3 4l372 160q2 1 2 3t-2 3l-372 164q-3 1 -3 4v78q0 8 7 5l448 -193q3 -2 3 -5v-112z" />
    <glyph glyph-name="lozenge" unicode="&#x25ca;" 
d="M456 5q0 -5 -5 -5h-411q-5 0 -5 5v694q0 5 5 5h411q5 0 5 -5v-694zM419 681h-346l173 -306zM419 24l-173 305l-173 -305h346zM432 48v608q-43 -75 -87 -152t-86 -152zM233 352l-173 305v-610z" />
    <glyph glyph-name="commaaccent" unicode="&#xf6c3;" horiz-adv-x="281" 
d="M53 198q-5 0 -5 5v152q0 5 5 5h150q5 0 5 -5v-151q0 -25 -8 -48t-26.5 -41t-48 -29t-72.5 -11q-5 0 -5 5v55q0 5 5 5q45 0 61.5 17t16.5 36q0 5 -5 5h-73z" />
    <glyph glyph-name="apple" unicode="&#xf8ff;" horiz-adv-x="668" 
d="M480 702q0 -35 -7 -66t-36 -60q-18 -19 -40.5 -31.5t-54.5 -12.5q-1 0 -1 0.5t-2 0.5q0 32 9.5 59.5t32.5 53.5q20 20 45 35.5t54 20.5zM625 187q-24 -53 -46 -89t-41 -56q-39 -42 -88 -42q-20 0 -56 16q-19 8 -31 10.5t-22 2.5q-8 0 -22 -2.5t-32 -10.5
q-17 -8 -31.5 -12t-22.5 -4q-14 0 -28 4.5t-27 14.5q-33 24 -60 59.5t-45.5 76.5t-29 86t-10.5 88q0 39 13 77t37.5 68t59.5 48.5t79 18.5q16 0 32.5 -4.5t35.5 -11.5q36 -14 51 -14q8 0 20.5 3.5t31.5 10.5q20 7 36 11.5t29 4.5q24 0 45.5 -5t39.5 -13q35 -16 68 -52
q-35 -25 -60.5 -58.5t-25.5 -81.5t26.5 -86t73.5 -58z" />
    <glyph glyph-name="f_f" unicode="&#xfb00;" horiz-adv-x="705" 
d="M90 506q5 0 5 4v53q0 71 42 106.5t107 34.5h79q4 0 4 -5v-100q0 -5 -5 -5h-71q-15 0 -25.5 -8.5t-10.5 -23.5v-52q0 -4 5 -4h102q5 0 5 -5v-95q0 -5 -5 -5h-102q-5 0 -5 -5v-391q0 -5 -5 -5h-110q-5 0 -5 5v391q0 5 -5 5h-82q-5 0 -5 5v95q0 5 5 5h82zM430 506q5 0 5 4
v53q0 71 42 106.5t107 34.5h79q4 0 4 -5v-100q0 -5 -5 -5h-71q-15 0 -25.5 -8.5t-10.5 -23.5v-52q0 -4 5 -4h102q5 0 5 -5v-95q0 -5 -5 -5h-102q-5 0 -5 -5v-391q0 -5 -5 -5h-110q-5 0 -5 5v391q0 5 -5 5h-82q-5 0 -5 5v95q0 5 5 5h82z" />
    <glyph glyph-name="f_f_i" unicode="&#xfb03;" horiz-adv-x="971" 
d="M90 506q5 0 5 4v53q0 71 42 106.5t107 34.5h79q4 0 4 -5v-100q0 -5 -5 -5h-71q-15 0 -25.5 -8.5t-10.5 -23.5v-52q0 -4 5 -4h102q5 0 5 -5v-95q0 -5 -5 -5h-102q-5 0 -5 -5v-391q0 -5 -5 -5h-110q-5 0 -5 5v391q0 5 -5 5h-82q-5 0 -5 5v95q0 5 5 5h82zM430 506q5 0 5 4
v53q0 71 42 106.5t107 34.5h79q4 0 4 -5v-100q0 -5 -5 -5h-71q-15 0 -25.5 -8.5t-10.5 -23.5v-52q0 -4 5 -4h102q5 0 5 -5v-95q0 -5 -5 -5h-102q-5 0 -5 -5v-391q0 -5 -5 -5h-110q-5 0 -5 5v391q0 5 -5 5h-82q-5 0 -5 5v95q0 5 5 5h82zM748 562q-5 0 -5 5v132q0 5 5 5h130
q5 0 5 -5v-132q0 -5 -5 -5h-130zM758 0q-5 0 -5 5v496q0 5 5 5h110q5 0 5 -5v-496q0 -5 -5 -5h-110z" />
    <glyph glyph-name="f_f_l" unicode="&#xfb04;" horiz-adv-x="941" 
d="M90 506q5 0 5 4v53q0 71 42 106.5t107 34.5h79q4 0 4 -5v-100q0 -5 -5 -5h-71q-15 0 -25.5 -8.5t-10.5 -23.5v-52q0 -4 5 -4h102q5 0 5 -5v-95q0 -5 -5 -5h-102q-5 0 -5 -5v-391q0 -5 -5 -5h-110q-5 0 -5 5v391q0 5 -5 5h-82q-5 0 -5 5v95q0 5 5 5h82zM430 506q5 0 5 4
v53q0 71 42 106.5t107 34.5h79q4 0 4 -5v-100q0 -5 -5 -5h-71q-15 0 -25.5 -8.5t-10.5 -23.5v-52q0 -4 5 -4h102q5 0 5 -5v-95q0 -5 -5 -5h-102q-5 0 -5 -5v-391q0 -5 -5 -5h-110q-5 0 -5 5v391q0 5 -5 5h-82q-5 0 -5 5v95q0 5 5 5h82zM738 0q-5 0 -5 5v694q0 5 5 5h110
q5 0 5 -5v-694q0 -5 -5 -5h-110z" />
    <glyph glyph-name="longs_t" unicode="&#xfb05;" 
d="M456 5q0 -5 -5 -5h-411q-5 0 -5 5v694q0 5 5 5h411q5 0 5 -5v-694zM419 681h-346l173 -306zM419 24l-173 305l-173 -305h346zM432 48v608q-43 -75 -87 -152t-86 -152zM233 352l-173 305v-610z" />
    <glyph glyph-name="parenleft.001" 
d="M456 5q0 -5 -5 -5h-411q-5 0 -5 5v694q0 5 5 5h411q5 0 5 -5v-694zM419 681h-346l173 -306zM419 24l-173 305l-173 -305h346zM432 48v608q-43 -75 -87 -152t-86 -152zM233 352l-173 305v-610z" />
    <glyph glyph-name="parenright.001" 
d="M456 5q0 -5 -5 -5h-411q-5 0 -5 5v694q0 5 5 5h411q5 0 5 -5v-694zM419 681h-346l173 -306zM419 24l-173 305l-173 -305h346zM432 48v608q-43 -75 -87 -152t-86 -152zM233 352l-173 305v-610z" />
    <glyph glyph-name="registered.001" horiz-adv-x="806" 
d="M550 458q0 -42 -25 -75.5t-61 -49.5l88 -195q3 -7 -5 -7h-46q-4 0 -5 3l-85 192h-148v-190q0 -5 -5 -5h-40q-5 0 -5 5q0 82 -0.5 145.5t-0.5 110.5v80v54v59q0 5 5 5h203q27 0 51 -10.5t41.5 -28.5t27.5 -42t10 -51zM500 458q0 17 -6.5 32t-17.5 26t-25.5 17.5t-30.5 6.5
h-157v-163h157q16 0 30.5 6.5t25.5 17.5t17.5 25.5t6.5 31.5zM734 353q0 -73 -27.5 -137t-75 -112t-111.5 -76t-137 -28q-72 0 -136 28t-111.5 76t-75 112t-27.5 137q0 72 27.5 136t75 112t111.5 76t136 28q73 0 137 -28t111.5 -76t75 -112t27.5 -136zM704 353
q0 66 -25.5 124.5t-69 102.5t-102 69.5t-124.5 25.5t-124.5 -25.5t-102 -69.5t-68.5 -102.5t-25 -124.5t25 -125t68.5 -102.5t102 -69t124.5 -25.5t124.5 25.5t102 69t69 102.5t25.5 125z" />
    <glyph glyph-name="copyright.001" horiz-adv-x="806" 
d="M381 554q-42 0 -72 -16.5t-49 -44.5t-27.5 -64t-8.5 -75t8.5 -75t27.5 -64t49 -44.5t72 -16.5q38 0 64 9.5t51 41.5q2 2 3 4.5t4 2.5h44q7 0 5 -7q-18 -44 -64.5 -70.5t-106.5 -26.5q-53 0 -92.5 21.5t-65 56t-38 78.5t-12.5 90t12.5 90t38 78.5t65 56t92.5 21.5
q60 0 106.5 -26.5t64.5 -70.5q2 -7 -5 -7h-44q-3 0 -4 2.5t-3 4.5q-25 32 -51 41.5t-64 9.5zM734 353q0 -73 -27.5 -137t-75 -112t-111.5 -76t-137 -28q-72 0 -136 28t-111.5 76t-75 112t-27.5 137q0 72 27.5 136t75 112t111.5 76t136 28q73 0 137 -28t111.5 -76t75 -112
t27.5 -136zM704 353q0 66 -25.5 124.5t-69 102.5t-102 69.5t-124.5 25.5t-124.5 -25.5t-102 -69.5t-68.5 -102.5t-25 -124.5t25 -125t68.5 -102.5t102 -69t124.5 -25.5t124.5 25.5t102 69t69 102.5t25.5 125z" />
    <glyph glyph-name="zero.tnum" horiz-adv-x="645" 
d="M572 352q0 -76 -13.5 -142t-44.5 -115t-82.5 -77t-126.5 -28t-126.5 28t-82.5 77t-44.5 115t-13.5 142t13.5 142t44.5 115t82.5 77t126.5 28t126.5 -28t82.5 -77t44.5 -115t13.5 -142zM447 352q0 55 -7.5 101.5t-24.5 80t-44 52t-66 18.5t-66 -18.5t-44 -52t-24.5 -80
t-7.5 -101.5t7.5 -101.5t24.5 -80t44 -52t66 -18.5t66 18.5t44 52t24.5 80t7.5 101.5z" />
    <glyph glyph-name="two.tnum" horiz-adv-x="645" 
d="M540 5q0 -5 -5 -5h-447q-5 0 -5 5v92q0 8 5 13l268 266l17.5 17.5t22 27t18 34t7.5 39.5q0 18 -6.5 37t-19.5 35t-34 26.5t-50 10.5q-25 0 -45 -9.5t-34.5 -25.5t-22 -35.5t-7.5 -38.5q0 -5 -5 -5h-109q-5 0 -5 5q0 46 17 86.5t47 70t72 46.5t92 17q54 0 96.5 -17
t72.5 -47t45.5 -70t15.5 -86q0 -39 -10.5 -70t-25.5 -55.5t-32.5 -43t-30.5 -30.5l-190 -176q-2 -2 -1.5 -5.5t4.5 -3.5h280q5 0 5 -5v-100z" />
    <glyph glyph-name="three.tnum" horiz-adv-x="645" 
d="M87 494q0 46 16 86.5t45 70t70 46.5t91 17t91.5 -16.5t71 -45t45.5 -66t16 -80.5q0 -29 -8 -52t-20 -41t-27 -31t-28 -21q-4 -2 -3.5 -5t3.5 -5q13 -7 29.5 -20.5t30 -33.5t23 -46t9.5 -57q0 -41 -14 -77.5t-43 -64.5t-73 -45t-103 -17q-57 0 -100 17.5t-71 47t-42 68.5
t-14 81q0 5 5 5h110q5 0 5 -5q0 -14 6 -31.5t18.5 -34t33 -27.5t49.5 -11q25 0 46 8t36 21.5t23 30.5t8 34q0 28 -9.5 48t-25 33t-36 19.5t-42.5 6.5h-33q-5 0 -5 5v100q0 5 5 5h33q19 0 38 5.5t33.5 17t23.5 29.5t9 43q0 18 -7.5 35.5t-21 31.5t-32.5 22.5t-43 8.5
q-23 0 -42 -10t-32.5 -25.5t-21 -35.5t-7.5 -39q0 -5 -5 -5h-109q-5 0 -5 5z" />
    <glyph glyph-name="four.tnum" horiz-adv-x="645" 
d="M595 156q0 -5 -5 -5h-103q-5 0 -5 -5v-141q0 -5 -5 -5h-110q-5 0 -5 5v141q0 5 -5 5h-329q-5 0 -5 5v92q0 6 1.5 10.5t3.5 7.5l322 433q2 5 7 5h120q5 0 5 -5v-433q0 -5 4 -5h104q5 0 5 -5v-100zM169 270q-2 -5 0 -7t4 -2h184q5 0 5 5v254q0 4 -4 4t-6 -3z" />
    <glyph glyph-name="five.tnum" horiz-adv-x="645" 
d="M226 594q-6 0 -6 -5l-14 -123q-1 -5 2.5 -6t5.5 1q13 13 43 21t62 8q56 0 100.5 -18t75 -50.5t47 -78t16.5 -100.5q0 -59 -17 -105.5t-49 -79.5t-78.5 -50.5t-104.5 -17.5q-68 0 -114 20.5t-75 51.5t-41.5 68.5t-12.5 72.5q0 6 5 6h110q5 0 5 -5q0 -19 10 -37.5
t26.5 -33.5t39 -24t47.5 -9q56 0 90 38t34 105q0 60 -34 98.5t-90 38.5q-36 0 -68.5 -16t-50.5 -51q-2 -3 -5 -3h-109q-5 0 -5 5l45 384q0 5 5 5h382q5 0 5 -5v-101q0 -4 -7 -4h-275z" />
    <glyph glyph-name="six.tnum" horiz-adv-x="645" 
d="M289 490q-2 -3 -0.5 -6t6.5 -2q3 1 10.5 2.5t17.5 1.5q48 0 91 -17.5t75.5 -50t52 -78t19.5 -100.5t-17 -101t-49 -79t-78.5 -51.5t-104.5 -18.5q-59 0 -105 18.5t-77.5 51.5t-48.5 79t-17 101q0 40 11 78.5t27 67.5l166 314q2 4 5 4h120q7 0 5 -7zM436 240
q0 63 -30 101.5t-94 38.5q-63 0 -93 -38.5t-30 -101.5t30 -101.5t93 -38.5q64 0 94 38.5t30 101.5z" />
    <glyph glyph-name="seven.tnum" horiz-adv-x="645" 
d="M541 599q0 -2 -0.5 -5.5t-2.5 -8.5l-224 -580q-2 -5 -6 -5h-116q-6 0 -4 5l227 580q2 5 0 7t-4 2h-323q-5 0 -5 5v100q0 5 5 5h448q5 0 5 -5v-100z" />
    <glyph glyph-name="eight.tnum" horiz-adv-x="645" 
d="M78 194q0 31 9.5 57t23 46t29.5 33.5t30 20.5q3 2 3.5 5t-3.5 5q-14 8 -28.5 21t-26.5 31t-20 41t-8 52q0 43 16 80.5t45.5 66t71 45t91.5 16.5h1h1q50 0 91.5 -16.5t71 -45t45.5 -66t16 -80.5q0 -29 -8 -52t-20 -41t-27 -31t-28 -21q-4 -2 -3.5 -5t3.5 -5
q13 -7 29.5 -20.5t30 -33.5t23 -46t9.5 -57q0 -41 -14 -77.5t-43 -65t-73 -45t-104 -16.5t-104 16.5t-73 45t-43 65t-14 77.5zM426 194q0 28 -9.5 48.5t-25 34t-36.5 19.5t-43 6q-47 0 -80.5 -26.5t-33.5 -81.5q0 -17 8 -34t23 -30.5t36 -21.5t47 -8q25 0 46 8t36 21.5
t23.5 30.5t8.5 34zM311 604q-24 0 -43 -8.5t-32.5 -22.5t-21 -31.5t-7.5 -35.5q0 -25 9 -43t23.5 -29t33.5 -16.5t39 -5.5t39 5.5t33.5 16.5t23.5 29t9 43q0 18 -7.5 35.5t-21 31.5t-32.5 22.5t-43 8.5h-2z" />
    <glyph glyph-name="nine.tnum" horiz-adv-x="645" 
d="M336 214q2 3 0.5 6t-6.5 2q-3 -1 -10.5 -2.5t-17.5 -1.5q-48 0 -91 17.5t-75.5 50t-52 77.5t-19.5 101q0 55 17 101t49 79t78 51.5t105 18.5q58 0 104.5 -18.5t78 -51.5t48.5 -79t17 -101q0 -40 -11 -78.5t-27 -67.5l-166 -314q-2 -4 -5 -4h-120q-7 0 -5 7zM189 464
q0 -63 30 -101.5t94 -38.5q63 0 93 38.5t30 101.5t-30 101.5t-93 38.5q-64 0 -94 -38.5t-30 -101.5z" />
    <glyph glyph-name="registered.002" horiz-adv-x="806" 
d="M734 353q0 -73 -27.5 -137t-75 -112t-111.5 -76t-137 -28q-72 0 -136 28t-111.5 76t-75 112t-27.5 137q0 72 27.5 136t75 112t111.5 76t136 28q73 0 137 -28t111.5 -76t75 -112t27.5 -136zM704 353q0 66 -25.5 124.5t-69 102.5t-102 69.5t-124.5 25.5t-124.5 -25.5
t-102 -69.5t-68.5 -102.5t-25 -124.5t25 -125t68.5 -102.5t102 -69t124.5 -25.5t124.5 25.5t102 69t69 102.5t25.5 125zM218 558q0 5 5 5h207q25 0 47 -10t39 -27.5t27 -40.5t10 -50q0 -39 -19 -69t-51 -44q-5 -2 -2 -7l76 -168q3 -6 -4 -6h-47q-2 0 -5 1t-5 4l-69 159
q-1 4 -7 4h-142q-3 0 -3 -3v-160q0 -5 -5 -5h-47q-5 0 -5 5v412zM280 512q-5 0 -5 -5v-142q0 -5 5 -5h145q28 1 49.5 22.5t21.5 52.5t-22 54t-51 23h-143z" />
    <glyph glyph-name="copyright.002" horiz-adv-x="806" 
d="M734 353q0 -73 -27.5 -137t-75 -112t-111.5 -76t-137 -28q-72 0 -136 28t-111.5 76t-75 112t-27.5 137q0 72 27.5 136t75 112t111.5 75.5t136 27.5q73 0 137 -27.5t111.5 -75.5t75 -112t27.5 -136zM704 353q0 66 -25.5 124.5t-69 102t-102 69t-124.5 25.5t-124.5 -25.5
t-102 -69t-68.5 -102t-25 -124.5t25 -125t68.5 -102.5t102 -69t124.5 -25.5t124.5 25.5t102 69t69 102.5t25.5 125zM500 270q1 3 4 3h51q5 0 5 -5q0 -15 -11.5 -37.5t-34 -44t-56.5 -36.5t-79 -15t-80.5 16t-60 45t-37.5 68.5t-13 87.5t13 87.5t37.5 68.5t60 45t80.5 16
q47 0 81 -16.5t56.5 -38.5t33 -45t10.5 -35q0 -3 -3 -3h-53q-3 0 -4 3q-3 10 -10.5 24t-21.5 27.5t-36 23t-53 9.5q-62 0 -96.5 -44t-34.5 -122t34.5 -122t96.5 -44q31 0 52.5 8.5t35.5 21.5t22 27.5t11 26.5z" />
    <glyph glyph-name="one.tnum" horiz-adv-x="645" 
d="M88 0q-5 0 -5 5v90q0 5 5 5h169q5 0 5 5v356q0 13 -7.5 20.5t-19.5 7.5h-148q-5 0 -5 5v90q0 5 5 5h122q23 0 38.5 16t14.5 36v58q0 5 5 5h110q5 0 5 -5v-594q0 -5 5 -5h149q5 0 5 -5v-90q0 -5 -5 -5h-448z" />
    <glyph glyph-name="dollar.plf" 
d="M456 5q0 -5 -5 -5h-411q-5 0 -5 5v694q0 5 5 5h411q5 0 5 -5v-694zM419 681h-346l173 -306zM419 24l-173 305l-173 -305h346zM432 48v608q-43 -75 -87 -152t-86 -152zM233 352l-173 305v-610z" />
    <glyph glyph-name="cent.plf" 
d="M456 5q0 -5 -5 -5h-411q-5 0 -5 5v694q0 5 5 5h411q5 0 5 -5v-694zM419 681h-346l173 -306zM419 24l-173 305l-173 -305h346zM432 48v608q-43 -75 -87 -152t-86 -152zM233 352l-173 305v-610z" />
    <glyph glyph-name="sterling.plf" 
d="M456 5q0 -5 -5 -5h-411q-5 0 -5 5v694q0 5 5 5h411q5 0 5 -5v-694zM419 681h-346l173 -306zM419 24l-173 305l-173 -305h346zM432 48v608q-43 -75 -87 -152t-86 -152zM233 352l-173 305v-610z" />
    <glyph glyph-name="yen.plf" 
d="M456 5q0 -5 -5 -5h-411q-5 0 -5 5v694q0 5 5 5h411q5 0 5 -5v-694zM419 681h-346l173 -306zM419 24l-173 305l-173 -305h346zM432 48v608q-43 -75 -87 -152t-86 -152zM233 352l-173 305v-610z" />
    <glyph glyph-name="florin.plf" 
d="M456 5q0 -5 -5 -5h-411q-5 0 -5 5v694q0 5 5 5h411q5 0 5 -5v-694zM419 681h-346l173 -306zM419 24l-173 305l-173 -305h346zM432 48v608q-43 -75 -87 -152t-86 -152zM233 352l-173 305v-610z" />
    <glyph glyph-name="Euro.plf" 
d="M456 5q0 -5 -5 -5h-411q-5 0 -5 5v694q0 5 5 5h411q5 0 5 -5v-694zM419 681h-346l173 -306zM419 24l-173 305l-173 -305h346zM432 48v608q-43 -75 -87 -152t-86 -152zM233 352l-173 305v-610z" />
    <glyph glyph-name="currency.plf" 
d="M456 5q0 -5 -5 -5h-411q-5 0 -5 5v694q0 5 5 5h411q5 0 5 -5v-694zM419 681h-346l173 -306zM419 24l-173 305l-173 -305h346zM432 48v608q-43 -75 -87 -152t-86 -152zM233 352l-173 305v-610z" />
    <glyph glyph-name="numbersign.plf" 
d="M456 5q0 -5 -5 -5h-411q-5 0 -5 5v694q0 5 5 5h411q5 0 5 -5v-694zM419 681h-346l173 -306zM419 24l-173 305l-173 -305h346zM432 48v608q-43 -75 -87 -152t-86 -152zM233 352l-173 305v-610z" />
    <glyph glyph-name="grave.case" horiz-adv-x="281" 
d="M134 761q-4 0 -6.5 2.5l-4.5 4.5l-83 128q-2 3 0 5t5 2h117q8 0 10 -7l54 -128q3 -7 -5 -7h-87z" />
    <glyph glyph-name="dieresis.case" horiz-adv-x="281" 
d="M-46 760q-5 0 -5 5v132q0 5 5 5h129q5 0 5 -5v-132q0 -5 -5 -5h-129zM174 760q-5 0 -5 5v132q0 5 5 5h129q5 0 5 -5v-132q0 -5 -5 -5h-129z" />
    <glyph glyph-name="acute.case" horiz-adv-x="281" 
d="M46 760q-3 0 -5 2t0 5l54 128q2 7 10 7h117q8 0 5 -7l-83 -128l-4.5 -4.5t-6.5 -2.5h-87z" />
    <glyph glyph-name="caron.case" horiz-adv-x="281" 
d="M245 902q8 0 5 -7l-57 -128q-2 -7 -10 -7h-111q-8 0 -10 7l-56 128q-2 3 0 5t5 2h80q3 0 5 -3l27 -47q2 -4 5 -3.5t5 3.5l27 47q1 3 5 3h80z" />
    <glyph glyph-name="circumflex.case" horiz-adv-x="281" 
d="M165 760q-4 0 -5 3l-27 47q-2 3 -5 3.5t-5 -3.5l-27 -47q-2 -3 -5 -3h-80q-3 0 -5 2t0 5l56 128q2 7 10 7h111q8 0 10 -7l57 -128q3 -7 -5 -7h-80z" />
    <glyph glyph-name="breve.case" horiz-adv-x="369" 
d="M311 897q0 -63 -38 -100t-101 -37q-62 0 -100.5 37t-38.5 100q0 5 5 5h77q5 0 5 -5q0 -17 13.5 -34.5t38.5 -17.5q26 0 38.5 17.5t12.5 34.5q0 5 5 5h78z" />
    <glyph glyph-name="dotaccent.case" horiz-adv-x="281" 
d="M63 760q-5 0 -5 5v132q0 5 5 5h129q5 0 5 -5v-132q0 -5 -5 -5h-129z" />
    <glyph glyph-name="ring.case" horiz-adv-x="281" 
d="M215 824q0 -36 -26 -61.5t-62 -25.5t-61.5 25.5t-25.5 61.5t25.5 62t61.5 26q18 0 34 -7t28 -19t19 -28t7 -34zM169 824q0 17 -12.5 29.5t-29.5 12.5t-29.5 -12.5t-12.5 -29.5t12.5 -29.5t29.5 -12.5t29.5 12.5t12.5 29.5z" />
    <glyph glyph-name="tilde.case" horiz-adv-x="281" 
d="M-37 806q0 13 5 29.5t17.5 31.5t34.5 25t55 10q22 0 38.5 -7t29 -16t22 -16t17.5 -7q3 0 8.5 0.5t11 4t9 12t3.5 24.5q0 5 5 5h70q5 0 5 -5v-34q0 -13 -5 -29.5t-18 -31t-34.5 -24.5t-54.5 -10q-20 0 -36 7t-29 16t-23 16t-19 7q-3 0 -8.5 -0.5t-11 -4t-9 -12t-3.5 -24.5
q0 -5 -5 -5h-70q-5 0 -5 5v33z" />
    <glyph glyph-name="hungarumlaut.case" horiz-adv-x="281" 
d="M-62 760q-4 0 -4 5l29 132q0 5 6 5h129q4 0 4 -5l-29 -132q0 -5 -6 -5h-129zM158 760q-4 0 -4 5l29 132q0 5 6 5h129q4 0 4 -5l-29 -132q0 -5 -6 -5h-129z" />
    <glyph glyph-name="caron.salt" horiz-adv-x="335" 
d="M272 704q8 0 5 -7l-57 -128q-2 -7 -10 -7h-111q-8 0 -10 7l-56 128q-2 3 0 5t5 2h80q3 0 5 -3l27 -47q2 -4 5 -3.5t5 3.5l27 47q1 3 5 3h80z" />
    <glyph glyph-name="commaaccent.salt" horiz-adv-x="281" 
d="M53 198q-5 0 -5 5v152q0 5 5 5h150q5 0 5 -5v-151q0 -25 -8 -48t-26.5 -41t-48 -29t-72.5 -11q-5 0 -5 5v55q0 5 5 5q45 0 61.5 17t16.5 36q0 5 -5 5h-73z" />
    <glyph glyph-name="macron.case" horiz-adv-x="281" 
d="M-5 770q-4 0 -4 5v70q0 5 4 5h266q5 0 5 -5v-70q0 -5 -5 -5h-266z" />
    <glyph glyph-name="_0127" 
d="M456 5q0 -5 -5 -5h-411q-5 0 -5 5v694q0 5 5 5h411q5 0 5 -5v-694zM419 681h-346l173 -306zM419 24l-173 305l-173 -305h346zM432 48v608q-43 -75 -87 -152t-86 -152zM233 352l-173 305v-610z" />
    </font>
</defs>
</svg>
