<?xml version="1.0" standalone="no"?>
<!DOCTYPE svg PUBLIC "-//W3C//DTD SVG 1.1//EN" "http://www.w3.org/Graphics/SVG/1.1/DTD/svg11.dtd" >
<svg xmlns="http://www.w3.org/2000/svg" xmlns:xlink="http://www.w3.org/1999/xlink" version="1.1">
<metadata>
Created by FontForge 20160405 at Mon Jan 21 17:32:38 2019
 By www-data
Copyright 2015 The Cormorant Project Authors (github.com/CatharsisFonts/Cormorant)
</metadata>
<defs>
<font id="CormorantInfant-Medium" horiz-adv-x="706" >
  <font-face 
    font-family="Cormorant Infant Medium"
    font-weight="500"
    font-stretch="normal"
    units-per-em="1000"
    panose-1="0 0 6 0 0 0 0 0 0 0"
    ascent="800"
    descent="-200"
    x-height="386"
    cap-height="625"
    bbox="-359.8 -282.167 1451.8 927.9"
    underline-thickness="50"
    underline-position="-150"
    unicode-range="U+0020-A729"
  />
<missing-glyph horiz-adv-x="501" 
d="M94 -275v1000h317v-1000h-317zM168 626h65v-38h-66v-32h166v32h-66v38h66v32h-165v-32zM167 426h166v34h-66v69h-100v-103zM200 460v35h33v-35h-33zM167 365h66v-36h-66v-34h100v70h66v33h-166v-33zM301 273h-134v-34h166v99h-32v-65zM233 160h34v24h34v-48h-101v80h-33
v-113h166v113h-100v-56zM167 -70h166v113h-166v-113zM200 -37v48h101v-48h-101zM167 -126h70l-70 -47v-33h166v33h-101l69 47h32v34h-166v-34z" />
    <glyph glyph-name="Aogonek_acutecomb.liga" unicode="&#x104;&#x301;" horiz-adv-x="708" 
d="M249 678q-4 0 -5 4.5t2 6.5q36 20 103 66q32 22 48 32q5 3 27.5 -4t40 -16t8.5 -11q-62 -15 -113.5 -33.5t-108.5 -43.5zM709 3.5q0 -5.5 -4 -5.5q-23 0 -57 2l-45 1q-52 0 -85.5 -34.5t-33.5 -90.5q0 -51 26.5 -84t74.5 -33q28 0 52 12h1q3 0 5.5 -3t0.5 -5
q-48 -38 -108 -38q-56 0 -89 29.5t-33 78.5q0 39 17.5 65.5t51.5 59.5q27 25 40.5 44t13.5 42q0 21 -11 43l-114 234h-182l-82 -189q-14 -33 -14 -55q0 -65 97 -65q5 0 5 -6t-5 -6q-18 0 -52 2q-38 2 -66 2q-26 0 -62 -2q-32 -2 -52 -2q-4 0 -4 6t4 6q28 0 47.5 11t37.5 38
t40 80l214 491q1 3 7 3.5t7 -3.5l241 -496q33 -71 57.5 -99t54.5 -28q4 0 4 -5.5zM239 344h162l-85 176z" />
    <glyph glyph-name="Eogonek_acutecomb.liga" unicode="&#x118;&#x301;" horiz-adv-x="542" 
d="M172 678q-4 0 -5 4.5t2 6.5q36 20 103 66q32 22 48 32q5 3 27.5 -4t40 -16t8.5 -11q-62 -15 -113.5 -33.5t-108.5 -43.5zM501 -222q3 0 5.5 -3t-0.5 -5q-52 -45 -109 -45q-53 0 -83.5 28.5t-30.5 73.5q0 85 115 173h-355q-3 0 -3 6t3 6q36 0 52 5t22 19.5t6 44.5v463
q0 30 -6 44t-22.5 19.5t-51.5 5.5q-3 0 -3 6t3 6h408q10 0 10 -9l2 -126q0 -3 -5.5 -3.5t-6.5 2.5q-7 55 -39 83.5t-84 28.5h-51q-44 0 -59 -12.5t-15 -48.5v-203h110q51 0 75 17.5t24 54.5q0 2 5.5 2t5.5 -2l-1 -84l1 -45q2 -32 2 -50q0 -2 -6 -2t-6 2q0 43 -24.5 63.5
t-78.5 20.5h-107v-229q0 -36 13.5 -49t54.5 -13h65q57 0 94.5 33.5t51.5 95.5q0 2 4 2q3 0 5.5 -1.5t2.5 -2.5q-10 -72 -10 -135q0 -8 -3 -11.5t-12 -3.5h-52q-37 -35 -53.5 -66t-16.5 -69q0 -49 24.5 -77.5t69.5 -28.5q31 0 58 19h2z" />
    <glyph glyph-name="IJ_acutecomb.liga" unicode="&#x132;&#x301;" horiz-adv-x="693" 
d="M68 678q-4 0 -5 4.5t2 6.5q36 20 103 66q32 22 48 32q5 3 27.5 -4t40 -16t8.5 -11q-62 -15 -113.5 -33.5t-108.5 -43.5zM442 678q-4 0 -5 4.5t2 6.5q36 20 103 66q32 22 48 32q5 3 27.5 -4t40 -16t8.5 -11q-62 -15 -113.5 -33.5t-108.5 -43.5zM208.5 305q5.5 -14 22 -19
t53.5 -5q3 0 3 -6t-3 -6q-32 0 -50 1l-72 1l-70 -1q-19 -1 -52 -1q-2 0 -2 6t2 6q36 0 53 5t23 19.5t6 44.5v194q0 30 -6 44t-23 19.5t-53 5.5q-2 0 -2 6t2 6l52 -1q44 -2 70 -2q30 0 74 2l48 1q3 0 3 -6t-3 -6q-35 0 -52 -6t-23 -20.5t-6 -44.5v-192q0 -31 5.5 -45z
M663 619q0 -6 -2 -6q-31 0 -45.5 -6t-19.5 -20.5t-5 -44.5v-284q0 -86 -31 -147t-87 -92.5t-130 -31.5q-64 0 -116.5 22t-83 56t-30.5 68q0 19 11.5 31.5t31.5 12.5q25 0 35 -15.5t18 -48.5q7 -34 17.5 -56t37.5 -37.5t77 -15.5q170 0 170 196v344q0 30 -7 44t-26.5 19.5
t-60.5 5.5q-2 0 -2 6t2 6l59 -1q46 -2 74 -2q26 0 66 2l45 1q2 0 2 -6z" />
    <glyph glyph-name="Iogonek_acutecomb.liga" unicode="&#x12e;&#x301;" horiz-adv-x="335" 
d="M244.5 783q22.5 -7 40 -16t8.5 -11q-62 -15 -113.5 -33.5t-108.5 -43.5l-2 -1q-4 0 -5 4.5t2 6.5q36 20 103 66q32 22 48 32q5 3 27.5 -4zM237 607q-17 -6 -23 -20.5t-6 -44.5v-461q0 -30 6 -44.5t22.5 -19.5t52.5 -5q2 0 2 -6t-2 -6q-30 0 -47 1l-65 1q-40 -59 -40 -125
q0 -51 23.5 -83.5t60.5 -32.5q15 0 24.5 4t21.5 13h1q3 0 5.5 -3t0.5 -5q-25 -24 -47.5 -34.5t-50.5 -10.5q-49 0 -76 27t-27 74q0 87 87 176l-66 -1q-18 -1 -49 -1q-2 0 -2 6t2 6q36 0 53 5t23 19.5t6 44.5v463q0 30 -6 44t-23 19.5t-53 5.5q-2 0 -2 6t2 6l52 -1
q44 -2 70 -2q29 0 73 2l49 1q2 0 2 -6t-2 -6q-35 0 -52 -6z" />
    <glyph glyph-name="J_acutecomb.liga" unicode="J&#x301;" horiz-adv-x="325" 
d="M68 678q-4 0 -5.5 4.5t1.5 6.5q46 25 98 62q47 31 53 35q5 3 27.5 -4t40 -16t8.5 -10q-118 -30 -222 -78h-1zM198 -75.5q-15 -53.5 -50 -87.5t-101 -61l-1 -1q-3 0 -5 4.5t0 6.5q51 31 71.5 92.5t20.5 161.5v504q0 30 -6.5 44t-23.5 19.5t-53 5.5q-2 0 -2 6t2 6l54 -1
q44 -2 68 -2q26 0 64 2l47 1q2 0 2 -6t-2 -6q-31 0 -45.5 -6t-19.5 -20.5t-5 -44.5v-475q0 -89 -15 -142.5z" />
    <glyph glyph-name="uni01EA0301.liga" unicode="&#x1ea;&#x301;" horiz-adv-x="766" 
d="M285 678q-4 0 -5 4.5t2 6.5q36 20 103 66q32 22 48 32q5 3 27.5 -4t40 -16t8.5 -11q-62 -15 -113.5 -33.5t-108.5 -43.5zM389.5 -67.5q-15.5 -30.5 -15.5 -67.5q0 -49 24.5 -77.5t69.5 -28.5q31 0 58 19h2q3 0 5.5 -3t-0.5 -5q-52 -45 -109 -45q-53 0 -83.5 28.5
t-30.5 73.5q0 81 104 164q-24 -3 -48 -3q-93 0 -165.5 43.5t-112 118t-39.5 162.5q0 103 52 176.5t133.5 110.5t166.5 37q95 0 167 -44.5t110.5 -117.5t38.5 -155q0 -79 -36.5 -147.5t-100 -114.5t-141.5 -62q-34 -32 -49.5 -62.5zM173 175q33 -77 92.5 -121t135.5 -44
q64 0 115 33t80.5 96.5t29.5 151.5q0 93 -32.5 166t-93 114t-140.5 41q-104 0 -162 -70.5t-58 -194.5q0 -95 33 -172z" />
    <glyph glyph-name="aogonek_acutecomb.liga" unicode="&#x105;&#x301;" horiz-adv-x="490" 
d="M251 472q-3 0 -5.5 1.5t-1.5 2.5l46 240q1 4 24.5 9.5t38.5 5.5q11 0 10 -4l-108 -253q0 -2 -4 -2zM484 61q3 0 4.5 -5t-1.5 -6l-42 -20q-73 -40 -105.5 -82t-32.5 -96q0 -46 21.5 -70.5t63.5 -24.5q20 0 33.5 5.5t28.5 15.5h2q3 0 5.5 -3t-0.5 -5q-52 -45 -113 -45
q-54 0 -82 25.5t-28 70.5q0 44 29.5 87t86.5 83q-8 7 -14.5 27t-7.5 49q-35 -36 -71 -57t-80 -21q-62 0 -104 45.5t-42 127.5q0 72 33.5 126t86 82.5t107.5 28.5q53 0 97 -29q20 10 31 26q1 1 3 1t4.5 -1.5t2.5 -2.5v-286q0 -32 7.5 -46t25.5 -14q13 0 43 11l5 2v0h1z
M332 84v208q0 37 -28 62t-67 25q-56 0 -90 -52t-34 -134q0 -75 28.5 -119.5t78.5 -44.5q53 0 112 55z" />
    <glyph glyph-name="eogonek_acutecomb.liga" unicode="&#x119;&#x301;" horiz-adv-x="411" 
d="M199 472q-3 0 -5.5 1.5t-1.5 2.5l46 240q1 4 24.5 9.5t38.5 5.5q11 0 10 -4l-108 -253q0 -2 -4 -2zM375 -222q3 0 5.5 -3t-0.5 -5q-45 -45 -98 -45q-52 0 -79.5 26t-27.5 70q0 87 114 176q-30 -9 -62 -9q-60 0 -103.5 26.5t-66 70.5t-22.5 95q0 59 28.5 108.5t79 78
t111.5 28.5q56 0 87 -26.5t31 -72.5q0 -25 -11 -25h-48l-197 -2q-4 -20 -4 -49q0 -86 41.5 -139t114.5 -53q58 0 102 31h1q3 0 5.5 -3.5t0.5 -6.5q-16 -15 -36 -28q-51 -44 -74 -84.5t-23 -85.5t19.5 -69.5t56.5 -24.5q17 0 28.5 5.5t24.5 15.5h2zM156 351.5
q-26 -23.5 -37 -66.5l172 4q-1 40 -20 63t-52 23q-37 0 -63 -23.5z" />
    <glyph glyph-name="ij_acutecomb.liga" unicode="&#x133;&#x301;" horiz-adv-x="528" 
d="M131 472q-3 0 -5.5 1.5t-1.5 2.5l46 240q1 4 24.5 9.5t38.5 5.5q11 0 10 -4l-108 -253q0 -2 -4 -2zM393 472q-3 0 -5.5 1.5t-1.5 2.5l46 240q1 4 24.5 9.5t38.5 5.5q11 0 10 -4l-108 -253q0 -2 -4 -2zM46 6q0 6 3 6q36 0 48 13.5t12 55.5v184q0 36 -7 51.5t-25 15.5
q-17 0 -43 -13h-1q-4 0 -6 5.5t2 6.5l136 63l4 1q3 0 6.5 -3t3.5 -7q0 -7 -1 -40t-1 -78v-186q0 -42 11.5 -55.5t48.5 -13.5q3 0 3 -6t-3 -6q-24 0 -39 1l-55 1l-55 -1q-15 -1 -39 -1q-3 0 -3 6zM441 345q-1 -33 -1 -78v-315q0 -68 -14 -111.5t-47 -72.5t-91 -50
q-2 -1 -4.5 4.5t-0.5 6.5q49 21 69 67t20 133v336q0 36 -7 51.5t-24 15.5q-16 0 -43 -13h-1q-4 0 -6.5 5.5t1.5 6.5l137 63l3 1q4 0 7 -3t3 -7q0 -7 -1 -40z" />
    <glyph glyph-name="iogonek_acutecomb.liga" unicode="&#x12f;&#x301;" horiz-adv-x="270" 
d="M131 472q-3 0 -5.5 1.5t-1.5 2.5l46 240q1 4 24.5 9.5t38.5 5.5q11 0 10 -4l-108 -253q0 -2 -4 -2zM243 -216q3 0 5.5 -3t0.5 -5q-25 -24 -47.5 -34.5t-50.5 -10.5q-49 0 -76 27t-27 74q0 85 81 170l-47 -1q-12 -1 -33 -1q-3 0 -3 6t3 6q36 0 48 13.5t12 55.5v184
q0 36 -7 51.5t-25 15.5q-17 0 -43 -13h-1q-4 0 -6 5.5t2 6.5l136 63l4 1q3 0 6.5 -3t3.5 -7q0 -7 -1 -40t-1 -78v-186q0 -42 11.5 -55.5t48.5 -13.5q3 0 3 -6t-3 -6q-23 0 -37 1l-52 1q-36 -56 -36 -119q0 -51 23.5 -83.5t60.5 -32.5q15 0 24.5 4t21.5 13h1z" />
    <glyph glyph-name="j_acutecomb.liga" unicode="j&#x301;" horiz-adv-x="259" 
d="M124 472q-3 0 -5.5 1.5t-1.5 2.5l46 240q1 4 24.5 9.5t38.5 5.5q11 0 10 -4l-108 -253q0 -2 -4 -2zM172 345q-1 -33 -1 -78v-315q0 -68 -14 -111.5t-47 -72.5t-91 -50q-2 -1 -4.5 4.5t-0.5 6.5q49 21 69 67t20 133v336q0 36 -7 51.5t-24 15.5q-16 0 -43 -13h-1
q-4 0 -6.5 5.5t1.5 6.5l137 63l3 1q4 0 7 -3t3 -7q0 -7 -1 -40z" />
    <glyph glyph-name="uni01EB0301.liga" unicode="&#x1eb;&#x301;" horiz-adv-x="482" 
d="M235 472q-3 0 -5.5 1.5t-1.5 2.5l46 240q1 4 24.5 9.5t38.5 5.5q11 0 10 -4l-108 -253q0 -2 -4 -2zM399.5 58.5q-48.5 -54.5 -123.5 -67.5q-49 -66 -49 -139q0 -46 20.5 -70.5t60.5 -24.5q20 0 34 5.5t29 15.5h2q3 0 5.5 -3t-0.5 -5q-53 -45 -113 -45q-52 0 -80 26
t-28 70q0 82 93 167q-5 -1 -17 -1q-59 0 -104 28.5t-69.5 77t-24.5 105.5q0 65 32 110.5t82 68t102 22.5q59 0 104 -29t69 -76.5t24 -100.5q0 -80 -48.5 -134.5zM134 116.5q19 -51.5 52.5 -81t75.5 -29.5q50 0 77 39t27 117q0 65 -19.5 114.5t-53.5 76t-76 26.5
q-49 0 -75.5 -37.5t-26.5 -110.5q0 -63 19 -114.5z" />
    <glyph glyph-name="T_T.liga" unicode="TT" horiz-adv-x="1152" 
d="M1111 654q5 0 5 -4q-3 -28 -6 -90t-3 -100q0 -2 -5.5 -2t-6.5 2q-8 79 -40 112.5t-98 33.5q-37 0 -53 -4t-22 -17t-6 -43v-461q0 -31 6.5 -45t25.5 -19t61 -5q2 0 2 -6t-2 -6q-35 0 -55 1l-79 1l-76 -1q-21 -1 -57 -1q-2 0 -2 6t2 6q41 0 60 5.5t26.5 19.5t7.5 44v463
q0 29 -5.5 41.5t-20.5 16.5t-49 4q-58 0 -84 -10t-37 -39.5t-16 -96.5q0 -2 -6 -2t-6 2q-1 67 -11 96.5t-37.5 39.5t-90.5 10q-31 0 -45.5 -5t-20.5 -18.5t-6 -40.5v-461q0 -30 6 -44.5t23 -19.5t53 -5q2 0 2 -6t-2 -6q-32 0 -50 1l-73 1l-76 -1q-21 -1 -57 -1q-2 0 -2 6
t2 6q41 0 60.5 5t26.5 19.5t7 44.5v463q0 28 -6.5 41t-23 17t-52.5 4q-61 0 -95.5 -33.5t-53.5 -112.5q-1 -2 -6.5 -2t-5.5 2q5 28 10.5 91t5.5 96q0 5 6 5t6 -5q0 -22 53 -22q85 -3 201 -3q56 0 118 2l63 1q42 0 55.5 1t17.5 6t5 19q0 4 6 4t6 -4q-1 -14 1 -18.5t11.5 -5.5
t41.5 -2q81 -3 190 -3q59 0 125 2l68 1q36 0 53.5 5t22.5 20q2 4 7 4z" />
    <glyph glyph-name="T_h.liga" unicode="Th" horiz-adv-x="1034" 
d="M1017 6q0 -6 -3 -6q-24 0 -39 1l-55 1l-56 -1q-14 -1 -39 -1q-2 0 -2 6t2 6q37 0 49 13.5t12 55.5v154q0 58 -22 85.5t-67 27.5q-29 0 -58.5 -14.5t-53.5 -39.5v-213q0 -42 11.5 -55.5t48.5 -13.5q3 0 3 -6t-3 -6q-24 0 -39 1l-55 1l-56 -1q-14 -1 -39 -1q-2 0 -2 6t2 6
q37 0 49 13.5t12 55.5v511q0 14 -16 14h-159q-37 0 -53 -4.5t-22 -17.5t-6 -42v-461q0 -31 6.5 -45t25.5 -19t61 -5q2 0 2 -6t-2 -6q-35 0 -55 1l-79 1l-77 -1q-20 -1 -56 -1q-3 0 -3 6t3 6q41 0 60 5t26 19.5t7 44.5v463q0 29 -6 41.5t-22 16.5t-53 4q-62 0 -97 -35
t-52 -111q-1 -2 -6.5 -2t-5.5 2q4 29 9 92t5 95q0 5 6 5t6 -5q0 -22 55 -22q57 -2 201 -2q146 0 193 2q61 2 102 28.5t55 71.5q0 3 7 3q3 0 5.5 -1t2.5 -3v-411q72 84 153 84q55 0 85.5 -32.5t30.5 -90.5v-193q0 -42 11.5 -55.5t48.5 -13.5q3 0 3 -6z" />
    <glyph glyph-name="f_b.liga" unicode="fb" horiz-adv-x="824" 
d="M707 378q37 -21 59.5 -63t22.5 -101q0 -72 -31 -123.5t-81 -77.5t-105 -26q-78 0 -140 44l-80 -36h-2q-4 0 -4.5 3.5t2.5 5.5q29 20 41.5 41t12.5 58l1 528q-23 38 -52.5 58.5t-63.5 20.5q-68 0 -96 -78q-26 -66 -26 -193v-64q63 3 123 10q3 0 5 -7t2 -16q0 -8 -3.5 -17
t-6.5 -8q-56 13 -120 15v-271q0 -31 6.5 -45t26.5 -19t63 -5q3 0 3 -6t-3 -6l-67 1q-21 1 -64 1l-58 -1q-15 -1 -42 -1q-3 0 -3 6t3 6q29 0 42.5 5t18.5 19.5t5 44.5v225q0 24 -5 35t-19 14.5t-46 3.5q-3 0 -3 7t3 7q39 0 53.5 9.5t15.5 35.5q5 151 51 224q27 43 68.5 63.5
t99.5 20.5q42 0 76 -10.5t58 -28.5q13 21 13 42q0 3 5.5 3t5.5 -3v-409q34 36 71.5 57.5t83.5 21.5q43 0 80 -21zM682.5 50.5q29.5 44.5 29.5 127.5q0 89 -33.5 135.5t-89.5 46.5q-31 0 -59.5 -15t-57.5 -42v-211q51 -86 127 -86q54 0 83.5 44.5z" />
    <glyph glyph-name="f_f.liga" unicode="ff" horiz-adv-x="602" 
d="M700 710.5q32 -15.5 32 -39.5q0 -18 -12 -27.5t-28 -9.5t-25.5 7.5t-19.5 23.5q-13 21 -28.5 31.5t-39.5 10.5q-54 0 -86 -66t-32 -202v-64q63 3 123 10q3 0 5 -7t2 -16q0 -8 -3.5 -17t-6.5 -8q-56 13 -120 15v-271q0 -31 6.5 -45t26.5 -19t63 -5q3 0 3 -6t-3 -6l-67 1
q-21 1 -64 1l-58 -1q-15 -1 -42 -1q-3 0 -3 6t3 6q29 0 42.5 5t18.5 19.5t5 44.5v225q0 19 -2 25q-4 14 -18 18t-54 5q-34 1 -153 1v-274q0 -31 6.5 -45t26.5 -19t63 -5q3 0 3 -6t-3 -6l-67 1q-21 1 -64 1l-58 -1q-15 -1 -42 -1q-3 0 -3 6t3 6q29 0 42.5 5t18.5 19.5t5 44.5
v225q0 24 -5 35t-19 14.5t-46 3.5q-3 0 -3 7t3 7q39 0 53.5 9.5t15.5 35.5q6 137 68 205t170 68q73 0 127 -26q54 61 155 61q53 0 85 -15.5zM426 609q-25 30 -58 47t-68 17q-62 0 -98.5 -59t-36.5 -175v-64q115 0 157 1q30 1 44.5 5t20.5 14q4 12 4 23q5 123 35 191z" />
    <glyph glyph-name="f_f_b.liga" unicode="ffb" horiz-adv-x="1120" 
d="M1003 378q37 -21 59.5 -63t22.5 -101q0 -72 -31 -123.5t-81 -77.5t-105 -26q-78 0 -140 44l-80 -36h-2q-4 0 -4.5 3.5t2.5 5.5q29 20 41.5 41t12.5 58l1 528q-23 38 -52.5 58.5t-63.5 20.5q-68 0 -96 -78q-26 -66 -26 -193v-64q63 3 123 10q3 0 5 -7t2 -16q0 -8 -3.5 -17
t-6.5 -8q-56 13 -120 15v-271q0 -31 6.5 -45t26.5 -19t63 -5q3 0 3 -6t-3 -6l-67 1q-21 1 -64 1l-58 -1q-15 -1 -42 -1q-3 0 -3 6t3 6q29 0 42.5 5t18.5 19.5t5 44.5v225q0 19 -2 25q-4 14 -18 18t-54 5q-34 1 -153 1v-274q0 -31 6.5 -45t26.5 -19t63 -5q3 0 3 -6t-3 -6
l-67 1q-21 1 -64 1l-58 -1q-15 -1 -42 -1q-3 0 -3 6t3 6q29 0 42.5 5t18.5 19.5t5 44.5v225q0 24 -5 35t-19 14.5t-46 3.5q-3 0 -3 7t3 7q39 0 53.5 9.5t15.5 35.5q6 137 68 205t170 68q72 0 126 -26q52 61 151 61q42 0 76 -10.5t58 -28.5q13 21 13 42q0 3 5.5 3t5.5 -3
v-409q34 36 71.5 57.5t83.5 21.5q43 0 80 -21zM322 376q30 1 44.5 5t20.5 14q4 12 4 23q3 121 34 192q-25 30 -57.5 46.5t-67.5 16.5q-62 0 -98.5 -59t-36.5 -175v-64q115 0 157 1zM978.5 50.5q29.5 44.5 29.5 127.5q0 89 -33.5 135.5t-89.5 46.5q-31 0 -59.5 -15t-57.5 -42
v-211q51 -86 127 -86q54 0 83.5 44.5z" />
    <glyph glyph-name="f_f_f.liga" unicode="fff" horiz-adv-x="899" 
d="M911 710.5q32 -15.5 32 -39.5q0 -18 -12 -27.5t-28 -9.5t-25.5 7.5t-19.5 23.5q-13 21 -28.5 31.5t-39.5 10.5q-32 0 -55 -22q23 -13 39 -30l-35 -69q-17 33 -36 54q-31 -70 -31 -201v-54q8 4 11.5 12t4.5 21l21 -41l63 6l23 2q3 0 5 -7t2 -16q0 -8 -3.5 -17t-6.5 -8
q-44 10 -87 13l-16 -44q-1 21 -4 29.5t-13 12.5v-267q0 -31 6.5 -45t26.5 -19t63 -5q3 0 3 -6t-3 -6l-67 1q-21 1 -64 1q-33 0 -79 -2h-1h-12h-8h-1q-74 2 -110 2l-57 -1q-15 -1 -43 -1q-2 0 -2 6t2 6q29 0 43 5t19 19.5t5 44.5v225q-1 23 -5.5 32t-18.5 12t-51 4
q-34 1 -153 1v-274q0 -31 6.5 -45t26.5 -19t63 -5q3 0 3 -6t-3 -6l-67 1q-21 1 -64 1l-58 -1q-15 -1 -42 -1q-3 0 -3 6t3 6q29 0 42.5 5t18.5 19.5t5 44.5v225q0 24 -5 35t-19 14.5t-46 3.5q-3 0 -3 7t3 7q39 0 53.5 9.5t15.5 35.5q6 137 68 205t170 68q44 0 80.5 -10
t60.5 -24q59 58 155 58q41 0 82 -17q46 28 115 28q53 0 85 -15.5zM674 668q-37 28 -78 28q-61 0 -97.5 -65t-36.5 -192v-64h104q20 4 27.5 14t8.5 29q6 176 72 250zM433 601q-25 33 -60 52.5t-73 19.5q-62 0 -98.5 -59t-36.5 -175v-64q115 0 157 1q30 1 44.5 5t20.5 14
q4 12 4 23q4 109 42 183zM603 306q0 23 -4.5 34t-16.5 15h-120v-274q0 -29 5.5 -43t23 -19.5t54.5 -6.5q36 1 47 14.5t11 54.5v225z" />
    <glyph glyph-name="f_f_h.liga" unicode="ffh" horiz-adv-x="1118" 
d="M1099 6q0 -6 -2 -6q-25 0 -40 1l-55 1l-56 -1q-14 -1 -38 -1q-3 0 -3 6t3 6q36 0 48 13.5t12 55.5v154q0 58 -21.5 85.5t-67.5 27.5q-28 0 -58 -14.5t-54 -39.5v-213q0 -42 12 -55.5t49 -13.5q2 0 2 -6t-2 -6q-25 0 -40 1l-55 1l-56 -1q-14 -1 -38 -1q-3 0 -3 6t3 6
q36 0 48 13.5t12 55.5v550q-23 38 -52.5 58.5t-63.5 20.5q-61 0 -91.5 -64t-30.5 -207v-64q63 3 123 10q3 0 5 -7t2 -16q0 -8 -3.5 -17t-6.5 -8q-56 13 -120 15v-271q0 -31 6.5 -45t26.5 -19t63 -5q3 0 3 -6t-3 -6l-67 1q-21 1 -64 1l-58 -1q-15 -1 -42 -1q-3 0 -3 6t3 6
q29 0 42.5 5t18.5 19.5t5 44.5v225q0 19 -2 25q-4 14 -18 18t-54 5q-34 1 -153 1v-274q0 -31 6.5 -45t26.5 -19t63 -5q3 0 3 -6t-3 -6l-67 1q-21 1 -64 1l-58 -1q-15 -1 -42 -1q-3 0 -3 6t3 6q29 0 42.5 5t18.5 19.5t5 44.5v225q0 24 -5 35t-19 14.5t-46 3.5q-3 0 -3 7t3 7
q39 0 53.5 9.5t15.5 35.5q6 137 68 205t170 68q72 0 126 -26q51 61 151 61q81 0 133 -38q12 18 12 41q0 3 6 3t6 -3v-416q72 84 154 84q55 0 85 -32t30 -91v-193q0 -42 12 -55.5t49 -13.5q2 0 2 -6zM322 376q30 1 44.5 5t20.5 14q4 12 4 23q4 121 34 192q-25 30 -57.5 46.5
t-67.5 16.5q-62 0 -98.5 -59t-36.5 -175v-64q115 0 157 1z" />
    <glyph glyph-name="f_f_i.liga" unicode="ffi" horiz-adv-x="865" 
d="M499.5 641q-38.5 -67 -38.5 -202v-64q45 1 123 10q3 0 5 -7.5t2 -16.5t-4 -18.5t-6 -7.5q-60 17 -120 20v-274q0 -31 6.5 -45t26.5 -19t63 -5q3 0 3 -6t-3 -6l-67 1q-21 1 -64 1l-58 -1q-15 -1 -42 -1q-3 0 -3 6t3 6q29 0 42.5 5t18.5 19.5t5 44.5v225q0 19 -2 25
q-4 14 -18 18t-54 5q-34 1 -153 1v-274q0 -31 6.5 -45t26.5 -19t63 -5q3 0 3 -6t-3 -6l-67 1q-21 1 -64 1l-58 -1q-15 -1 -42 -1q-3 0 -3 6t3 6q29 0 42.5 5t18.5 19.5t5 44.5v225q0 24 -5 35t-19 14.5t-46 3.5q-3 0 -3 7t3 7q39 0 53.5 9.5t15.5 35.5q6 137 68 205t170 68
q40 0 75 -8.5t59 -21.5q59 65 166 65q60 0 96.5 -22t36.5 -54q0 -16 -9.5 -25.5t-27.5 -9.5q-17 0 -27 9.5t-21 29.5q-16 26 -32.5 40t-48.5 14q-62 0 -100.5 -67zM429 605q-25 32 -59 50t-70 18q-62 0 -98.5 -59t-36.5 -175v-64q115 0 157 1q30 1 44.5 5t20.5 14q4 12 4 23
q4 115 38 187zM836 6q0 -6 -3 -6q-25 0 -39 1l-55 1l-57 -1q-14 -1 -38 -1q-2 0 -2 6t2 6q37 0 48.5 13.5t11.5 55.5v184q0 36 -6.5 51.5t-23.5 15.5t-44 -13h-1q-4 0 -6 5t1 7l137 64l3 1q4 0 7.5 -4t3.5 -7q0 -7 -1.5 -40t-1.5 -78v-186q0 -42 12 -55.5t49 -13.5q3 0 3 -6
z" />
    <glyph glyph-name="f_f_j.liga" unicode="ffj" horiz-adv-x="868" 
d="M500.5 641.5q-39.5 -66.5 -39.5 -202.5v-64q63 3 123 10q3 0 5 -7t2 -16q0 -8 -3.5 -17t-6.5 -8q-56 13 -120 15v-271q0 -31 6.5 -45t26.5 -19t63 -5q3 0 3 -6t-3 -6l-67 1q-21 1 -64 1l-58 -1q-15 -1 -42 -1q-3 0 -3 6t3 6q29 0 42.5 5t18.5 19.5t5 44.5v225q0 19 -2 25
q-4 14 -18 18t-54 5q-34 1 -153 1v-274q0 -31 6.5 -45t26.5 -19t63 -5q3 0 3 -6t-3 -6l-67 1q-21 1 -64 1l-58 -1q-15 -1 -42 -1q-3 0 -3 6t3 6q29 0 42.5 5t18.5 19.5t5 44.5v225q0 24 -5 35t-19 14.5t-46 3.5q-3 0 -3 7t3 7q39 0 53.5 9.5t15.5 35.5q6 137 68 205t170 68
q41 0 76 -8.5t58 -21.5q61 65 167 65q66 0 105 -21.5t39 -54.5q0 -16 -10 -25.5t-27 -9.5q-19 0 -29.5 10t-23.5 30q-17 26 -33.5 39.5t-48.5 13.5q-66 0 -105.5 -66.5zM430 605q-25 32 -59.5 50t-70.5 18q-62 0 -98.5 -59t-36.5 -175v-64q115 0 157 1q30 1 44.5 5t20.5 14
q4 12 4 23q4 116 39 187zM773 396q4 0 7.5 -4t3.5 -7q0 -7 -1 -40t-1 -78v-315q0 -68 -14 -110.5t-47 -70.5t-92 -49q-2 -1 -4.5 4.5t0.5 6.5q49 21 69 65.5t20 130.5v336q0 36 -7 51.5t-24 15.5q-18 0 -44 -13h-1q-4 0 -6 5.5t2 6.5l136 64z" />
    <glyph glyph-name="f_f_k.liga" unicode="ffk" horiz-adv-x="1106" 
d="M1105 6q0 -6 -3 -6q-24 0 -39 1l-55 1l-74 -1q-16 -1 -44 -1q-2 0 -2 6t2 6q46 0 46 20q0 9 -9 21l-120 160l-40 -33v-99q0 -42 12 -55.5t49 -13.5q2 0 2 -6t-2 -6q-25 0 -40 1l-55 1l-56 -1q-14 -1 -38 -1q-3 0 -3 6t3 6q36 0 48 13.5t12 55.5v550q-23 38 -53 58.5
t-64 20.5q-60 0 -90.5 -64.5t-30.5 -206.5v-64q63 3 123 10q3 0 5 -7t2 -16q0 -8 -3.5 -17t-6.5 -8q-56 13 -120 15v-271q0 -31 6.5 -45t26.5 -19t63 -5q3 0 3 -6t-3 -6l-67 1q-21 1 -64 1l-58 -1q-15 -1 -42 -1q-3 0 -3 6t3 6q29 0 42.5 5t18.5 19.5t5 44.5v225q0 19 -2 25
q-4 14 -18 18t-54 5q-34 1 -153 1v-274q0 -31 6.5 -45t26.5 -19t63 -5q3 0 3 -6t-3 -6l-67 1q-21 1 -64 1l-58 -1q-15 -1 -42 -1q-3 0 -3 6t3 6q29 0 42.5 5t18.5 19.5t5 44.5v225q0 24 -5 35t-19 14.5t-46 3.5q-3 0 -3 7t3 7q39 0 53.5 9.5t15.5 35.5q6 137 68 205t170 68
q72 0 126 -26q51 61 149 61q83 0 135 -38q12 18 12 41q0 3 6 3t6 -3v-531l121 104q30 26 30 45q0 12 -13 19.5t-38 7.5q-3 0 -3 6t3 6q28 0 43 -1l75 -1l68 1q14 1 38 1q2 0 2 -6t-2 -6q-40 0 -88 -19.5t-93 -56.5l-52 -43l131 -174q50 -69 113 -69q3 0 3 -6zM322 376
q30 1 44.5 5t20.5 14q4 12 4 23q5 122 35 192q-25 30 -58 46.5t-68 16.5q-62 0 -98.5 -59t-36.5 -175v-64q115 0 157 1z" />
    <glyph glyph-name="f_f_l.liga" unicode="ffl" horiz-adv-x="864" 
d="M839 6q0 -6 -3 -6q-24 0 -38 1l-57 1l-56 -1q-14 -1 -38 -1q-3 0 -3 6t3 6q36 0 47.5 13.5t11.5 55.5v547q-50 82 -121 82q-124 0 -124 -271v-64q45 1 123 10q3 0 5 -7.5t2 -16.5t-4 -18.5t-6 -7.5q-60 17 -120 20v-274q0 -31 6.5 -45t26.5 -19t63 -5q3 0 3 -6t-3 -6
l-67 1q-21 1 -64 1l-58 -1q-15 -1 -42 -1q-3 0 -3 6t3 6q29 0 42.5 5t18.5 19.5t5 44.5v225q0 19 -2 25q-4 14 -18 18t-54 5q-34 1 -153 1v-274q0 -31 6.5 -45t26.5 -19t63 -5q3 0 3 -6t-3 -6l-67 1q-21 1 -64 1l-58 -1q-15 -1 -42 -1q-3 0 -3 6t3 6q29 0 42.5 5t18.5 19.5
t5 44.5v225q0 24 -5 35t-19 14.5t-46 3.5q-3 0 -3 7t3 7q39 0 53.5 9.5t15.5 35.5q6 137 68 205t170 68q73 0 127 -26q52 61 152 61q86 0 138 -40q14 20 14 43q0 3 6 3t6 -3v-648q0 -42 11.5 -55.5t48.5 -13.5q3 0 3 -6zM322 376q30 1 44.5 5t20.5 14q4 12 4 23
q5 123 35 191q-25 30 -58 47t-68 17q-62 0 -98.5 -59t-36.5 -175v-64q115 0 157 1z" />
    <glyph glyph-name="f_f_thorn.liga" unicode="ff&#xfe;" horiz-adv-x="1112" 
d="M807.5 -8.5q-22.5 4.5 -45.5 14.5v-200q0 -30 7 -44t26.5 -19.5t61.5 -5.5q3 0 3 -6t-3 -6q-36 0 -56 1l-74 1l-56 -1q-15 -1 -40 -1q-2 0 -2 6t2 6q27 0 40 5.5t17.5 19.5t4.5 44v834q-47 70 -111 70q-60 0 -90.5 -64.5t-30.5 -206.5v-64q63 3 123 10q3 0 5 -7t2 -16
q0 -8 -3.5 -17t-6.5 -8q-56 13 -120 15v-271q0 -31 6.5 -45t26.5 -19t63 -5q3 0 3 -6t-3 -6l-67 1q-21 1 -64 1l-58 -1q-15 -1 -42 -1q-3 0 -3 6t3 6q29 0 42.5 5t18.5 19.5t5 44.5v225q0 19 -2 25q-4 14 -18 18t-54 5q-34 1 -153 1v-274q0 -31 6.5 -45t26.5 -19t63 -5
q3 0 3 -6t-3 -6l-67 1q-21 1 -64 1l-58 -1q-15 -1 -42 -1q-3 0 -3 6t3 6q29 0 42.5 5t18.5 19.5t5 44.5v225q0 24 -5 35t-19 14.5t-46 3.5q-3 0 -3 7t3 7q39 0 53.5 9.5t15.5 35.5q6 137 68 205t170 68q72 0 126 -26q51 61 149 61q41 0 74.5 -9.5t56.5 -25.5q11 17 11 38
q0 3 6 3t6 -3v-407q41 40 79.5 58.5t79.5 18.5q42 0 77.5 -22t57 -64t21.5 -98q0 -77 -34 -128.5t-84 -75.5t-100 -24q-29 0 -51.5 4.5zM322 376q30 1 44.5 5t20.5 14q4 12 4 23q5 122 35 192q-25 30 -58 46.5t-68 16.5q-62 0 -98.5 -59t-36.5 -175v-64q115 0 157 1z
M814 341.5q-26 -13.5 -52 -38.5v-237q25 -28 53.5 -42.5t69.5 -14.5q53 0 84.5 45.5t31.5 129.5q0 81 -37 126t-93 45q-31 0 -57 -13.5z" />
    <glyph glyph-name="f_f_t.liga" unicode="fft" horiz-adv-x="921" 
d="M899 57q3 0 5 -4t-1 -6q-37 -31 -68 -45t-65 -14q-42 0 -70.5 19.5t-28.5 65.5v233q0 26 -10.5 35t-50 12t-149.5 3v-275q0 -31 6.5 -45t26.5 -19t63 -5q3 0 3 -6t-3 -6l-67 1q-21 1 -64 1l-58 -1q-15 -1 -42 -1q-3 0 -3 6t3 6q29 0 42.5 5t18.5 19.5t5 44.5v225
q0 19 -2 25q-4 14 -18 18t-54 5q-34 1 -153 1v-274q0 -31 6.5 -45t26.5 -19t63 -5q3 0 3 -6t-3 -6l-67 1q-21 1 -64 1l-58 -1q-15 -1 -42 -1q-3 0 -3 6t3 6q29 0 42.5 5t18.5 19.5t5 44.5v225q0 24 -5 35t-19 14.5t-46 3.5q-3 0 -3 7t3 7q39 0 53.5 9.5t15.5 35.5
q6 137 68 205t170 68q73 0 127 -26q54 61 155 61q53 0 85 -15.5t32 -39.5q0 -18 -12 -27.5t-29 -9.5q-15 0 -25.5 8.5t-20.5 25.5q-13 20 -28 30t-38 10q-54 0 -86 -66.5t-32 -202.5v-63q94 0 142 3q60 2 85 18t37 55q2 3 8 3q8 0 8 -3v-77q48 1 135 10q3 0 5.5 -7t2.5 -16
t-3.5 -17.5t-7.5 -7.5q-60 13 -132 15v-245q0 -79 76 -79q24 0 44.5 7.5t34.5 20.5q1 1 3 1zM322 376q30 1 44.5 5t20.5 14q4 12 4 23q5 122 35 192q-25 30 -58 46.5t-68 16.5q-62 0 -98.5 -59t-36.5 -175v-64q115 0 157 1z" />
    <glyph glyph-name="f_h.liga" unicode="fh" horiz-adv-x="821" 
d="M803 6q0 -6 -2 -6q-25 0 -40 1l-55 1l-56 -1q-14 -1 -38 -1q-3 0 -3 6t3 6q36 0 48 13.5t12 55.5v154q0 58 -21.5 85.5t-67.5 27.5q-28 0 -58 -14.5t-54 -39.5v-213q0 -42 12 -55.5t49 -13.5q2 0 2 -6t-2 -6q-25 0 -40 1l-55 1l-56 -1q-14 -1 -38 -1q-3 0 -3 6t3 6
q36 0 48 13.5t12 55.5v550q-23 38 -52.5 58.5t-63.5 20.5q-61 0 -91.5 -64t-30.5 -207v-64q63 3 123 10q3 0 5 -7t2 -16q0 -8 -3.5 -17t-6.5 -8q-56 13 -120 15v-271q0 -31 6.5 -45t26.5 -19t63 -5q3 0 3 -6t-3 -6l-67 1q-21 1 -64 1l-58 -1q-15 -1 -42 -1q-3 0 -3 6t3 6
q29 0 42.5 5t18.5 19.5t5 44.5v225q0 24 -5 35t-19 14.5t-46 3.5q-3 0 -3 7t3 7q39 0 53.5 9.5t15.5 35.5q5 160 57.5 234t161.5 74q81 0 133 -38q12 18 12 41q0 3 6 3t6 -3v-416q72 84 154 84q55 0 85 -32t30 -91v-193q0 -42 12 -55.5t49 -13.5q2 0 2 -6z" />
    <glyph glyph-name="f_j.liga" unicode="fj" horiz-adv-x="572" 
d="M204.5 641.5q-39.5 -66.5 -39.5 -202.5v-64q63 3 123 10q3 0 5 -7t2 -16q0 -8 -3.5 -17t-6.5 -8q-56 13 -120 15v-271q0 -31 6.5 -45t26.5 -19t63 -5q3 0 3 -6t-3 -6l-67 1q-21 1 -64 1l-58 -1q-15 -1 -42 -1q-3 0 -3 6t3 6q29 0 42.5 5t18.5 19.5t5 44.5v225q0 24 -5 35
t-19 14.5t-46 3.5q-3 0 -3 7t3 7q39 0 53.5 9.5t15.5 35.5q11 308 243 308q66 0 105 -21.5t39 -54.5q0 -16 -10 -25.5t-27 -9.5q-19 0 -29.5 10t-23.5 30q-17 26 -33.5 39.5t-48.5 13.5q-66 0 -105.5 -66.5zM477 396q4 0 7.5 -4t3.5 -7q0 -7 -1 -40t-1 -78v-315
q0 -68 -14 -110.5t-47 -70.5t-92 -49q-2 -1 -4.5 4.5t0.5 6.5q49 21 69 65.5t20 130.5v336q0 36 -7 51.5t-24 15.5q-18 0 -44 -13h-1q-4 0 -6 5.5t2 6.5l136 64z" />
    <glyph glyph-name="f_k.liga" unicode="fk" horiz-adv-x="810" 
d="M809 6q0 -6 -3 -6q-24 0 -39 1l-55 1l-74 -1q-16 -1 -44 -1q-2 0 -2 6t2 6q46 0 46 20q0 9 -9 21l-120 160l-40 -33v-99q0 -42 12 -55.5t49 -13.5q2 0 2 -6t-2 -6q-25 0 -40 1l-55 1l-56 -1q-14 -1 -38 -1q-3 0 -3 6t3 6q36 0 48 13.5t12 55.5v550q-23 38 -53 58.5
t-64 20.5q-60 0 -90.5 -64.5t-30.5 -206.5v-64q63 3 123 10q3 0 5 -7t2 -16q0 -8 -3.5 -17t-6.5 -8q-56 13 -120 15v-271q0 -31 6.5 -45t26.5 -19t63 -5q3 0 3 -6t-3 -6l-67 1q-21 1 -64 1l-58 -1q-15 -1 -42 -1q-3 0 -3 6t3 6q29 0 42.5 5t18.5 19.5t5 44.5v225q0 24 -5 35
t-19 14.5t-46 3.5q-3 0 -3 7t3 7q39 0 53.5 9.5t15.5 35.5q5 160 57.5 234t159.5 74q83 0 135 -38q12 18 12 41q0 3 6 3t6 -3v-531l121 104q30 26 30 45q0 12 -13 19.5t-38 7.5q-3 0 -3 6t3 6q28 0 43 -1l75 -1l68 1q14 1 38 1q2 0 2 -6t-2 -6q-40 0 -88 -19.5t-93 -56.5
l-52 -43l131 -174q50 -69 113 -69q3 0 3 -6z" />
    <glyph glyph-name="f_thorn.liga" unicode="f&#xfe;" horiz-adv-x="815" 
d="M511.5 -8.5q-22.5 4.5 -45.5 14.5v-200q0 -30 7 -44t26.5 -19.5t61.5 -5.5q3 0 3 -6t-3 -6q-36 0 -56 1l-74 1l-56 -1q-15 -1 -40 -1q-2 0 -2 6t2 6q27 0 40 5.5t17.5 19.5t4.5 44v834q-47 70 -111 70q-60 0 -90.5 -64.5t-30.5 -206.5v-64q63 3 123 10q3 0 5 -7t2 -16
q0 -8 -3.5 -17t-6.5 -8q-56 13 -120 15v-271q0 -31 6.5 -45t26.5 -19t63 -5q3 0 3 -6t-3 -6l-67 1q-21 1 -64 1l-58 -1q-15 -1 -42 -1q-3 0 -3 6t3 6q29 0 42.5 5t18.5 19.5t5 44.5v225q0 24 -5 35t-19 14.5t-46 3.5q-3 0 -3 7t3 7q39 0 53.5 9.5t15.5 35.5q5 160 57.5 234
t159.5 74q41 0 74.5 -9.5t56.5 -25.5q11 17 11 38q0 3 6 3t6 -3v-407q41 40 79.5 58.5t79.5 18.5q42 0 77.5 -22t57 -64t21.5 -98q0 -77 -34 -128.5t-84 -75.5t-100 -24q-29 0 -51.5 4.5zM518 341.5q-26 -13.5 -52 -38.5v-237q25 -28 53.5 -42.5t69.5 -14.5q53 0 84.5 45.5
t31.5 129.5q0 81 -37 126t-93 45q-31 0 -57 -13.5z" />
    <glyph glyph-name="f_t.liga" unicode="ft" horiz-adv-x="625" 
d="M603 57q3 0 5 -4t-1 -6q-37 -31 -68 -45t-65 -14q-42 0 -70.5 19.5t-28.5 65.5v233q0 26 -10.5 35t-50 12t-149.5 3v-275q0 -31 6.5 -45t26.5 -19t63 -5q3 0 3 -6t-3 -6l-67 1q-21 1 -64 1l-58 -1q-15 -1 -42 -1q-3 0 -3 6t3 6q29 0 42.5 5t18.5 19.5t5 44.5v225
q0 24 -5 35t-19 14.5t-46 3.5q-3 0 -3 7t3 7q39 0 53.5 9.5t15.5 35.5q5 163 60 235.5t164 72.5q53 0 85 -15.5t32 -39.5q0 -18 -12 -27.5t-29 -9.5q-15 0 -25.5 8.5t-20.5 25.5q-13 20 -28 30t-38 10q-54 0 -86 -66.5t-32 -202.5v-63q94 0 142 3q60 2 85 18t37 55q2 3 8 3
q8 0 8 -3v-77q48 1 135 10q3 0 5.5 -7t2.5 -16t-3.5 -17.5t-7.5 -7.5q-60 13 -132 15v-245q0 -79 76 -79q24 0 44.5 7.5t34.5 20.5q1 1 3 1z" />
    <glyph glyph-name="fi.liga" unicode="fi" horiz-adv-x="569" 
d="M203.5 641q-38.5 -67 -38.5 -202v-64q45 1 123 10q3 0 5 -7.5t2 -16.5t-4 -18.5t-6 -7.5q-60 17 -120 20v-274q0 -31 6.5 -45t26.5 -19t63 -5q3 0 3 -6t-3 -6l-67 1q-21 1 -64 1l-58 -1q-15 -1 -42 -1q-3 0 -3 6t3 6q29 0 42.5 5t18.5 19.5t5 44.5v225q0 24 -5 35
t-19 14.5t-46 3.5q-3 0 -3 7t3 7q39 0 53.5 9.5t15.5 35.5q6 161 68 234.5t174 73.5q60 0 96.5 -22t36.5 -54q0 -16 -9.5 -25.5t-27.5 -9.5q-17 0 -27 9.5t-21 29.5q-16 26 -32.5 40t-48.5 14q-62 0 -100.5 -67zM540 6q0 -6 -3 -6q-25 0 -39 1l-55 1l-57 -1q-14 -1 -38 -1
q-2 0 -2 6t2 6q37 0 48.5 13.5t11.5 55.5v184q0 36 -6.5 51.5t-23.5 15.5t-44 -13h-1q-4 0 -6 5t1 7l137 64l3 1q4 0 7.5 -4t3.5 -7q0 -7 -1.5 -40t-1.5 -78v-186q0 -42 12 -55.5t49 -13.5q3 0 3 -6z" />
    <glyph glyph-name="fl.liga" unicode="fl" horiz-adv-x="567" 
d="M543 6q0 -6 -3 -6q-24 0 -38 1l-57 1l-56 -1q-14 -1 -38 -1q-3 0 -3 6t3 6q36 0 47.5 13.5t11.5 55.5v547q-50 82 -121 82q-124 0 -124 -271v-64q45 1 123 10q3 0 5 -7.5t2 -16.5t-4 -18.5t-6 -7.5q-60 17 -120 20v-274q0 -31 6.5 -45t26.5 -19t63 -5q3 0 3 -6t-3 -6
l-67 1q-21 1 -64 1l-58 -1q-15 -1 -42 -1q-3 0 -3 6t3 6q29 0 42.5 5t18.5 19.5t5 44.5v225q0 24 -5 35t-19 14.5t-46 3.5q-3 0 -3 7t3 7q39 0 53.5 9.5t15.5 35.5q5 162 59.5 235t161.5 73q86 0 138 -40q14 20 14 43q0 3 6 3t6 -3v-648q0 -42 11.5 -55.5t48.5 -13.5
q3 0 3 -6z" />
    <glyph glyph-name="g_g.liga" unicode="gg" horiz-adv-x="934" 
d="M393 397q2 0 4.5 -1.5t2.5 -2.5v-463q0 -95 -54 -153t-150 -58q-62 0 -101 20.5t-39 54.5q0 20 11 29.5t26 9.5q18 0 29 -9.5t23 -29.5q18 -27 36 -40.5t54 -13.5q45 0 71 35.5t26 130.5v161q-35 -36 -71.5 -57t-79.5 -21q-62 0 -104 45.5t-42 127.5q0 72 33.5 126
t86 82.5t107.5 28.5q53 0 97 -29q20 10 31 26q1 1 3 1zM860 397q2 0 4.5 -1.5t2.5 -2.5v-463q0 -95 -54 -153t-150 -58q-62 0 -101 20.5t-39 54.5q0 20 11 29.5t26 9.5q18 0 29 -9.5t23 -29.5q18 -27 36 -40.5t54 -13.5q45 0 71 35.5t26 130.5v161q-35 -36 -71.5 -57
t-79.5 -21q-62 0 -104 45.5t-42 127.5q0 72 33.5 126t86 82.5t107.5 28.5q54 0 97 -29q20 10 31 26q1 1 3 1zM332 84v208q0 37 -28 62t-67 25q-56 0 -90 -52t-34 -134q0 -75 28.5 -119.5t78.5 -44.5q53 0 112 55zM799 84v208q0 37 -28 62t-67 25q-56 0 -90 -52t-34 -134
q0 -75 28.5 -119.5t78.5 -44.5q53 0 112 55z" />
    <glyph glyph-name="longs_b.liga" unicode="&#x17f;b" horiz-adv-x="811" 
d="M694.5 378q36.5 -21 59 -62.5t22.5 -101.5q0 -72 -31.5 -123.5t-81 -77.5t-104.5 -26q-78 0 -141 44l-79 -36h-2q-4 0 -5 3.5t2 5.5q30 19 42.5 40t12.5 59l1 527q-42 80 -107 80q-58 0 -88.5 -64.5t-30.5 -206.5v-358q0 -31 6.5 -45t26 -19t62.5 -5q3 0 3 -6t-3 -6
l-66 1q-22 1 -65 1l-57 -1q-15 -1 -43 -1q-3 0 -3 6t3 6q29 0 42.5 5t18.5 19.5t5 44.5v337q0 308 214 308q79 0 126 -38q13 17 13 41q0 3 6 3t6 -3v-408q35 35 72 56.5t83 21.5q44 0 80.5 -21zM669 50.5q29 44.5 29 127.5q0 89 -33.5 135.5t-88.5 46.5t-117 -58v-212
q52 -84 127 -84q54 0 83 44.5z" />
    <glyph glyph-name="longs_h.liga" unicode="&#x17f;h" horiz-adv-x="807" 
d="M790 6q0 -6 -3 -6q-24 0 -39 1l-55 1l-56 -1q-14 -1 -39 -1q-2 0 -2 6t2 6q37 0 49 13.5t12 55.5v154q0 58 -22 85.5t-67 27.5q-29 0 -59 -14.5t-53 -39.5v-213q0 -42 11.5 -55.5t48.5 -13.5q3 0 3 -6t-3 -6q-24 0 -39 1l-55 1l-56 -1q-14 -1 -39 -1q-2 0 -2 6t2 6
q37 0 49 13.5t12 55.5v549q-42 80 -107 80q-58 0 -88.5 -64.5t-30.5 -206.5v-358q0 -31 6.5 -45t26 -19t62.5 -5q3 0 3 -6t-3 -6l-66 1q-22 1 -65 1l-57 -1q-15 -1 -43 -1q-3 0 -3 6t3 6q29 0 42.5 5t18.5 19.5t5 44.5v337q0 308 214 308q79 0 126 -38q12 20 12 41q0 3 6 3
t6 -3v-415q72 83 153 83q55 0 85.5 -32.5t30.5 -90.5v-193q0 -42 11.5 -55.5t48.5 -13.5q3 0 3 -6z" />
    <glyph glyph-name="longs_i.liga" unicode="&#x17f;i" horiz-adv-x="551" 
d="M25 6q0 6 3 6q29 0 42.5 5t18.5 19.5t5 44.5v337q0 158 58.5 233t165.5 75q57 0 90 -18t33 -45q0 -16 -10.5 -25t-27.5 -9t-27.5 9.5t-22.5 27.5q-14 21 -27.5 32t-37.5 11q-56 0 -89.5 -66.5t-33.5 -203.5v-358q0 -31 5.5 -45t23.5 -19t59 -5q2 0 2 -6t-2 -6l-63 1
q-21 1 -62 1l-57 -1q-15 -1 -43 -1q-3 0 -3 6zM319 6q0 6 3 6q36 0 48 13.5t12 55.5v184q0 36 -7 51.5t-24 15.5t-43 -13h-1q-4 0 -6 5t1 7l137 64l3 1q4 0 7.5 -4t3.5 -7q0 -7 -1.5 -40t-1.5 -78v-186q0 -42 11.5 -55.5t48.5 -13.5q4 0 4 -6t-4 -6q-24 0 -38 1l-56 1
l-55 -1q-15 -1 -39 -1q-3 0 -3 6z" />
    <glyph glyph-name="longs_j.liga" unicode="&#x17f;j" horiz-adv-x="534" 
d="M25 6q0 6 3 6q29 0 42.5 5t18.5 19.5t5 44.5v337q0 158 58.5 233t165.5 75q57 0 90 -18t33 -45q0 -16 -10.5 -25t-27.5 -9t-27.5 9.5t-22.5 27.5q-14 21 -27.5 32t-37.5 11q-56 0 -89.5 -66.5t-33.5 -203.5v-358q0 -31 5.5 -45t23.5 -19t59 -5q2 0 2 -6t-2 -6l-63 1
q-21 1 -62 1l-57 -1q-15 -1 -43 -1q-3 0 -3 6zM290.5 -273.5q-2.5 5.5 0.5 6.5q49 21 69 65.5t20 130.5v336q0 36 -7 51.5t-24 15.5t-43 -13h-1q-4 0 -6.5 5t1.5 7l137 64l2 1q4 0 7.5 -4t3.5 -7q0 -7 -1 -40t-1 -78v-315q0 -68 -14 -110.5t-47 -70.5t-91 -49
q-3 -1 -5.5 4.5z" />
    <glyph glyph-name="longs_k.liga" unicode="&#x17f;k" horiz-adv-x="796" 
d="M795 6q0 -6 -2 -6q-25 0 -39 1l-55 1l-74 -1q-16 -1 -44 -1q-3 0 -3 6t3 6q45 0 45 20q0 9 -9 21l-119 161l-40 -33v-100q0 -42 11.5 -55.5t48.5 -13.5q3 0 3 -6t-3 -6q-24 0 -39 1l-55 1l-56 -1q-14 -1 -39 -1q-2 0 -2 6t2 6q37 0 49 13.5t12 55.5v549q-42 80 -107 80
q-58 0 -88.5 -64.5t-30.5 -206.5v-358q0 -31 6.5 -45t26 -19t62.5 -5q3 0 3 -6t-3 -6l-66 1q-22 1 -65 1l-57 -1q-15 -1 -43 -1q-3 0 -3 6t3 6q29 0 42.5 5t18.5 19.5t5 44.5v337q0 308 214 308q79 0 126 -38q12 20 12 41q0 3 6 3t6 -3v-530l120 103q31 25 31 45
q0 12 -13.5 19.5t-38.5 7.5q-2 0 -2 6t2 6q29 0 44 -1l74 -1l69 1q13 1 37 1q3 0 3 -6t-3 -6q-39 0 -87.5 -19.5t-93.5 -56.5l-51 -42l131 -175q50 -69 113 -69q2 0 2 -6z" />
    <glyph glyph-name="longs_l.liga" unicode="&#x17f;l" horiz-adv-x="548" 
d="M523 6q0 -6 -3 -6q-24 0 -38 1l-56 1l-56 -1q-14 -1 -39 -1q-3 0 -3 6t3 6q36 0 48 13.5t12 55.5v547q-42 82 -108 82q-58 0 -88.5 -64.5t-30.5 -206.5v-358q0 -31 6.5 -45t26 -19t62.5 -5q3 0 3 -6t-3 -6l-66 1q-22 1 -65 1l-57 -1q-15 -1 -43 -1q-3 0 -3 6t3 6
q29 0 42.5 5t18.5 19.5t5 44.5v337q0 308 214 308q81 0 127 -39q13 21 13 42q0 3 6 3t6 -3v-648q0 -42 11.5 -55.5t48.5 -13.5q3 0 3 -6z" />
    <glyph glyph-name="longs_thorn.liga" unicode="&#x17f;&#xfe;" horiz-adv-x="803" 
d="M690.5 377q35.5 -22 57 -64t21.5 -98q0 -77 -34 -128.5t-84 -75.5t-100 -24q-52 0 -98 20v-201q0 -30 7 -44t26.5 -19.5t61.5 -5.5q2 0 2 -6t-2 -6q-36 0 -56 1l-74 1l-57 -1q-14 -1 -39 -1q-3 0 -3 6t3 6q26 0 39 5.5t17.5 19.5t4.5 44v837q-41 67 -100 67
q-58 0 -88.5 -64.5t-30.5 -206.5v-358q0 -31 6.5 -45t26 -19t62.5 -5q3 0 3 -6t-3 -6l-66 1q-22 1 -65 1l-57 -1q-15 -1 -43 -1q-3 0 -3 6t3 6q29 0 42.5 5t18.5 19.5t5 44.5v337q0 308 214 308q77 0 122 -35q11 19 11 38q0 3 6 3t6 -3v-408q79 78 160 78q42 0 77.5 -22z
M661.5 54.5q31.5 45.5 31.5 129.5q0 81 -36.5 126t-92.5 45q-32 0 -58.5 -14t-52.5 -40v-234q26 -28 55 -43t70 -15q52 0 83.5 45.5z" />
    <glyph glyph-name="longs_longs.liga" unicode="&#x17f;&#x17f;" horiz-adv-x="539" 
d="M666 710.5q29 -15.5 29 -39.5q0 -18 -12 -27.5t-29 -9.5t-26.5 8.5t-20.5 26.5q-11 19 -22.5 29t-32.5 10q-50 0 -78 -65.5t-28 -203.5v-358q0 -31 5.5 -45t22 -19t54.5 -5q3 0 3 -6t-3 -6l-59 1q-20 1 -60 1l-57 -1q-15 -1 -43 -1q-3 0 -3 6t3 6q29 0 42.5 5t18.5 19.5
t5 44.5v337q0 120 31 193q-22 30 -49.5 46t-57.5 16q-62 0 -98.5 -59t-36.5 -175v-358q0 -31 5.5 -45t23 -19t55.5 -5q3 0 3 -6t-3 -6l-60 1q-20 1 -60 1l-57 -1q-15 -1 -43 -1q-3 0 -3 6t3 6q29 0 42.5 5t18.5 19.5t5 44.5v337q0 133 64.5 203t172.5 70q61 0 109 -23
q52 58 148 58q49 0 78 -15.5z" />
    <glyph glyph-name="longs_longs_b.liga" unicode="&#x17f;&#x17f;b" horiz-adv-x="1096" 
d="M979.5 378q36.5 -21 59 -62.5t22.5 -101.5q0 -72 -31.5 -123.5t-81 -77.5t-104.5 -26q-78 0 -141 44l-79 -36h-2q-4 0 -5 3.5t2 5.5q30 19 42.5 40t12.5 59l1 527q-42 80 -107 80q-58 0 -88.5 -64.5t-30.5 -206.5v-358q0 -31 6.5 -45t26 -19t62.5 -5q3 0 3 -6t-3 -6
l-66 1q-22 1 -65 1l-57 -1q-15 -1 -43 -1q-3 0 -3 6t3 6q29 0 42.5 5t18.5 19.5t5 44.5v337q0 117 30 188q-21 32 -50 49.5t-60 17.5q-62 0 -98.5 -59t-36.5 -175v-358q0 -31 5.5 -45t23 -19t55.5 -5q3 0 3 -6t-3 -6l-60 1q-20 1 -60 1l-57 -1q-15 -1 -43 -1q-3 0 -3 6t3 6
q29 0 42.5 5t18.5 19.5t5 44.5v337q0 133 64.5 203t172.5 70q66 0 114 -26q54 61 148 61q79 0 126 -38q13 17 13 41q0 3 6 3t6 -3v-408q35 35 72 56.5t83 21.5q44 0 80.5 -21zM954 50.5q29 44.5 29 127.5q0 89 -33.5 135.5t-88.5 46.5t-117 -58v-212q52 -84 127 -84
q54 0 83 44.5z" />
    <glyph glyph-name="longs_longs_h.liga" unicode="&#x17f;&#x17f;h" horiz-adv-x="1094" 
d="M1077 6q0 -6 -3 -6q-24 0 -39 1l-55 1l-56 -1q-14 -1 -39 -1q-2 0 -2 6t2 6q37 0 49 13.5t12 55.5v154q0 58 -22 85.5t-67 27.5q-29 0 -59 -14.5t-53 -39.5v-213q0 -42 11.5 -55.5t48.5 -13.5q3 0 3 -6t-3 -6q-24 0 -39 1l-55 1l-56 -1q-14 -1 -39 -1q-2 0 -2 6t2 6
q37 0 49 13.5t12 55.5v549q-42 80 -107 80q-58 0 -88.5 -64.5t-30.5 -206.5v-358q0 -31 6.5 -45t26 -19t62.5 -5q3 0 3 -6t-3 -6l-66 1q-22 1 -65 1l-57 -1q-15 -1 -43 -1q-3 0 -3 6t3 6q29 0 42.5 5t18.5 19.5t5 44.5v337q0 115 30 187q-22 32 -51.5 50t-60.5 18
q-62 0 -98.5 -59t-36.5 -175v-358q0 -31 5.5 -45t23 -19t55.5 -5q3 0 3 -6t-3 -6l-60 1q-20 1 -60 1l-57 -1q-15 -1 -43 -1q-3 0 -3 6t3 6q29 0 42.5 5t18.5 19.5t5 44.5v337q0 133 64.5 203t172.5 70q64 0 116 -26q52 61 148 61q79 0 126 -38q12 20 12 41q0 3 6 3t6 -3
v-415q72 83 153 83q55 0 85.5 -32.5t30.5 -90.5v-193q0 -42 11.5 -55.5t48.5 -13.5q3 0 3 -6z" />
    <glyph glyph-name="longs_longs_i.liga" unicode="&#x17f;&#x17f;i" horiz-adv-x="832" 
d="M479.5 642.5q-33.5 -66.5 -33.5 -203.5v-358q0 -31 5.5 -45t23.5 -19t59 -5q2 0 2 -6t-2 -6l-63 1q-21 1 -62 1l-57 -1q-15 -1 -43 -1q-3 0 -3 6t3 6q29 0 42.5 5t18.5 19.5t5 44.5v337q0 116 33 190q-21 30 -50 47.5t-59 17.5q-62 0 -98.5 -59t-36.5 -175v-358
q0 -31 5.5 -45t23 -19t55.5 -5q3 0 3 -6t-3 -6l-60 1q-20 1 -60 1l-57 -1q-15 -1 -43 -1q-3 0 -3 6t3 6q29 0 42.5 5t18.5 19.5t5 44.5v337q0 133 64.5 203t172.5 70q66 0 114 -26q57 61 154 61q57 0 90 -18t33 -45q0 -16 -10.5 -25t-27.5 -9t-27.5 9.5t-22.5 27.5
q-14 21 -27.5 32t-37.5 11q-56 0 -89.5 -66.5zM795 6q0 -6 -4 -6q-24 0 -38 1l-56 1l-55 -1q-15 -1 -39 -1q-3 0 -3 6t3 6q36 0 48 13.5t12 55.5v184q0 36 -7 51.5t-24 15.5t-43 -13h-1q-4 0 -6 5t1 7l137 64l3 1q4 0 7.5 -4t3.5 -7q0 -7 -1.5 -40t-1.5 -78v-186
q0 -42 11.5 -55.5t48.5 -13.5q4 0 4 -6z" />
    <glyph glyph-name="longs_longs_j.liga" unicode="&#x17f;&#x17f;j" horiz-adv-x="815" 
d="M479.5 642.5q-33.5 -66.5 -33.5 -203.5v-358q0 -31 5.5 -45t23.5 -19t59 -5q2 0 2 -6t-2 -6l-63 1q-21 1 -62 1l-57 -1q-15 -1 -43 -1q-3 0 -3 6t3 6q29 0 42.5 5t18.5 19.5t5 44.5v337q0 116 33 190q-21 30 -50 47.5t-59 17.5q-62 0 -98.5 -59t-36.5 -175v-358
q0 -31 5.5 -45t23 -19t55.5 -5q3 0 3 -6t-3 -6l-60 1q-20 1 -60 1l-57 -1q-15 -1 -43 -1q-3 0 -3 6t3 6q29 0 42.5 5t18.5 19.5t5 44.5v337q0 133 64.5 203t172.5 70q66 0 114 -26q57 61 154 61q57 0 90 -18t33 -45q0 -16 -10.5 -25t-27.5 -9t-27.5 9.5t-22.5 27.5
q-14 21 -27.5 32t-37.5 11q-56 0 -89.5 -66.5zM720 396q4 0 7.5 -4t3.5 -7q0 -7 -1 -40t-1 -78v-315q0 -68 -14 -110.5t-47 -70.5t-91 -49q-3 -1 -5.5 4.5t0.5 6.5q49 21 69 65.5t20 130.5v336q0 36 -7 51.5t-24 15.5t-43 -13h-1q-4 0 -6.5 5t1.5 7l137 64z" />
    <glyph glyph-name="longs_longs_k.liga" unicode="&#x17f;&#x17f;k" horiz-adv-x="1083" 
d="M1082 6q0 -6 -2 -6q-25 0 -39 1l-55 1l-74 -1q-16 -1 -44 -1q-3 0 -3 6t3 6q45 0 45 20q0 9 -9 21l-119 161l-40 -33v-100q0 -42 11.5 -55.5t48.5 -13.5q3 0 3 -6t-3 -6q-24 0 -39 1l-55 1l-56 -1q-14 -1 -39 -1q-2 0 -2 6t2 6q37 0 49 13.5t12 55.5v549q-42 80 -107 80
q-58 0 -88.5 -64.5t-30.5 -206.5v-358q0 -31 6.5 -45t26 -19t62.5 -5q3 0 3 -6t-3 -6l-66 1q-22 1 -65 1l-57 -1q-15 -1 -43 -1q-3 0 -3 6t3 6q29 0 42.5 5t18.5 19.5t5 44.5v337q0 115 30 187q-22 32 -51.5 50t-60.5 18q-62 0 -98.5 -59t-36.5 -175v-358q0 -31 5.5 -45
t23 -19t55.5 -5q3 0 3 -6t-3 -6l-60 1q-20 1 -60 1l-57 -1q-15 -1 -43 -1q-3 0 -3 6t3 6q29 0 42.5 5t18.5 19.5t5 44.5v337q0 133 64.5 203t172.5 70q64 0 116 -26q52 61 148 61q79 0 126 -38q12 20 12 41q0 3 6 3t6 -3v-530l120 103q31 25 31 45q0 12 -13.5 19.5
t-38.5 7.5q-2 0 -2 6t2 6q29 0 44 -1l74 -1l69 1q13 1 37 1q3 0 3 -6t-3 -6q-39 0 -87.5 -19.5t-93.5 -56.5l-51 -42l131 -175q50 -69 113 -69q2 0 2 -6z" />
    <glyph glyph-name="longs_longs_l.liga" unicode="&#x17f;&#x17f;l" horiz-adv-x="834" 
d="M810 6q0 -6 -3 -6q-24 0 -38 1l-56 1l-56 -1q-14 -1 -39 -1q-3 0 -3 6t3 6q36 0 48 13.5t12 55.5v547q-42 82 -108 82q-58 0 -88.5 -64.5t-30.5 -206.5v-358q0 -31 6.5 -45t26 -19t62.5 -5q3 0 3 -6t-3 -6l-66 1q-22 1 -65 1l-57 -1q-15 -1 -43 -1q-3 0 -3 6t3 6
q29 0 42.5 5t18.5 19.5t5 44.5v337q0 115 30 187q-22 32 -51.5 50t-60.5 18q-62 0 -98.5 -59t-36.5 -175v-358q0 -31 5.5 -45t23 -19t55.5 -5q3 0 3 -6t-3 -6l-60 1q-20 1 -60 1l-57 -1q-15 -1 -43 -1q-3 0 -3 6t3 6q29 0 42.5 5t18.5 19.5t5 44.5v337q0 133 64.5 203
t172.5 70q64 0 116 -26q52 61 148 61q81 0 127 -39q13 21 13 42q0 3 6 3t6 -3v-648q0 -42 11.5 -55.5t48.5 -13.5q3 0 3 -6z" />
    <glyph glyph-name="longs_longs_thorn.liga" unicode="&#x17f;&#x17f;&#xfe;" horiz-adv-x="1090" 
d="M977.5 377q35.5 -22 57 -64t21.5 -98q0 -77 -34 -128.5t-84 -75.5t-100 -24q-52 0 -98 20v-201q0 -30 7 -44t26.5 -19.5t61.5 -5.5q2 0 2 -6t-2 -6q-36 0 -56 1l-74 1l-57 -1q-14 -1 -39 -1q-3 0 -3 6t3 6q26 0 39 5.5t17.5 19.5t4.5 44v837q-41 67 -100 67
q-58 0 -88.5 -64.5t-30.5 -206.5v-358q0 -31 6.5 -45t26 -19t62.5 -5q3 0 3 -6t-3 -6l-66 1q-22 1 -65 1l-57 -1q-15 -1 -43 -1q-3 0 -3 6t3 6q29 0 42.5 5t18.5 19.5t5 44.5v337q0 115 30 187q-22 32 -51.5 50t-60.5 18q-62 0 -98.5 -59t-36.5 -175v-358q0 -31 5.5 -45
t23 -19t55.5 -5q3 0 3 -6t-3 -6l-60 1q-20 1 -60 1l-57 -1q-15 -1 -43 -1q-3 0 -3 6t3 6q29 0 42.5 5t18.5 19.5t5 44.5v337q0 133 64.5 203t172.5 70q64 0 116 -26q52 61 148 61q77 0 122 -35q11 19 11 38q0 3 6 3t6 -3v-408q79 78 160 78q42 0 77.5 -22zM948.5 54.5
q31.5 45.5 31.5 129.5q0 81 -36.5 126t-92.5 45q-32 0 -58.5 -14t-52.5 -40v-234q26 -28 55 -43t70 -15q52 0 83.5 45.5z" />
    <glyph glyph-name=".notdef" horiz-adv-x="501" 
d="M94 -275v1000h317v-1000h-317zM168 626h65v-38h-66v-32h166v32h-66v38h66v32h-165v-32zM167 426h166v34h-66v69h-100v-103zM200 460v35h33v-35h-33zM167 365h66v-36h-66v-34h100v70h66v33h-166v-33zM301 273h-134v-34h166v99h-32v-65zM233 160h34v24h34v-48h-101v80h-33
v-113h166v113h-100v-56zM167 -70h166v113h-166v-113zM200 -37v48h101v-48h-101zM167 -126h70l-70 -47v-33h166v33h-101l69 47h32v34h-166v-34z" />
    <glyph glyph-name=".null" horiz-adv-x="0" 
 />
    <glyph glyph-name="nonmarkingreturn" horiz-adv-x="333" 
 />
    <glyph glyph-name="space" unicode=" " horiz-adv-x="234" 
 />
    <glyph glyph-name="exclam" unicode="!" horiz-adv-x="252" 
d="M88.5 626q17.5 3 37.5 3t37.5 -3t16.5 -8q-19 -85 -28.5 -187t-16.5 -242q0 -1 -3 -2.5t-7 -1.5t-7.5 1t-3.5 3q0 9 -2 29q-6 129 -14.5 224.5t-25.5 175.5q-1 5 16.5 8zM85.5 2.5q-13.5 13.5 -13.5 35.5t13 34.5t36 12.5t35.5 -12.5t12.5 -34.5q0 -23 -12.5 -36
t-35.5 -13q-22 0 -35.5 13.5z" />
    <glyph glyph-name="quotedbl" unicode="&#x22;" horiz-adv-x="289" 
d="M38 608q-1 11 27 21.5t48 10.5q13 0 12 -5l-56 -269q-2 -2 -7.5 -3t-5.5 2zM183 608q-1 11 27 21.5t48 10.5q13 0 12 -5l-56 -269q-2 -2 -7.5 -3t-5.5 2z" />
    <glyph glyph-name="numbersign" unicode="#" horiz-adv-x="526" 
d="M466.5 309.5q1.5 -6.5 1.5 -13.5q0 -8 -1.5 -14.5t-3.5 -6.5h-70l-28 -157h63q2 0 3.5 -6.5t1.5 -14.5t-1.5 -14.5t-3.5 -6.5h-70l-28 -156q0 -3 -9 -3q-10 0 -21 2.5t-10 5.5l27 151h-146l-28 -156q0 -3 -9 -3q-10 0 -21.5 2.5t-10.5 5.5l27 151h-66q-2 0 -3.5 7
t-1.5 15q0 7 1.5 13.5t2.5 6.5h74l28 157h-66q-2 0 -3.5 7t-1.5 15q0 7 1 13t3 6h74l30 166q0 5 20.5 0.5t19.5 -8.5l-28 -158h146l29 166q0 5 20.5 0.5t19.5 -8.5l-28 -158h63q2 0 3.5 -6.5zM324 118l28 157h-146l-28 -157h146z" />
    <glyph glyph-name="dollar" unicode="$" horiz-adv-x="507" 
d="M400 48q-45 -47 -123 -57v-99q0 -7 -12 -7t-12 7v96h-17q-40 0 -79 9.5t-68 27.5q-5 3 -7 7t-2 12l-10 143q-1 4 4.5 5t6.5 -3q22 -73 64 -126t108 -56v276l-28 17q-47 30 -74.5 51.5t-46.5 53t-19 73.5q0 69 49 109.5t119 47.5v84q0 4 3.5 6t8.5 2t8.5 -2t3.5 -6v-83h1
q67 0 121 -23q15 -6 15 -18l5 -125q0 -4 -5 -5t-6 3q-10 49 -41.5 95.5t-89.5 54.5v-260l17 -10q50 -31 79.5 -53.5t50.5 -55.5t21 -78q0 -66 -45 -113zM179.5 436.5q25.5 -31.5 73.5 -63.5v246q-48 -2 -73.5 -31.5t-25.5 -74.5t25.5 -76.5zM344 38q26 26 26 78
q0 50 -24.5 85t-68.5 66v-259q41 4 67 30z" />
    <glyph glyph-name="percent" unicode="%" horiz-adv-x="574" 
d="M60 340.5q-36 37.5 -36 92.5q0 53 36 90t90 37t88.5 -37.5t34.5 -92.5q0 -54 -35 -90.5t-88 -36.5q-54 0 -90 37.5zM105 -7q-5 0 -15 6.5t-8 9.5l370 544l2 1q5 0 15.5 -7.5t8.5 -9.5l-371 -543zM197 343q10 27 10 80q0 124 -63 124q-32 0 -43 -29t-11 -82
q0 -120 67 -120q30 0 40 27zM337 32.5q-36 37.5 -36 92.5q0 53 36 90.5t90 37.5t88.5 -38t34.5 -92q0 -55 -34.5 -91.5t-88.5 -36.5t-90 37.5zM474 35.5q10 26.5 10 80.5q0 123 -63 123q-31 0 -42.5 -29t-11.5 -81q0 -56 15 -88t52 -32q30 0 40 26.5z" />
    <glyph glyph-name="ampersand" unicode="&#x26;" horiz-adv-x="703" 
d="M709.5 5.5q-0.5 -5.5 -3.5 -5.5h-126q-39 0 -124 64q-79 -76 -198 -76q-64 0 -107.5 20.5t-65 54t-21.5 72.5q0 55 35 96t102 89q-17 24 -30 50q-29 61 -29 109q0 46 21.5 84t61 60.5t91.5 22.5q53 0 88 -24t35 -75q0 -38 -19.5 -69t-47.5 -54t-78 -57l-20 -13
q70 -110 210 -219q26 52 26 118q0 43 -15.5 63.5t-58.5 20.5q-3 0 -3.5 6t3.5 6l218 1q4 0 4 -6t-4 -6q-33 0 -49 -6.5t-23 -19t-15 -39.5q-28 -95 -65 -152q62 -45 115 -73t89 -36q4 -1 3.5 -6.5zM265 368q47 38 73.5 76t26.5 85q0 44 -23 69t-60 25q-71 0 -71 -88
q0 -78 54 -167zM442 75l-26 21q-58 45 -112.5 100.5t-93.5 110.5q-33 -29 -51.5 -60.5t-18.5 -69.5q0 -41 22 -76t61 -56t90 -21q76 0 129 51z" />
    <glyph glyph-name="quotesingle" unicode="'" horiz-adv-x="143" 
d="M38 608q-1 11 27 21.5t48 10.5q13 0 12 -5l-56 -269q-2 -2 -7.5 -3t-5.5 2z" />
    <glyph glyph-name="parenleft" unicode="(" horiz-adv-x="309" 
d="M115 559q57 113 159 166q2 1 4 -1.5t0 -4.5q-71 -71 -104 -174t-33 -241t33 -241t104 -174q2 -1 0 -4t-4 -2q-102 54 -159 166.5t-57 254.5t57 255z" />
    <glyph glyph-name="parenright" unicode=")" horiz-adv-x="309" 
d="M194 49q-57 -113 -159 -166q-2 -1 -4 1.5t0 4.5q71 71 104 174t33 241t-33 241t-104 174q-2 1 0 4t4 2q102 -54 159 -166.5t57 -254.5t-57 -255z" />
    <glyph glyph-name="asterisk" unicode="*" horiz-adv-x="448" 
d="M219 657q-1 11 30 21t51 10q10 0 8 -3l-72 -156q-1 -3 -5.5 -3t-4.5 3zM79 544q-10 3 -10 38q0 22 3.5 41t7.5 15l127 -118q2 -1 0.5 -5.5t-3.5 -3.5zM251 503q-2 0 -3.5 4.5t0.5 5.5l120 47q9 3 24.5 -16t26 -40t4.5 -21zM133 373q-12 0 -32.5 7.5t-35 16t-10.5 10.5
l151 84l2 1q2 0 4.5 -3t1.5 -4l-70 -108q-3 -4 -11 -4zM233 481v1q0 2 3.5 5t4.5 1l81 -100q6 -7 -7 -27.5t-30.5 -37.5t-18.5 -11z" />
    <glyph glyph-name="plus" unicode="+" horiz-adv-x="398" 
d="M367.5 204.5q1.5 -6.5 1.5 -14.5t-1.5 -15t-3.5 -7h-144v-143q0 -2 -8 -3.5t-17 -1.5q-18 0 -18 3v145h-143q-2 0 -3.5 7.5t-1.5 15.5q0 7 1.5 13.5t2.5 6.5h144v143q0 2 7 3.5t15 1.5t14.5 -1.5t6.5 -3.5v-143h144q2 0 3.5 -6.5z" />
    <glyph glyph-name="comma" unicode="," horiz-adv-x="222" 
d="M151 58q18 -24 18 -68q0 -42 -18.5 -77.5t-55.5 -71.5q-1 -1 -3 -1q-3 0 -5 3t0 5q49 50 49 118q0 28 -10 41q-9 -15 -33 -15q-20 0 -31.5 12.5t-11.5 32.5q0 22 13.5 33.5t38.5 11.5q31 0 49 -24z" />
    <glyph glyph-name="hyphen" unicode="-" horiz-adv-x="323" 
d="M28.5 169.5q-1.5 8.5 -1.5 17.5q0 20 3 20l261 47q2 1 3.5 -6t1.5 -16q0 -8 -1.5 -15t-3.5 -8l-259 -47q-2 -1 -3.5 7.5z" />
    <glyph glyph-name="period" unicode="." horiz-adv-x="200" 
d="M65.5 2.5q-13.5 13.5 -13.5 35.5t13 34.5t36 12.5t35.5 -12.5t12.5 -34.5q0 -23 -12.5 -36t-35.5 -13q-22 0 -35.5 13.5z" />
    <glyph glyph-name="slash" unicode="/" horiz-adv-x="344" 
d="M45.5 -162q-20.5 6 -19.5 10l252 882q2 4 22 -2.5t18 -10.5l-251 -881q-1 -4 -21.5 2z" />
    <glyph glyph-name="zero" unicode="0" horiz-adv-x="501" 
d="M142 27q-47 40 -72.5 114t-25.5 172q0 97 26 170.5t73 113.5t110 40q61 0 107 -40.5t71 -114.5t25 -172q0 -97 -25 -170t-71.5 -113t-108.5 -40t-109 40zM371 298q0 162 -34.5 242.5t-94.5 80.5q-56 0 -84.5 -78t-28.5 -223q0 -153 34.5 -235t99.5 -82q108 0 108 295z
" />
    <glyph glyph-name="one" unicode="1" horiz-adv-x="391" 
d="M60 6q0 6 2 6q46 0 68.5 5.5t32 19.5t9.5 44v393q0 60 -29 60q-23 0 -83 -43l-2 -1q-4 0 -6 4.5t1 6.5l179 131q4 3 7 3q2 0 4 -2t2 -5v-547q0 -30 8.5 -44.5t31 -19.5t70.5 -5q2 0 2 -6t-2 -6q-38 0 -61 1l-85 1l-85 -1q-23 -1 -62 -1q-2 0 -2 6z" />
    <glyph glyph-name="two" unicode="2" horiz-adv-x="446" 
d="M30.5 7q-4.5 7 -0.5 11l47 58q77 96 119 154t69 117t27 115q0 61 -30 93t-83 32q-49 0 -82.5 -27t-48.5 -76q0 -1 -4 -1q-8 0 -7 4q13 70 60.5 109.5t118.5 39.5q73 0 114.5 -41.5t41.5 -108.5q0 -56 -29 -114.5t-68.5 -107t-98.5 -112.5q-52 -56 -70 -79q-6 -7 4 -7
q122 0 175 4t73.5 18.5t21.5 47.5q0 2 6 2t6 -2l-1 -125q0 -4 -2.5 -7.5t-6.5 -3.5h-342q-5 0 -9.5 7z" />
    <glyph glyph-name="three" unicode="3" horiz-adv-x="435" 
d="M352.5 284.5q38.5 -45.5 38.5 -109.5q0 -55 -24.5 -97.5t-68 -66t-98.5 -23.5q-94 0 -163 75l-1 2q0 4 4.5 6.5t6.5 -0.5q24 -25 59 -38t69 -13q68 0 100.5 41t32.5 106q0 154 -174 154q-4 0 -4 7t4 7q84 0 119 35.5t35 98.5q0 61 -29 92.5t-79 31.5q-41 0 -78 -20.5
t-54 -58.5q0 -1 -2 -1q-3 0 -6.5 2t-2.5 4q22 54 68.5 85.5t107.5 31.5q70 0 111.5 -39.5t41.5 -99.5q0 -53 -32.5 -97.5t-88.5 -65.5q69 -4 107.5 -49.5z" />
    <glyph glyph-name="four" unicode="4" horiz-adv-x="471" 
d="M422 198q0 -21 -4 -21l-76 3v-99q0 -31 5 -45t19 -19t45 -5q2 0 2 -6t-2 -6q-27 0 -43 1l-64 1l-76 -1q-20 -1 -54 -1q-3 0 -3 6t3 6q45 0 63.5 4.5t24.5 18t6 46.5v101q-132 2 -246 2q-5 0 -7.5 3.5t0.5 7.5l312 435q2 2 6 2q3 0 6 -1.5t3 -4.5v-410l76 3q4 0 4 -21z
M268 215v292l-200 -287q-4 -7 5 -7q83 0 195 2z" />
    <glyph glyph-name="five" unicode="5" horiz-adv-x="447" 
d="M349 328q51 -49 51 -140q0 -95 -55.5 -147.5t-142.5 -52.5q-47 0 -84 18.5t-69 56.5l-1 2q0 4 4 6.5t6 -0.5q22 -26 54.5 -38.5t68.5 -12.5q69 0 103 43t34 114q0 77 -38 123t-114 46q-42 0 -86 -13q-5 0 -8 3.5t-2 8.5l32 268q1 7 3 9.5t10 2.5q135 0 179.5 1.5
t58.5 6.5t22 21q1 2 6 1.5t4 -4.5l-14 -81q-2 -12 -7.5 -15t-18.5 -3l-207 5q-13 0 -16 -14l-22 -183q58 17 108 17q90 0 141 -49z" />
    <glyph glyph-name="six" unicode="6" horiz-adv-x="492" 
d="M377 318q34 -22 52.5 -60t18.5 -83q0 -53 -25.5 -96t-70 -67.5t-100.5 -24.5q-94 0 -144 65t-50 175q0 98 39 190.5t112 153t170 65.5q4 0 5 -4.5t-2 -5.5q-78 -19 -132.5 -77t-82 -139.5t-27.5 -169.5q0 -100 34.5 -166.5t101.5 -66.5q46 0 68 37t22 104q0 76 -26.5 118
t-74.5 42q-42 0 -75 -30q-1 -1 -3 -1q-3 0 -5.5 3.5t-1.5 5.5q21 27 51.5 40.5t65.5 13.5q46 0 80 -22z" />
    <glyph glyph-name="seven" unicode="7" horiz-adv-x="429" 
d="M182 4.5q-4 -4.5 -13 -4.5h-57q-6 0 -9 3.5t-1 8.5l241 538q5 7 -4 7q-149 0 -205 -4t-72.5 -16.5t-26.5 -47.5q-1 -3 -5 -3q-3 0 -5.5 1.5t-1.5 3.5l38 160q1 3 7 2.5t5 -3.5q-1 -4 -1 -10q0 -9 9.5 -12t38.5 -3h265q4 0 7 -5t1 -8l-202 -590q-5 -13 -9 -17.5z" />
    <glyph glyph-name="eight" unicode="8" horiz-adv-x="492" 
d="M418 274q36 -43 36 -112q0 -52 -27.5 -92t-75 -61.5t-105.5 -21.5q-63 0 -108.5 23t-69.5 62.5t-24 87.5q0 62 39 113t97 82q-39 29 -60 61.5t-21 77.5q0 46 23 78t60 48t77 16q65 0 106.5 -36t41.5 -90q0 -43 -24.5 -82t-66.5 -70q66 -41 102 -84zM184 594.5
q-21 -23.5 -21 -60.5q0 -38 17.5 -67t44.5 -49.5t73 -48.5q38 56 38 129q0 59 -26 89.5t-69 30.5q-36 0 -57 -23.5zM354 39.5q30 33.5 30 91.5q0 46 -20.5 80t-50 56t-79.5 53l-38 24q-70 -58 -70 -161q0 -78 39.5 -127.5t104.5 -49.5q54 0 84 33.5z" />
    <glyph glyph-name="nine" unicode="9" horiz-adv-x="489" 
d="M86 335q-42 49 -42 122q0 53 25.5 93.5t70 63t100.5 22.5q94 0 143.5 -65t49.5 -175q0 -98 -39.5 -190t-113.5 -152t-173 -66q-3 -1 -4.5 4.5t2.5 6.5q80 18 135.5 76t83.5 139t28 169q0 100 -35 167t-101 67q-47 0 -69 -36t-22 -100q0 -78 29.5 -122t79.5 -44
q35 0 68 27q1 1 3 1q3 0 5.5 -3.5t0.5 -5.5q-20 -23 -48.5 -35.5t-62.5 -12.5q-72 0 -114 49z" />
    <glyph glyph-name="colon" unicode=":" horiz-adv-x="200" 
d="M65.5 283.5q-13.5 13.5 -13.5 35.5t13 34.5t36 12.5t35.5 -12.5t12.5 -34.5q0 -23 -12.5 -36t-35.5 -13q-22 0 -35.5 13.5zM65.5 2.5q-13.5 13.5 -13.5 35.5t13 34.5t36 12.5t35.5 -12.5t12.5 -34.5q0 -23 -12.5 -36t-35.5 -13q-22 0 -35.5 13.5z" />
    <glyph glyph-name="semicolon" unicode=";" horiz-adv-x="227" 
d="M67.5 283.5q-13.5 13.5 -13.5 35.5t13 34.5t36 12.5t35.5 -12.5t12.5 -34.5q0 -23 -12.5 -36t-35.5 -13q-22 0 -35.5 13.5zM155 58q18 -24 18 -68q0 -42 -18.5 -77.5t-55.5 -71.5q-1 -1 -3 -1q-3 0 -5 3t0 5q49 50 49 118q0 28 -10 41q-9 -15 -33 -15q-20 0 -31.5 12.5
t-11.5 32.5q0 22 13.5 33.5t38.5 11.5q31 0 49 -24z" />
    <glyph glyph-name="less" unicode="&#x3c;" horiz-adv-x="407" 
d="M377 43q0 -21 -7 -18l-334 148q-5 3 -5 17q0 15 5 17l334 147q3 2 5 -3.5t2 -14.5q0 -21 -7 -25l-285 -121l285 -121q7 -3 7 -26z" />
    <glyph glyph-name="equal" unicode="=" horiz-adv-x="468" 
d="M30.5 246q-1.5 7 -1.5 15q0 7 1 13t3 6h401q2 0 3.5 -6.5t1.5 -13.5q0 -8 -1.5 -14.5t-3.5 -6.5h-400q-2 0 -3.5 7zM30.5 106q-1.5 7 -1.5 15q0 7 1 13t3 6h401q2 0 3.5 -6.5t1.5 -13.5q0 -8 -1.5 -14.5t-3.5 -6.5h-400q-2 0 -3.5 7z" />
    <glyph glyph-name="greater" unicode="&#x3e;" horiz-adv-x="407" 
d="M376 189q0 -14 -5 -17l-334 -147q-3 -1 -5 4.5t-2 13.5t2 16t5 9l285 121l-285 121q-3 2 -5 10t-2 16q0 9 2 14.5t5 3.5l334 -148q5 -2 5 -17z" />
    <glyph glyph-name="question" unicode="?" horiz-adv-x="332" 
d="M132.5 598q-7.5 -12 -10.5 -33q-3 -23 -12 -37.5t-32 -14.5q-19 0 -29 11.5t-10 26.5q0 31 36 52.5t88 21.5q61 0 101 -31t40 -89q0 -31 -11.5 -54t-24.5 -35.5t-47 -43.5q-33 -31 -47 -60t-14 -64q0 -17 5 -54v-1q0 -2 -6 -3.5t-7 1.5q-11 26 -18.5 61.5t-7.5 58.5
q0 31 11.5 51t34.5 45q25 26 38 49.5t13 61.5q0 41 -17 66.5t-45 25.5q-21 0 -28.5 -12zM113.5 2.5q-13.5 13.5 -13.5 35.5t13 34.5t36 12.5t35.5 -12.5t12.5 -34.5q0 -23 -12.5 -36t-35.5 -13q-22 0 -35.5 13.5z" />
    <glyph glyph-name="at" unicode="@" horiz-adv-x="722" 
d="M408 113q0 13 3 28l7 35q-34 -57 -75.5 -91t-77.5 -34q-24 0 -38.5 15t-14.5 47q0 13 1 20q8 54 41.5 106t78.5 85t85 33q14 0 27 -5.5t22 -16.5q8 5 14.5 12.5t7.5 16.5q2 2 6 2t7.5 -1t4.5 -2l-41 -224q-3 -15 -3 -29q0 -18 8 -27t28 -9q26 0 53 19t44.5 56t17.5 87
q0 65 -32 119.5t-88.5 86t-125.5 31.5q-76 0 -132 -37.5t-86 -100t-30 -136.5q0 -80 34.5 -140.5t97 -93.5t144.5 -33q47 0 84 10.5t82 37.5h1q2 0 4.5 -3.5t0.5 -4.5q-89 -72 -206 -72q-82 0 -148 33t-104.5 95t-38.5 146q0 92 46 165.5t122 115t162 41.5q76 0 134 -31.5
t90 -84t32 -114.5q0 -56 -26 -105t-69.5 -78.5t-94.5 -29.5q-59 0 -59 60zM351.5 124q28.5 26 52 66.5t32.5 81.5q2 12 2 17q0 20 -9.5 32.5t-27.5 12.5q-25 0 -51 -22.5t-46 -60t-27 -79.5q-3 -19 -3 -35q0 -39 25 -39q24 0 52.5 26z" />
    <glyph glyph-name="A" unicode="A" 
d="M709 6q0 -6 -4 -6q-19 0 -61 2q-40 2 -59 2q-23 0 -57 -2t-51 -2q-4 0 -4 6t4 6q34 0 49 6.5t15 23.5t-15 47l-112 232h-184l-82 -189q-14 -33 -14 -55q0 -65 97 -65q5 0 5 -6t-5 -6q-18 0 -52 2q-38 2 -66 2q-26 0 -62 -2q-32 -2 -52 -2q-4 0 -4 6t4 6q28 0 47.5 11
t37.5 38t41 80l213 491q1 3 7 3.5t7 -3.5l241 -495q34 -73 58 -99t54 -26q4 0 4 -6zM239 344h164l-86 180z" />
    <glyph glyph-name="B" unicode="B" horiz-adv-x="570" 
d="M470 298q49 -47 49 -115q0 -53 -27.5 -95.5t-75 -67t-106.5 -24.5q-32 0 -70 3q-14 1 -33 2t-43 1l-70 -1q-19 -1 -51 -1q-3 0 -3 6t3 6q35 0 51.5 5.5t23.5 19.5t7 44v463q0 30 -6.5 44t-23 19.5t-51.5 5.5q-2 0 -2 6t2 6l50 -1q44 -2 70 -2q27 0 59 3q11 1 26.5 2
t33.5 1q86 0 131 -35.5t45 -95.5q0 -48 -31 -86.5t-87 -58.5q80 -7 129 -54zM227.5 606q-12.5 -5 -18 -19.5t-5.5 -44.5v-190l44 -1q66 0 99 38t33 100q0 57 -28.5 89.5t-87.5 32.5q-24 0 -36.5 -5zM399.5 53q34.5 37 34.5 106q0 76 -42 122t-119 47q-27 1 -69 -2v-245
q0 -25 7 -38.5t26 -20t57 -6.5q71 0 105.5 37z" />
    <glyph glyph-name="C" unicode="C" horiz-adv-x="669" 
d="M512 627.5q49 -8.5 78 -23.5q8 -4 10.5 -8.5t4.5 -15.5l11 -121q0 -3 -5 -3.5t-6 2.5q-26 78 -85 116.5t-142 38.5q-73 0 -127 -33.5t-82.5 -94.5t-28.5 -141q0 -93 36 -171t97.5 -123.5t134.5 -45.5q144 0 206 165q0 3 4 3q3 0 5.5 -1t2.5 -3l-14 -121
q-2 -12 -4.5 -15.5t-11.5 -7.5q-92 -36 -188 -36q-121 0 -202 48.5t-119 123.5t-38 157q0 93 51.5 165.5t136 113t180.5 40.5q46 0 95 -8.5z" />
    <glyph glyph-name="D" unicode="D" horiz-adv-x="696" 
d="M241 -1q-15 1 -37 2t-49 1l-70 -1q-19 -1 -52 -1q-2 0 -2 6t2 6q36 0 53 5t23 19.5t6 44.5v463q0 30 -6 44t-22.5 19.5t-51.5 5.5q-3 0 -3 6t3 6l50 -1q44 -2 70 -2q38 0 77 3q48 2 64 2q103 0 183 -40t124 -109t44 -155q0 -97 -45.5 -171.5t-122.5 -115t-169 -40.5
q-30 0 -69 3zM432.5 47.5q57.5 33.5 90 98t32.5 155.5q0 87 -30.5 157.5t-87 111t-131.5 40.5q-43 0 -66 -5t-34 -19.5t-11 -43.5v-450q0 -43 21.5 -60.5t83.5 -17.5q75 0 132.5 33.5z" />
    <glyph glyph-name="E" unicode="E" horiz-adv-x="542" 
d="M486 154q3 0 5.5 -1.5t2.5 -2.5q-10 -72 -10 -135q0 -8 -3 -11.5t-12 -3.5h-426q-3 0 -3 6t3 6q36 0 52 5t22 19.5t6 44.5v463q0 30 -6 44t-22.5 19.5t-51.5 5.5q-3 0 -3 6t3 6h408q10 0 10 -9l2 -126q0 -3 -5.5 -3.5t-6.5 2.5q-7 55 -39 83.5t-84 28.5h-51
q-44 0 -59 -12.5t-15 -48.5v-203h110q51 0 75 17.5t24 54.5q0 2 5.5 2t5.5 -2l-1 -84l1 -45q2 -32 2 -50q0 -2 -6 -2t-6 2q0 43 -24.5 63.5t-78.5 20.5h-107v-229q0 -36 13.5 -49t54.5 -13h65q57 0 94.5 33.5t51.5 95.5q0 2 4 2z" />
    <glyph glyph-name="F" unicode="F" horiz-adv-x="513" 
d="M463 490q0 -3 -5.5 -3.5t-6.5 2.5q-7 55 -39 83.5t-84 28.5h-51q-43 0 -58.5 -12t-15.5 -46v-218h92q54 0 79.5 18t25.5 54q0 2 6 2t6 -2l-1 -84q0 -30 1 -45l1 -50q0 -2 -6 -2t-6 2q0 43 -26 63.5t-83 20.5h-89v-217q0 -32 8.5 -46.5t32.5 -20.5t76 -6q2 0 2 -6t-2 -6
q-41 0 -64 1l-94 1l-70 -1q-19 -1 -53 -1q-2 0 -2 6t2 6q37 0 54.5 5t23.5 19.5t6 44.5v463q0 30 -6 44t-22.5 19.5t-51.5 5.5q-3 0 -3 6t3 6h408q10 0 10 -9z" />
    <glyph glyph-name="G" unicode="G" horiz-adv-x="716" 
d="M216 30q-81 42 -124 114t-43 161q0 97 49.5 172t136 117t194.5 42q48 0 93.5 -9t74.5 -24q8 -5 10 -9t3 -14l13 -121q0 -3 -5.5 -3.5t-6.5 2.5q-26 74 -85 114t-142 40q-118 0 -182 -72t-64 -198q0 -98 38 -174.5t104.5 -119.5t150.5 -43q48 0 74 9t38 35t12 77
q0 52 -6.5 72.5t-28 27.5t-74.5 7q-6 0 -6 8q0 3 1.5 5.5t3.5 2.5q80 -5 130 -5q47 0 100 3q2 0 3.5 -2.5t1.5 -4.5q0 -7 -5 -7q-22 1 -31 -6.5t-11.5 -30.5t-2.5 -80q0 -45 3.5 -64t3.5 -24q0 -6 -2.5 -7.5t-9.5 -4.5q-123 -28 -219 -28q-109 0 -190 42z" />
    <glyph glyph-name="H" unicode="H" horiz-adv-x="761" 
d="M728 6q0 -6 -3 -6q-32 0 -51 1l-72 1l-79 -1q-17 -1 -47 -1q-3 0 -3 6t3 6q38 0 56 5t24 19.5t6 44.5v233h-364v-233q0 -30 6 -44.5t24 -19.5t56 -5q2 0 2 -6t-2 -6q-32 0 -51 1l-77 1l-71 -1q-19 -1 -52 -1q-2 0 -2 6t2 6q37 0 54.5 5t24 19.5t6.5 44.5v463q0 30 -6 44
t-23 19.5t-54 5.5q-3 0 -3 6t3 6l51 -1q42 -2 70 -2q32 0 78 2l50 1q2 0 2 -6t-2 -6q-37 0 -55 -6t-24.5 -20.5t-6.5 -44.5v-205h364v205q0 30 -6.5 44.5t-24 20.5t-55.5 6q-3 0 -3 6t3 6l47 -1q46 -2 79 -2q28 0 72 2l51 1q3 0 3 -6t-3 -6q-37 0 -54 -5.5t-23.5 -19.5
t-6.5 -44v-463q0 -30 6.5 -44.5t23.5 -19.5t54 -5q3 0 3 -6z" />
    <glyph glyph-name="I" unicode="I" horiz-adv-x="335" 
d="M214 36.5q6 -14.5 22.5 -19.5t52.5 -5q2 0 2 -6t-2 -6q-32 0 -50 1l-72 1l-70 -1q-19 -1 -52 -1q-2 0 -2 6t2 6q36 0 53 5t23 19.5t6 44.5v463q0 30 -6 44t-23 19.5t-53 5.5q-2 0 -2 6t2 6l52 -1q44 -2 70 -2q29 0 73 2l49 1q2 0 2 -6t-2 -6q-35 0 -52 -6t-23 -20.5
t-6 -44.5v-461q0 -30 6 -44.5z" />
    <glyph glyph-name="J" unicode="J" horiz-adv-x="328" 
d="M288 619q0 -6 -2 -6q-31 0 -45 -6t-19 -20.5t-5 -44.5v-562q0 -104 -49 -163.5t-140 -59.5q-35 0 -56 13t-21 35q0 17 10 28t29 11q20 0 30.5 -9.5t20.5 -28.5q9 -16 15.5 -22.5t17.5 -6.5q31 0 46.5 39t15.5 127v601q0 30 -7 44t-26.5 19.5t-60.5 5.5q-2 0 -2 6t2 6
l59 -1q46 -2 74 -2q26 0 66 2l45 1q2 0 2 -6z" />
    <glyph glyph-name="K" unicode="K" horiz-adv-x="652" 
d="M651 6q0 -6 -3 -6h-112l-31 -1q-14 0 -21.5 4t-17 15t-31.5 41q-9 11 -24 31.5t-41 54.5l-145 188l-30 -29v-223q0 -30 6 -44.5t22.5 -19.5t52.5 -5q3 0 3 -6t-3 -6q-32 0 -50 1l-71 1l-70 -1q-19 -1 -52 -1q-2 0 -2 6t2 6q36 0 53 5t23 19.5t6 44.5v463q0 30 -6 44
t-22.5 19.5t-51.5 5.5q-3 0 -3 6t3 6l50 -1q44 -2 70 -2q28 0 72 2l49 1q2 0 2 -6t-2 -6q-35 0 -52 -6t-23 -20.5t-6 -44.5v-212l205 207q32 32 32 50q0 26 -59 26q-3 0 -3 6t3 6l44 -1q40 -2 76 -2t74 2l40 1q3 0 3 -6t-3 -6q-43 0 -92 -20.5t-90 -61.5l-144 -143l145 -189
q71 -94 107.5 -132.5t57 -46.5t57.5 -8q3 0 3 -6z" />
    <glyph glyph-name="L" unicode="L" horiz-adv-x="537" 
d="M194 85q0 -28 5.5 -40.5t20.5 -17t47 -4.5h85q63 0 104.5 37.5t55.5 101.5q0 3 5.5 2.5t5.5 -3.5q-9 -88 -9 -146q0 -8 -3.5 -11.5t-11.5 -3.5h-466q-2 0 -2 6t2 6q36 0 52.5 5t22.5 19.5t6 44.5v463q0 30 -6 44t-22.5 19.5t-52.5 5.5q-2 0 -2 6t2 6l50 -1q44 -2 71 -2
t71 2l50 1q2 0 2 -6t-2 -6q-35 0 -52 -5.5t-23 -20t-6 -44.5v-458z" />
    <glyph glyph-name="M" unicode="M" horiz-adv-x="842" 
d="M821 6q0 -6 -2 -6q-32 0 -51 1l-71 1l-67 -1q-17 -1 -47 -1q-3 0 -3 6t3 6q44 0 59.5 10t15.5 42l-1 17l-19 440l-221 -514q-2 -4 -8 -4t-8 4l-249 510l-8 -402q-1 -53 19 -78t65 -25q3 0 3 -6t-3 -6q-27 0 -42 1l-55 1l-55 -1q-14 -1 -41 -1q-2 0 -2 6t2 6q83 0 84 103
l9 448q-32 50 -86 50q-2 0 -2 6t2 6l40 -1q12 -1 31 -1q22 0 36 1t22 1q13 0 21 -9t25 -43l222 -451l209 478q10 25 30 25q6 0 16 -1t26 -1l51 1q12 1 35 1q3 0 3 -6t-3 -6q-49 0 -70.5 -16t-20.5 -56l22 -460q2 -31 8 -45t22 -19t52 -5q2 0 2 -6z" />
    <glyph glyph-name="N" unicode="N" horiz-adv-x="730" 
d="M713 619q0 -6 -3 -6q-82 0 -82 -104v-522q0 -2 -4.5 -3t-6.5 1l-469 556v-426q0 -53 19.5 -78t59.5 -25q3 0 3 -6t-3 -6q-26 0 -40 1l-51 1l-54 -1q-15 -1 -44 -1q-2 0 -2 6t2 6q43 0 63.5 25t20.5 78v454q-44 44 -87 44q-3 0 -3 6t3 6l39 -1q12 -1 34 -1l52 1q9 1 23 1
q8 0 11.5 -3.5t11.5 -15.5q9 -14 25 -33l372 -449v385q0 53 -19 78.5t-59 25.5q-2 0 -2 6t2 6l40 -1q30 -2 51 -2q18 0 52 2l42 1q3 0 3 -6z" />
    <glyph glyph-name="O" unicode="O" horiz-adv-x="766" 
d="M200.5 31.5q-72.5 43.5 -112 118t-39.5 162.5q0 103 52 176.5t133.5 110.5t166.5 37q95 0 167 -44.5t110.5 -117.5t38.5 -155q0 -91 -48 -167t-128.5 -120t-174.5 -44q-93 0 -165.5 43.5zM516 43q51 33 80.5 96.5t29.5 151.5q0 93 -32.5 166t-93 114t-140.5 41
q-104 0 -162 -70.5t-58 -194.5q0 -95 33 -172t92.5 -121t135.5 -44q64 0 115 33z" />
    <glyph glyph-name="P" unicode="P" horiz-adv-x="546" 
d="M208 38.5q8 -14.5 30.5 -20.5t72.5 -6q3 0 3 -6t-3 -6q-41 0 -64 1l-87 1l-69 -1q-19 -1 -52 -1q-2 0 -2 6t2 6q36 0 52.5 5t22.5 19.5t6 44.5v463q0 30 -6 44t-22.5 19.5t-52.5 5.5q-2 0 -2 6t2 6l52 -1q42 -2 68 -2q24 0 57 3q12 0 37.5 1.5t44.5 1.5q94 0 151 -41.5
t57 -125.5q0 -65 -32.5 -110t-83 -67t-104.5 -22q-29 0 -48 5q-3 0 -3 5q0 3 1.5 6t3.5 2q16 -4 36 -4q59 0 100 43t41 124q0 79 -40 123.5t-106 44.5q-30 0 -44.5 -4.5t-20.5 -19t-6 -45.5v-457q0 -32 8 -46.5z" />
    <glyph glyph-name="Q" unicode="Q" horiz-adv-x="766" 
d="M746 -167q2 0 3.5 -4.5t-0.5 -5.5q-48 -12 -84 -12q-71 0 -150 47t-135 130h-14q-93 0 -165.5 43.5t-112 118t-39.5 162.5q0 103 52 176.5t133.5 110.5t166.5 37q95 0 167 -44.5t110.5 -117.5t38.5 -155q0 -73 -31.5 -137t-86.5 -110t-124 -68q41 -76 107.5 -124.5
t126.5 -48.5q18 0 36 2h1zM173 175q33 -77 92.5 -121t135.5 -44q64 0 115 33t80.5 96.5t29.5 151.5q0 93 -32.5 166t-93 114t-140.5 41q-104 0 -162 -70.5t-58 -194.5q0 -95 33 -172z" />
    <glyph glyph-name="R" unicode="R" horiz-adv-x="681" 
d="M693 6q0 -6 -2 -6h-145q-24 0 -90.5 85.5t-158.5 234.5q-23 -5 -44 -5q-19 0 -49 2v-236q0 -30 6 -44.5t22.5 -19.5t52.5 -5q3 0 3 -6t-3 -6q-31 0 -49 1l-72 1l-70 -1q-19 -1 -51 -1q-3 0 -3 6t3 6q36 0 53 5t23 19.5t6 44.5v463q0 30 -6 44t-22.5 19.5t-52.5 5.5
q-2 0 -2 6t2 6l50 -1q44 -2 70 -2q18 0 34 1t28 2q33 3 62 3q85 0 131 -33.5t46 -92.5q0 -47 -28 -89t-73 -68q84 -127 140.5 -198.5t100.5 -103t86 -31.5q2 0 2 -6zM263 339q64 0 91.5 28.5t27.5 98.5q0 79 -30 112t-83 33q-26 0 -39.5 -5t-19.5 -19.5t-6 -44.5v-199
q38 -4 59 -4z" />
    <glyph glyph-name="S" unicode="S" horiz-adv-x="499" 
d="M173 446.5q19 -28.5 46 -49t75 -49.5q50 -31 79.5 -53.5t50.5 -55.5t21 -78q0 -49 -25.5 -88.5t-73 -62t-110.5 -22.5q-40 0 -79 9.5t-68 27.5q-5 3 -7 7t-2 12l-10 143q-1 4 4.5 5t6.5 -3q24 -76 67 -129t112 -53q47 0 78.5 25.5t31.5 83.5q0 44 -20 77t-48.5 55.5
t-76.5 51.5q-47 30 -74.5 51.5t-46.5 53t-19 73.5q0 51 27.5 87t72 53.5t93.5 17.5q67 0 121 -23q15 -6 15 -18l5 -125q0 -4 -5 -5t-6 3q-11 54 -47 102.5t-102 48.5q-50 0 -77.5 -30t-27.5 -76q0 -38 19 -66.5z" />
    <glyph glyph-name="T" unicode="T" horiz-adv-x="637" 
d="M102 570.5q-35 -34.5 -52 -110.5q-1 -2 -6.5 -2t-5.5 2q4 29 9 92t5 95q0 5 6 5t6 -5q0 -22 55 -22q85 -3 201 -3q59 0 125 2l68 1q37 0 54 5t22 20q1 4 6.5 4t5.5 -4q-3 -28 -6.5 -90t-3.5 -100q0 -2 -5.5 -2t-5.5 2q-7 77 -40 111t-98 34q-37 0 -53 -4.5t-22 -17
t-6 -41.5v-461q0 -31 6.5 -45t25.5 -19t61 -5q2 0 2 -6t-2 -6q-35 0 -55 1l-79 1l-77 -1q-20 -1 -56 -1q-3 0 -3 6t3 6q41 0 60 5t26 19.5t7 44.5v463q0 28 -6 40.5t-22 16.5t-53 4q-62 0 -97 -34.5z" />
    <glyph glyph-name="U" unicode="U" horiz-adv-x="761" 
d="M729 6q0 -6 -3 -6l-82 1l-58 -1q-12 0 -15.5 3t-3.5 16v74q-59 -55 -115.5 -80t-122.5 -25q-64 0 -115 24t-80.5 69t-29.5 105v358q0 30 -6 44t-22.5 19.5t-52.5 5.5q-3 0 -3 6t3 6l50 -1q44 -2 70 -2q29 0 73 2l48 1q3 0 3 -6t-3 -6q-35 0 -52 -6t-23 -20.5t-6 -44.5
v-321q0 -98 48 -149.5t130 -51.5q54 0 102.5 22.5t103.5 73.5v426q0 30 -6 44.5t-22.5 20.5t-52.5 6q-2 0 -2 6t2 6l50 -1q44 -2 70 -2q27 0 69 2l51 1q3 0 3 -6t-3 -6q-36 0 -53 -5.5t-23 -19.5t-6 -44v-463q0 -30 6 -44.5t23 -19.5t53 -5q3 0 3 -6z" />
    <glyph glyph-name="V" unicode="V" horiz-adv-x="664" 
d="M671 619q0 -6 -3 -6q-72 0 -108 -91l-204 -521q-1 -4 -11 -4t-11 4l-251 541q-18 38 -36.5 54.5t-45.5 16.5q-3 0 -3 6t3 6l31 -1q26 -2 49 -2q55 0 105 2q16 1 41 1q3 0 3 -6t-3 -6q-62 0 -62 -39q0 -14 9 -35l198 -430l164 417q8 22 8 38q0 49 -76 49q-3 0 -3 6t3 6
l45 -1q36 -2 66 -2q21 0 47 2l42 1q3 0 3 -6z" />
    <glyph glyph-name="W" unicode="W" horiz-adv-x="915" 
d="M922 619q0 -6 -3 -6q-36 0 -65.5 -22.5t-42.5 -68.5l-150 -521q0 -4 -11 -4q-10 0 -11 4l-192 499l-152 -499q0 -4 -11 -4q-9 0 -12 4l-189 541q-14 41 -32.5 56t-49.5 15q-3 0 -3 6t3 6l31 -1q26 -2 49 -2q57 0 111 2q16 1 40 1q3 0 3 -6t-3 -6q-69 0 -69 -44
q0 -12 6 -30l141 -404l150 490q2 3 12 3t11 -3l190 -495l112 392q5 20 5 32q0 59 -89 59q-2 0 -2 6t2 6l53 -1q44 -2 77 -2q19 0 47 2l41 1q3 0 3 -6z" />
    <glyph glyph-name="X" unicode="X" horiz-adv-x="650" 
d="M640 6q0 -6 -2 -6q-27 0 -43 1l-56 1l-78 -1q-19 -1 -51 -1q-2 0 -2 6t2 6q23 0 34 4t11 13t-9 22l-147 225l-114 -162q-28 -38 -28 -65q0 -37 56 -37q3 0 3 -6t-3 -6q-31 0 -47 1l-70 1l-45 -1q-12 -1 -38 -1q-3 0 -3 6t3 6q33 0 70.5 26.5t76.5 78.5l129 175l-161 246
q-27 41 -52 58t-58 17q-2 0 -2 6t2 6l40 -1q26 -2 39 -2q34 0 84 2l53 1q3 0 3 -6t-3 -6q-23 0 -34 -4t-11 -14q0 -8 9 -22l142 -217l106 150q31 45 31 70q0 37 -55 37q-3 0 -3 6t3 6l46 -1q40 -2 71 -2q18 0 44 2l38 1q3 0 3 -6t-3 -6q-33 0 -72 -28t-78 -83l-120 -163
l168 -256q26 -39 53 -55t66 -16q2 0 2 -6z" />
    <glyph glyph-name="Y" unicode="Y" horiz-adv-x="612" 
d="M619 619q0 -6 -2 -6q-34 0 -73.5 -30.5t-70.5 -80.5l-124 -195v-226q0 -31 5.5 -45t22 -19t52.5 -5q3 0 3 -6t-3 -6q-31 0 -49 1l-72 1l-70 -1q-18 -1 -51 -1q-3 0 -3 6t3 6q36 0 53 5t23 19.5t6 44.5v209l-159 237q-32 48 -56.5 67t-52.5 19q-3 0 -3 6t3 6q11 0 35 -2
l33 -1q33 0 91 2l58 1q2 0 2 -6t-2 -6q-47 0 -47 -24q0 -11 11 -28l154 -230l112 177q24 39 24 64q0 20 -14 30.5t-41 10.5q-3 0 -3 6t3 6l49 -1q40 -2 73 -2q17 0 41 2l37 1q2 0 2 -6z" />
    <glyph glyph-name="Z" unicode="Z" horiz-adv-x="598" 
d="M438 600q3 5 2.5 6.5t-7.5 1.5q-157 0 -221 -6.5t-93.5 -29.5t-52.5 -81q-2 -2 -4 -2q-3 0 -6 1.5t-2 2.5l40 162q0 1 4 1q10 0 8 -3q-1 -3 -1 -8q0 -12 11.5 -16t46.5 -4h365q5 0 7.5 -5t-0.5 -8l-376 -585q-4 -5 -3 -6.5t7 -1.5h238q63 0 102 31.5t50 90.5q1 2 6 2
t5 -2l-14 -133q0 -3 -2.5 -6.5t-6.5 -3.5q-149 2 -479 2q-4 0 -6 4.5t1 8.5z" />
    <glyph glyph-name="bracketleft" unicode="[" horiz-adv-x="274" 
d="M82 715q0 7 1.5 8.5t7.5 1.5h145q3 0 3 -6t-3 -6q-36 0 -53.5 -6t-23.5 -20.5t-6 -44.5v-676q0 -30 6 -44.5t23.5 -20.5t53.5 -6q3 0 3 -6t-3 -6h-145q-6 0 -7.5 2t-1.5 9v821z" />
    <glyph glyph-name="backslash" unicode="\" horiz-adv-x="344" 
d="M26 717q-2 5 18 11t22 2l252 -882q2 -4 -18.5 -10t-22.5 -2z" />
    <glyph glyph-name="bracketright" unicode="]" horiz-adv-x="274" 
d="M190.5 -115q-1.5 -2 -7.5 -2h-145q-3 0 -3 6t3 6q36 0 53.5 6t23.5 20.5t6 44.5v676q0 30 -6 44.5t-23.5 20.5t-53.5 6q-3 0 -3 6t3 6h145q6 0 7.5 -1.5t1.5 -8.5v-821q0 -7 -1.5 -9z" />
    <glyph glyph-name="asciicircum" unicode="^" horiz-adv-x="392" 
d="M333 379q0 -2 -4 -4t-5 0l-128 160l-128 -160q-1 -1 -3 -1t-5 2.5t-2 3.5l127 249q1 5 11 5t11 -5l126 -249v-1z" />
    <glyph glyph-name="underscore" unicode="_" horiz-adv-x="398" 
d="M30.5 -70.5q-1.5 7.5 -1.5 15.5q0 7 1.5 13.5t2.5 6.5h331q2 0 3.5 -7t1.5 -15t-1.5 -14.5t-3.5 -6.5h-330q-2 0 -3.5 7.5z" />
    <glyph glyph-name="grave" unicode="`" horiz-adv-x="213" 
d="M46 731q16 0 39 -5.5t24 -9.5l45 -240q1 -2 -4 -3.5t-6 1.5l-108 253q-1 4 10 4z" />
    <glyph glyph-name="a" unicode="a" horiz-adv-x="490" 
d="M484 61q3 0 4.5 -5t-1.5 -6l-123 -60q-2 -1 -5 -1q-8 0 -16.5 22t-10.5 56q-35 -36 -71 -57t-80 -21q-62 0 -104 45.5t-42 127.5q0 72 33.5 126t86 82.5t107.5 28.5q53 0 97 -29q20 10 31 26q1 1 3 1t4.5 -1.5t2.5 -2.5v-286q0 -32 7.5 -46t25.5 -14q13 0 49 13zM332 84
v208q0 37 -28 62t-67 25q-56 0 -90 -52t-34 -134q0 -75 28.5 -119.5t78.5 -44.5q53 0 112 55z" />
    <glyph glyph-name="b" unicode="b" horiz-adv-x="512" 
d="M395 378q37 -21 59 -62.5t22 -101.5q0 -73 -31 -124t-81 -77t-106 -26q-77 0 -138 45l-81 -37h-2q-4 0 -4.5 3.5t2.5 5.5q29 20 42 41t13 58v491q0 36 -7 52t-25 16q-14 0 -43 -13h-2q-3 0 -4.5 5t1.5 6l132 64l5 1q3 0 7 -3t4 -7v-396q34 36 72 58t84 22q44 0 81 -21z
M369.5 51q29.5 45 29.5 127q0 89 -33.5 135.5t-89.5 46.5q-54 0 -118 -58v-160q0 -47 21 -77.5t50.5 -44.5t57.5 -14q53 0 82.5 45z" />
    <glyph glyph-name="c" unicode="c" horiz-adv-x="415" 
d="M122.5 16.5q-44.5 28.5 -66 73.5t-21.5 95q0 64 33 111.5t85 73t106 25.5q45 0 82 -18.5t37 -46.5q0 -15 -11 -26t-30 -11q-33 0 -50 39q-11 23 -24 33t-39 10q-52 0 -81.5 -43.5t-29.5 -115.5q0 -83 40 -136t123 -53q55 0 100 31h2q3 0 5.5 -3t-0.5 -5q-35 -32 -71 -47
t-80 -15q-65 0 -109.5 28.5z" />
    <glyph glyph-name="d" unicode="d" horiz-adv-x="512" 
d="M506 60q3 0 5 -5t-1 -7l-119 -57q-6 -2 -7 -2q-12 0 -21 21t-10 58q-36 -37 -75 -59t-87 -22q-42 0 -78 23.5t-57 67.5t-21 101q0 73 35 122.5t87.5 73.5t105.5 24q46 0 90 -21v216q0 37 -7 52.5t-25 15.5q-13 0 -43 -14h-1q-4 0 -6 5t1 7l133 64q2 1 5 1t7.5 -3t4.5 -7
v-603q0 -35 7.5 -50.5t25.5 -15.5q23 0 49 13zM297 42.5q28 15.5 56 43.5v229q-21 30 -48.5 46t-64.5 16q-60 0 -94 -42t-34 -125q0 -84 34.5 -133.5t88.5 -49.5q34 0 62 15.5z" />
    <glyph glyph-name="e" unicode="e" horiz-adv-x="411" 
d="M371 59q3 0 5.5 -3.5t0.5 -6.5q-35 -32 -71.5 -46.5t-78.5 -14.5q-60 0 -103.5 26.5t-66 70.5t-22.5 95q0 59 28.5 108.5t79 78t111.5 28.5q56 0 87 -26.5t31 -72.5q0 -25 -11 -25h-48l-197 -2q-4 -20 -4 -49q0 -86 41.5 -139t114.5 -53q58 0 102 31h1zM156 351.5
q-26 -23.5 -37 -66.5l172 4q-1 40 -20 63t-52 23q-37 0 -63 -23.5z" />
    <glyph glyph-name="f" unicode="f" horiz-adv-x="305" 
d="M404 710.5q32 -15.5 32 -39.5q0 -18 -12 -27.5t-28 -9.5t-25.5 7.5t-19.5 23.5q-13 21 -28.5 31.5t-39.5 10.5q-54 0 -86 -66t-32 -202v-64q63 3 123 10q3 0 5 -7t2 -16q0 -8 -3.5 -17t-6.5 -8q-56 13 -120 15v-271q0 -31 6.5 -45t26.5 -19t63 -5q3 0 3 -6t-3 -6l-67 1
q-21 1 -64 1l-58 -1q-15 -1 -42 -1q-3 0 -3 6t3 6q29 0 42.5 5t18.5 19.5t5 44.5v225q0 24 -5 35t-19 14.5t-46 3.5q-3 0 -3 7t3 7q39 0 53.5 9.5t15.5 35.5q5 163 60 235.5t164 72.5q53 0 85 -15.5z" />
    <glyph glyph-name="g" unicode="g" horiz-adv-x="467" 
d="M393 397q2 0 4.5 -1.5t2.5 -2.5v-463q0 -95 -54 -153t-150 -58q-62 0 -101 20.5t-39 54.5q0 20 11 29.5t26 9.5q18 0 29 -9.5t23 -29.5q18 -27 36 -40.5t54 -13.5q45 0 71 35.5t26 130.5v161q-35 -36 -71.5 -57t-79.5 -21q-62 0 -104 45.5t-42 127.5q0 72 33.5 126
t86 82.5t107.5 28.5q53 0 97 -29q20 10 31 26q1 1 3 1zM332 84v208q0 37 -28 62t-67 25q-56 0 -90 -52t-34 -134q0 -75 28.5 -119.5t78.5 -44.5q53 0 112 55z" />
    <glyph glyph-name="h" unicode="h" horiz-adv-x="502" 
d="M485 6q0 -6 -3 -6q-25 0 -39 1l-55 1l-57 -1q-14 -1 -38 -1q-2 0 -2 6t2 6q37 0 48.5 13.5t11.5 55.5v154q0 58 -21.5 85.5t-66.5 27.5q-29 0 -59 -14.5t-54 -39.5v-213q0 -42 12 -55.5t49 -13.5q3 0 3 -6t-3 -6q-25 0 -39 1l-55 1l-57 -1q-14 -1 -38 -1q-2 0 -2 6t2 6
q37 0 48.5 13.5t11.5 55.5v514q0 36 -6.5 51.5t-23.5 15.5q-18 0 -44 -13h-2q-3 0 -5 5t1 6l134 65h3q4 0 7.5 -3t3.5 -7v-402q73 84 154 84q55 0 85 -32t30 -91v-193q0 -42 12 -55.5t49 -13.5q3 0 3 -6z" />
    <glyph glyph-name="i" unicode="i" horiz-adv-x="270" 
d="M100.5 519q-13.5 13 -13.5 36q0 22 13.5 34.5t36.5 12.5q22 0 34.5 -12.5t12.5 -34.5q0 -23 -12.5 -36t-34.5 -13q-23 0 -36.5 13zM46 6q0 6 3 6q36 0 48 13.5t12 55.5v184q0 36 -7 51.5t-25 15.5q-17 0 -43 -13h-1q-4 0 -6 5.5t2 6.5l136 63l4 1q3 0 6.5 -3t3.5 -7
q0 -7 -1 -40t-1 -78v-186q0 -42 11.5 -55.5t48.5 -13.5q3 0 3 -6t-3 -6q-24 0 -39 1l-55 1l-55 -1q-15 -1 -39 -1q-3 0 -3 6z" />
    <glyph glyph-name="j" unicode="j" horiz-adv-x="259" 
d="M93.5 519q-13.5 13 -13.5 36q0 22 13.5 34.5t36.5 12.5q22 0 34.5 -12.5t12.5 -34.5q0 -23 -12.5 -36t-34.5 -13q-23 0 -36.5 13zM172 345q-1 -33 -1 -78v-315q0 -68 -14 -111.5t-47 -72.5t-91 -50q-2 -1 -4.5 4.5t-0.5 6.5q49 21 69 67t20 133v336q0 36 -7 51.5
t-24 15.5q-16 0 -43 -13h-1q-4 0 -6.5 5.5t1.5 6.5l137 63l3 1q4 0 7 -3t3 -7q0 -7 -1 -40z" />
    <glyph glyph-name="k" unicode="k" horiz-adv-x="491" 
d="M490 6q0 -6 -2 -6q-25 0 -39 1l-56 1l-73 -1q-16 -1 -44 -1q-3 0 -3 6t3 6q45 0 45 20q0 9 -9 21l-119 161l-41 -34v-99q0 -42 12 -55.5t49 -13.5q3 0 3 -6t-3 -6q-25 0 -39 1l-55 1l-57 -1q-14 -1 -38 -1q-2 0 -2 6t2 6q37 0 48.5 13.5t11.5 55.5v514q0 36 -6.5 51.5
t-23.5 15.5q-18 0 -44 -13h-2q-3 0 -5 5t1 6l132 64l5 1q4 0 7.5 -3t3.5 -7v-517l121 104q30 26 30 45q0 12 -13 19.5t-38 7.5q-2 0 -2 6t2 6q28 0 44 -1l74 -1l68 1q14 1 38 1q2 0 2 -6t-2 -6q-39 0 -87.5 -19t-93.5 -57l-51 -42l130 -175q51 -69 114 -69q2 0 2 -6z" />
    <glyph glyph-name="l" unicode="l" horiz-adv-x="261" 
d="M36 6q0 6 2 6q37 0 48.5 13.5t11.5 55.5l1 514q0 36 -7 51.5t-24 15.5t-43 -13h-2q-3 0 -5 5t1 6l134 64l4 1q4 0 8 -3t4 -7v-634q0 -42 11.5 -55.5t47.5 -13.5q4 0 4 -6t-4 -6q-23 0 -37 1l-58 1l-56 -1q-14 -1 -39 -1q-2 0 -2 6z" />
    <glyph glyph-name="m" unicode="m" horiz-adv-x="768" 
d="M751 6q0 -6 -3 -6q-25 0 -39 1l-56 1l-55 -1q-15 -1 -39 -1q-2 0 -2 6t2 6q37 0 49 13.5t12 55.5v154q0 58 -20.5 85.5t-62.5 27.5q-29 0 -58 -15t-51 -41v-13v-198q0 -42 11.5 -55.5t48.5 -13.5q3 0 3 -6t-3 -6q-24 0 -39 1l-55 1l-55 -1q-15 -1 -39 -1q-3 0 -3 6t3 6
q36 0 48 13.5t12 55.5v154q0 58 -20 85.5t-62 27.5q-28 0 -56 -14t-51 -39v-214q0 -42 11.5 -55.5t48.5 -13.5q3 0 3 -6t-3 -6q-24 0 -39 1l-55 1l-56 -1q-14 -1 -38 -1q-3 0 -3 6t3 6q36 0 47.5 13.5t11.5 55.5v195q0 33 -7.5 47.5t-25.5 14.5q-19 0 -53 -14h-2
q-3 0 -4.5 5t1.5 6l124 59q2 1 6 1q10 0 19.5 -22.5t10.5 -58.5q69 83 147 83q45 0 73 -22.5t35 -65.5q73 88 152 88q53 0 81.5 -31t28.5 -92v-193q0 -29 4.5 -43.5t17 -20t38.5 -5.5q3 0 3 -6z" />
    <glyph glyph-name="n" unicode="n" horiz-adv-x="520" 
d="M503 6q0 -6 -3 -6q-24 0 -39 1l-55 1l-55 -1q-15 -1 -39 -1q-3 0 -3 6t3 6q36 0 47.5 13.5t11.5 55.5v156q0 58 -21 85t-67 27q-28 0 -58 -14t-54 -39v-215q0 -42 11.5 -55.5t48.5 -13.5q3 0 3 -6t-3 -6q-24 0 -39 1l-55 1l-56 -1q-14 -1 -38 -1q-3 0 -3 6t3 6
q36 0 47.5 13.5t11.5 55.5v195q0 33 -7.5 47.5t-25.5 14.5q-19 0 -53 -14h-2q-3 0 -4.5 5t1.5 6l124 59q2 1 6 1q10 0 19.5 -22.5t10.5 -58.5q73 85 153 85q55 0 85.5 -32.5t30.5 -90.5v-195q0 -42 11.5 -55.5t48.5 -13.5q3 0 3 -6z" />
    <glyph glyph-name="o" unicode="o" horiz-adv-x="482" 
d="M129 15.5q-45 28.5 -69.5 77t-24.5 105.5q0 65 32 110.5t82 68t102 22.5q59 0 104 -29t69 -76.5t24 -100.5q0 -61 -29.5 -108t-78.5 -72.5t-107 -25.5q-59 0 -104 28.5zM339 45q27 39 27 117q0 65 -19.5 114.5t-53.5 76t-76 26.5q-49 0 -75.5 -37.5t-26.5 -110.5
q0 -63 19 -114.5t52.5 -81t75.5 -29.5q50 0 77 39z" />
    <glyph glyph-name="p" unicode="p" horiz-adv-x="511" 
d="M397.5 377q35.5 -22 56.5 -64t21 -98q0 -77 -33.5 -128.5t-83.5 -75.5t-100 -24q-29 0 -51.5 4.5t-47.5 15.5v-201q0 -30 7 -44t27 -19.5t62 -5.5q3 0 3 -6t-3 -6q-35 0 -55 1l-75 1l-56 -1q-14 -1 -39 -1q-3 0 -3 6t3 6q26 0 39 5.5t17.5 19.5t4.5 44v468q0 34 -8 49.5
t-27 15.5t-51 -15h-1q-4 0 -6.5 5t1.5 6l121 58l6 2q12 0 21.5 -20t11.5 -55q79 79 161 79q42 0 77.5 -22zM368 54.5q31 45.5 31 129.5q0 82 -36 126.5t-92 44.5q-32 0 -58.5 -14t-53.5 -40v-233q26 -29 55 -44t71 -15q52 0 83 45.5z" />
    <glyph glyph-name="q" unicode="q" horiz-adv-x="492" 
d="M481 -269q0 -6 -2 -6q-26 0 -40 1l-56 1l-64 -1q-17 -1 -48 -1q-2 0 -2 6t2 6q34 0 50.5 5.5t22.5 19.5t6 44v261q-35 -36 -72 -58t-84 -22q-43 0 -79.5 21.5t-58 63.5t-21.5 100q0 76 32 127t82 75.5t105 24.5q71 0 136 -37l72 26l2 1q3 0 4 -4.5t-2 -5.5
q-25 -14 -37 -33.5t-12 -50.5v-489q0 -30 4.5 -44t17.5 -19.5t40 -5.5q2 0 2 -6zM350 84v183q0 53 -36 82.5t-87 29.5q-114 0 -114 -172q0 -87 32 -134t87 -47q54 0 118 58z" />
    <glyph glyph-name="r" unicode="r" horiz-adv-x="369" 
d="M326 381.5q20 -13.5 20 -32.5q0 -15 -10 -25.5t-27 -10.5q-10 0 -17 3.5t-12 8t-7 5.5q-8 8 -15.5 12.5t-18.5 4.5q-12 0 -26 -9.5t-42 -41.5v-215q0 -29 7.5 -43.5t27.5 -20t60 -5.5q3 0 3 -6t-3 -6q-33 0 -53 1l-76 1l-56 -1q-14 -1 -38 -1q-3 0 -3 6t3 6
q36 0 47.5 13.5t11.5 55.5v195q0 33 -7.5 47.5t-25.5 14.5q-19 0 -53 -14h-2q-3 0 -4.5 5t1.5 6l124 59q2 1 6 1q10 0 19.5 -22t10.5 -58q41 46 65.5 63t46.5 17q23 0 43 -13.5z" />
    <glyph glyph-name="s" unicode="s" horiz-adv-x="338" 
d="M128.5 275q22.5 -21 64.5 -43q36 -19 55.5 -32.5t33.5 -34.5t14 -52q0 -51 -38.5 -87.5t-105.5 -36.5q-52 0 -98 29q-6 6 -6 12l-2 85q0 3 5.5 3.5t6.5 -2.5q18 -50 50.5 -79t72.5 -29q28 0 43.5 14t15.5 41q0 28 -12 47.5t-29.5 31t-47.5 27.5q-33 16 -52.5 29t-33 34
t-13.5 53q0 56 41 84.5t98 28.5q39 0 76 -15q9 -3 9 -11q0 -22 -1 -34l-1 -45q0 -2 -6 -2t-6 2q0 20 -16 40t-40.5 32.5t-49.5 12.5q-23 0 -36.5 -11.5t-13.5 -37.5q0 -33 22.5 -54z" />
    <glyph glyph-name="t" unicode="t" horiz-adv-x="338" 
d="M315 58q4 0 6 -4.5t-1 -6.5q-37 -31 -68 -45t-65 -14q-42 0 -70.5 19.5t-28.5 65.5v231q0 35 -9.5 45t-42.5 10q-3 0 -3 8q0 7 3 7q44 1 71 21.5t35 56.5q1 3 8 3t7 -3v-77q49 1 136 10q3 0 5 -7t2 -16t-3 -17.5t-7 -7.5q-63 13 -133 15v-245q0 -40 20 -59.5t57 -19.5
q44 0 79 29z" />
    <glyph glyph-name="u" unicode="u" horiz-adv-x="497" 
d="M490 60q4 0 6 -4.5t-1 -6.5l-124 -59q-2 -1 -5 -1q-9 0 -18 23.5t-9 61.5q-74 -83 -154 -83q-51 0 -80.5 32.5t-29.5 90.5v151q0 38 -7 54.5t-23 16.5q-14 0 -31 -8h-2q-3 0 -4.5 5t1.5 6l118 55l4 1q4 0 8 -3t4 -7v-233q0 -113 84 -113q28 0 58 14t54 39v173
q0 38 -7 54.5t-23 16.5q-13 0 -32 -8h-2q-3 0 -4 5t2 6l118 55l4 1q4 0 8 -3t4 -7v-275q0 -34 7.5 -49t25.5 -15q16 0 49 14h1z" />
    <glyph glyph-name="v" unicode="v" horiz-adv-x="436" 
d="M440 380q0 -6 -2 -6q-27 0 -46 -18t-36 -61l-124 -294q-2 -5 -11 -5t-11 5l-145 302q-20 43 -34.5 57t-34.5 14q-3 0 -3 6t3 6q19 0 30 -1l47 -1l70 1q15 1 42 1q3 0 3 -6t-3 -6q-59 0 -59 -23q0 -8 4 -16l118 -243l86 207q7 21 7 31q0 44 -75 44q-2 0 -2 6t2 6
q27 0 41 -1l60 -1l37 1q11 1 34 1q2 0 2 -6z" />
    <glyph glyph-name="w" unicode="w" horiz-adv-x="671" 
d="M675 380q0 -6 -3 -6q-26 0 -45.5 -18t-36.5 -61l-114 -294q-1 -4 -11 -4q-9 0 -12 4l-132 285l-103 -285q-1 -4 -11 -4q-9 0 -12 4l-130 302q-18 43 -33 57t-36 14q-3 0 -3 6t3 6q19 0 30 -1l47 -1l65 1q15 1 41 1q3 0 3 -6t-3 -6q-26 0 -40.5 -5.5t-14.5 -18.5
q0 -7 4 -15l103 -234l103 285q1 4 11 4t11 -4l135 -290l77 203q7 21 7 31q0 44 -74 44q-2 0 -2 6t2 6q27 0 41 -1l60 -1l38 1q10 1 32 1q3 0 3 -6z" />
    <glyph glyph-name="x" unicode="x" horiz-adv-x="439" 
d="M432 6q0 -6 -2 -6l-33 1q-12 1 -34 1l-67 -1q-14 -1 -40 -1q-3 0 -3 6t3 6q30 0 30 13q0 8 -12 26l-73 110l-52 -75q-21 -32 -21 -48q0 -26 53 -26q3 0 3 -6t-3 -6q-27 0 -40 1l-60 1l-37 -1q-11 -1 -34 -1q-2 0 -2 6t2 6q28 0 60 21t59 59l61 85l-84 126
q-23 36 -47.5 53.5t-43.5 17.5q-2 0 -2 6t2 6q21 0 31 -1l31 -1l67 1q14 1 40 1q2 0 2 -6t-2 -6q-15 0 -22 -3t-7 -10q0 -8 12 -26l66 -99l43 64q22 33 22 49q0 13 -13 19t-41 6q-2 0 -2 6t2 6q27 0 41 -1l60 -1l37 1q11 1 34 1q2 0 2 -6t-2 -6q-28 0 -59 -20.5t-60 -59.5
l-54 -74l91 -137q24 -37 49.5 -54t46.5 -17q2 0 2 -6z" />
    <glyph glyph-name="y" unicode="y" horiz-adv-x="489" 
d="M413 392q4 -3 4 -7v-455q0 -95 -52.5 -153t-151.5 -58q-58 0 -98 21.5t-40 56.5q0 17 11 26.5t27 9.5q17 0 28 -9.5t24 -28.5q18 -26 37.5 -40.5t54.5 -14.5q43 0 67.5 35.5t24.5 130.5v168q-74 -83 -157 -83q-52 0 -80.5 32.5t-28.5 90.5v151q0 38 -7 54.5t-23 16.5
q-15 0 -32 -8h-2q-3 0 -4.5 5t1.5 6l119 55l3 1q4 0 8.5 -3t4.5 -7v-233q0 -57 20.5 -84.5t62.5 -27.5q29 0 59.5 14t55.5 39v172q0 38 -7 54.5t-23 16.5q-14 0 -31 -8h-2q-3 0 -4.5 5t1.5 6l118 55l4 1q4 0 8 -3z" />
    <glyph glyph-name="z" unicode="z" horiz-adv-x="405" 
d="M273 366q2 3 0.5 5t-5.5 2q-103 0 -152 -20t-66 -75q0 -2 -4 -2q-3 0 -5.5 1.5t-1.5 2.5l36 138q1 2 7 1.5t5 -2.5q-1 -4 -1 -10q0 -12 11 -16.5t38 -4.5h218q4 0 6.5 -4t1.5 -8l-234 -351q-3 -7 5 -7q86 0 129.5 8t65 29.5t34.5 66.5q1 2 6 2t5 -2l-2 -109
q0 -4 -2.5 -7.5t-6.5 -3.5h-315q-4 0 -6.5 4t-0.5 8z" />
    <glyph glyph-name="braceleft" unicode="{" horiz-adv-x="289" 
d="M29 304.5q0 6.5 3 6.5q44 6 58.5 65t14.5 153q0 86 11.5 126.5t41 55t92.5 14.5q4 0 4 -6t-4 -6q-33 0 -50.5 -27.5t-19.5 -78.5q-2 -123 -8 -172.5t-27.5 -78t-75.5 -51.5q53 -24 75 -53.5t28 -79t8 -171.5q2 -51 19.5 -78.5t50.5 -27.5q4 0 4 -6t-4 -6q-63 0 -93 14.5
t-41 55.5t-11 127q0 95 -14.5 153.5t-58.5 64.5q-3 0 -3 6.5z" />
    <glyph glyph-name="bar" unicode="|" horiz-adv-x="168" 
d="M65 731q0 7 21 7q20 0 20 -7v-885q0 -4 -6 -6t-14 -2q-9 0 -15 2t-6 6v885z" />
    <glyph glyph-name="braceright" unicode="}" horiz-adv-x="283" 
d="M192.5 233.5q-14.5 -58.5 -14.5 -153.5q0 -86 -11 -127t-41 -55.5t-93 -14.5q-4 0 -4 6t4 6q33 0 50.5 27.5t19.5 78.5q2 122 8 171.5t28 79t75 53.5q-54 23 -75.5 51.5t-27.5 78t-8 172.5q-2 51 -19.5 78.5t-50.5 27.5q-4 0 -4 6t4 6q63 0 92.5 -14.5t41 -55
t11.5 -126.5q0 -94 14.5 -153t58.5 -65q3 0 3 -6.5t-3 -6.5q-44 -6 -58.5 -64.5z" />
    <glyph glyph-name="asciitilde" unicode="~" horiz-adv-x="443" 
d="M357 212q15 10 32 29h1q3 0 5.5 -2.5t0.5 -4.5q-37 -51 -59.5 -68t-49.5 -17q-19 0 -35.5 4.5t-40.5 13.5q-27 9 -44 13.5t-37 4.5q-24 0 -37 -7t-23.5 -17.5l-14.5 -14.5h-1q-2 0 -4.5 2.5t-1.5 4.5q58 85 116 85q14 0 31.5 -5t34.5 -11q25 -10 44.5 -15t39.5 -5
q28 0 43 10z" />
    <glyph glyph-name="uni00A0" unicode="&#xa0;" horiz-adv-x="234" 
 />
    <glyph glyph-name="exclamdown" unicode="&#xa1;" horiz-adv-x="252" 
d="M167 352q13 -13 13 -36q0 -22 -13 -34.5t-36 -12.5t-35.5 12.5t-12.5 34.5q0 23 12.5 36t35.5 13t36 -13zM163.5 -272q-17.5 -3 -37.5 -3t-37.5 3t-16.5 8q19 85 28.5 187t16.5 242q0 4 11 4q10 0 10 -4q0 -9 2 -29q6 -129 14.5 -224.5t25.5 -175.5q1 -5 -16.5 -8z" />
    <glyph glyph-name="cent" unicode="&#xa2;" horiz-adv-x="535" 
d="M485.5 143q5.5 -1 5.5 -4l-11 -106q-1 -8 -3 -11t-11 -7q-77 -27 -160 -27h-7v-90q0 -7 -12 -7t-12 7v91q-84 7 -138.5 45.5t-78.5 92.5t-24 109q0 63 31 116t86 86t124 40v83q0 4 3.5 6t8.5 2t8.5 -2t3.5 -6v-81h11q38 0 81.5 -7.5t70.5 -21.5q7 -3 9 -6t3 -11l8 -103
q0 -3 -5.5 -4t-6.5 3q-47 130 -171 133v-458q6 -1 18 -1q58 0 98 33t64 103q1 4 6.5 3zM160.5 95q39.5 -70 114.5 -86v453q-69 -7 -111.5 -65.5t-42.5 -145.5q0 -86 39.5 -156z" />
    <glyph glyph-name="sterling" unicode="&#xa3;" horiz-adv-x="504" 
d="M449.5 140.5q5.5 -0.5 5.5 -2.5q-4 -26 -6.5 -61t-2.5 -62q0 -8 -3.5 -11.5t-11.5 -3.5h-391q-3 0 -3 5.5t3 6.5q51 21 69.5 50.5t18.5 90.5q0 39 -5 69.5t-15 67.5h-58q-3 0 -5 3.5t-2 8.5t2 8.5t5 3.5h52q-18 63 -18 113q0 71 28.5 118t76 69t103.5 22t113 -19
q15 -6 15 -17l9 -111q0 -4 -5.5 -4t-6.5 4q-16 53 -50 91.5t-89 38.5q-61 0 -88 -47t-27 -115q0 -32 6 -59.5t13 -51.5t9 -32h134q4 0 6 -3.5t2 -8.5t-2 -8.5t-6 -3.5h-128q13 -45 13 -90q0 -59 -17.5 -91.5t-50.5 -63.5h180q42 0 65.5 9t36 28.5t20.5 56.5q0 2 5.5 1.5z
" />
    <glyph glyph-name="currency" unicode="&#xa4;" horiz-adv-x="414" 
d="M332 35l-49 54q-39 -24 -87 -24q-41 0 -72 20l-44 -50l-27 26l44 46q-17 19 -26.5 44t-9.5 51q0 52 37 89l-49 50l31 29l51 -55q38 20 80 20t77 -22l50 54l25 -26l-49 -49q35 -38 35 -91q0 -51 -34 -87l49 -49zM267 110q19 25 19 70q0 54 -26.5 94.5t-71.5 40.5
q-31 0 -49 -23.5t-18 -68.5q0 -54 24 -96t70 -42q33 0 52 25z" />
    <glyph glyph-name="yen" unicode="&#xa5;" horiz-adv-x="612" 
d="M619 619q0 -6 -2 -6q-34 0 -73.5 -30.5t-70.5 -80.5l-124 -195v-11h106q7 0 7 -12t-7 -12h-293q-3 0 -5 3.5t-2 8.5t2 8.5t5 3.5h102l-154 231q-32 48 -56.5 67t-52.5 19q-3 0 -3 6t3 6q11 0 35 -2l33 -1q33 0 91 2l58 1q2 0 2 -6t-2 -6q-47 0 -47 -24q0 -11 11 -28
l154 -230l112 177q24 39 24 64q0 20 -14 30.5t-41 10.5q-3 0 -3 6t3 6l49 -1q40 -2 73 -2q17 0 41 2l37 1q2 0 2 -6zM462 209q0 -12 -7 -12h-106v-116q0 -31 5.5 -45t22 -19t52.5 -5q3 0 3 -6t-3 -6q-31 0 -49 1l-72 1l-70 -1q-18 -1 -51 -1q-3 0 -3 6t3 6q36 0 53 5
t23 19.5t6 44.5v116h-107q-3 0 -5 3.5t-2 8.5t2 8.5t5 3.5h293q7 0 7 -12z" />
    <glyph glyph-name="brokenbar" unicode="&#xa6;" horiz-adv-x="168" 
d="M65 731q0 7 21 7q20 0 20 -7v-371q0 -3 -6 -5t-14 -2t-14.5 2t-6.5 5v371zM65 216q0 4 6 6t15 2q8 0 14 -2t6 -6v-370q0 -4 -6 -6t-14 -2q-9 0 -15 2t-6 6v370z" />
    <glyph glyph-name="section" unicode="&#xa7;" horiz-adv-x="456" 
d="M372 -57q0 -64 -46.5 -97.5t-110.5 -33.5q-51 0 -87 18q-11 7 -12 17l-7 104q0 3 5.5 3t6.5 -3q6 -22 24.5 -49t46 -47t58.5 -20q28 0 45 17.5t17 53.5q0 46 -27.5 75.5t-82.5 64.5q-42 28 -67 49t-42.5 52.5t-17.5 74.5q0 37 14.5 66t56.5 66q-39 39 -39 87
q0 64 46.5 97.5t110.5 33.5q52 0 87 -19q11 -5 11 -16l8 -105q0 -2 -6 -2t-6 2q-6 22 -24.5 49.5t-46.5 47.5t-59 20q-27 0 -44 -17.5t-17 -53.5q0 -32 14.5 -56.5t36 -42t57.5 -41.5q42 -28 66.5 -49t42 -52.5t17.5 -74.5q0 -37 -14.5 -66t-55.5 -65q41 -38 41 -88z
M150 184.5q18 -32.5 43.5 -53.5t68.5 -49q44 -28 58 -41q24 32 24 81q0 45 -17.5 77.5t-43 53.5t-67.5 48q-42 28 -59 43q-25 -31 -25 -83q0 -44 18 -76.5z" />
    <glyph glyph-name="dieresis" unicode="&#xa8;" horiz-adv-x="322" 
d="M40 485q-12 12 -12 34q0 21 12 32.5t34 11.5t33.5 -11.5t11.5 -32.5q0 -22 -11.5 -34t-33.5 -12t-34 12zM215 485q-12 12 -12 34q0 21 12 32.5t34 11.5t33.5 -11.5t11.5 -32.5q0 -22 -11.5 -34t-33.5 -12t-34 12z" />
    <glyph glyph-name="copyright" unicode="&#xa9;" horiz-adv-x="722" 
d="M227.5 -69q-69.5 34 -113 100t-43.5 158q0 90 46.5 161t122.5 110.5t162 39.5q76 0 134 -31.5t89.5 -84.5t31.5 -115q0 -60 -33 -113t-90.5 -85t-128.5 -32q-62 0 -102.5 22.5t-59.5 58t-19 75.5q0 52 25 90t65.5 58.5t83.5 20.5q38 0 68 -14.5t31 -38.5q0 -15 -9 -24.5
t-24 -9.5q-23 0 -38 30q-13 19 -24.5 28.5t-32.5 9.5q-40 0 -56.5 -30.5t-16.5 -90.5q0 -69 36 -113.5t112 -44.5q43 0 81 20t61 59t23 94q0 65 -31.5 119.5t-86 86.5t-121.5 32q-76 0 -131.5 -35.5t-84 -95.5t-28.5 -133q0 -89 39.5 -153.5t103 -97.5t134.5 -33
q57 0 100.5 10t93.5 38q2 1 4.5 -2.5t-0.5 -5.5q-54 -42 -108.5 -57t-119.5 -15q-76 0 -145.5 34z" />
    <glyph glyph-name="ordfeminine" unicode="&#xaa;" horiz-adv-x="281" 
d="M273 407q4 0 5.5 -3.5t-0.5 -5.5l-68 -32q-11 -5 -21 6t-13 33l-37 -20q-23 -12 -35 -16t-26 -4q-21 0 -33.5 11t-12.5 28t11.5 28t41.5 21l90 32v53q0 46 -11 60t-31 14q-18 0 -29 -14t-15 -37q-4 -29 -28 -29q-13 0 -21 7.5t-8 18.5q0 16 22 33t52.5 28t53.5 11
q27 0 44.5 -18t17.5 -54v-117q0 -23 4.5 -33t14.5 -10q8 0 31 9h1zM175 417v2v55l-61 -24q-14 -5 -20.5 -12t-6.5 -18q0 -12 7.5 -20t19.5 -8q10 0 24 6zM264.5 310.5q1.5 -4.5 1.5 -9.5q0 -6 -1.5 -10.5t-3.5 -4.5h-224q-2 0 -3.5 5t-1.5 10t1.5 9.5t2.5 4.5h225
q2 0 3.5 -4.5z" />
    <glyph glyph-name="guillemotleft" unicode="&#xab;" horiz-adv-x="462" 
d="M57 189q-4 4 -4 12q0 7 4 11l181 149q0 1 2 1t4 -2.5t1 -3.5l-113 -155l113 -155q1 -2 -2.5 -5.5t-4.5 -0.5zM215 189q-4 4 -4 12q0 7 4 11l181 149q0 1 2 1t4 -2.5t1 -3.5l-113 -155l113 -155q1 -2 -2.5 -5.5t-4.5 -0.5z" />
    <glyph glyph-name="logicalnot" unicode="&#xac;" horiz-adv-x="395" 
d="M364 77q0 -2 -7 -3.5t-15 -1.5q-7 0 -13.5 1.5t-6.5 2.5v151h-288q-2 0 -3.5 7t-1.5 15q0 7 1.5 13.5t2.5 6.5h331v-192z" />
    <glyph glyph-name="uni00AD" unicode="&#xad;" horiz-adv-x="323" 
d="M28.5 169.5q-1.5 8.5 -1.5 17.5q0 20 3 20l261 47q2 1 3.5 -6t1.5 -16q0 -8 -1.5 -15t-3.5 -8l-259 -47q-2 -1 -3.5 7.5z" />
    <glyph glyph-name="registered" unicode="&#xae;" horiz-adv-x="747" 
d="M545.5 688.5q64.5 -36.5 100 -99t35.5 -138.5q0 -86 -42.5 -158t-114.5 -113.5t-158 -41.5q-74 0 -142 34.5t-110.5 100t-42.5 152.5t45 155.5t119.5 106.5t160.5 38q85 0 149.5 -36.5zM570.5 235.5q62.5 69.5 62.5 185.5q0 82 -35 146t-96.5 99.5t-139.5 35.5
q-79 0 -133.5 -34t-81.5 -90t-27 -124q0 -87 39.5 -152.5t103.5 -100.5t134 -35q111 0 173.5 69.5zM565 276q0 -4 -2 -4h-85q-17 0 -96 162q-20 -4 -50 -4v-102q0 -29 8.5 -36.5t39.5 -7.5q2 0 2 -6t-2 -6q-18 0 -29 1l-43 1l-42 -1q-11 -1 -29 -1q-2 0 -2 6t2 6
q21 0 29.5 3t11.5 11.5t3 29.5v216q0 28 -7.5 36t-36.5 8q-2 0 -2 6t2 6l71 -1q12 0 44 2l38 1q94 0 94 -66q0 -29 -14.5 -51.5t-40.5 -35.5q31 -62 50 -94t38.5 -50t45.5 -24q2 -1 2 -5zM362 446q35 0 51.5 15.5t16.5 51.5q0 76 -57 76q-18 0 -26 -2.5t-11.5 -12.5
t-3.5 -33v-93q22 -2 30 -2z" />
    <glyph glyph-name="macron" unicode="&#xaf;" horiz-adv-x="345" 
d="M40 496q0 15 7 15h251q4 0 6 -4.5t2 -10.5t-2 -11t-6 -5h-251q-7 0 -7 16z" />
    <glyph glyph-name="degree" unicode="&#xb0;" horiz-adv-x="332" 
d="M67.5 410q-38.5 37 -38.5 93q0 53 38.5 90t99.5 37t98.5 -37t37.5 -92t-37.5 -91.5t-98.5 -36.5t-99.5 37zM226.5 411.5q12.5 26.5 12.5 82.5q0 63 -19 93.5t-59 30.5q-39 0 -53 -28.5t-14 -83.5q0 -58 17.5 -89.5t62.5 -31.5q40 0 52.5 26.5z" />
    <glyph glyph-name="plusminus" unicode="&#xb1;" horiz-adv-x="398" 
d="M30.5 238.5q-1.5 7.5 -1.5 15.5q0 7 1.5 13.5t2.5 6.5h144v144q0 4 22 4q21 0 21 -4v-144h144q2 0 3.5 -6.5t1.5 -14.5t-1.5 -15t-3.5 -7h-144v-143q0 -2 -7.5 -3.5t-15.5 -1.5q-7 0 -13.5 1.5t-6.5 2.5v144h-143q-2 0 -3.5 7.5zM367.5 33q1.5 -6 1.5 -13t-1.5 -13
t-3.5 -6h-330q-2 0 -3.5 6.5t-1.5 13.5t1.5 12.5t2.5 5.5h331q2 0 3.5 -6z" />
    <glyph glyph-name="uni00B2" unicode="&#xb2;" horiz-adv-x="251" 
d="M51 463q15 25 42 61q29 37 43.5 64.5t14.5 58.5q0 29 -12.5 44t-34.5 15q-23 0 -40.5 -15.5t-24.5 -40.5q0 -2 -4 -2q-3 0 -5.5 1.5t-1.5 3.5q22 76 97 76q40 0 61 -20t21 -52q0 -31 -20 -58.5t-59 -65.5q-28 -28 -43 -46t-21 -36q-1 -3 2 -3q67 0 93.5 3t37 12.5
t15.5 33.5q0 2 4 2t4 -2l-1 -90q0 -4 -4 -4h-184q-5 0 -3 5q8 30 23 55z" />
    <glyph glyph-name="uni00B3" unicode="&#xb3;" horiz-adv-x="251" 
d="M200 547q21 -19 21 -51q0 -39 -28.5 -69.5t-77.5 -30.5q-71 0 -93 69q-1 4 5 5.5t7 -2.5q8 -21 26 -35.5t45 -14.5q26 0 42.5 16t16.5 53t-20 57.5t-55 20.5q-4 0 -3.5 5.5t3.5 5.5q29 0 45.5 21.5t16.5 49.5q0 26 -13.5 41.5t-35.5 15.5t-39.5 -16t-22.5 -38q0 -2 -4 -2
q-3 0 -6 1.5t-2 3.5q10 34 33.5 55t62.5 21t61.5 -20.5t22.5 -52.5q0 -28 -18 -50.5t-45 -32.5q34 -7 55 -26z" />
    <glyph glyph-name="acute" unicode="&#xb4;" horiz-adv-x="212" 
d="M65 472q-3 0 -5.5 1.5t-1.5 2.5l46 240q1 4 24.5 9.5t38.5 5.5q11 0 10 -4l-108 -253q0 -2 -4 -2z" />
    <glyph glyph-name="paragraph" unicode="&#xb6;" horiz-adv-x="645" 
d="M288 -179.5q-19 13.5 -19 35.5q0 17 9.5 27t27.5 10q20 0 27.5 -8.5t13.5 -26.5q5 -15 11 -22.5t20 -7.5q25 0 35.5 40t10.5 140v117q-31 -3 -68 -3q-77 0 -145.5 26t-112.5 85t-44 153q0 119 73 180.5t202 61.5q31 0 64 -3q12 0 37.5 -1.5t47.5 -1.5q20 0 58 2l52 1
q2 0 2 -6t-2 -6q-43 0 -66 -21t-23 -60l1 -477q0 -130 -38 -189t-123 -59q-32 0 -51 13.5z" />
    <glyph glyph-name="periodcentered" unicode="&#xb7;" horiz-adv-x="195" 
d="M61.5 165.5q-13.5 13.5 -13.5 35.5t13 34.5t36 12.5t35.5 -12.5t12.5 -34.5q0 -23 -12.5 -36t-35.5 -13q-22 0 -35.5 13.5z" />
    <glyph glyph-name="cedilla" unicode="&#xb8;" horiz-adv-x="232" 
d="M106 -50q0 -16 9 -25.5t33 -23.5q25 -14 40 -32t15 -45q0 -39 -27.5 -69t-82.5 -30q-31 0 -49.5 10.5t-18.5 30.5q0 13 10 23t24 10t20.5 -6.5t12.5 -19.5t13 -20t22 -7q31 0 31 34q0 26 -18.5 46.5t-66.5 46.5q-13 7 -13 13q0 4 5 17q15 36 29 75l8 21l14 -1
q-10 -37 -10 -48z" />
    <glyph glyph-name="uni00B9" unicode="&#xb9;" horiz-adv-x="262" 
d="M42 408.5q0 5.5 2 5.5q32 0 45 4.5t17 18t4 46.5v118q0 49 -2.5 63.5t-15.5 14.5q-8 0 -22 -5.5t-32 -13.5h-1q-4 0 -6.5 5t1.5 6l122 57h2q3 0 5.5 -2.5t2.5 -4.5v-238q0 -34 3.5 -47.5t15.5 -17.5t43 -4q3 0 3 -5.5t-3 -5.5q-23 0 -36 1l-52 1l-55 -1q-14 -1 -39 -1
q-2 0 -2 5.5z" />
    <glyph glyph-name="ordmasculine" unicode="&#xba;" horiz-adv-x="318" 
d="M62.5 399.5q-35.5 40.5 -35.5 98.5q0 43 21 72.5t53 44.5t66 15q38 0 66.5 -19t44 -50t15.5 -66q0 -37 -19 -68.5t-50.5 -49.5t-68.5 -18q-57 0 -92.5 40.5zM220.5 401.5q18.5 27.5 18.5 75.5q0 58 -26 97.5t-65 39.5q-32 0 -49.5 -25t-17.5 -72q0 -58 25 -100.5
t64 -42.5q32 0 50.5 27.5zM35.5 291q-1.5 5 -1.5 10t1.5 9.5t2.5 4.5h243q2 0 3.5 -4.5t1.5 -9.5q0 -6 -1.5 -10.5t-3.5 -4.5h-242q-2 0 -3.5 5z" />
    <glyph glyph-name="guillemotright" unicode="&#xbb;" horiz-adv-x="462" 
d="M247 212q5 -5 5 -11q0 -7 -5 -12l-181 -149q0 -1 -2 -1t-4 2.5t-1 4.5l113 154l-113 156q-1 2 2.5 5t4.5 0zM405 212q5 -5 5 -11q0 -7 -5 -12l-181 -149q0 -1 -2 -1t-4 2.5t-1 4.5l113 154l-113 156q-1 2 2.5 5t4.5 0z" />
    <glyph glyph-name="onequarter" unicode="&#xbc;" horiz-adv-x="602" 
d="M229 314.5q0 -5.5 -3 -5.5q-23 0 -36 1l-52 1l-55 -1q-14 -1 -39 -1q-2 0 -2 5.5t2 5.5q32 0 45 4.5t17 18t4 46.5v119q0 48 -2.5 62.5t-15.5 14.5t-54 -19h-1q-4 0 -6.5 5t1.5 6l122 57h2q3 0 5.5 -2.5t2.5 -4.5v-238q0 -34 3.5 -47.5t15.5 -17.5t43 -4q3 0 3 -5.5z
M441 629q5 0 15 -5t9 -7l-280 -617q0 -1 -2 -1q-5 0 -15 5t-9 7l279 617q0 1 3 1zM578 5q0 -4 -1 -6l-64 1l-82 -1q-1 0 -1 6t1 6q25 0 35.5 2t14 8t3.5 20v51q-68 2 -125 2q-3 0 -5 3t1 5l159 220q2 3 9 3q4 0 7.5 -1t3.5 -3v-208l43 2q2 0 2 -13q0 -14 -2 -14l-43 2v-49
q0 -14 2 -19.5t11 -8t30 -2.5q1 -2 1 -6zM484 111v143l-93 -142q-1 -3 2 -3q41 0 91 2z" />
    <glyph glyph-name="onehalf" unicode="&#xbd;" horiz-adv-x="610" 
d="M42 314.5q0 5.5 2 5.5q32 0 45 4.5t17 18t4 46.5v119q0 48 -2.5 62.5t-15.5 14.5t-54 -19h-1q-4 0 -6.5 5t1.5 6l122 57h2q3 0 5.5 -2.5t2.5 -4.5v-238q0 -34 3.5 -47.5t15.5 -17.5t43 -4q3 0 3 -5.5t-3 -5.5q-23 0 -36 1l-52 1l-55 -1q-14 -1 -39 -1q-2 0 -2 5.5z
M183 -1q-5 0 -15 5t-9 7l279 617q0 1 3 1q5 0 15 -5t9 -7l-280 -617q0 -1 -2 -1zM410 59.5q15 24.5 41 60.5q29 38 44 65.5t15 59.5q0 28 -12.5 42.5t-34.5 14.5q-23 0 -40.5 -15t-24.5 -39q0 -3 -4 -3q-3 0 -5.5 1.5t-1.5 3.5q22 76 97 76q40 0 61 -19.5t21 -51.5
q0 -30 -20 -57.5t-59 -68.5q-27 -26 -42.5 -44.5t-21.5 -36.5q-1 -3 2 -3q66 0 93 3t37.5 12.5t15.5 33.5q0 2 4 2t4 -2l-1 -89q0 -5 -4 -5h-184q-4 0 -3 6q8 29 23 53.5z" />
    <glyph glyph-name="threequarters" unicode="&#xbe;" horiz-adv-x="591" 
d="M192.5 333q-28.5 -30 -77.5 -30q-72 0 -93 69q-1 3 5 4.5t7 -2.5q8 -21 26 -35.5t45 -14.5q26 0 42.5 16t16.5 52q0 37 -20 57.5t-55 20.5q-4 0 -3.5 6t3.5 6q29 0 45.5 21.5t16.5 49.5q0 26 -13.5 41.5t-35.5 15.5t-39 -16t-23 -37q0 -3 -5 -3q-3 0 -5.5 1.5t-1.5 3.5
q10 34 33.5 55t62.5 21t61.5 -20.5t22.5 -52.5q0 -28 -18.5 -50.5t-45.5 -32.5q35 -6 56 -25.5t21 -51.5q0 -39 -28.5 -69zM430 629q5 0 15 -5t9 -7l-280 -617q0 -1 -2 -1q-5 0 -15 5t-9 7l279 617q0 1 3 1zM567 5q0 -4 -1 -6l-64 1l-82 -1q-1 0 -1 6t1 6q25 0 35.5 2t14 8
t3.5 20v51q-68 2 -125 2q-3 0 -5 3t1 5l159 220q2 3 9 3q4 0 7.5 -1t3.5 -3v-208l43 2q2 0 2 -13q0 -14 -2 -14l-43 2v-49q0 -14 2 -19.5t11 -8t30 -2.5q1 -2 1 -6zM473 111v143l-93 -142q-1 -3 2 -3q41 0 91 2z" />
    <glyph glyph-name="questiondown" unicode="&#xbf;" horiz-adv-x="327" 
d="M214 348q13 -13 13 -36q0 -22 -13 -34.5t-36 -12.5t-35.5 12.5t-12.5 34.5q0 23 12.5 36t35.5 13t36 -13zM194.5 -248q7.5 12 10.5 33q3 23 12 37.5t32 14.5q19 0 29 -11.5t10 -26.5q0 -31 -36 -52.5t-88 -21.5q-61 0 -101 31t-40 89q0 31 11.5 54t24.5 35.5t47 43.5
q33 31 47 60t14 64q0 17 -5 54v1q0 2 6 3.5t7 -1.5q11 -26 18.5 -61.5t7.5 -58.5q0 -31 -11.5 -51t-34.5 -45q-25 -26 -38 -49.5t-13 -61.5q0 -41 17 -66.5t45 -25.5q21 0 28.5 12z" />
    <glyph glyph-name="Agrave" unicode="&#xc0;" 
d="M230 767q17 9 40.5 16t27.5 4q34 -22 51 -34q66 -45 99 -64q3 -1 3 -4t-2 -5t-5 -1q-112 50 -222 77q-9 2 8 11zM709 6q0 -6 -4 -6q-19 0 -61 2q-40 2 -59 2q-23 0 -57 -2t-51 -2q-4 0 -4 6t4 6q34 0 49 6.5t15 23.5t-15 47l-112 232h-184l-82 -189q-14 -33 -14 -55
q0 -65 97 -65q5 0 5 -6t-5 -6q-18 0 -52 2q-38 2 -66 2q-26 0 -62 -2q-32 -2 -52 -2q-4 0 -4 6t4 6q28 0 47.5 11t37.5 38t41 80l213 491q1 3 7 3.5t7 -3.5l241 -495q34 -73 58 -99t54 -26q4 0 4 -6zM239 344h164l-86 180z" />
    <glyph glyph-name="Aacute" unicode="&#xc1;" 
d="M246 678q-4 0 -5 4.5t2 6.5q36 20 103 66q32 22 48 32q5 3 27.5 -4t40 -16t8.5 -11q-62 -15 -113.5 -33.5t-108.5 -43.5zM709 6q0 -6 -4 -6q-19 0 -61 2q-40 2 -59 2q-23 0 -57 -2t-51 -2q-4 0 -4 6t4 6q34 0 49 6.5t15 23.5t-15 47l-112 232h-184l-82 -189
q-14 -33 -14 -55q0 -65 97 -65q5 0 5 -6t-5 -6q-18 0 -52 2q-38 2 -66 2q-26 0 -62 -2q-32 -2 -52 -2q-4 0 -4 6t4 6q28 0 47.5 11t37.5 38t41 80l213 491q1 3 7 3.5t7 -3.5l241 -495q34 -73 58 -99t54 -26q4 0 4 -6zM239 344h164l-86 180z" />
    <glyph glyph-name="Acircumflex" unicode="&#xc2;" 
d="M231 650.5q-3 3.5 -1 4.5l103 103q5 5 12 5q6 0 11 -5l102 -103q1 0 1 -2t-2.5 -4t-3.5 -1l-108 51l-109 -51q-2 -1 -5 2.5zM709 6q0 -6 -4 -6q-19 0 -61 2q-40 2 -59 2q-23 0 -57 -2t-51 -2q-4 0 -4 6t4 6q34 0 49 6.5t15 23.5t-15 47l-112 232h-184l-82 -189
q-14 -33 -14 -55q0 -65 97 -65q5 0 5 -6t-5 -6q-18 0 -52 2q-38 2 -66 2q-26 0 -62 -2q-32 -2 -52 -2q-4 0 -4 6t4 6q28 0 47.5 11t37.5 38t41 80l213 491q1 3 7 3.5t7 -3.5l241 -495q34 -73 58 -99t54 -26q4 0 4 -6zM239 344h164l-86 180z" />
    <glyph glyph-name="Atilde" unicode="&#xc3;" 
d="M221 697q-3 0 -5.5 2.5t-1.5 4.5q45 69 86 69q16 0 49 -11q5 -1 28.5 -7.5t46.5 -6.5q17 0 27.5 6.5t22.5 20.5h1q3 0 5.5 -2.5t0.5 -4.5q-26 -40 -43 -54t-38 -14q-16 0 -35 5t-25 6q-39 13 -68 13q-19 0 -27 -5.5t-23 -21.5h-1zM709 6q0 -6 -4 -6q-19 0 -61 2
q-40 2 -59 2q-23 0 -57 -2t-51 -2q-4 0 -4 6t4 6q34 0 49 6.5t15 23.5t-15 47l-112 232h-184l-82 -189q-14 -33 -14 -55q0 -65 97 -65q5 0 5 -6t-5 -6q-18 0 -52 2q-38 2 -66 2q-26 0 -62 -2q-32 -2 -52 -2q-4 0 -4 6t4 6q28 0 47.5 11t37.5 38t41 80l213 491q1 3 7 3.5
t7 -3.5l241 -495q34 -73 58 -99t54 -26q4 0 4 -6zM239 344h164l-86 180z" />
    <glyph glyph-name="Adieresis" unicode="&#xc4;" 
d="M224 724q-12 12 -12 34q0 21 12 32.5t34 11.5t33.5 -11.5t11.5 -32.5q0 -22 -11.5 -34t-33.5 -12t-34 12zM399 724q-12 12 -12 34q0 21 12 32.5t34 11.5t33.5 -11.5t11.5 -32.5q0 -22 -11.5 -34t-33.5 -12t-34 12zM709 6q0 -6 -4 -6q-19 0 -61 2q-40 2 -59 2
q-23 0 -57 -2t-51 -2q-4 0 -4 6t4 6q34 0 49 6.5t15 23.5t-15 47l-112 232h-184l-82 -189q-14 -33 -14 -55q0 -65 97 -65q5 0 5 -6t-5 -6q-18 0 -52 2q-38 2 -66 2q-26 0 -62 -2q-32 -2 -52 -2q-4 0 -4 6t4 6q28 0 47.5 11t37.5 38t41 80l213 491q1 3 7 3.5t7 -3.5l241 -495
q34 -73 58 -99t54 -26q4 0 4 -6zM239 344h164l-86 180z" />
    <glyph glyph-name="Aring" unicode="&#xc5;" 
d="M270.5 686.5q-25.5 23.5 -25.5 55.5q0 36 32 56.5t72 20.5q38 0 65.5 -23t27.5 -56q0 -35 -31.5 -56t-71.5 -21q-43 0 -68.5 23.5zM306 796.5q-7 -11.5 -7 -34.5q0 -33 15 -60t40 -27q17 0 25.5 11t8.5 36q0 35 -17 60.5t-42 25.5q-16 0 -23 -11.5zM709 6q0 -6 -4 -6
q-19 0 -61 2q-40 2 -59 2q-23 0 -57 -2t-51 -2q-4 0 -4 6t4 6q34 0 49 6.5t15 23.5t-15 47l-112 232h-184l-82 -189q-14 -33 -14 -55q0 -65 97 -65q5 0 5 -6t-5 -6q-18 0 -52 2q-38 2 -66 2q-26 0 -62 -2q-32 -2 -52 -2q-4 0 -4 6t4 6q28 0 47.5 11t37.5 38t41 80l213 491
q1 3 7 3.5t7 -3.5l241 -495q34 -73 58 -99t54 -26q4 0 4 -6zM239 344h164l-86 180z" />
    <glyph glyph-name="AE" unicode="&#xc6;" horiz-adv-x="879" 
d="M823 154q3 0 5.5 -1.5t2.5 -2.5q-9 -65 -9 -135q0 -8 -3.5 -11.5t-12.5 -3.5h-417q-2 0 -2 6t2 6q36 0 52.5 5t22.5 19.5t6 44.5v233h-165l-123 -184q-29 -44 -29 -72q0 -46 77 -46q5 0 5 -6t-5 -6q-20 0 -56 2q-42 2 -73 2q-24 0 -56 -2q-28 -2 -45 -2q-5 0 -5 6t5 6
q68 0 149 120l298 442q13 18 13 25q0 9 -16.5 11.5t-60.5 2.5q-2 0 -2 6t2 6h406q9 0 9 -9l2 -126q0 -3 -5.5 -3.5t-5.5 2.5q-5 44 -39 78t-80 34h-51q-43 0 -57.5 -12t-14.5 -46v-206h103q51 0 75 17.5t24 54.5q0 2 6 2t6 -2l-1 -84q0 -30 1 -45l1 -50q0 -2 -6 -2t-6 2
q0 43 -25 63.5t-77 20.5h-101v-229q0 -36 13.5 -49t53.5 -13h64q48 0 88.5 37t52.5 92q0 2 4 2zM320 337h150v225z" />
    <glyph glyph-name="Ccedilla" unicode="&#xc7;" horiz-adv-x="669" 
d="M618 172q3 0 5.5 -1t2.5 -3l-14 -121q-2 -12 -4.5 -15.5t-11.5 -7.5q-92 -36 -188 -36h-19q-7 -28 -7 -38q0 -16 9 -25.5t33 -23.5q25 -14 40 -32t15 -45q0 -39 -27.5 -69t-82.5 -30q-31 0 -49.5 10.5t-18.5 30.5q0 13 10 23t24 10t20.5 -6.5t12.5 -19.5t13 -20t22 -7
q31 0 31 34q0 26 -18.5 46.5t-66.5 46.5q-13 7 -13 13q0 4 5 17q16 36 33 86q-109 7 -182.5 56.5t-108 121.5t-34.5 150q0 93 51.5 165.5t136 113t180.5 40.5q46 0 95 -8.5t78 -23.5q8 -4 10.5 -8.5t4.5 -15.5l11 -121q0 -3 -5 -3.5t-6 2.5q-26 78 -85 116.5t-142 38.5
q-73 0 -127 -33.5t-82.5 -94.5t-28.5 -141q0 -93 36 -171t97.5 -123.5t134.5 -45.5q144 0 206 165q0 3 4 3z" />
    <glyph glyph-name="Egrave" unicode="&#xc8;" horiz-adv-x="542" 
d="M179 767q17 9 40.5 16t27.5 4q34 -22 51 -34q66 -45 99 -64q3 -1 3 -4t-2 -5t-5 -1q-112 50 -222 77q-9 2 8 11zM486 154q3 0 5.5 -1.5t2.5 -2.5q-10 -72 -10 -135q0 -8 -3 -11.5t-12 -3.5h-426q-3 0 -3 6t3 6q36 0 52 5t22 19.5t6 44.5v463q0 30 -6 44t-22.5 19.5
t-51.5 5.5q-3 0 -3 6t3 6h408q10 0 10 -9l2 -126q0 -3 -5.5 -3.5t-6.5 2.5q-7 55 -39 83.5t-84 28.5h-51q-44 0 -59 -12.5t-15 -48.5v-203h110q51 0 75 17.5t24 54.5q0 2 5.5 2t5.5 -2l-1 -84l1 -45q2 -32 2 -50q0 -2 -6 -2t-6 2q0 43 -24.5 63.5t-78.5 20.5h-107v-229
q0 -36 13.5 -49t54.5 -13h65q57 0 94.5 33.5t51.5 95.5q0 2 4 2z" />
    <glyph glyph-name="Eacute" unicode="&#xc9;" horiz-adv-x="542" 
d="M195 678q-4 0 -5 4.5t2 6.5q36 20 103 66q32 22 48 32q5 3 27.5 -4t40 -16t8.5 -11q-62 -15 -113.5 -33.5t-108.5 -43.5zM486 154q3 0 5.5 -1.5t2.5 -2.5q-10 -72 -10 -135q0 -8 -3 -11.5t-12 -3.5h-426q-3 0 -3 6t3 6q36 0 52 5t22 19.5t6 44.5v463q0 30 -6 44
t-22.5 19.5t-51.5 5.5q-3 0 -3 6t3 6h408q10 0 10 -9l2 -126q0 -3 -5.5 -3.5t-6.5 2.5q-7 55 -39 83.5t-84 28.5h-51q-44 0 -59 -12.5t-15 -48.5v-203h110q51 0 75 17.5t24 54.5q0 2 5.5 2t5.5 -2l-1 -84l1 -45q2 -32 2 -50q0 -2 -6 -2t-6 2q0 43 -24.5 63.5t-78.5 20.5
h-107v-229q0 -36 13.5 -49t54.5 -13h65q57 0 94.5 33.5t51.5 95.5q0 2 4 2z" />
    <glyph glyph-name="Ecircumflex" unicode="&#xca;" horiz-adv-x="542" 
d="M181 690.5q-3 3.5 -1 4.5l103 104q5 5 12 5q6 0 11 -5l102 -104q1 0 1 -2t-2.5 -4t-3.5 -1l-108 52l-109 -52q-2 -1 -5 2.5zM486 154q3 0 5.5 -1.5t2.5 -2.5q-10 -72 -10 -135q0 -8 -3 -11.5t-12 -3.5h-426q-3 0 -3 6t3 6q36 0 52 5t22 19.5t6 44.5v463q0 30 -6 44
t-22.5 19.5t-51.5 5.5q-3 0 -3 6t3 6h408q10 0 10 -9l2 -126q0 -3 -5.5 -3.5t-6.5 2.5q-7 55 -39 83.5t-84 28.5h-51q-44 0 -59 -12.5t-15 -48.5v-203h110q51 0 75 17.5t24 54.5q0 2 5.5 2t5.5 -2l-1 -84l1 -45q2 -32 2 -50q0 -2 -6 -2t-6 2q0 43 -24.5 63.5t-78.5 20.5
h-107v-229q0 -36 13.5 -49t54.5 -13h65q57 0 94.5 33.5t51.5 95.5q0 2 4 2z" />
    <glyph glyph-name="Edieresis" unicode="&#xcb;" horiz-adv-x="542" 
d="M173 724q-12 12 -12 34q0 21 12 32.5t34 11.5t33.5 -11.5t11.5 -32.5q0 -22 -11.5 -34t-33.5 -12t-34 12zM348 724q-12 12 -12 34q0 21 12 32.5t34 11.5t33.5 -11.5t11.5 -32.5q0 -22 -11.5 -34t-33.5 -12t-34 12zM486 154q3 0 5.5 -1.5t2.5 -2.5q-10 -72 -10 -135
q0 -8 -3 -11.5t-12 -3.5h-426q-3 0 -3 6t3 6q36 0 52 5t22 19.5t6 44.5v463q0 30 -6 44t-22.5 19.5t-51.5 5.5q-3 0 -3 6t3 6h408q10 0 10 -9l2 -126q0 -3 -5.5 -3.5t-6.5 2.5q-7 55 -39 83.5t-84 28.5h-51q-44 0 -59 -12.5t-15 -48.5v-203h110q51 0 75 17.5t24 54.5
q0 2 5.5 2t5.5 -2l-1 -84l1 -45q2 -32 2 -50q0 -2 -6 -2t-6 2q0 43 -24.5 63.5t-78.5 20.5h-107v-229q0 -36 13.5 -49t54.5 -13h65q57 0 94.5 33.5t51.5 95.5q0 2 4 2z" />
    <glyph glyph-name="Igrave" unicode="&#xcc;" horiz-adv-x="335" 
d="M45 756q-9 2 8 11t40.5 16t27.5 4q34 -22 51 -34q66 -45 99 -64q3 -1 3 -4t-2 -5t-5 -1q-112 50 -222 77zM214 36.5q6 -14.5 22.5 -19.5t52.5 -5q2 0 2 -6t-2 -6q-32 0 -50 1l-72 1l-70 -1q-19 -1 -52 -1q-2 0 -2 6t2 6q36 0 53 5t23 19.5t6 44.5v463q0 30 -6 44
t-23 19.5t-53 5.5q-2 0 -2 6t2 6l52 -1q44 -2 70 -2q29 0 73 2l49 1q2 0 2 -6t-2 -6q-35 0 -52 -6t-23 -20.5t-6 -44.5v-461q0 -30 6 -44.5z" />
    <glyph glyph-name="Iacute" unicode="&#xcd;" horiz-adv-x="335" 
d="M69 678q-4 0 -5 4.5t2 6.5q36 20 103 66q32 22 48 32q5 3 27.5 -4t40 -16t8.5 -11q-62 -15 -113.5 -33.5t-108.5 -43.5zM214 36.5q6 -14.5 22.5 -19.5t52.5 -5q2 0 2 -6t-2 -6q-32 0 -50 1l-72 1l-70 -1q-19 -1 -52 -1q-2 0 -2 6t2 6q36 0 53 5t23 19.5t6 44.5v463
q0 30 -6 44t-23 19.5t-53 5.5q-2 0 -2 6t2 6l52 -1q44 -2 70 -2q29 0 73 2l49 1q2 0 2 -6t-2 -6q-35 0 -52 -6t-23 -20.5t-6 -44.5v-461q0 -30 6 -44.5z" />
    <glyph glyph-name="Icircumflex" unicode="&#xce;" horiz-adv-x="335" 
d="M157 799q5 5 12 5q6 0 11 -5l102 -104q1 0 1 -2t-2.5 -4t-3.5 -1l-108 52l-109 -52q-2 -1 -5 2.5t-1 4.5zM214 36.5q6 -14.5 22.5 -19.5t52.5 -5q2 0 2 -6t-2 -6q-32 0 -50 1l-72 1l-70 -1q-19 -1 -52 -1q-2 0 -2 6t2 6q36 0 53 5t23 19.5t6 44.5v463q0 30 -6 44
t-23 19.5t-53 5.5q-2 0 -2 6t2 6l52 -1q44 -2 70 -2q29 0 73 2l49 1q2 0 2 -6t-2 -6q-35 0 -52 -6t-23 -20.5t-6 -44.5v-461q0 -30 6 -44.5z" />
    <glyph glyph-name="Idieresis" unicode="&#xcf;" horiz-adv-x="335" 
d="M61 724.5q-13 12.5 -13 33.5t13 32.5t34 11.5q22 0 34 -11.5t12 -32.5q0 -22 -12 -34t-34 -12q-21 0 -34 12.5zM207.5 724q-12.5 12 -12.5 34q0 21 12.5 32.5t33.5 11.5t33 -11.5t12 -32.5q0 -22 -12 -34t-33 -12t-33.5 12zM214 36.5q6 -14.5 22.5 -19.5t52.5 -5
q2 0 2 -6t-2 -6q-32 0 -50 1l-72 1l-70 -1q-19 -1 -52 -1q-2 0 -2 6t2 6q36 0 53 5t23 19.5t6 44.5v463q0 30 -6 44t-23 19.5t-53 5.5q-2 0 -2 6t2 6l52 -1q44 -2 70 -2q29 0 73 2l49 1q2 0 2 -6t-2 -6q-35 0 -52 -6t-23 -20.5t-6 -44.5v-461q0 -30 6 -44.5z" />
    <glyph glyph-name="Eth" unicode="&#xd0;" horiz-adv-x="696" 
d="M479 587q80 -40 124 -109t44 -155q0 -97 -45.5 -171.5t-122.5 -115t-169 -40.5q-30 0 -69 3q-15 1 -37 2t-49 1l-70 -1q-19 -1 -52 -1q-2 0 -2 6t2 6q36 0 53 5t23 19.5t6 44.5v219h-62q-4 0 -4 11t4 11h62v222q0 30 -6 44t-22.5 19.5t-51.5 5.5q-3 0 -3 6t3 6l50 -1
q44 -2 70 -2q38 0 77 3q48 2 64 2q103 0 183 -40zM432.5 47.5q57.5 33.5 90 98t32.5 155.5q0 87 -30.5 157.5t-87 111t-131.5 40.5q-43 0 -66 -5t-34 -19.5t-11 -43.5v-220h136q4 0 4 -11t-4 -11h-136v-208q0 -43 21.5 -60.5t83.5 -17.5q75 0 132.5 33.5z" />
    <glyph glyph-name="Ntilde" unicode="&#xd1;" horiz-adv-x="730" 
d="M254 697q-3 0 -5.5 2.5t-1.5 4.5q45 69 86 69q16 0 49 -11q5 -1 28.5 -7.5t46.5 -6.5q17 0 27.5 6.5t22.5 20.5h1q3 0 5.5 -2.5t0.5 -4.5q-26 -40 -43 -54t-38 -14q-16 0 -35 5t-25 6q-39 13 -68 13q-19 0 -27 -5.5t-23 -21.5h-1zM713 619q0 -6 -3 -6q-82 0 -82 -104
v-522q0 -2 -4.5 -3t-6.5 1l-469 556v-426q0 -53 19.5 -78t59.5 -25q3 0 3 -6t-3 -6q-26 0 -40 1l-51 1l-54 -1q-15 -1 -44 -1q-2 0 -2 6t2 6q43 0 63.5 25t20.5 78v454q-44 44 -87 44q-3 0 -3 6t3 6l39 -1q12 -1 34 -1l52 1q9 1 23 1q8 0 11.5 -3.5t11.5 -15.5q9 -14 25 -33
l372 -449v385q0 53 -19 78.5t-59 25.5q-2 0 -2 6t2 6l40 -1q30 -2 51 -2q18 0 52 2l42 1q3 0 3 -6z" />
    <glyph glyph-name="Ograve" unicode="&#xd2;" horiz-adv-x="766" 
d="M263 756q-9 2 8 11t40.5 16t27.5 4q34 -22 51 -34q66 -45 99 -64q3 -1 3 -4t-2 -5t-5 -1q-112 50 -222 77zM200.5 31.5q-72.5 43.5 -112 118t-39.5 162.5q0 103 52 176.5t133.5 110.5t166.5 37q95 0 167 -44.5t110.5 -117.5t38.5 -155q0 -91 -48 -167t-128.5 -120
t-174.5 -44q-93 0 -165.5 43.5zM516 43q51 33 80.5 96.5t29.5 151.5q0 93 -32.5 166t-93 114t-140.5 41q-104 0 -162 -70.5t-58 -194.5q0 -95 33 -172t92.5 -121t135.5 -44q64 0 115 33z" />
    <glyph glyph-name="Oacute" unicode="&#xd3;" horiz-adv-x="766" 
d="M287 678q-4 0 -5 4.5t2 6.5q36 20 103 66q32 22 48 32q5 3 27.5 -4t40 -16t8.5 -11q-62 -15 -113.5 -33.5t-108.5 -43.5zM200.5 31.5q-72.5 43.5 -112 118t-39.5 162.5q0 103 52 176.5t133.5 110.5t166.5 37q95 0 167 -44.5t110.5 -117.5t38.5 -155q0 -91 -48 -167
t-128.5 -120t-174.5 -44q-93 0 -165.5 43.5zM516 43q51 33 80.5 96.5t29.5 151.5q0 93 -32.5 166t-93 114t-140.5 41q-104 0 -162 -70.5t-58 -194.5q0 -95 33 -172t92.5 -121t135.5 -44q64 0 115 33z" />
    <glyph glyph-name="Ocircumflex" unicode="&#xd4;" horiz-adv-x="766" 
d="M375 799q5 5 12 5q6 0 11 -5l102 -104q1 0 1 -2t-2.5 -4t-3.5 -1l-108 52l-109 -52q-2 -1 -5 2.5t-1 4.5zM200.5 31.5q-72.5 43.5 -112 118t-39.5 162.5q0 103 52 176.5t133.5 110.5t166.5 37q95 0 167 -44.5t110.5 -117.5t38.5 -155q0 -91 -48 -167t-128.5 -120
t-174.5 -44q-93 0 -165.5 43.5zM516 43q51 33 80.5 96.5t29.5 151.5q0 93 -32.5 166t-93 114t-140.5 41q-104 0 -162 -70.5t-58 -194.5q0 -95 33 -172t92.5 -121t135.5 -44q64 0 115 33z" />
    <glyph glyph-name="Otilde" unicode="&#xd5;" horiz-adv-x="766" 
d="M492.5 754.5q10.5 6.5 22.5 20.5h1q3 0 5.5 -2.5t0.5 -4.5q-26 -40 -43 -54t-38 -14q-16 0 -35 5t-25 6q-39 13 -68 13q-19 0 -27 -5.5t-23 -21.5h-1q-3 0 -5.5 2.5t-1.5 4.5q45 69 86 69q16 0 49 -11q5 -1 28.5 -7.5t46.5 -6.5q17 0 27.5 6.5zM200.5 31.5
q-72.5 43.5 -112 118t-39.5 162.5q0 103 52 176.5t133.5 110.5t166.5 37q95 0 167 -44.5t110.5 -117.5t38.5 -155q0 -91 -48 -167t-128.5 -120t-174.5 -44q-93 0 -165.5 43.5zM516 43q51 33 80.5 96.5t29.5 151.5q0 93 -32.5 166t-93 114t-140.5 41q-104 0 -162 -70.5
t-58 -194.5q0 -95 33 -172t92.5 -121t135.5 -44q64 0 115 33z" />
    <glyph glyph-name="Odieresis" unicode="&#xd6;" horiz-adv-x="766" 
d="M265 724q-12 12 -12 34q0 21 12 32.5t34 11.5t33.5 -11.5t11.5 -32.5q0 -22 -11.5 -34t-33.5 -12t-34 12zM440 724q-12 12 -12 34q0 21 12 32.5t34 11.5t33.5 -11.5t11.5 -32.5q0 -22 -11.5 -34t-33.5 -12t-34 12zM200.5 31.5q-72.5 43.5 -112 118t-39.5 162.5
q0 103 52 176.5t133.5 110.5t166.5 37q95 0 167 -44.5t110.5 -117.5t38.5 -155q0 -91 -48 -167t-128.5 -120t-174.5 -44q-93 0 -165.5 43.5zM516 43q51 33 80.5 96.5t29.5 151.5q0 93 -32.5 166t-93 114t-140.5 41q-104 0 -162 -70.5t-58 -194.5q0 -95 33 -172t92.5 -121
t135.5 -44q64 0 115 33z" />
    <glyph glyph-name="multiply" unicode="&#xd7;" horiz-adv-x="388" 
d="M325 89q4 -4 -11 -19t-19 -12l-101 102l-102 -102q-3 -4 -18 11t-13 18l103 103l-102 102q-3 3 12 17.5t17 12.5l103 -102l101 101q4 3 19 -12t11 -18l-101 -101z" />
    <glyph glyph-name="Oslash" unicode="&#xd8;" horiz-adv-x="777" 
d="M693.5 441q23.5 -59 23.5 -122q0 -91 -48 -167t-128.5 -120t-174.5 -44q-62 0 -116 20t-95 57l-72 -73l-1 -1q-4 0 -11 7.5t-4 10.5l71 72q-43 44 -66 104t-23 127q0 103 52 176.5t133.5 110.5t166.5 37q123 0 209 -76l70 71h2q4 0 11 -6t4 -9l-70 -72q43 -44 66.5 -103z
M193 137l369 374q-35 48 -87 74.5t-115 26.5q-104 0 -162 -70.5t-58 -194.5q0 -121 53 -210zM516 43q51 33 80.5 96.5t29.5 151.5q0 118 -51 201l-369 -375q35 -51 85 -79t110 -28q64 0 115 33z" />
    <glyph glyph-name="Ugrave" unicode="&#xd9;" horiz-adv-x="761" 
d="M268 767q17 9 40.5 16t27.5 4q34 -22 51 -34q66 -45 99 -64q3 -1 3 -4t-2 -5t-5 -1q-112 50 -222 77q-9 2 8 11zM729 6q0 -6 -3 -6l-82 1l-58 -1q-12 0 -15.5 3t-3.5 16v74q-59 -55 -115.5 -80t-122.5 -25q-64 0 -115 24t-80.5 69t-29.5 105v358q0 30 -6 44t-22.5 19.5
t-52.5 5.5q-3 0 -3 6t3 6l50 -1q44 -2 70 -2q29 0 73 2l48 1q3 0 3 -6t-3 -6q-35 0 -52 -6t-23 -20.5t-6 -44.5v-321q0 -98 48 -149.5t130 -51.5q54 0 102.5 22.5t103.5 73.5v426q0 30 -6 44.5t-22.5 20.5t-52.5 6q-2 0 -2 6t2 6l50 -1q44 -2 70 -2q27 0 69 2l51 1q3 0 3 -6
t-3 -6q-36 0 -53 -5.5t-23 -19.5t-6 -44v-463q0 -30 6 -44.5t23 -19.5t53 -5q3 0 3 -6z" />
    <glyph glyph-name="Uacute" unicode="&#xda;" horiz-adv-x="761" 
d="M284 678q-4 0 -5 4.5t2 6.5q36 20 103 66q32 22 48 32q5 3 27.5 -4t40 -16t8.5 -11q-62 -15 -113.5 -33.5t-108.5 -43.5zM729 6q0 -6 -3 -6l-82 1l-58 -1q-12 0 -15.5 3t-3.5 16v74q-59 -55 -115.5 -80t-122.5 -25q-64 0 -115 24t-80.5 69t-29.5 105v358q0 30 -6 44
t-22.5 19.5t-52.5 5.5q-3 0 -3 6t3 6l50 -1q44 -2 70 -2q29 0 73 2l48 1q3 0 3 -6t-3 -6q-35 0 -52 -6t-23 -20.5t-6 -44.5v-321q0 -98 48 -149.5t130 -51.5q54 0 102.5 22.5t103.5 73.5v426q0 30 -6 44.5t-22.5 20.5t-52.5 6q-2 0 -2 6t2 6l50 -1q44 -2 70 -2q27 0 69 2
l51 1q3 0 3 -6t-3 -6q-36 0 -53 -5.5t-23 -19.5t-6 -44v-463q0 -30 6 -44.5t23 -19.5t53 -5q3 0 3 -6z" />
    <glyph glyph-name="Ucircumflex" unicode="&#xdb;" horiz-adv-x="761" 
d="M270 690.5q-3 3.5 -1 4.5l103 104q5 5 12 5q6 0 11 -5l102 -104q1 0 1 -2t-2.5 -4t-3.5 -1l-108 52l-109 -52q-2 -1 -5 2.5zM729 6q0 -6 -3 -6l-82 1l-58 -1q-12 0 -15.5 3t-3.5 16v74q-59 -55 -115.5 -80t-122.5 -25q-64 0 -115 24t-80.5 69t-29.5 105v358q0 30 -6 44
t-22.5 19.5t-52.5 5.5q-3 0 -3 6t3 6l50 -1q44 -2 70 -2q29 0 73 2l48 1q3 0 3 -6t-3 -6q-35 0 -52 -6t-23 -20.5t-6 -44.5v-321q0 -98 48 -149.5t130 -51.5q54 0 102.5 22.5t103.5 73.5v426q0 30 -6 44.5t-22.5 20.5t-52.5 6q-2 0 -2 6t2 6l50 -1q44 -2 70 -2q27 0 69 2
l51 1q3 0 3 -6t-3 -6q-36 0 -53 -5.5t-23 -19.5t-6 -44v-463q0 -30 6 -44.5t23 -19.5t53 -5q3 0 3 -6z" />
    <glyph glyph-name="Udieresis" unicode="&#xdc;" horiz-adv-x="761" 
d="M262 724q-12 12 -12 34q0 21 12 32.5t34 11.5t33.5 -11.5t11.5 -32.5q0 -22 -11.5 -34t-33.5 -12t-34 12zM437 724q-12 12 -12 34q0 21 12 32.5t34 11.5t33.5 -11.5t11.5 -32.5q0 -22 -11.5 -34t-33.5 -12t-34 12zM729 6q0 -6 -3 -6l-82 1l-58 -1q-12 0 -15.5 3t-3.5 16
v74q-59 -55 -115.5 -80t-122.5 -25q-64 0 -115 24t-80.5 69t-29.5 105v358q0 30 -6 44t-22.5 19.5t-52.5 5.5q-3 0 -3 6t3 6l50 -1q44 -2 70 -2q29 0 73 2l48 1q3 0 3 -6t-3 -6q-35 0 -52 -6t-23 -20.5t-6 -44.5v-321q0 -98 48 -149.5t130 -51.5q54 0 102.5 22.5t103.5 73.5
v426q0 30 -6 44.5t-22.5 20.5t-52.5 6q-2 0 -2 6t2 6l50 -1q44 -2 70 -2q27 0 69 2l51 1q3 0 3 -6t-3 -6q-36 0 -53 -5.5t-23 -19.5t-6 -44v-463q0 -30 6 -44.5t23 -19.5t53 -5q3 0 3 -6z" />
    <glyph glyph-name="Yacute" unicode="&#xdd;" horiz-adv-x="612" 
d="M221 678q-4 0 -5 4.5t2 6.5q36 20 103 66q32 22 48 32q5 3 27.5 -4t40 -16t8.5 -11q-62 -15 -113.5 -33.5t-108.5 -43.5zM619 619q0 -6 -2 -6q-34 0 -73.5 -30.5t-70.5 -80.5l-124 -195v-226q0 -31 5.5 -45t22 -19t52.5 -5q3 0 3 -6t-3 -6q-31 0 -49 1l-72 1l-70 -1
q-18 -1 -51 -1q-3 0 -3 6t3 6q36 0 53 5t23 19.5t6 44.5v209l-159 237q-32 48 -56.5 67t-52.5 19q-3 0 -3 6t3 6q11 0 35 -2l33 -1q33 0 91 2l58 1q2 0 2 -6t-2 -6q-47 0 -47 -24q0 -11 11 -28l154 -230l112 177q24 39 24 64q0 20 -14 30.5t-41 10.5q-3 0 -3 6t3 6l49 -1
q40 -2 73 -2q17 0 41 2l37 1q2 0 2 -6z" />
    <glyph glyph-name="Thorn" unicode="&#xde;" horiz-adv-x="541" 
d="M377.5 190.5q39.5 43.5 39.5 125.5q0 80 -41.5 123t-110.5 43q-25 0 -67 -6v-391q0 -32 8 -46.5t31 -20.5t73 -6q2 0 2 -6t-2 -6q-42 0 -65 1l-86 1l-67 -1q-18 -1 -49 -1q-3 0 -3 6t3 6q33 0 48.5 5t21 19.5t5.5 44.5v463q0 30 -5.5 44t-21 19.5t-48.5 5.5q-3 0 -3 6
t3 6l49 -1q42 -2 67 -2q32 0 86 2l65 1q2 0 2 -6t-2 -6q-50 0 -73 -6t-31 -21t-8 -47v-46q48 6 92 6q98 0 157 -40t59 -130q0 -64 -32.5 -108.5t-82 -66t-100.5 -21.5q-23 0 -50 5q-2 0 -2 5q0 3 1.5 6t3.5 2q24 -4 36 -4q58 0 97.5 43.5z" />
    <glyph glyph-name="germandbls" unicode="&#xdf;" horiz-adv-x="527" 
d="M269 18q-6 6 -6 12l-2 97q0 2 5.5 2.5t6.5 -1.5q20 -55 51 -87t62 -32q24 0 38 19t14 47q0 38 -21.5 68.5t-64.5 71.5q-45 45 -66.5 75.5t-21.5 70.5q0 28 10.5 50t32.5 54q24 33 37 61t13 65q0 47 -20.5 83t-66.5 36q-57 0 -86.5 -69t-29.5 -195v-365q0 -30 4.5 -44.5
t17.5 -19.5t40 -5q2 0 2 -6t-2 -6l-96 1l-101 -1q-3 0 -3 6t3 6q29 0 42.5 5t18.5 19.5t5 44.5l-1 367q0 133 56 205.5t161 72.5q64 0 98 -28.5t34 -69.5q0 -33 -16.5 -58t-48.5 -56q-29 -28 -43.5 -49t-14.5 -47q0 -31 21.5 -59.5t68.5 -75.5q51 -51 75.5 -85t24.5 -74
q0 -33 -18 -64.5t-50.5 -51t-73.5 -19.5q-47 0 -89 29z" />
    <glyph glyph-name="agrave" unicode="&#xe0;" horiz-adv-x="490" 
d="M155 727q-1 4 10 4q16 0 39 -5.5t24 -9.5l45 -240q1 -2 -4 -3.5t-6 1.5zM484 61q3 0 4.5 -5t-1.5 -6l-123 -60q-2 -1 -5 -1q-8 0 -16.5 22t-10.5 56q-35 -36 -71 -57t-80 -21q-62 0 -104 45.5t-42 127.5q0 72 33.5 126t86 82.5t107.5 28.5q53 0 97 -29q20 10 31 26
q1 1 3 1t4.5 -1.5t2.5 -2.5v-286q0 -32 7.5 -46t25.5 -14q13 0 49 13zM332 84v208q0 37 -28 62t-67 25q-56 0 -90 -52t-34 -134q0 -75 28.5 -119.5t78.5 -44.5q53 0 112 55z" />
    <glyph glyph-name="aacute" unicode="&#xe1;" horiz-adv-x="490" 
d="M251 472q-3 0 -5.5 1.5t-1.5 2.5l46 240q1 4 24.5 9.5t38.5 5.5q11 0 10 -4l-108 -253q0 -2 -4 -2zM484 61q3 0 4.5 -5t-1.5 -6l-123 -60q-2 -1 -5 -1q-8 0 -16.5 22t-10.5 56q-35 -36 -71 -57t-80 -21q-62 0 -104 45.5t-42 127.5q0 72 33.5 126t86 82.5t107.5 28.5
q53 0 97 -29q20 10 31 26q1 1 3 1t4.5 -1.5t2.5 -2.5v-286q0 -32 7.5 -46t25.5 -14q13 0 49 13zM332 84v208q0 37 -28 62t-67 25q-56 0 -90 -52t-34 -134q0 -75 28.5 -119.5t78.5 -44.5q53 0 112 55z" />
    <glyph glyph-name="acircumflex" unicode="&#xe2;" horiz-adv-x="490" 
d="M185 472q-3 0 -5.5 1.5t-1.5 2.5l68 249q1 5 11 5q11 0 12 -5l67 -249q2 -2 -3.5 -3.5t-6.5 1.5l-68 147l-69 -147q0 -2 -4 -2zM484 61q3 0 4.5 -5t-1.5 -6l-123 -60q-2 -1 -5 -1q-8 0 -16.5 22t-10.5 56q-35 -36 -71 -57t-80 -21q-62 0 -104 45.5t-42 127.5
q0 72 33.5 126t86 82.5t107.5 28.5q53 0 97 -29q20 10 31 26q1 1 3 1t4.5 -1.5t2.5 -2.5v-286q0 -32 7.5 -46t25.5 -14q13 0 49 13zM332 84v208q0 37 -28 62t-67 25q-56 0 -90 -52t-34 -134q0 -75 28.5 -119.5t78.5 -44.5q53 0 112 55z" />
    <glyph glyph-name="atilde" unicode="&#xe3;" horiz-adv-x="490" 
d="M129 477q-3 0 -5 2.5t0 4.5q45 67 85 67q14 0 50 -10q46 -14 74 -14q17 0 27.5 6.5t22.5 20.5h1q3 0 5.5 -2.5t0.5 -4.5q-26 -40 -43 -54t-37 -14t-60 12q-4 1 -25.5 7t-43.5 6q-16 0 -25 -5t-15.5 -12t-9.5 -10h-2zM484 61q3 0 4.5 -5t-1.5 -6l-123 -60q-2 -1 -5 -1
q-8 0 -16.5 22t-10.5 56q-35 -36 -71 -57t-80 -21q-62 0 -104 45.5t-42 127.5q0 72 33.5 126t86 82.5t107.5 28.5q53 0 97 -29q20 10 31 26q1 1 3 1t4.5 -1.5t2.5 -2.5v-286q0 -32 7.5 -46t25.5 -14q13 0 49 13zM332 84v208q0 37 -28 62t-67 25q-56 0 -90 -52t-34 -134
q0 -75 28.5 -119.5t78.5 -44.5q53 0 112 55z" />
    <glyph glyph-name="adieresis" unicode="&#xe4;" horiz-adv-x="490" 
d="M136 485q-12 12 -12 34q0 21 12 32.5t34 11.5t33.5 -11.5t11.5 -32.5q0 -22 -11.5 -34t-33.5 -12t-34 12zM311 485q-12 12 -12 34q0 21 12 32.5t34 11.5t33.5 -11.5t11.5 -32.5q0 -22 -11.5 -34t-33.5 -12t-34 12zM484 61q3 0 4.5 -5t-1.5 -6l-123 -60q-2 -1 -5 -1
q-8 0 -16.5 22t-10.5 56q-35 -36 -71 -57t-80 -21q-62 0 -104 45.5t-42 127.5q0 72 33.5 126t86 82.5t107.5 28.5q53 0 97 -29q20 10 31 26q1 1 3 1t4.5 -1.5t2.5 -2.5v-286q0 -32 7.5 -46t25.5 -14q13 0 49 13zM332 84v208q0 37 -28 62t-67 25q-56 0 -90 -52t-34 -134
q0 -75 28.5 -119.5t78.5 -44.5q53 0 112 55z" />
    <glyph glyph-name="aring" unicode="&#xe5;" horiz-adv-x="490" 
d="M179.5 491.5q-25.5 23.5 -25.5 55.5q0 36 32.5 57t71.5 21q38 0 66 -23.5t28 -56.5q0 -35 -32 -56t-72 -21q-43 0 -68.5 23.5zM215 601.5q-7 -11.5 -7 -34.5q0 -34 15.5 -61t40.5 -27q33 0 33 48q0 35 -17 60.5t-42 25.5q-16 0 -23 -11.5zM484 61q3 0 4.5 -5t-1.5 -6
l-123 -60q-2 -1 -5 -1q-8 0 -16.5 22t-10.5 56q-35 -36 -71 -57t-80 -21q-62 0 -104 45.5t-42 127.5q0 72 33.5 126t86 82.5t107.5 28.5q53 0 97 -29q20 10 31 26q1 1 3 1t4.5 -1.5t2.5 -2.5v-286q0 -32 7.5 -46t25.5 -14q13 0 49 13zM332 84v208q0 37 -28 62t-67 25
q-56 0 -90 -52t-34 -134q0 -75 28.5 -119.5t78.5 -44.5q53 0 112 55z" />
    <glyph glyph-name="ae" unicode="&#xe6;" horiz-adv-x="627" 
d="M585 54q3 0 5.5 -3.5t0.5 -6.5q-32 -30 -64 -43t-71 -13q-51 0 -91.5 22.5t-59.5 68.5q-33 -41 -68.5 -66.5t-79.5 -25.5q-51 0 -86.5 40t-35.5 109q0 91 38.5 149.5t92 84.5t100.5 26q28 0 57 -9.5t49 -29.5q26 19 56.5 28.5t59.5 9.5q52 0 80.5 -26.5t28.5 -72.5
q0 -25 -12 -25l-220 -1q-4 -23 -4 -55q0 -97 33 -147t91 -50q31 0 55 8.5t44 27.5h1zM300 91q-12 33 -12 79q0 76 32 130q-16 42 -36 60t-51 18t-58.5 -23t-44.5 -70.5t-17 -117.5q0 -65 23.5 -103t61.5 -38q50 0 102 65zM400 351.5q-22 -23.5 -32 -66.5l148 4
q-1 41 -18 63.5t-44 22.5q-32 0 -54 -23.5z" />
    <glyph glyph-name="ccedilla" unicode="&#xe7;" horiz-adv-x="415" 
d="M378 58q3 0 5.5 -3t-0.5 -5q-35 -32 -71 -47t-80 -15h-6q-7 -28 -7 -38q0 -16 9 -25.5t33 -23.5q25 -14 40 -32t15 -45q0 -39 -27.5 -69t-82.5 -30q-31 0 -49.5 10.5t-18.5 30.5q0 13 10 23t24 10t20.5 -6.5t12.5 -19.5t13 -20t22 -7q31 0 31 34q0 26 -18.5 46.5
t-66.5 46.5q-13 7 -13 13q0 4 5 17q16 36 33 86q-58 5 -98 34t-59 72t-19 90q0 64 33 111.5t85 73t106 25.5q45 0 82 -18.5t37 -46.5q0 -15 -11 -26t-30 -11q-33 0 -50 39q-11 23 -24 33t-39 10q-52 0 -81.5 -43.5t-29.5 -115.5q0 -83 40 -136t123 -53q55 0 100 31h2z" />
    <glyph glyph-name="egrave" unicode="&#xe8;" horiz-adv-x="411" 
d="M128 727q-1 4 10 4q16 0 39 -5.5t24 -9.5l45 -240q1 -2 -4 -3.5t-6 1.5zM371 59q3 0 5.5 -3.5t0.5 -6.5q-35 -32 -71.5 -46.5t-78.5 -14.5q-60 0 -103.5 26.5t-66 70.5t-22.5 95q0 59 28.5 108.5t79 78t111.5 28.5q56 0 87 -26.5t31 -72.5q0 -25 -11 -25h-48l-197 -2
q-4 -20 -4 -49q0 -86 41.5 -139t114.5 -53q58 0 102 31h1zM156 351.5q-26 -23.5 -37 -66.5l172 4q-1 40 -20 63t-52 23q-37 0 -63 -23.5z" />
    <glyph glyph-name="eacute" unicode="&#xe9;" horiz-adv-x="411" 
d="M224 472q-3 0 -5.5 1.5t-1.5 2.5l46 240q1 4 24.5 9.5t38.5 5.5q11 0 10 -4l-108 -253q0 -2 -4 -2zM371 59q3 0 5.5 -3.5t0.5 -6.5q-35 -32 -71.5 -46.5t-78.5 -14.5q-60 0 -103.5 26.5t-66 70.5t-22.5 95q0 59 28.5 108.5t79 78t111.5 28.5q56 0 87 -26.5t31 -72.5
q0 -25 -11 -25h-48l-197 -2q-4 -20 -4 -49q0 -86 41.5 -139t114.5 -53q58 0 102 31h1zM156 351.5q-26 -23.5 -37 -66.5l172 4q-1 40 -20 63t-52 23q-37 0 -63 -23.5z" />
    <glyph glyph-name="ecircumflex" unicode="&#xea;" horiz-adv-x="411" 
d="M158 472q-3 0 -5.5 1.5t-1.5 2.5l68 249q1 5 11 5q11 0 12 -5l67 -249q2 -2 -3.5 -3.5t-6.5 1.5l-68 147l-69 -147q0 -2 -4 -2zM371 59q3 0 5.5 -3.5t0.5 -6.5q-35 -32 -71.5 -46.5t-78.5 -14.5q-60 0 -103.5 26.5t-66 70.5t-22.5 95q0 59 28.5 108.5t79 78t111.5 28.5
q56 0 87 -26.5t31 -72.5q0 -25 -11 -25h-48l-197 -2q-4 -20 -4 -49q0 -86 41.5 -139t114.5 -53q58 0 102 31h1zM156 351.5q-26 -23.5 -37 -66.5l172 4q-1 40 -20 63t-52 23q-37 0 -63 -23.5z" />
    <glyph glyph-name="edieresis" unicode="&#xeb;" horiz-adv-x="411" 
d="M109 485q-12 12 -12 34q0 21 12 32.5t34 11.5t33.5 -11.5t11.5 -32.5q0 -22 -11.5 -34t-33.5 -12t-34 12zM284 485q-12 12 -12 34q0 21 12 32.5t34 11.5t33.5 -11.5t11.5 -32.5q0 -22 -11.5 -34t-33.5 -12t-34 12zM371 59q3 0 5.5 -3.5t0.5 -6.5q-35 -32 -71.5 -46.5
t-78.5 -14.5q-60 0 -103.5 26.5t-66 70.5t-22.5 95q0 59 28.5 108.5t79 78t111.5 28.5q56 0 87 -26.5t31 -72.5q0 -25 -11 -25h-48l-197 -2q-4 -20 -4 -49q0 -86 41.5 -139t114.5 -53q58 0 102 31h1zM156 351.5q-26 -23.5 -37 -66.5l172 4q-1 40 -20 63t-52 23
q-37 0 -63 -23.5z" />
    <glyph glyph-name="igrave" unicode="&#xec;" horiz-adv-x="270" 
d="M45 731q16 0 39 -5.5t24 -9.5l45 -240q1 -2 -4 -3.5t-6 1.5l-108 253q-1 4 10 4zM46 6q0 6 3 6q36 0 48 13.5t12 55.5v184q0 36 -7 51.5t-25 15.5q-17 0 -43 -13h-1q-4 0 -6 5.5t2 6.5l136 63l4 1q3 0 6.5 -3t3.5 -7q0 -7 -1 -40t-1 -78v-186q0 -42 11.5 -55.5
t48.5 -13.5q3 0 3 -6t-3 -6q-24 0 -39 1l-55 1l-55 -1q-15 -1 -39 -1q-3 0 -3 6z" />
    <glyph glyph-name="iacute" unicode="&#xed;" horiz-adv-x="270" 
d="M131 472q-3 0 -5.5 1.5t-1.5 2.5l46 240q1 4 24.5 9.5t38.5 5.5q11 0 10 -4l-108 -253q0 -2 -4 -2zM46 6q0 6 3 6q36 0 48 13.5t12 55.5v184q0 36 -7 51.5t-25 15.5q-17 0 -43 -13h-1q-4 0 -6 5.5t2 6.5l136 63l4 1q3 0 6.5 -3t3.5 -7q0 -7 -1 -40t-1 -78v-186
q0 -42 11.5 -55.5t48.5 -13.5q3 0 3 -6t-3 -6q-24 0 -39 1l-55 1l-55 -1q-15 -1 -39 -1q-3 0 -3 6z" />
    <glyph glyph-name="icircumflex" unicode="&#xee;" horiz-adv-x="270" 
d="M212.5 472.5q-5.5 -1.5 -6.5 1.5l-68 147l-69 -147q0 -2 -4 -2q-3 0 -5.5 1.5t-1.5 2.5l68 249q1 5 11 5q11 0 12 -5l67 -249q2 -2 -3.5 -3.5zM46 6q0 6 3 6q36 0 48 13.5t12 55.5v184q0 36 -7 51.5t-25 15.5q-17 0 -43 -13h-1q-4 0 -6 5.5t2 6.5l136 63l4 1q3 0 6.5 -3
t3.5 -7q0 -7 -1 -40t-1 -78v-186q0 -42 11.5 -55.5t48.5 -13.5q3 0 3 -6t-3 -6q-24 0 -39 1l-55 1l-55 -1q-15 -1 -39 -1q-3 0 -3 6z" />
    <glyph glyph-name="idieresis" unicode="&#xef;" horiz-adv-x="270" 
d="M30 485.5q-13 12.5 -13 33.5t13 32.5t34 11.5q22 0 34 -11.5t12 -32.5q0 -22 -12 -34t-34 -12q-21 0 -34 12.5zM176.5 485q-12.5 12 -12.5 34q0 21 12.5 32.5t33.5 11.5t33 -11.5t12 -32.5q0 -22 -12 -34t-33 -12t-33.5 12zM46 6q0 6 3 6q36 0 48 13.5t12 55.5v184
q0 36 -7 51.5t-25 15.5q-17 0 -43 -13h-1q-4 0 -6 5.5t2 6.5l136 63l4 1q3 0 6.5 -3t3.5 -7q0 -7 -1 -40t-1 -78v-186q0 -42 11.5 -55.5t48.5 -13.5q3 0 3 -6t-3 -6q-24 0 -39 1l-55 1l-55 -1q-15 -1 -39 -1q-3 0 -3 6z" />
    <glyph glyph-name="eth" unicode="&#xf0;" horiz-adv-x="470" 
d="M408 405.5q36 -89.5 36 -178.5q0 -121 -62 -180.5t-159 -59.5q-59 0 -103.5 27t-69 73t-24.5 99q0 69 33 117t82.5 72t98.5 24q52 0 97 -28q-29 95 -81 175l-131 -62q-5 -2 -9.5 10t-0.5 15l126 60q-67 93 -151 147q-2 2 -2 3q0 2 2.5 4.5t5.5 1.5q110 -51 190 -135
l103 49h1q5 0 9.5 -11.5t-0.5 -13.5l-93 -44q66 -75 102 -164.5zM335 48.5q29 41.5 29 142.5q0 55 -11 113q-21 36 -53 55.5t-70 19.5q-55 0 -90 -43t-35 -121q0 -57 18 -104.5t51.5 -75.5t76.5 -28q55 0 84 41.5z" />
    <glyph glyph-name="ntilde" unicode="&#xf1;" horiz-adv-x="520" 
d="M145 477q-3 0 -5 2.5t0 4.5q45 67 85 67q14 0 50 -10q46 -14 74 -14q17 0 27.5 6.5t22.5 20.5h1q3 0 5.5 -2.5t0.5 -4.5q-26 -40 -43 -54t-37 -14t-60 12q-4 1 -25.5 7t-43.5 6q-16 0 -25 -5t-15.5 -12t-9.5 -10h-2zM503 6q0 -6 -3 -6q-24 0 -39 1l-55 1l-55 -1
q-15 -1 -39 -1q-3 0 -3 6t3 6q36 0 47.5 13.5t11.5 55.5v156q0 58 -21 85t-67 27q-28 0 -58 -14t-54 -39v-215q0 -42 11.5 -55.5t48.5 -13.5q3 0 3 -6t-3 -6q-24 0 -39 1l-55 1l-56 -1q-14 -1 -38 -1q-3 0 -3 6t3 6q36 0 47.5 13.5t11.5 55.5v195q0 33 -7.5 47.5t-25.5 14.5
q-19 0 -53 -14h-2q-3 0 -4.5 5t1.5 6l124 59q2 1 6 1q10 0 19.5 -22.5t10.5 -58.5q73 85 153 85q55 0 85.5 -32.5t30.5 -90.5v-195q0 -42 11.5 -55.5t48.5 -13.5q3 0 3 -6z" />
    <glyph glyph-name="ograve" unicode="&#xf2;" horiz-adv-x="482" 
d="M150 731q16 0 39 -5.5t24 -9.5l45 -240q1 -2 -4 -3.5t-6 1.5l-108 253q-1 4 10 4zM129 15.5q-45 28.5 -69.5 77t-24.5 105.5q0 65 32 110.5t82 68t102 22.5q59 0 104 -29t69 -76.5t24 -100.5q0 -61 -29.5 -108t-78.5 -72.5t-107 -25.5q-59 0 -104 28.5zM339 45
q27 39 27 117q0 65 -19.5 114.5t-53.5 76t-76 26.5q-49 0 -75.5 -37.5t-26.5 -110.5q0 -63 19 -114.5t52.5 -81t75.5 -29.5q50 0 77 39z" />
    <glyph glyph-name="oacute" unicode="&#xf3;" horiz-adv-x="482" 
d="M236 472q-3 0 -5.5 1.5t-1.5 2.5l46 240q1 4 24.5 9.5t38.5 5.5q11 0 10 -4l-108 -253q0 -2 -4 -2zM129 15.5q-45 28.5 -69.5 77t-24.5 105.5q0 65 32 110.5t82 68t102 22.5q59 0 104 -29t69 -76.5t24 -100.5q0 -61 -29.5 -108t-78.5 -72.5t-107 -25.5q-59 0 -104 28.5z
M339 45q27 39 27 117q0 65 -19.5 114.5t-53.5 76t-76 26.5q-49 0 -75.5 -37.5t-26.5 -110.5q0 -63 19 -114.5t52.5 -81t75.5 -29.5q50 0 77 39z" />
    <glyph glyph-name="ocircumflex" unicode="&#xf4;" horiz-adv-x="482" 
d="M317.5 472.5q-5.5 -1.5 -6.5 1.5l-68 147l-69 -147q0 -2 -4 -2q-3 0 -5.5 1.5t-1.5 2.5l68 249q1 5 11 5q11 0 12 -5l67 -249q2 -2 -3.5 -3.5zM129 15.5q-45 28.5 -69.5 77t-24.5 105.5q0 65 32 110.5t82 68t102 22.5q59 0 104 -29t69 -76.5t24 -100.5q0 -61 -29.5 -108
t-78.5 -72.5t-107 -25.5q-59 0 -104 28.5zM339 45q27 39 27 117q0 65 -19.5 114.5t-53.5 76t-76 26.5q-49 0 -75.5 -37.5t-26.5 -110.5q0 -63 19 -114.5t52.5 -81t75.5 -29.5q50 0 77 39z" />
    <glyph glyph-name="otilde" unicode="&#xf5;" horiz-adv-x="482" 
d="M345.5 533.5q10.5 6.5 22.5 20.5h1q3 0 5.5 -2.5t0.5 -4.5q-26 -40 -43 -54t-37 -14t-60 12q-4 1 -25.5 7t-43.5 6q-16 0 -25 -5t-15.5 -12t-9.5 -10h-2q-3 0 -5 2.5t0 4.5q45 67 85 67q14 0 50 -10q46 -14 74 -14q17 0 27.5 6.5zM129 15.5q-45 28.5 -69.5 77
t-24.5 105.5q0 65 32 110.5t82 68t102 22.5q59 0 104 -29t69 -76.5t24 -100.5q0 -61 -29.5 -108t-78.5 -72.5t-107 -25.5q-59 0 -104 28.5zM339 45q27 39 27 117q0 65 -19.5 114.5t-53.5 76t-76 26.5q-49 0 -75.5 -37.5t-26.5 -110.5q0 -63 19 -114.5t52.5 -81t75.5 -29.5
q50 0 77 39z" />
    <glyph glyph-name="odieresis" unicode="&#xf6;" horiz-adv-x="482" 
d="M121 485q-12 12 -12 34q0 21 12 32.5t34 11.5t33.5 -11.5t11.5 -32.5q0 -22 -11.5 -34t-33.5 -12t-34 12zM296 485q-12 12 -12 34q0 21 12 32.5t34 11.5t33.5 -11.5t11.5 -32.5q0 -22 -11.5 -34t-33.5 -12t-34 12zM129 15.5q-45 28.5 -69.5 77t-24.5 105.5q0 65 32 110.5
t82 68t102 22.5q59 0 104 -29t69 -76.5t24 -100.5q0 -61 -29.5 -108t-78.5 -72.5t-107 -25.5q-59 0 -104 28.5zM339 45q27 39 27 117q0 65 -19.5 114.5t-53.5 76t-76 26.5q-49 0 -75.5 -37.5t-26.5 -110.5q0 -63 19 -114.5t52.5 -81t75.5 -29.5q50 0 77 39z" />
    <glyph glyph-name="divide" unicode="&#xf7;" horiz-adv-x="398" 
d="M162 312q-13 13 -13 36q0 22 13 34t36 12t35.5 -12t12.5 -34q0 -23 -12.5 -36t-35.5 -13t-36 13zM30.5 175.5q-1.5 7.5 -1.5 15.5q0 7 1.5 13.5t2.5 6.5h331q2 0 3.5 -6.5t1.5 -14.5t-1.5 -15t-3.5 -7h-330q-2 0 -3.5 7.5zM162.5 2.5q-13.5 13.5 -13.5 35.5t13 34.5
t36 12.5q22 0 35 -12.5t13 -34.5q0 -23 -13 -36t-35 -13t-35.5 13.5z" />
    <glyph glyph-name="oslash" unicode="&#xf8;" horiz-adv-x="477" 
d="M434 270.5q14 -37.5 14 -77.5q0 -61 -29.5 -108t-78.5 -72.5t-107 -25.5q-77 0 -131 49l-49 -51l-1 -1q-5 0 -12 7.5t-4 10.5l50 51q-25 28 -38 66t-13 79q0 65 32 110.5t82 68t102 22.5q73 0 126 -46l45 46l2 1q5 0 11.5 -6.5t3.5 -9.5l-45 -47q26 -29 40 -66.5z
M138 107l194 199q-20 35 -50 54t-65 19q-49 0 -75.5 -37.5t-26.5 -110.5q0 -70 23 -124zM339 45q27 39 27 117q0 71 -23 123l-195 -201q21 -37 50 -57.5t64 -20.5q50 0 77 39z" />
    <glyph glyph-name="ugrave" unicode="&#xf9;" horiz-adv-x="497" 
d="M142 727q-1 4 10 4q16 0 39 -5.5t24 -9.5l45 -240q1 -2 -4 -3.5t-6 1.5zM490 60q4 0 6 -4.5t-1 -6.5l-124 -59q-2 -1 -5 -1q-9 0 -18 23.5t-9 61.5q-74 -83 -154 -83q-51 0 -80.5 32.5t-29.5 90.5v151q0 38 -7 54.5t-23 16.5q-14 0 -31 -8h-2q-3 0 -4.5 5t1.5 6l118 55
l4 1q4 0 8 -3t4 -7v-233q0 -113 84 -113q28 0 58 14t54 39v173q0 38 -7 54.5t-23 16.5q-13 0 -32 -8h-2q-3 0 -4 5t2 6l118 55l4 1q4 0 8 -3t4 -7v-275q0 -34 7.5 -49t25.5 -15q16 0 49 14h1z" />
    <glyph glyph-name="uacute" unicode="&#xfa;" horiz-adv-x="497" 
d="M238 472q-3 0 -5.5 1.5t-1.5 2.5l46 240q1 4 24.5 9.5t38.5 5.5q11 0 10 -4l-108 -253q0 -2 -4 -2zM490 60q4 0 6 -4.5t-1 -6.5l-124 -59q-2 -1 -5 -1q-9 0 -18 23.5t-9 61.5q-74 -83 -154 -83q-51 0 -80.5 32.5t-29.5 90.5v151q0 38 -7 54.5t-23 16.5q-14 0 -31 -8h-2
q-3 0 -4.5 5t1.5 6l118 55l4 1q4 0 8 -3t4 -7v-233q0 -113 84 -113q28 0 58 14t54 39v173q0 38 -7 54.5t-23 16.5q-13 0 -32 -8h-2q-3 0 -4 5t2 6l118 55l4 1q4 0 8 -3t4 -7v-275q0 -34 7.5 -49t25.5 -15q16 0 49 14h1z" />
    <glyph glyph-name="ucircumflex" unicode="&#xfb;" horiz-adv-x="497" 
d="M172 472q-3 0 -5.5 1.5t-1.5 2.5l68 249q1 5 11 5q11 0 12 -5l67 -249q2 -2 -3.5 -3.5t-6.5 1.5l-68 147l-69 -147q0 -2 -4 -2zM490 60q4 0 6 -4.5t-1 -6.5l-124 -59q-2 -1 -5 -1q-9 0 -18 23.5t-9 61.5q-74 -83 -154 -83q-51 0 -80.5 32.5t-29.5 90.5v151q0 38 -7 54.5
t-23 16.5q-14 0 -31 -8h-2q-3 0 -4.5 5t1.5 6l118 55l4 1q4 0 8 -3t4 -7v-233q0 -113 84 -113q28 0 58 14t54 39v173q0 38 -7 54.5t-23 16.5q-13 0 -32 -8h-2q-3 0 -4 5t2 6l118 55l4 1q4 0 8 -3t4 -7v-275q0 -34 7.5 -49t25.5 -15q16 0 49 14h1z" />
    <glyph glyph-name="udieresis" unicode="&#xfc;" horiz-adv-x="497" 
d="M123 485q-12 12 -12 34q0 21 12 32.5t34 11.5t33.5 -11.5t11.5 -32.5q0 -22 -11.5 -34t-33.5 -12t-34 12zM298 485q-12 12 -12 34q0 21 12 32.5t34 11.5t33.5 -11.5t11.5 -32.5q0 -22 -11.5 -34t-33.5 -12t-34 12zM490 60q4 0 6 -4.5t-1 -6.5l-124 -59q-2 -1 -5 -1
q-9 0 -18 23.5t-9 61.5q-74 -83 -154 -83q-51 0 -80.5 32.5t-29.5 90.5v151q0 38 -7 54.5t-23 16.5q-14 0 -31 -8h-2q-3 0 -4.5 5t1.5 6l118 55l4 1q4 0 8 -3t4 -7v-233q0 -113 84 -113q28 0 58 14t54 39v173q0 38 -7 54.5t-23 16.5q-13 0 -32 -8h-2q-3 0 -4 5t2 6l118 55
l4 1q4 0 8 -3t4 -7v-275q0 -34 7.5 -49t25.5 -15q16 0 49 14h1z" />
    <glyph glyph-name="yacute" unicode="&#xfd;" horiz-adv-x="489" 
d="M253 472q-3 0 -5.5 1.5t-1.5 2.5l46 240q1 4 24.5 9.5t38.5 5.5q11 0 10 -4l-108 -253q0 -2 -4 -2zM413 392q4 -3 4 -7v-455q0 -95 -52.5 -153t-151.5 -58q-58 0 -98 21.5t-40 56.5q0 17 11 26.5t27 9.5q17 0 28 -9.5t24 -28.5q18 -26 37.5 -40.5t54.5 -14.5
q43 0 67.5 35.5t24.5 130.5v168q-74 -83 -157 -83q-52 0 -80.5 32.5t-28.5 90.5v151q0 38 -7 54.5t-23 16.5q-15 0 -32 -8h-2q-3 0 -4.5 5t1.5 6l119 55l3 1q4 0 8.5 -3t4.5 -7v-233q0 -57 20.5 -84.5t62.5 -27.5q29 0 59.5 14t55.5 39v172q0 38 -7 54.5t-23 16.5
q-14 0 -31 -8h-2q-3 0 -4.5 5t1.5 6l118 55l4 1q4 0 8 -3z" />
    <glyph glyph-name="thorn" unicode="&#xfe;" horiz-adv-x="493" 
d="M379.5 377q35.5 -22 57 -64t21.5 -98q0 -77 -33.5 -128.5t-83.5 -75.5t-100 -24q-29 0 -52 4.5t-48 15.5v-201q0 -30 7.5 -44t27.5 -19.5t62 -5.5q2 0 2 -6t-2 -6q-36 0 -56 1l-75 1l-56 -1q-14 -1 -39 -1q-2 0 -2 6t2 6q26 0 39 5.5t17.5 19.5t4.5 44v789
q0 36 -6.5 51.5t-24.5 15.5q-17 0 -43 -13h-2q-3 0 -5 5t1 6l133 64l4 1q4 0 7.5 -3t3.5 -7v-395q79 79 162 79q41 0 76.5 -22zM350.5 54.5q31.5 45.5 31.5 129.5q0 81 -36.5 126t-92.5 45q-32 0 -58 -14t-54 -41v-231q25 -29 54.5 -44.5t71.5 -15.5q52 0 83.5 45.5z" />
    <glyph glyph-name="ydieresis" unicode="&#xff;" horiz-adv-x="489" 
d="M138 485q-12 12 -12 34q0 21 12 32.5t34 11.5t33.5 -11.5t11.5 -32.5q0 -22 -11.5 -34t-33.5 -12t-34 12zM313 485q-12 12 -12 34q0 21 12 32.5t34 11.5t33.5 -11.5t11.5 -32.5q0 -22 -11.5 -34t-33.5 -12t-34 12zM413 392q4 -3 4 -7v-455q0 -95 -52.5 -153t-151.5 -58
q-58 0 -98 21.5t-40 56.5q0 17 11 26.5t27 9.5q17 0 28 -9.5t24 -28.5q18 -26 37.5 -40.5t54.5 -14.5q43 0 67.5 35.5t24.5 130.5v168q-74 -83 -157 -83q-52 0 -80.5 32.5t-28.5 90.5v151q0 38 -7 54.5t-23 16.5q-15 0 -32 -8h-2q-3 0 -4.5 5t1.5 6l119 55l3 1q4 0 8.5 -3
t4.5 -7v-233q0 -57 20.5 -84.5t62.5 -27.5q29 0 59.5 14t55.5 39v172q0 38 -7 54.5t-23 16.5q-14 0 -31 -8h-2q-3 0 -4.5 5t1.5 6l118 55l4 1q4 0 8 -3z" />
    <glyph glyph-name="Amacron" unicode="&#x100;" 
d="M212 735q0 15 7 15h251q4 0 6 -4.5t2 -10.5t-2 -11t-6 -5h-251q-7 0 -7 16zM709 6q0 -6 -4 -6q-19 0 -61 2q-40 2 -59 2q-23 0 -57 -2t-51 -2q-4 0 -4 6t4 6q34 0 49 6.5t15 23.5t-15 47l-112 232h-184l-82 -189q-14 -33 -14 -55q0 -65 97 -65q5 0 5 -6t-5 -6
q-18 0 -52 2q-38 2 -66 2q-26 0 -62 -2q-32 -2 -52 -2q-4 0 -4 6t4 6q28 0 47.5 11t37.5 38t41 80l213 491q1 3 7 3.5t7 -3.5l241 -495q34 -73 58 -99t54 -26q4 0 4 -6zM239 344h164l-86 180z" />
    <glyph glyph-name="amacron" unicode="&#x101;" horiz-adv-x="490" 
d="M124 496q0 15 7 15h251q4 0 6 -4.5t2 -10.5t-2 -11t-6 -5h-251q-7 0 -7 16zM484 61q3 0 4.5 -5t-1.5 -6l-123 -60q-2 -1 -5 -1q-8 0 -16.5 22t-10.5 56q-35 -36 -71 -57t-80 -21q-62 0 -104 45.5t-42 127.5q0 72 33.5 126t86 82.5t107.5 28.5q53 0 97 -29q20 10 31 26
q1 1 3 1t4.5 -1.5t2.5 -2.5v-286q0 -32 7.5 -46t25.5 -14q13 0 49 13zM332 84v208q0 37 -28 62t-67 25q-56 0 -90 -52t-34 -134q0 -75 28.5 -119.5t78.5 -44.5q53 0 112 55z" />
    <glyph glyph-name="Abreve" unicode="&#x102;" 
d="M273.5 719.5q-26.5 29.5 -31.5 83.5q-1 4 4.5 4.5t6.5 -1.5q5 -25 31.5 -43.5t60.5 -18.5q33 0 59.5 18.5t31.5 43.5q0 2 4 2q3 0 5.5 -1.5t1.5 -3.5q-5 -54 -31 -83.5t-71 -29.5t-71.5 29.5zM709 6q0 -6 -4 -6q-19 0 -61 2q-40 2 -59 2q-23 0 -57 -2t-51 -2q-4 0 -4 6
t4 6q34 0 49 6.5t15 23.5t-15 47l-112 232h-184l-82 -189q-14 -33 -14 -55q0 -65 97 -65q5 0 5 -6t-5 -6q-18 0 -52 2q-38 2 -66 2q-26 0 -62 -2q-32 -2 -52 -2q-4 0 -4 6t4 6q28 0 47.5 11t37.5 38t41 80l213 491q1 3 7 3.5t7 -3.5l241 -495q34 -73 58 -99t54 -26q4 0 4 -6
zM239 344h164l-86 180z" />
    <glyph glyph-name="abreve" unicode="&#x103;" horiz-adv-x="490" 
d="M180.5 509q-26.5 39 -26.5 115q0 3 5.5 3.5t5.5 -1.5q0 -40 26.5 -68t65.5 -28q38 0 64.5 28.5t26.5 67.5q0 2 4 2q2 0 4.5 -1.5t2.5 -2.5q0 -76 -26 -115t-76 -39t-76.5 39zM484 61q3 0 4.5 -5t-1.5 -6l-123 -60q-2 -1 -5 -1q-8 0 -16.5 22t-10.5 56q-35 -36 -71 -57
t-80 -21q-62 0 -104 45.5t-42 127.5q0 72 33.5 126t86 82.5t107.5 28.5q53 0 97 -29q20 10 31 26q1 1 3 1t4.5 -1.5t2.5 -2.5v-286q0 -32 7.5 -46t25.5 -14q13 0 49 13zM332 84v208q0 37 -28 62t-67 25q-56 0 -90 -52t-34 -134q0 -75 28.5 -119.5t78.5 -44.5q53 0 112 55z
" />
    <glyph glyph-name="Aogonek" unicode="&#x104;" horiz-adv-x="708" 
d="M709 3.5q0 -5.5 -4 -5.5q-23 0 -57 2l-45 1q-52 0 -85.5 -34.5t-33.5 -90.5q0 -51 26.5 -84t74.5 -33q28 0 52 12h1q3 0 5.5 -3t0.5 -5q-48 -38 -108 -38q-56 0 -89 29.5t-33 78.5q0 39 17.5 65.5t51.5 59.5q27 25 40.5 44t13.5 42q0 21 -11 43l-114 234h-182l-82 -189
q-14 -33 -14 -55q0 -65 97 -65q5 0 5 -6t-5 -6q-18 0 -52 2q-38 2 -66 2q-26 0 -62 -2q-32 -2 -52 -2q-4 0 -4 6t4 6q28 0 47.5 11t37.5 38t40 80l214 491q1 3 7 3.5t7 -3.5l241 -496q33 -71 57.5 -99t54.5 -28q4 0 4 -5.5zM239 344h162l-85 176z" />
    <glyph glyph-name="aogonek" unicode="&#x105;" horiz-adv-x="490" 
d="M484 61q3 0 4.5 -5t-1.5 -6l-42 -20q-73 -40 -105.5 -82t-32.5 -96q0 -46 21.5 -70.5t63.5 -24.5q20 0 33.5 5.5t28.5 15.5h2q3 0 5.5 -3t-0.5 -5q-52 -45 -113 -45q-54 0 -82 25.5t-28 70.5q0 44 29.5 87t86.5 83q-8 7 -14.5 27t-7.5 49q-35 -36 -71 -57t-80 -21
q-62 0 -104 45.5t-42 127.5q0 72 33.5 126t86 82.5t107.5 28.5q53 0 97 -29q20 10 31 26q1 1 3 1t4.5 -1.5t2.5 -2.5v-286q0 -32 7.5 -46t25.5 -14q13 0 43 11l5 2v0h1zM332 84v208q0 37 -28 62t-67 25q-56 0 -90 -52t-34 -134q0 -75 28.5 -119.5t78.5 -44.5q53 0 112 55z
" />
    <glyph glyph-name="Cacute" unicode="&#x106;" horiz-adv-x="669" 
d="M280 678q-4 0 -5 4.5t2 6.5q36 20 103 66q32 22 48 32q5 3 27.5 -4t40 -16t8.5 -11q-62 -15 -113.5 -33.5t-108.5 -43.5zM512 627.5q49 -8.5 78 -23.5q8 -4 10.5 -8.5t4.5 -15.5l11 -121q0 -3 -5 -3.5t-6 2.5q-26 78 -85 116.5t-142 38.5q-73 0 -127 -33.5t-82.5 -94.5
t-28.5 -141q0 -93 36 -171t97.5 -123.5t134.5 -45.5q144 0 206 165q0 3 4 3q3 0 5.5 -1t2.5 -3l-14 -121q-2 -12 -4.5 -15.5t-11.5 -7.5q-92 -36 -188 -36q-121 0 -202 48.5t-119 123.5t-38 157q0 93 51.5 165.5t136 113t180.5 40.5q46 0 95 -8.5z" />
    <glyph glyph-name="cacute" unicode="&#x107;" horiz-adv-x="415" 
d="M226 472q-3 0 -5.5 1.5t-1.5 2.5l46 240q1 4 24.5 9.5t38.5 5.5q11 0 10 -4l-108 -253q0 -2 -4 -2zM122.5 16.5q-44.5 28.5 -66 73.5t-21.5 95q0 64 33 111.5t85 73t106 25.5q45 0 82 -18.5t37 -46.5q0 -15 -11 -26t-30 -11q-33 0 -50 39q-11 23 -24 33t-39 10
q-52 0 -81.5 -43.5t-29.5 -115.5q0 -83 40 -136t123 -53q55 0 100 31h2q3 0 5.5 -3t-0.5 -5q-35 -32 -71 -47t-80 -15q-65 0 -109.5 28.5z" />
    <glyph glyph-name="Ccircumflex" unicode="&#x108;" horiz-adv-x="669" 
d="M368 799q5 5 12 5q6 0 11 -5l102 -104q1 0 1 -2t-2.5 -4t-3.5 -1l-108 52l-109 -52q-2 -1 -5 2.5t-1 4.5zM512 627.5q49 -8.5 78 -23.5q8 -4 10.5 -8.5t4.5 -15.5l11 -121q0 -3 -5 -3.5t-6 2.5q-26 78 -85 116.5t-142 38.5q-73 0 -127 -33.5t-82.5 -94.5t-28.5 -141
q0 -93 36 -171t97.5 -123.5t134.5 -45.5q144 0 206 165q0 3 4 3q3 0 5.5 -1t2.5 -3l-14 -121q-2 -12 -4.5 -15.5t-11.5 -7.5q-92 -36 -188 -36q-121 0 -202 48.5t-119 123.5t-38 157q0 93 51.5 165.5t136 113t180.5 40.5q46 0 95 -8.5z" />
    <glyph glyph-name="ccircumflex" unicode="&#x109;" horiz-adv-x="415" 
d="M307.5 472.5q-5.5 -1.5 -6.5 1.5l-68 147l-69 -147q0 -2 -4 -2q-3 0 -5.5 1.5t-1.5 2.5l68 249q1 5 11 5q11 0 12 -5l67 -249q2 -2 -3.5 -3.5zM122.5 16.5q-44.5 28.5 -66 73.5t-21.5 95q0 64 33 111.5t85 73t106 25.5q45 0 82 -18.5t37 -46.5q0 -15 -11 -26t-30 -11
q-33 0 -50 39q-11 23 -24 33t-39 10q-52 0 -81.5 -43.5t-29.5 -115.5q0 -83 40 -136t123 -53q55 0 100 31h2q3 0 5.5 -3t-0.5 -5q-35 -32 -71 -47t-80 -15q-65 0 -109.5 28.5z" />
    <glyph glyph-name="Cdotaccent" unicode="&#x10a;" horiz-adv-x="669" 
d="M342.5 726q-13.5 13 -13.5 36q0 22 13.5 34.5t36.5 12.5q22 0 34.5 -12.5t12.5 -34.5q0 -23 -12.5 -36t-34.5 -13q-23 0 -36.5 13zM512 627.5q49 -8.5 78 -23.5q8 -4 10.5 -8.5t4.5 -15.5l11 -121q0 -3 -5 -3.5t-6 2.5q-26 78 -85 116.5t-142 38.5q-73 0 -127 -33.5
t-82.5 -94.5t-28.5 -141q0 -93 36 -171t97.5 -123.5t134.5 -45.5q144 0 206 165q0 3 4 3q3 0 5.5 -1t2.5 -3l-14 -121q-2 -12 -4.5 -15.5t-11.5 -7.5q-92 -36 -188 -36q-121 0 -202 48.5t-119 123.5t-38 157q0 93 51.5 165.5t136 113t180.5 40.5q46 0 95 -8.5z" />
    <glyph glyph-name="cdotaccent" unicode="&#x10b;" horiz-adv-x="415" 
d="M195.5 519q-13.5 13 -13.5 36q0 22 13.5 34.5t36.5 12.5q22 0 34.5 -12.5t12.5 -34.5q0 -23 -12.5 -36t-34.5 -13q-23 0 -36.5 13zM122.5 16.5q-44.5 28.5 -66 73.5t-21.5 95q0 64 33 111.5t85 73t106 25.5q45 0 82 -18.5t37 -46.5q0 -15 -11 -26t-30 -11q-33 0 -50 39
q-11 23 -24 33t-39 10q-52 0 -81.5 -43.5t-29.5 -115.5q0 -83 40 -136t123 -53q55 0 100 31h2q3 0 5.5 -3t-0.5 -5q-35 -32 -71 -47t-80 -15q-65 0 -109.5 28.5z" />
    <glyph glyph-name="Ccaron" unicode="&#x10c;" horiz-adv-x="669" 
d="M264 790q-1 0 -1 0.5v0.5q0 2 2.5 4.5t4.5 1.5l109 -52l108 52h1q3 0 4.5 -2.5t-0.5 -4.5l-102 -103q-4 -4 -11 -4q-8 0 -12 4zM512 627.5q49 -8.5 78 -23.5q8 -4 10.5 -8.5t4.5 -15.5l11 -121q0 -3 -5 -3.5t-6 2.5q-26 78 -85 116.5t-142 38.5q-73 0 -127 -33.5
t-82.5 -94.5t-28.5 -141q0 -93 36 -171t97.5 -123.5t134.5 -45.5q144 0 206 165q0 3 4 3q3 0 5.5 -1t2.5 -3l-14 -121q-2 -12 -4.5 -15.5t-11.5 -7.5q-92 -36 -188 -36q-121 0 -202 48.5t-119 123.5t-38 157q0 93 51.5 165.5t136 113t180.5 40.5q46 0 95 -8.5z" />
    <glyph glyph-name="ccaron" unicode="&#x10d;" horiz-adv-x="415" 
d="M156.5 730q5.5 1 6.5 -1l69 -147l68 147q1 2 6 1t4 -4l-67 -249q-2 -5 -11 -5t-12 5l-68 249q-1 3 4.5 4zM122.5 16.5q-44.5 28.5 -66 73.5t-21.5 95q0 64 33 111.5t85 73t106 25.5q45 0 82 -18.5t37 -46.5q0 -15 -11 -26t-30 -11q-33 0 -50 39q-11 23 -24 33t-39 10
q-52 0 -81.5 -43.5t-29.5 -115.5q0 -83 40 -136t123 -53q55 0 100 31h2q3 0 5.5 -3t-0.5 -5q-35 -32 -71 -47t-80 -15q-65 0 -109.5 28.5z" />
    <glyph glyph-name="Dcaron" unicode="&#x10e;" horiz-adv-x="696" 
d="M205 790q-1 0 -1 0.5v0.5q0 2 2.5 4.5t4.5 1.5l109 -52l108 52h1q3 0 4.5 -2.5t-0.5 -4.5l-102 -103q-4 -4 -11 -4q-8 0 -12 4zM241 -1q-15 1 -37 2t-49 1l-70 -1q-19 -1 -52 -1q-2 0 -2 6t2 6q36 0 53 5t23 19.5t6 44.5v463q0 30 -6 44t-22.5 19.5t-51.5 5.5q-3 0 -3 6
t3 6l50 -1q44 -2 70 -2q38 0 77 3q48 2 64 2q103 0 183 -40t124 -109t44 -155q0 -97 -45.5 -171.5t-122.5 -115t-169 -40.5q-30 0 -69 3zM432.5 47.5q57.5 33.5 90 98t32.5 155.5q0 87 -30.5 157.5t-87 111t-131.5 40.5q-43 0 -66 -5t-34 -19.5t-11 -43.5v-450
q0 -43 21.5 -60.5t83.5 -17.5q75 0 132.5 33.5z" />
    <glyph glyph-name="dcaron" unicode="&#x10f;" horiz-adv-x="512" 
d="M502.5 721q15.5 -6 30.5 -15.5t14 -15.5l-41 -241q-1 -2 -6 -1.5t-5 2.5l-8 272q0 5 15.5 -1zM506 60q3 0 5 -5t-1 -7l-119 -57q-6 -2 -7 -2q-12 0 -21 21t-10 58q-36 -37 -75 -59t-87 -22q-42 0 -78 23.5t-57 67.5t-21 101q0 73 35 122.5t87.5 73.5t105.5 24
q46 0 90 -21v216q0 37 -7 52.5t-25 15.5q-13 0 -43 -14h-1q-4 0 -6 5t1 7l133 64q2 1 5 1t7.5 -3t4.5 -7v-603q0 -35 7.5 -50.5t25.5 -15.5q23 0 49 13zM297 42.5q28 15.5 56 43.5v229q-21 30 -48.5 46t-64.5 16q-60 0 -94 -42t-34 -125q0 -84 34.5 -133.5t88.5 -49.5
q34 0 62 15.5z" />
    <glyph glyph-name="Dcroat" unicode="&#x110;" horiz-adv-x="696" 
d="M479 587q80 -40 124 -109t44 -155q0 -97 -45.5 -171.5t-122.5 -115t-169 -40.5q-30 0 -69 3q-15 1 -37 2t-49 1l-70 -1q-19 -1 -52 -1q-2 0 -2 6t2 6q36 0 53 5t23 19.5t6 44.5v219h-62q-4 0 -4 11t4 11h62v222q0 30 -6 44t-22.5 19.5t-51.5 5.5q-3 0 -3 6t3 6l50 -1
q44 -2 70 -2q38 0 77 3q48 2 64 2q103 0 183 -40zM432.5 47.5q57.5 33.5 90 98t32.5 155.5q0 87 -30.5 157.5t-87 111t-131.5 40.5q-43 0 -66 -5t-34 -19.5t-11 -43.5v-220h136q4 0 4 -11t-4 -11h-136v-208q0 -43 21.5 -60.5t83.5 -17.5q75 0 132.5 33.5z" />
    <glyph glyph-name="dcroat" unicode="&#x111;" horiz-adv-x="512" 
d="M506 60q3 0 5 -5t-1 -7l-119 -57q-6 -2 -7 -2q-12 0 -21 21t-10 58q-36 -37 -75 -59t-87 -22q-42 0 -78 23.5t-57 67.5t-21 101q0 73 35 122.5t87.5 73.5t105.5 24q46 0 90 -21v124h-165q-6 0 -6 12q0 4 1.5 7.5t4.5 3.5h165v69q0 37 -7 52.5t-25 15.5q-13 0 -43 -14h-1
q-4 0 -6 5t1 7l133 64q2 1 5 1t7.5 -3t4.5 -7v-190h63q3 0 4.5 -3.5t1.5 -7.5q0 -12 -6 -12h-63v-390q0 -35 7.5 -50.5t25.5 -15.5q23 0 49 13zM297 42.5q28 15.5 56 43.5v229q-21 30 -48.5 46t-64.5 16q-60 0 -94 -42t-34 -125q0 -84 34.5 -133.5t88.5 -49.5q34 0 62 15.5z
" />
    <glyph glyph-name="Emacron" unicode="&#x112;" horiz-adv-x="542" 
d="M161 735q0 15 7 15h251q4 0 6 -4.5t2 -10.5t-2 -11t-6 -5h-251q-7 0 -7 16zM486 154q3 0 5.5 -1.5t2.5 -2.5q-10 -72 -10 -135q0 -8 -3 -11.5t-12 -3.5h-426q-3 0 -3 6t3 6q36 0 52 5t22 19.5t6 44.5v463q0 30 -6 44t-22.5 19.5t-51.5 5.5q-3 0 -3 6t3 6h408q10 0 10 -9
l2 -126q0 -3 -5.5 -3.5t-6.5 2.5q-7 55 -39 83.5t-84 28.5h-51q-44 0 -59 -12.5t-15 -48.5v-203h110q51 0 75 17.5t24 54.5q0 2 5.5 2t5.5 -2l-1 -84l1 -45q2 -32 2 -50q0 -2 -6 -2t-6 2q0 43 -24.5 63.5t-78.5 20.5h-107v-229q0 -36 13.5 -49t54.5 -13h65q57 0 94.5 33.5
t51.5 95.5q0 2 4 2z" />
    <glyph glyph-name="emacron" unicode="&#x113;" horiz-adv-x="411" 
d="M97 496q0 15 7 15h251q4 0 6 -4.5t2 -10.5t-2 -11t-6 -5h-251q-7 0 -7 16zM371 59q3 0 5.5 -3.5t0.5 -6.5q-35 -32 -71.5 -46.5t-78.5 -14.5q-60 0 -103.5 26.5t-66 70.5t-22.5 95q0 59 28.5 108.5t79 78t111.5 28.5q56 0 87 -26.5t31 -72.5q0 -25 -11 -25h-48l-197 -2
q-4 -20 -4 -49q0 -86 41.5 -139t114.5 -53q58 0 102 31h1zM156 351.5q-26 -23.5 -37 -66.5l172 4q-1 40 -20 63t-52 23q-37 0 -63 -23.5z" />
    <glyph glyph-name="Ebreve" unicode="&#x114;" horiz-adv-x="542" 
d="M222.5 719.5q-26.5 29.5 -31.5 83.5q-1 4 4.5 4.5t6.5 -1.5q5 -25 31.5 -43.5t60.5 -18.5q33 0 59.5 18.5t31.5 43.5q0 2 4 2q3 0 5.5 -1.5t1.5 -3.5q-5 -54 -31 -83.5t-71 -29.5t-71.5 29.5zM486 154q3 0 5.5 -1.5t2.5 -2.5q-10 -72 -10 -135q0 -8 -3 -11.5t-12 -3.5
h-426q-3 0 -3 6t3 6q36 0 52 5t22 19.5t6 44.5v463q0 30 -6 44t-22.5 19.5t-51.5 5.5q-3 0 -3 6t3 6h408q10 0 10 -9l2 -126q0 -3 -5.5 -3.5t-6.5 2.5q-7 55 -39 83.5t-84 28.5h-51q-44 0 -59 -12.5t-15 -48.5v-203h110q51 0 75 17.5t24 54.5q0 2 5.5 2t5.5 -2l-1 -84l1 -45
q2 -32 2 -50q0 -2 -6 -2t-6 2q0 43 -24.5 63.5t-78.5 20.5h-107v-229q0 -36 13.5 -49t54.5 -13h65q57 0 94.5 33.5t51.5 95.5q0 2 4 2z" />
    <glyph glyph-name="ebreve" unicode="&#x115;" horiz-adv-x="411" 
d="M153.5 509q-26.5 39 -26.5 115q0 3 5.5 3.5t5.5 -1.5q0 -40 26.5 -68t65.5 -28q38 0 64.5 28.5t26.5 67.5q0 2 4 2q2 0 4.5 -1.5t2.5 -2.5q0 -76 -26 -115t-76 -39t-76.5 39zM371 59q3 0 5.5 -3.5t0.5 -6.5q-35 -32 -71.5 -46.5t-78.5 -14.5q-60 0 -103.5 26.5t-66 70.5
t-22.5 95q0 59 28.5 108.5t79 78t111.5 28.5q56 0 87 -26.5t31 -72.5q0 -25 -11 -25h-48l-197 -2q-4 -20 -4 -49q0 -86 41.5 -139t114.5 -53q58 0 102 31h1zM156 351.5q-26 -23.5 -37 -66.5l172 4q-1 40 -20 63t-52 23q-37 0 -63 -23.5z" />
    <glyph glyph-name="Edotaccent" unicode="&#x116;" horiz-adv-x="542" 
d="M257.5 726q-13.5 13 -13.5 36q0 22 13.5 34.5t36.5 12.5q22 0 34.5 -12.5t12.5 -34.5q0 -23 -12.5 -36t-34.5 -13q-23 0 -36.5 13zM486 154q3 0 5.5 -1.5t2.5 -2.5q-10 -72 -10 -135q0 -8 -3 -11.5t-12 -3.5h-426q-3 0 -3 6t3 6q36 0 52 5t22 19.5t6 44.5v463q0 30 -6 44
t-22.5 19.5t-51.5 5.5q-3 0 -3 6t3 6h408q10 0 10 -9l2 -126q0 -3 -5.5 -3.5t-6.5 2.5q-7 55 -39 83.5t-84 28.5h-51q-44 0 -59 -12.5t-15 -48.5v-203h110q51 0 75 17.5t24 54.5q0 2 5.5 2t5.5 -2l-1 -84l1 -45q2 -32 2 -50q0 -2 -6 -2t-6 2q0 43 -24.5 63.5t-78.5 20.5
h-107v-229q0 -36 13.5 -49t54.5 -13h65q57 0 94.5 33.5t51.5 95.5q0 2 4 2z" />
    <glyph glyph-name="edotaccent" unicode="&#x117;" horiz-adv-x="411" 
d="M193.5 519q-13.5 13 -13.5 36q0 22 13.5 34.5t36.5 12.5q22 0 34.5 -12.5t12.5 -34.5q0 -23 -12.5 -36t-34.5 -13q-23 0 -36.5 13zM371 59q3 0 5.5 -3.5t0.5 -6.5q-35 -32 -71.5 -46.5t-78.5 -14.5q-60 0 -103.5 26.5t-66 70.5t-22.5 95q0 59 28.5 108.5t79 78
t111.5 28.5q56 0 87 -26.5t31 -72.5q0 -25 -11 -25h-48l-197 -2q-4 -20 -4 -49q0 -86 41.5 -139t114.5 -53q58 0 102 31h1zM156 351.5q-26 -23.5 -37 -66.5l172 4q-1 40 -20 63t-52 23q-37 0 -63 -23.5z" />
    <glyph glyph-name="Eogonek" unicode="&#x118;" horiz-adv-x="542" 
d="M501 -222q3 0 5.5 -3t-0.5 -5q-52 -45 -109 -45q-53 0 -83.5 28.5t-30.5 73.5q0 85 115 173h-355q-3 0 -3 6t3 6q36 0 52 5t22 19.5t6 44.5v463q0 30 -6 44t-22.5 19.5t-51.5 5.5q-3 0 -3 6t3 6h408q10 0 10 -9l2 -126q0 -3 -5.5 -3.5t-6.5 2.5q-7 55 -39 83.5t-84 28.5
h-51q-44 0 -59 -12.5t-15 -48.5v-203h110q51 0 75 17.5t24 54.5q0 2 5.5 2t5.5 -2l-1 -84l1 -45q2 -32 2 -50q0 -2 -6 -2t-6 2q0 43 -24.5 63.5t-78.5 20.5h-107v-229q0 -36 13.5 -49t54.5 -13h65q57 0 94.5 33.5t51.5 95.5q0 2 4 2q3 0 5.5 -1.5t2.5 -2.5q-10 -72 -10 -135
q0 -8 -3 -11.5t-12 -3.5h-52q-37 -35 -53.5 -66t-16.5 -69q0 -49 24.5 -77.5t69.5 -28.5q31 0 58 19h2z" />
    <glyph glyph-name="eogonek" unicode="&#x119;" horiz-adv-x="411" 
d="M375 -222q3 0 5.5 -3t-0.5 -5q-45 -45 -98 -45q-52 0 -79.5 26t-27.5 70q0 87 114 176q-30 -9 -62 -9q-60 0 -103.5 26.5t-66 70.5t-22.5 95q0 59 28.5 108.5t79 78t111.5 28.5q56 0 87 -26.5t31 -72.5q0 -25 -11 -25h-48l-197 -2q-4 -20 -4 -49q0 -86 41.5 -139
t114.5 -53q58 0 102 31h1q3 0 5.5 -3.5t0.5 -6.5q-16 -15 -36 -28q-51 -44 -74 -84.5t-23 -85.5t19.5 -69.5t56.5 -24.5q17 0 28.5 5.5t24.5 15.5h2zM156 351.5q-26 -23.5 -37 -66.5l172 4q-1 40 -20 63t-52 23q-37 0 -63 -23.5z" />
    <glyph glyph-name="Ecaron" unicode="&#x11a;" horiz-adv-x="542" 
d="M178 790.5v0.5q0 2 2.5 4.5t4.5 1.5l109 -52l108 52h1q3 0 4.5 -2.5t-0.5 -4.5l-102 -103q-4 -4 -11 -4q-8 0 -12 4l-103 103q-1 0 -1 0.5zM486 154q3 0 5.5 -1.5t2.5 -2.5q-10 -72 -10 -135q0 -8 -3 -11.5t-12 -3.5h-426q-3 0 -3 6t3 6q36 0 52 5t22 19.5t6 44.5v463
q0 30 -6 44t-22.5 19.5t-51.5 5.5q-3 0 -3 6t3 6h408q10 0 10 -9l2 -126q0 -3 -5.5 -3.5t-6.5 2.5q-7 55 -39 83.5t-84 28.5h-51q-44 0 -59 -12.5t-15 -48.5v-203h110q51 0 75 17.5t24 54.5q0 2 5.5 2t5.5 -2l-1 -84l1 -45q2 -32 2 -50q0 -2 -6 -2t-6 2q0 43 -24.5 63.5
t-78.5 20.5h-107v-229q0 -36 13.5 -49t54.5 -13h65q57 0 94.5 33.5t51.5 95.5q0 2 4 2z" />
    <glyph glyph-name="ecaron" unicode="&#x11b;" horiz-adv-x="411" 
d="M150 726q-1 3 4.5 4t6.5 -1l69 -147l68 147q1 2 6 1t4 -4l-67 -249q-2 -5 -11 -5t-12 5zM371 59q3 0 5.5 -3.5t0.5 -6.5q-35 -32 -71.5 -46.5t-78.5 -14.5q-60 0 -103.5 26.5t-66 70.5t-22.5 95q0 59 28.5 108.5t79 78t111.5 28.5q56 0 87 -26.5t31 -72.5q0 -25 -11 -25
h-48l-197 -2q-4 -20 -4 -49q0 -86 41.5 -139t114.5 -53q58 0 102 31h1zM156 351.5q-26 -23.5 -37 -66.5l172 4q-1 40 -20 63t-52 23q-37 0 -63 -23.5z" />
    <glyph glyph-name="Gcircumflex" unicode="&#x11c;" horiz-adv-x="716" 
d="M383 799q5 5 12 5q6 0 11 -5l102 -104q1 0 1 -2t-2.5 -4t-3.5 -1l-108 52l-109 -52q-2 -1 -5 2.5t-1 4.5zM216 30q-81 42 -124 114t-43 161q0 97 49.5 172t136 117t194.5 42q48 0 93.5 -9t74.5 -24q8 -5 10 -9t3 -14l13 -121q0 -3 -5.5 -3.5t-6.5 2.5q-26 74 -85 114
t-142 40q-118 0 -182 -72t-64 -198q0 -98 38 -174.5t104.5 -119.5t150.5 -43q48 0 74 9t38 35t12 77q0 52 -6.5 72.5t-28 27.5t-74.5 7q-6 0 -6 8q0 3 1.5 5.5t3.5 2.5q80 -5 130 -5q47 0 100 3q2 0 3.5 -2.5t1.5 -4.5q0 -7 -5 -7q-22 1 -31 -6.5t-11.5 -30.5t-2.5 -80
q0 -45 3.5 -64t3.5 -24q0 -6 -2.5 -7.5t-9.5 -4.5q-123 -28 -219 -28q-109 0 -190 42z" />
    <glyph glyph-name="gcircumflex" unicode="&#x11d;" horiz-adv-x="467" 
d="M162 472q-3 0 -5.5 1.5t-1.5 2.5l68 249q1 5 11 5q11 0 12 -5l67 -249q2 -2 -3.5 -3.5t-6.5 1.5l-68 147l-69 -147q0 -2 -4 -2zM393 397q2 0 4.5 -1.5t2.5 -2.5v-463q0 -95 -54 -153t-150 -58q-62 0 -101 20.5t-39 54.5q0 20 11 29.5t26 9.5q18 0 29 -9.5t23 -29.5
q18 -27 36 -40.5t54 -13.5q45 0 71 35.5t26 130.5v161q-35 -36 -71.5 -57t-79.5 -21q-62 0 -104 45.5t-42 127.5q0 72 33.5 126t86 82.5t107.5 28.5q53 0 97 -29q20 10 31 26q1 1 3 1zM332 84v208q0 37 -28 62t-67 25q-56 0 -90 -52t-34 -134q0 -75 28.5 -119.5t78.5 -44.5
q53 0 112 55z" />
    <glyph glyph-name="Gbreve" unicode="&#x11e;" horiz-adv-x="716" 
d="M322.5 719.5q-26.5 29.5 -31.5 83.5q-1 4 4.5 4.5t6.5 -1.5q5 -25 31.5 -43.5t60.5 -18.5q33 0 59.5 18.5t31.5 43.5q0 2 4 2q3 0 5.5 -1.5t1.5 -3.5q-5 -54 -31 -83.5t-71 -29.5t-71.5 29.5zM216 30q-81 42 -124 114t-43 161q0 97 49.5 172t136 117t194.5 42
q48 0 93.5 -9t74.5 -24q8 -5 10 -9t3 -14l13 -121q0 -3 -5.5 -3.5t-6.5 2.5q-26 74 -85 114t-142 40q-118 0 -182 -72t-64 -198q0 -98 38 -174.5t104.5 -119.5t150.5 -43q48 0 74 9t38 35t12 77q0 52 -6.5 72.5t-28 27.5t-74.5 7q-6 0 -6 8q0 3 1.5 5.5t3.5 2.5
q80 -5 130 -5q47 0 100 3q2 0 3.5 -2.5t1.5 -4.5q0 -7 -5 -7q-22 1 -31 -6.5t-11.5 -30.5t-2.5 -80q0 -45 3.5 -64t3.5 -24q0 -6 -2.5 -7.5t-9.5 -4.5q-123 -28 -219 -28q-109 0 -190 42z" />
    <glyph glyph-name="gbreve" unicode="&#x11f;" horiz-adv-x="467" 
d="M157.5 509q-26.5 39 -26.5 115q0 3 5.5 3.5t5.5 -1.5q0 -40 26.5 -68t65.5 -28q38 0 64.5 28.5t26.5 67.5q0 2 4 2q2 0 4.5 -1.5t2.5 -2.5q0 -76 -26 -115t-76 -39t-76.5 39zM393 397q2 0 4.5 -1.5t2.5 -2.5v-463q0 -95 -54 -153t-150 -58q-62 0 -101 20.5t-39 54.5
q0 20 11 29.5t26 9.5q18 0 29 -9.5t23 -29.5q18 -27 36 -40.5t54 -13.5q45 0 71 35.5t26 130.5v161q-35 -36 -71.5 -57t-79.5 -21q-62 0 -104 45.5t-42 127.5q0 72 33.5 126t86 82.5t107.5 28.5q53 0 97 -29q20 10 31 26q1 1 3 1zM332 84v208q0 37 -28 62t-67 25
q-56 0 -90 -52t-34 -134q0 -75 28.5 -119.5t78.5 -44.5q53 0 112 55z" />
    <glyph glyph-name="Gdotaccent" unicode="&#x120;" horiz-adv-x="716" 
d="M357.5 726q-13.5 13 -13.5 36q0 22 13.5 34.5t36.5 12.5q22 0 34.5 -12.5t12.5 -34.5q0 -23 -12.5 -36t-34.5 -13q-23 0 -36.5 13zM216 30q-81 42 -124 114t-43 161q0 97 49.5 172t136 117t194.5 42q48 0 93.5 -9t74.5 -24q8 -5 10 -9t3 -14l13 -121q0 -3 -5.5 -3.5
t-6.5 2.5q-26 74 -85 114t-142 40q-118 0 -182 -72t-64 -198q0 -98 38 -174.5t104.5 -119.5t150.5 -43q48 0 74 9t38 35t12 77q0 52 -6.5 72.5t-28 27.5t-74.5 7q-6 0 -6 8q0 3 1.5 5.5t3.5 2.5q80 -5 130 -5q47 0 100 3q2 0 3.5 -2.5t1.5 -4.5q0 -7 -5 -7q-22 1 -31 -6.5
t-11.5 -30.5t-2.5 -80q0 -45 3.5 -64t3.5 -24q0 -6 -2.5 -7.5t-9.5 -4.5q-123 -28 -219 -28q-109 0 -190 42z" />
    <glyph glyph-name="gdotaccent" unicode="&#x121;" horiz-adv-x="467" 
d="M197.5 519q-13.5 13 -13.5 36q0 22 13.5 34.5t36.5 12.5q22 0 34.5 -12.5t12.5 -34.5q0 -23 -12.5 -36t-34.5 -13q-23 0 -36.5 13zM393 397q2 0 4.5 -1.5t2.5 -2.5v-463q0 -95 -54 -153t-150 -58q-62 0 -101 20.5t-39 54.5q0 20 11 29.5t26 9.5q18 0 29 -9.5t23 -29.5
q18 -27 36 -40.5t54 -13.5q45 0 71 35.5t26 130.5v161q-35 -36 -71.5 -57t-79.5 -21q-62 0 -104 45.5t-42 127.5q0 72 33.5 126t86 82.5t107.5 28.5q53 0 97 -29q20 10 31 26q1 1 3 1zM332 84v208q0 37 -28 62t-67 25q-56 0 -90 -52t-34 -134q0 -75 28.5 -119.5t78.5 -44.5
q53 0 112 55z" />
    <glyph glyph-name="Gcommaaccent" unicode="&#x122;" horiz-adv-x="716" 
d="M678.5 244.5q1.5 -2.5 1.5 -4.5q0 -7 -5 -7q-22 1 -31 -6.5t-11.5 -30.5t-2.5 -80q0 -45 3.5 -64t3.5 -24q0 -6 -2.5 -7.5t-9.5 -4.5q-123 -28 -219 -28q-109 0 -190 42t-124 114t-43 161q0 97 49.5 172t136 117t194.5 42q48 0 93.5 -9t74.5 -24q8 -5 10 -9t3 -14
l13 -121q0 -3 -5.5 -3.5t-6.5 2.5q-26 74 -85 114t-142 40q-118 0 -182 -72t-64 -198q0 -98 38 -174.5t104.5 -119.5t150.5 -43q48 0 74 9t38 35t12 77q0 52 -6.5 72.5t-28 27.5t-74.5 7q-6 0 -6 8q0 3 1.5 5.5t3.5 2.5q80 -5 130 -5q47 0 100 3q2 0 3.5 -2.5zM457 -100
q16 -20 16 -55t-17 -64t-49 -56l-2 -1q-4 0 -6 3.5t0 5.5q46 39 46 83q0 19 -7 30q-9 -16 -34 -16q-19 0 -30.5 12.5t-11.5 32.5q0 23 14 34t36 11q29 0 45 -20z" />
    <glyph glyph-name="gcommaaccent" unicode="&#x123;" horiz-adv-x="467" 
d="M208 544q-16 20 -16 55t17 64t49 56l2 1q4 0 6 -3.5t0 -5.5q-46 -39 -46 -83q0 -19 7 -30q9 16 34 16q19 0 30.5 -12.5t11.5 -32.5q0 -23 -14 -34t-36 -11q-29 0 -45 20zM393 397q2 0 4.5 -1.5t2.5 -2.5v-463q0 -95 -54 -153t-150 -58q-62 0 -101 20.5t-39 54.5
q0 20 11 29.5t26 9.5q18 0 29 -9.5t23 -29.5q18 -27 36 -40.5t54 -13.5q45 0 71 35.5t26 130.5v161q-35 -36 -71.5 -57t-79.5 -21q-62 0 -104 45.5t-42 127.5q0 72 33.5 126t86 82.5t107.5 28.5q53 0 97 -29q20 10 31 26q1 1 3 1zM332 84v208q0 37 -28 62t-67 25
q-56 0 -90 -52t-34 -134q0 -75 28.5 -119.5t78.5 -44.5q53 0 112 55z" />
    <glyph glyph-name="Hcircumflex" unicode="&#x124;" horiz-adv-x="761" 
d="M269 690.5q-3 3.5 -1 4.5l103 104q5 5 12 5q6 0 11 -5l102 -104q1 0 1 -2t-2.5 -4t-3.5 -1l-108 52l-109 -52q-2 -1 -5 2.5zM728 6q0 -6 -3 -6q-32 0 -51 1l-72 1l-79 -1q-17 -1 -47 -1q-3 0 -3 6t3 6q38 0 56 5t24 19.5t6 44.5v233h-364v-233q0 -30 6 -44.5t24 -19.5
t56 -5q2 0 2 -6t-2 -6q-32 0 -51 1l-77 1l-71 -1q-19 -1 -52 -1q-2 0 -2 6t2 6q37 0 54.5 5t24 19.5t6.5 44.5v463q0 30 -6 44t-23 19.5t-54 5.5q-3 0 -3 6t3 6l51 -1q42 -2 70 -2q32 0 78 2l50 1q2 0 2 -6t-2 -6q-37 0 -55 -6t-24.5 -20.5t-6.5 -44.5v-205h364v205
q0 30 -6.5 44.5t-24 20.5t-55.5 6q-3 0 -3 6t3 6l47 -1q46 -2 79 -2q28 0 72 2l51 1q3 0 3 -6t-3 -6q-37 0 -54 -5.5t-23.5 -19.5t-6.5 -44v-463q0 -30 6.5 -44.5t23.5 -19.5t54 -5q3 0 3 -6z" />
    <glyph glyph-name="hcircumflex" unicode="&#x125;" horiz-adv-x="502" 
d="M14 725.5q-3 3.5 -1 4.5l103 104q5 5 12 5q6 0 11 -5l102 -104q1 0 1 -2t-2.5 -4t-3.5 -1l-108 52l-109 -52q-2 -1 -5 2.5zM485 6q0 -6 -3 -6q-25 0 -39 1l-55 1l-57 -1q-14 -1 -38 -1q-2 0 -2 6t2 6q37 0 48.5 13.5t11.5 55.5v154q0 58 -21.5 85.5t-66.5 27.5
q-29 0 -59 -14.5t-54 -39.5v-213q0 -42 12 -55.5t49 -13.5q3 0 3 -6t-3 -6q-25 0 -39 1l-55 1l-57 -1q-14 -1 -38 -1q-2 0 -2 6t2 6q37 0 48.5 13.5t11.5 55.5v514q0 36 -6.5 51.5t-23.5 15.5q-18 0 -44 -13h-2q-3 0 -5 5t1 6l134 65h3q4 0 7.5 -3t3.5 -7v-402q73 84 154 84
q55 0 85 -32t30 -91v-193q0 -42 12 -55.5t49 -13.5q3 0 3 -6z" />
    <glyph glyph-name="Hbar" unicode="&#x126;" horiz-adv-x="761" 
d="M728 6q0 -6 -3 -6q-32 0 -51 1l-72 1l-79 -1q-17 -1 -47 -1q-3 0 -3 6t3 6q38 0 56 5t24 19.5t6 44.5v139h-364v-139q0 -30 6 -44.5t24 -19.5t56 -5q2 0 2 -6t-2 -6q-32 0 -51 1l-77 1l-71 -1q-19 -1 -52 -1q-2 0 -2 6t2 6q37 0 54.5 5t24 19.5t6.5 44.5v463q0 30 -6 44
t-23 19.5t-54 5.5q-3 0 -3 6t3 6l51 -1q42 -2 70 -2q32 0 78 2l50 1q2 0 2 -6t-2 -6q-37 0 -55 -6t-24.5 -20.5t-6.5 -44.5v-112h364v112q0 30 -6.5 44.5t-24 20.5t-55.5 6q-3 0 -3 6t3 6l47 -1q46 -2 79 -2q28 0 72 2l51 1q3 0 3 -6t-3 -6q-37 0 -54 -5.5t-23.5 -19.5
t-6.5 -44v-463q0 -30 6.5 -44.5t23.5 -19.5t54 -5q3 0 3 -6zM198 243h364v164h-364v-164z" />
    <glyph glyph-name="hbar" unicode="&#x127;" horiz-adv-x="502" 
d="M485 6q0 -6 -3 -6q-25 0 -39 1l-55 1l-57 -1q-14 -1 -38 -1q-2 0 -2 6t2 6q37 0 48.5 13.5t11.5 55.5v154q0 58 -21.5 85.5t-66.5 27.5q-29 0 -59 -14.5t-54 -39.5v-213q0 -42 12 -55.5t49 -13.5q3 0 3 -6t-3 -6q-25 0 -39 1l-55 1l-57 -1q-14 -1 -38 -1q-2 0 -2 6t2 6
q37 0 48.5 13.5t11.5 55.5v421h-74q-6 0 -6 12q0 4 1.5 7.5t4.5 3.5h74v70q0 36 -6.5 51.5t-23.5 15.5q-18 0 -44 -13h-2q-3 0 -5 5t1 6l134 65h3q4 0 7.5 -3t3.5 -7v-190h156q3 0 4.5 -3.5t1.5 -7.5q0 -12 -6 -12h-156v-189q73 84 154 84q55 0 85 -32t30 -91v-193
q0 -42 12 -55.5t49 -13.5q3 0 3 -6z" />
    <glyph glyph-name="Itilde" unicode="&#x128;" horiz-adv-x="335" 
d="M42 697q-3 0 -5.5 2.5t-0.5 4.5q16 27 38.5 48t47.5 21q16 0 49 -11q5 -1 28.5 -7.5t45.5 -6.5q17 0 27.5 6.5t22.5 20.5h2q3 0 5 -2.5t0 -4.5q-26 -41 -43 -54.5t-37 -13.5q-17 0 -36.5 5t-23.5 6q-41 13 -69 13q-19 0 -27 -5.5t-23 -21.5h-1zM214 36.5
q6 -14.5 22.5 -19.5t52.5 -5q2 0 2 -6t-2 -6q-32 0 -50 1l-72 1l-70 -1q-19 -1 -52 -1q-2 0 -2 6t2 6q36 0 53 5t23 19.5t6 44.5v463q0 30 -6 44t-23 19.5t-53 5.5q-2 0 -2 6t2 6l52 -1q44 -2 70 -2q29 0 73 2l49 1q2 0 2 -6t-2 -6q-35 0 -52 -6t-23 -20.5t-6 -44.5v-461
q0 -30 6 -44.5z" />
    <glyph glyph-name="itilde" unicode="&#x129;" horiz-adv-x="270" 
d="M218.5 534q10.5 7 21.5 20h1q3 0 5.5 -2.5t0.5 -4.5q-26 -40 -43 -54t-35 -14q-14 0 -40 12q-2 1 -16 7t-29 6q-16 0 -25.5 -5.5t-16 -12.5t-8.5 -9h-1q-2 0 -4.5 2.5t-1.5 4.5q47 67 85 67q9 0 33 -10q28 -14 46 -14q17 0 27.5 7zM46 6q0 6 3 6q36 0 48 13.5t12 55.5
v184q0 36 -7 51.5t-25 15.5q-17 0 -43 -13h-1q-4 0 -6 5.5t2 6.5l136 63l4 1q3 0 6.5 -3t3.5 -7q0 -7 -1 -40t-1 -78v-186q0 -42 11.5 -55.5t48.5 -13.5q3 0 3 -6t-3 -6q-24 0 -39 1l-55 1l-55 -1q-15 -1 -39 -1q-3 0 -3 6z" />
    <glyph glyph-name="Imacron" unicode="&#x12a;" horiz-adv-x="335" 
d="M35 735q0 15 7 15h251q4 0 6 -4.5t2 -10.5t-2 -11t-6 -5h-251q-7 0 -7 16zM214 36.5q6 -14.5 22.5 -19.5t52.5 -5q2 0 2 -6t-2 -6q-32 0 -50 1l-72 1l-70 -1q-19 -1 -52 -1q-2 0 -2 6t2 6q36 0 53 5t23 19.5t6 44.5v463q0 30 -6 44t-23 19.5t-53 5.5q-2 0 -2 6t2 6l52 -1
q44 -2 70 -2q29 0 73 2l49 1q2 0 2 -6t-2 -6q-35 0 -52 -6t-23 -20.5t-6 -44.5v-461q0 -30 6 -44.5z" />
    <glyph glyph-name="imacron" unicode="&#x12b;" horiz-adv-x="270" 
d="M4 496q0 15 7 15h251q4 0 6 -4.5t2 -10.5t-2 -11t-6 -5h-251q-7 0 -7 16zM46 6q0 6 3 6q36 0 48 13.5t12 55.5v184q0 36 -7 51.5t-25 15.5q-17 0 -43 -13h-1q-4 0 -6 5.5t2 6.5l136 63l4 1q3 0 6.5 -3t3.5 -7q0 -7 -1 -40t-1 -78v-186q0 -42 11.5 -55.5t48.5 -13.5
q3 0 3 -6t-3 -6q-24 0 -39 1l-55 1l-55 -1q-15 -1 -39 -1q-3 0 -3 6z" />
    <glyph glyph-name="Ibreve" unicode="&#x12c;" horiz-adv-x="335" 
d="M96.5 719.5q-26.5 29.5 -31.5 83.5q-1 4 4.5 4.5t6.5 -1.5q5 -25 31.5 -43.5t60.5 -18.5q33 0 59.5 18.5t31.5 43.5q0 2 4 2q3 0 5.5 -1.5t1.5 -3.5q-5 -54 -31 -83.5t-71 -29.5t-71.5 29.5zM214 36.5q6 -14.5 22.5 -19.5t52.5 -5q2 0 2 -6t-2 -6q-32 0 -50 1l-72 1
l-70 -1q-19 -1 -52 -1q-2 0 -2 6t2 6q36 0 53 5t23 19.5t6 44.5v463q0 30 -6 44t-23 19.5t-53 5.5q-2 0 -2 6t2 6l52 -1q44 -2 70 -2q29 0 73 2l49 1q2 0 2 -6t-2 -6q-35 0 -52 -6t-23 -20.5t-6 -44.5v-461q0 -30 6 -44.5z" />
    <glyph glyph-name="ibreve" unicode="&#x12d;" horiz-adv-x="270" 
d="M39.5 627.5q5.5 0.5 5.5 -1.5q0 -40 26.5 -68t65.5 -28q38 0 64.5 28.5t26.5 67.5q0 2 4 2q2 0 4.5 -1.5t2.5 -2.5q0 -76 -26 -115t-76 -39t-76.5 39t-26.5 115q0 3 5.5 3.5zM46 6q0 6 3 6q36 0 48 13.5t12 55.5v184q0 36 -7 51.5t-25 15.5q-17 0 -43 -13h-1q-4 0 -6 5.5
t2 6.5l136 63l4 1q3 0 6.5 -3t3.5 -7q0 -7 -1 -40t-1 -78v-186q0 -42 11.5 -55.5t48.5 -13.5q3 0 3 -6t-3 -6q-24 0 -39 1l-55 1l-55 -1q-15 -1 -39 -1q-3 0 -3 6z" />
    <glyph glyph-name="Iogonek" unicode="&#x12e;" horiz-adv-x="335" 
d="M291 6q0 -6 -2 -6q-30 0 -47 1l-65 1q-40 -59 -40 -125q0 -51 23.5 -83.5t60.5 -32.5q15 0 24.5 4t21.5 13h1q3 0 5.5 -3t0.5 -5q-25 -24 -47.5 -34.5t-50.5 -10.5q-49 0 -76 27t-27 74q0 87 87 176l-66 -1q-18 -1 -49 -1q-2 0 -2 6t2 6q36 0 53 5t23 19.5t6 44.5v463
q0 30 -6 44t-23 19.5t-53 5.5q-2 0 -2 6t2 6l52 -1q44 -2 70 -2q29 0 73 2l49 1q2 0 2 -6t-2 -6q-35 0 -52 -6t-23 -20.5t-6 -44.5v-461q0 -30 6 -44.5t22.5 -19.5t52.5 -5q2 0 2 -6z" />
    <glyph glyph-name="iogonek" unicode="&#x12f;" horiz-adv-x="270" 
d="M100.5 519q-13.5 13 -13.5 36q0 22 13.5 34.5t36.5 12.5q22 0 34.5 -12.5t12.5 -34.5q0 -23 -12.5 -36t-34.5 -13q-23 0 -36.5 13zM243 -216q3 0 5.5 -3t0.5 -5q-25 -24 -47.5 -34.5t-50.5 -10.5q-49 0 -76 27t-27 74q0 85 81 170l-47 -1q-12 -1 -33 -1q-3 0 -3 6t3 6
q36 0 48 13.5t12 55.5v184q0 36 -7 51.5t-25 15.5q-17 0 -43 -13h-1q-4 0 -6 5.5t2 6.5l136 63l4 1q3 0 6.5 -3t3.5 -7q0 -7 -1 -40t-1 -78v-186q0 -42 11.5 -55.5t48.5 -13.5q3 0 3 -6t-3 -6q-23 0 -37 1l-52 1q-36 -56 -36 -119q0 -51 23.5 -83.5t60.5 -32.5q15 0 24.5 4
t21.5 13h1z" />
    <glyph glyph-name="Idotaccent" unicode="&#x130;" horiz-adv-x="335" 
d="M131.5 726q-13.5 13 -13.5 36q0 22 13.5 34.5t36.5 12.5q22 0 34.5 -12.5t12.5 -34.5q0 -23 -12.5 -36t-34.5 -13q-23 0 -36.5 13zM214 36.5q6 -14.5 22.5 -19.5t52.5 -5q2 0 2 -6t-2 -6q-32 0 -50 1l-72 1l-70 -1q-19 -1 -52 -1q-2 0 -2 6t2 6q36 0 53 5t23 19.5t6 44.5
v463q0 30 -6 44t-23 19.5t-53 5.5q-2 0 -2 6t2 6l52 -1q44 -2 70 -2q29 0 73 2l49 1q2 0 2 -6t-2 -6q-35 0 -52 -6t-23 -20.5t-6 -44.5v-461q0 -30 6 -44.5z" />
    <glyph glyph-name="dotlessi" unicode="&#x131;" horiz-adv-x="270" 
d="M46 6q0 6 3 6q36 0 48 13.5t12 55.5v184q0 36 -7 51.5t-25 15.5q-17 0 -43 -13h-1q-4 0 -6 5.5t2 6.5l136 63l4 1q3 0 6.5 -3t3.5 -7q0 -7 -1 -40t-1 -78v-186q0 -42 11.5 -55.5t48.5 -13.5q3 0 3 -6t-3 -6q-24 0 -39 1l-55 1l-55 -1q-15 -1 -39 -1q-3 0 -3 6z" />
    <glyph glyph-name="IJ" unicode="&#x132;" horiz-adv-x="693" 
d="M208.5 305q5.5 -14 22 -19t53.5 -5q3 0 3 -6t-3 -6q-32 0 -50 1l-72 1l-70 -1q-19 -1 -52 -1q-2 0 -2 6t2 6q36 0 53 5t23 19.5t6 44.5v194q0 30 -6 44t-23 19.5t-53 5.5q-2 0 -2 6t2 6l52 -1q44 -2 70 -2q30 0 74 2l48 1q3 0 3 -6t-3 -6q-35 0 -52 -6t-23 -20.5
t-6 -44.5v-192q0 -31 5.5 -45zM663 619q0 -6 -2 -6q-31 0 -45.5 -6t-19.5 -20.5t-5 -44.5v-284q0 -86 -31 -147t-87 -92.5t-130 -31.5q-64 0 -116.5 22t-83 56t-30.5 68q0 19 11.5 31.5t31.5 12.5q25 0 35 -15.5t18 -48.5q7 -34 17.5 -56t37.5 -37.5t77 -15.5q170 0 170 196
v344q0 30 -7 44t-26.5 19.5t-60.5 5.5q-2 0 -2 6t2 6l59 -1q46 -2 74 -2q26 0 66 2l45 1q2 0 2 -6z" />
    <glyph glyph-name="ij" unicode="&#x133;" horiz-adv-x="528" 
d="M100.5 519q-13.5 13 -13.5 36q0 22 13.5 34.5t36.5 12.5q22 0 34.5 -12.5t12.5 -34.5q0 -23 -12.5 -36t-34.5 -13q-23 0 -36.5 13zM362.5 519q-13.5 13 -13.5 36q0 22 13.5 34.5t36.5 12.5q22 0 34.5 -12.5t12.5 -34.5q0 -23 -12.5 -36t-34.5 -13q-23 0 -36.5 13zM46 6
q0 6 3 6q36 0 48 13.5t12 55.5v184q0 36 -7 51.5t-25 15.5q-17 0 -43 -13h-1q-4 0 -6 5.5t2 6.5l136 63l4 1q3 0 6.5 -3t3.5 -7q0 -7 -1 -40t-1 -78v-186q0 -42 11.5 -55.5t48.5 -13.5q3 0 3 -6t-3 -6q-24 0 -39 1l-55 1l-55 -1q-15 -1 -39 -1q-3 0 -3 6zM441 345
q-1 -33 -1 -78v-315q0 -68 -14 -111.5t-47 -72.5t-91 -50q-2 -1 -4.5 4.5t-0.5 6.5q49 21 69 67t20 133v336q0 36 -7 51.5t-24 15.5q-16 0 -43 -13h-1q-4 0 -6.5 5.5t1.5 6.5l137 63l3 1q4 0 7 -3t3 -7q0 -7 -1 -40z" />
    <glyph glyph-name="Jcircumflex" unicode="&#x134;" horiz-adv-x="328" 
d="M156 805q5 5 12 5q6 0 11 -5l102 -104q1 0 1 -2t-2.5 -4t-3.5 -1l-108 52l-109 -52q-2 -1 -5 2.5t-1 4.5zM288 619q0 -6 -2 -6q-31 0 -45 -6t-19 -20.5t-5 -44.5v-562q0 -104 -49 -163.5t-140 -59.5q-35 0 -56 13t-21 35q0 17 10 28t29 11q20 0 30.5 -9.5t20.5 -28.5
q9 -16 15.5 -22.5t17.5 -6.5q31 0 46.5 39t15.5 127v601q0 30 -7 44t-26.5 19.5t-60.5 5.5q-2 0 -2 6t2 6l59 -1q46 -2 74 -2q26 0 66 2l45 1q2 0 2 -6z" />
    <glyph glyph-name="jcircumflex" unicode="&#x135;" horiz-adv-x="259" 
d="M205.5 472.5q-5.5 -1.5 -6.5 1.5l-68 147l-69 -147q0 -2 -4 -2q-3 0 -5.5 1.5t-1.5 2.5l68 249q1 5 11 5q11 0 12 -5l67 -249q2 -2 -3.5 -3.5zM172 345q-1 -33 -1 -78v-315q0 -68 -14 -111.5t-47 -72.5t-91 -50q-2 -1 -4.5 4.5t-0.5 6.5q49 21 69 67t20 133v336
q0 36 -7 51.5t-24 15.5q-16 0 -43 -13h-1q-4 0 -6.5 5.5t1.5 6.5l137 63l3 1q4 0 7 -3t3 -7q0 -7 -1 -40z" />
    <glyph glyph-name="Kcommaaccent" unicode="&#x136;" horiz-adv-x="652" 
d="M651 6q0 -6 -3 -6h-112l-31 -1q-14 0 -21.5 4t-17 15t-31.5 41q-9 11 -24 31.5t-41 54.5l-145 188l-30 -29v-223q0 -30 6 -44.5t22.5 -19.5t52.5 -5q3 0 3 -6t-3 -6q-32 0 -50 1l-71 1l-70 -1q-19 -1 -52 -1q-2 0 -2 6t2 6q36 0 53 5t23 19.5t6 44.5v463q0 30 -6 44
t-22.5 19.5t-51.5 5.5q-3 0 -3 6t3 6l50 -1q44 -2 70 -2q28 0 72 2l49 1q2 0 2 -6t-2 -6q-35 0 -52 -6t-23 -20.5t-6 -44.5v-212l205 207q32 32 32 50q0 26 -59 26q-3 0 -3 6t3 6l44 -1q40 -2 76 -2t74 2l40 1q3 0 3 -6t-3 -6q-43 0 -92 -20.5t-90 -61.5l-144 -143l145 -189
q71 -94 107.5 -132.5t57 -46.5t57.5 -8q3 0 3 -6zM385 -100q16 -20 16 -55t-17 -64t-49 -56l-2 -1q-4 0 -6 3.5t0 5.5q46 39 46 83q0 19 -7 30q-9 -16 -34 -16q-19 0 -30.5 12.5t-11.5 32.5q0 23 14 34t36 11q29 0 45 -20z" />
    <glyph glyph-name="kcommaaccent" unicode="&#x137;" horiz-adv-x="491" 
d="M490 6q0 -6 -2 -6q-25 0 -39 1l-56 1l-73 -1q-16 -1 -44 -1q-3 0 -3 6t3 6q45 0 45 20q0 9 -9 21l-119 161l-41 -34v-99q0 -42 12 -55.5t49 -13.5q3 0 3 -6t-3 -6q-25 0 -39 1l-55 1l-57 -1q-14 -1 -38 -1q-2 0 -2 6t2 6q37 0 48.5 13.5t11.5 55.5v514q0 36 -6.5 51.5
t-23.5 15.5q-18 0 -44 -13h-2q-3 0 -5 5t1 6l132 64l5 1q4 0 7.5 -3t3.5 -7v-517l121 104q30 26 30 45q0 12 -13 19.5t-38 7.5q-2 0 -2 6t2 6q28 0 44 -1l74 -1l68 1q14 1 38 1q2 0 2 -6t-2 -6q-39 0 -87.5 -19t-93.5 -57l-51 -42l130 -175q51 -69 114 -69q2 0 2 -6z
M287 -100q16 -20 16 -55t-17 -64t-49 -56l-2 -1q-4 0 -6 3.5t0 5.5q46 39 46 83q0 19 -7 30q-9 -16 -34 -16q-19 0 -30.5 12.5t-11.5 32.5q0 23 14 34t36 11q29 0 45 -20z" />
    <glyph glyph-name="kgreenlandic" unicode="&#x138;" horiz-adv-x="509" 
d="M508 6q0 -6 -3 -6q-24 0 -39 1l-55 1l-74 -1q-16 -1 -44 -1q-2 0 -2 6t2 6q45 0 45 20q0 9 -9 21l-118 161l-41 -34v-99q0 -42 11.5 -55.5t48.5 -13.5q3 0 3 -6t-3 -6q-24 0 -39 1l-55 1l-55 -1q-15 -1 -39 -1q-3 0 -3 6t3 6q36 0 48 13.5t12 55.5v195q0 33 -8 47.5
t-26 14.5t-52 -14h-2q-4 0 -5.5 4.5t1.5 6.5l124 59l6 1q10 0 20 -23.5t10 -61.5v-111l121 103q30 26 30 45q0 12 -13 19.5t-38 7.5q-3 0 -3 6t3 6q28 0 43 -1l75 -1l68 1q14 1 37 1q3 0 3 -6t-3 -6q-39 0 -87 -19.5t-94 -56.5l-51 -42l131 -175q50 -69 113 -69q3 0 3 -6z
" />
    <glyph glyph-name="Lacute" unicode="&#x139;" horiz-adv-x="537" 
d="M61 678q-4 0 -5 4.5t2 6.5q36 20 103 66q32 22 48 32q5 3 27.5 -4t40 -16t8.5 -11q-62 -15 -113.5 -33.5t-108.5 -43.5zM194 85q0 -28 5.5 -40.5t20.5 -17t47 -4.5h85q63 0 104.5 37.5t55.5 101.5q0 3 5.5 2.5t5.5 -3.5q-9 -88 -9 -146q0 -8 -3.5 -11.5t-11.5 -3.5h-466
q-2 0 -2 6t2 6q36 0 52.5 5t22.5 19.5t6 44.5v463q0 30 -6 44t-22.5 19.5t-52.5 5.5q-2 0 -2 6t2 6l50 -1q44 -2 71 -2t71 2l50 1q2 0 2 -6t-2 -6q-35 0 -52 -5.5t-23 -20t-6 -44.5v-458z" />
    <glyph glyph-name="lacute" unicode="&#x13a;" horiz-adv-x="261" 
d="M29 727q-4 0 -5 4.5t2 6.5q36 20 103 66q32 22 48 32q5 3 27.5 -4t40 -16t8.5 -11q-62 -15 -113.5 -33.5t-108.5 -43.5zM36 6q0 6 2 6q37 0 48.5 13.5t11.5 55.5l1 514q0 36 -7 51.5t-24 15.5t-43 -13h-2q-3 0 -5 5t1 6l134 64l4 1q4 0 8 -3t4 -7v-634q0 -42 11.5 -55.5
t47.5 -13.5q4 0 4 -6t-4 -6q-23 0 -37 1l-58 1l-56 -1q-14 -1 -39 -1q-2 0 -2 6z" />
    <glyph glyph-name="Lcommaaccent" unicode="&#x13b;" horiz-adv-x="537" 
d="M517.5 164.5q5.5 -0.5 5.5 -3.5q-9 -88 -9 -146q0 -8 -3.5 -11.5t-11.5 -3.5h-466q-2 0 -2 6t2 6q36 0 52.5 5t22.5 19.5t6 44.5v463q0 30 -6 44t-22.5 19.5t-52.5 5.5q-2 0 -2 6t2 6l50 -1q44 -2 71 -2t71 2l50 1q2 0 2 -6t-2 -6q-35 0 -52 -5.5t-23 -20t-6 -44.5v-458
q0 -28 5.5 -40.5t20.5 -17t47 -4.5h85q63 0 104.5 37.5t55.5 101.5q0 3 5.5 2.5zM334 -100q16 -20 16 -55t-17 -64t-49 -56l-2 -1q-4 0 -6 3.5t0 5.5q46 39 46 83q0 19 -7 30q-9 -16 -34 -16q-19 0 -30.5 12.5t-11.5 32.5q0 23 14 34t36 11q29 0 45 -20z" />
    <glyph glyph-name="lcommaaccent" unicode="&#x13c;" horiz-adv-x="261" 
d="M232 6q0 -6 -4 -6q-23 0 -37 1l-58 1l-56 -1q-14 -1 -39 -1q-2 0 -2 6t2 6q37 0 48.5 13.5t11.5 55.5l1 514q0 36 -7 51.5t-24 15.5t-43 -13h-2q-3 0 -5 5t1 6l134 64l4 1q4 0 8 -3t4 -7v-634q0 -42 11.5 -55.5t47.5 -13.5q4 0 4 -6zM173 -100q16 -20 16 -55t-17 -64
t-49 -56l-2 -1q-4 0 -6 3.5t0 5.5q46 39 46 83q0 19 -7 30q-9 -16 -34 -16q-19 0 -30.5 12.5t-11.5 32.5q0 23 14 34t36 11q29 0 45 -20z" />
    <glyph glyph-name="Lcaron" unicode="&#x13d;" horiz-adv-x="537" 
d="M368.5 624q15.5 -6 30.5 -15.5t14 -15.5l-41 -241q-1 -2 -6 -1.5t-5 2.5l-8 272q0 5 15.5 -1zM194 85q0 -28 5.5 -40.5t20.5 -17t47 -4.5h85q63 0 104.5 37.5t55.5 101.5q0 3 5.5 2.5t5.5 -3.5q-9 -88 -9 -146q0 -8 -3.5 -11.5t-11.5 -3.5h-466q-2 0 -2 6t2 6
q36 0 52.5 5t22.5 19.5t6 44.5v463q0 30 -6 44t-22.5 19.5t-52.5 5.5q-2 0 -2 6t2 6l50 -1q44 -2 71 -2t71 2l50 1q2 0 2 -6t-2 -6q-35 0 -52 -5.5t-23 -20t-6 -44.5v-458z" />
    <glyph glyph-name="lcaron" unicode="&#x13e;" horiz-adv-x="261" 
d="M249.5 724q15.5 -6 30.5 -15.5t14 -15.5l-41 -241q-1 -2 -6 -1.5t-5 2.5l-8 272q0 5 15.5 -1zM36 6q0 6 2 6q37 0 48.5 13.5t11.5 55.5l1 514q0 36 -7 51.5t-24 15.5t-43 -13h-2q-3 0 -5 5t1 6l134 64l4 1q4 0 8 -3t4 -7v-634q0 -42 11.5 -55.5t47.5 -13.5q4 0 4 -6
t-4 -6q-23 0 -37 1l-58 1l-56 -1q-14 -1 -39 -1q-2 0 -2 6z" />
    <glyph glyph-name="Ldot" unicode="&#x13f;" horiz-adv-x="537" 
d="M194 85q0 -28 5.5 -40.5t20.5 -17t47 -4.5h85q63 0 104.5 37.5t55.5 101.5q0 3 5.5 2.5t5.5 -3.5q-9 -88 -9 -146q0 -8 -3.5 -11.5t-11.5 -3.5h-466q-2 0 -2 6t2 6q36 0 52.5 5t22.5 19.5t6 44.5v463q0 30 -6 44t-22.5 19.5t-52.5 5.5q-2 0 -2 6t2 6l50 -1q44 -2 71 -2
t71 2l50 1q2 0 2 -6t-2 -6q-35 0 -52 -5.5t-23 -20t-6 -44.5v-458zM392.5 284.5q-13.5 13.5 -13.5 35.5t13 34.5t36 12.5t35.5 -12.5t12.5 -34.5q0 -23 -12.5 -36t-35.5 -13q-22 0 -35.5 13.5z" />
    <glyph glyph-name="ldot" unicode="&#x140;" horiz-adv-x="259" 
d="M36 6q0 6 2 6q37 0 48.5 13.5t11.5 55.5l1 514q0 36 -7 51.5t-24 15.5t-43 -13h-2q-3 0 -5 5t1 6l134 64l4 1q4 0 8 -3t4 -7v-634q0 -42 11.5 -55.5t47.5 -13.5q4 0 4 -6t-4 -6q-23 0 -37 1l-58 1l-56 -1q-14 -1 -39 -1q-2 0 -2 6zM220.5 296.5q-13.5 13.5 -13.5 35.5
t13 34.5t36 12.5t35.5 -12.5t12.5 -34.5q0 -23 -12.5 -36t-35.5 -13q-22 0 -35.5 13.5z" />
    <glyph glyph-name="Lslash" unicode="&#x141;" horiz-adv-x="530" 
d="M517.5 164.5q5.5 -0.5 5.5 -3.5q-9 -88 -9 -146q0 -8 -3.5 -11.5t-11.5 -3.5h-466q-2 0 -2 6t2 6q36 0 52.5 5t22.5 19.5t6 44.5v177l-51 -29h-1q-5 0 -10 9t-1 11l63 36v259q0 30 -6 44t-22.5 19.5t-52.5 5.5q-2 0 -2 6t2 6l50 -1q44 -2 71 -2t71 2l50 1q2 0 2 -6t-2 -6
q-35 0 -52 -5.5t-23 -20t-6 -44.5v-212l108 62h1q4 0 9 -9t1 -11l-119 -69v-219q0 -28 5.5 -40.5t20.5 -17t47 -4.5h85q63 0 104.5 37.5t55.5 101.5q0 3 5.5 2.5z" />
    <glyph glyph-name="lslash" unicode="&#x142;" horiz-adv-x="265" 
d="M227 422q6 0 11.5 -10.5t0.5 -13.5l-66 -39v-278q0 -42 11.5 -55.5t47.5 -13.5q4 0 4 -6t-4 -6q-23 0 -37 1l-58 1l-56 -1q-14 -1 -39 -1q-2 0 -2 6t2 6q37 0 48.5 13.5t11.5 55.5v236l-53 -32h-2q-5 0 -10.5 10.5t-1.5 12.5l68 40v247q0 36 -7 51.5t-24 15.5t-43 -13h-2
q-3 0 -5 5t1 6l134 64l4 1q4 0 8 -3t4 -7v-325l53 32h1z" />
    <glyph glyph-name="Nacute" unicode="&#x143;" horiz-adv-x="730" 
d="M279 678q-4 0 -5 4.5t2 6.5q36 20 103 66q32 22 48 32q5 3 27.5 -4t40 -16t8.5 -11q-62 -15 -113.5 -33.5t-108.5 -43.5zM713 619q0 -6 -3 -6q-82 0 -82 -104v-522q0 -2 -4.5 -3t-6.5 1l-469 556v-426q0 -53 19.5 -78t59.5 -25q3 0 3 -6t-3 -6q-26 0 -40 1l-51 1l-54 -1
q-15 -1 -44 -1q-2 0 -2 6t2 6q43 0 63.5 25t20.5 78v454q-44 44 -87 44q-3 0 -3 6t3 6l39 -1q12 -1 34 -1l52 1q9 1 23 1q8 0 11.5 -3.5t11.5 -15.5q9 -14 25 -33l372 -449v385q0 53 -19 78.5t-59 25.5q-2 0 -2 6t2 6l40 -1q30 -2 51 -2q18 0 52 2l42 1q3 0 3 -6z" />
    <glyph glyph-name="nacute" unicode="&#x144;" horiz-adv-x="520" 
d="M267 472q-3 0 -5.5 1.5t-1.5 2.5l46 240q1 4 24.5 9.5t38.5 5.5q11 0 10 -4l-108 -253q0 -2 -4 -2zM503 6q0 -6 -3 -6q-24 0 -39 1l-55 1l-55 -1q-15 -1 -39 -1q-3 0 -3 6t3 6q36 0 47.5 13.5t11.5 55.5v156q0 58 -21 85t-67 27q-28 0 -58 -14t-54 -39v-215
q0 -42 11.5 -55.5t48.5 -13.5q3 0 3 -6t-3 -6q-24 0 -39 1l-55 1l-56 -1q-14 -1 -38 -1q-3 0 -3 6t3 6q36 0 47.5 13.5t11.5 55.5v195q0 33 -7.5 47.5t-25.5 14.5q-19 0 -53 -14h-2q-3 0 -4.5 5t1.5 6l124 59q2 1 6 1q10 0 19.5 -22.5t10.5 -58.5q73 85 153 85
q55 0 85.5 -32.5t30.5 -90.5v-195q0 -42 11.5 -55.5t48.5 -13.5q3 0 3 -6z" />
    <glyph glyph-name="Ncommaaccent" unicode="&#x145;" horiz-adv-x="730" 
d="M713 619q0 -6 -3 -6q-82 0 -82 -104v-522q0 -2 -4.5 -3t-6.5 1l-469 556v-426q0 -53 19.5 -78t59.5 -25q3 0 3 -6t-3 -6q-26 0 -40 1l-51 1l-54 -1q-15 -1 -44 -1q-2 0 -2 6t2 6q43 0 63.5 25t20.5 78v454q-44 44 -87 44q-3 0 -3 6t3 6l39 -1q12 -1 34 -1l52 1q9 1 23 1
q8 0 11.5 -3.5t11.5 -15.5q9 -14 25 -33l372 -449v385q0 53 -19 78.5t-59 25.5q-2 0 -2 6t2 6l40 -1q30 -2 51 -2q18 0 52 2l42 1q3 0 3 -6zM413 -100q16 -20 16 -55t-17 -64t-49 -56l-2 -1q-4 0 -6 3.5t0 5.5q46 39 46 83q0 19 -7 30q-9 -16 -34 -16q-19 0 -30.5 12.5
t-11.5 32.5q0 23 14 34t36 11q29 0 45 -20z" />
    <glyph glyph-name="ncommaaccent" unicode="&#x146;" horiz-adv-x="520" 
d="M503 6q0 -6 -3 -6q-24 0 -39 1l-55 1l-55 -1q-15 -1 -39 -1q-3 0 -3 6t3 6q36 0 47.5 13.5t11.5 55.5v156q0 58 -21 85t-67 27q-28 0 -58 -14t-54 -39v-215q0 -42 11.5 -55.5t48.5 -13.5q3 0 3 -6t-3 -6q-24 0 -39 1l-55 1l-56 -1q-14 -1 -38 -1q-3 0 -3 6t3 6
q36 0 47.5 13.5t11.5 55.5v195q0 33 -7.5 47.5t-25.5 14.5q-19 0 -53 -14h-2q-3 0 -4.5 5t1.5 6l124 59q2 1 6 1q10 0 19.5 -22.5t10.5 -58.5q73 85 153 85q55 0 85.5 -32.5t30.5 -90.5v-195q0 -42 11.5 -55.5t48.5 -13.5q3 0 3 -6zM299 -100q16 -20 16 -55t-17 -64t-49 -56
l-2 -1q-4 0 -6 3.5t0 5.5q46 39 46 83q0 19 -7 30q-9 -16 -34 -16q-19 0 -30.5 12.5t-11.5 32.5q0 23 14 34t36 11q29 0 45 -20z" />
    <glyph glyph-name="Ncaron" unicode="&#x147;" horiz-adv-x="730" 
d="M262 790.5v0.5q0 2 2.5 4.5t4.5 1.5l109 -52l108 52h1q3 0 4.5 -2.5t-0.5 -4.5l-102 -103q-4 -4 -11 -4q-8 0 -12 4l-103 103q-1 0 -1 0.5zM713 619q0 -6 -3 -6q-82 0 -82 -104v-522q0 -2 -4.5 -3t-6.5 1l-469 556v-426q0 -53 19.5 -78t59.5 -25q3 0 3 -6t-3 -6
q-26 0 -40 1l-51 1l-54 -1q-15 -1 -44 -1q-2 0 -2 6t2 6q43 0 63.5 25t20.5 78v454q-44 44 -87 44q-3 0 -3 6t3 6l39 -1q12 -1 34 -1l52 1q9 1 23 1q8 0 11.5 -3.5t11.5 -15.5q9 -14 25 -33l372 -449v385q0 53 -19 78.5t-59 25.5q-2 0 -2 6t2 6l40 -1q30 -2 51 -2q18 0 52 2
l42 1q3 0 3 -6z" />
    <glyph glyph-name="ncaron" unicode="&#x148;" horiz-adv-x="520" 
d="M193 726q-1 3 4.5 4t6.5 -1l69 -147l68 147q1 2 6 1t4 -4l-67 -249q-2 -5 -11 -5t-12 5zM503 6q0 -6 -3 -6q-24 0 -39 1l-55 1l-55 -1q-15 -1 -39 -1q-3 0 -3 6t3 6q36 0 47.5 13.5t11.5 55.5v156q0 58 -21 85t-67 27q-28 0 -58 -14t-54 -39v-215q0 -42 11.5 -55.5
t48.5 -13.5q3 0 3 -6t-3 -6q-24 0 -39 1l-55 1l-56 -1q-14 -1 -38 -1q-3 0 -3 6t3 6q36 0 47.5 13.5t11.5 55.5v195q0 33 -7.5 47.5t-25.5 14.5q-19 0 -53 -14h-2q-3 0 -4.5 5t1.5 6l124 59q2 1 6 1q10 0 19.5 -22.5t10.5 -58.5q73 85 153 85q55 0 85.5 -32.5t30.5 -90.5
v-195q0 -42 11.5 -55.5t48.5 -13.5q3 0 3 -6z" />
    <glyph glyph-name="napostrophe" unicode="&#x149;" horiz-adv-x="520" 
d="M31.5 568.5q-11.5 12.5 -11.5 32.5q0 22 13.5 33.5t38.5 11.5q31 0 49 -24t18 -68q0 -42 -18.5 -77.5t-55.5 -71.5q-1 -1 -3 -1q-3 0 -5 3t0 5q49 50 49 118q0 28 -10 41q-9 -15 -33 -15q-20 0 -31.5 12.5zM503 6q0 -6 -3 -6q-24 0 -39 1l-55 1l-55 -1q-15 -1 -39 -1
q-3 0 -3 6t3 6q36 0 47.5 13.5t11.5 55.5v156q0 58 -21 85t-67 27q-28 0 -58 -14t-54 -39v-215q0 -42 11.5 -55.5t48.5 -13.5q3 0 3 -6t-3 -6q-24 0 -39 1l-55 1l-56 -1q-14 -1 -38 -1q-3 0 -3 6t3 6q36 0 47.5 13.5t11.5 55.5v195q0 33 -7.5 47.5t-25.5 14.5q-19 0 -53 -14
h-2q-3 0 -4.5 5t1.5 6l124 59q2 1 6 1q10 0 19.5 -22.5t10.5 -58.5q73 85 153 85q55 0 85.5 -32.5t30.5 -90.5v-195q0 -42 11.5 -55.5t48.5 -13.5q3 0 3 -6z" />
    <glyph glyph-name="Eng" unicode="&#x14a;" horiz-adv-x="730" 
d="M713 619q0 -6 -3 -6q-82 0 -82 -104v-522q0 -85 -33.5 -131.5t-95.5 -46.5q-40 0 -64.5 17t-24.5 43q0 18 10.5 29.5t27.5 11.5q21 0 29 -10.5t13 -31.5q5 -19 11.5 -28t23.5 -9q37 0 58 42t21 112v15l-456 541v-426q0 -53 19.5 -78t59.5 -25q3 0 3 -6t-3 -6q-26 0 -40 1
l-51 1l-54 -1q-15 -1 -44 -1q-2 0 -2 6t2 6q43 0 64 25t21 78v453q-25 25 -46 35t-42 10q-3 0 -3 6t3 6l39 -1q12 -1 34 -1l52 1q9 1 23 1q8 0 11.5 -3.5t11.5 -15.5q9 -14 25 -33l373 -450v386q0 53 -19.5 78.5t-59.5 25.5q-2 0 -2 6t2 6l40 -1q30 -2 51 -2q18 0 52 2l42 1
q3 0 3 -6z" />
    <glyph glyph-name="eng" unicode="&#x14b;" horiz-adv-x="506" 
d="M408.5 367q30.5 -32 30.5 -91v-324q0 -68 -14 -110.5t-47 -70.5t-91 -49q-3 -1 -5 4t0 7q49 21 69 65.5t20 130.5v308q0 58 -21.5 85t-67.5 27q-29 0 -58.5 -14.5t-53.5 -39.5v-214q0 -42 11.5 -55.5t48.5 -13.5q3 0 3 -6t-3 -6q-24 0 -39 1l-55 1l-55 -1q-15 -1 -39 -1
q-3 0 -3 6t3 6q36 0 48 13.5t12 55.5v195q0 33 -8 47.5t-26 14.5t-52 -14h-2q-4 0 -5.5 4.5t1.5 6.5l124 59l6 1q10 0 19.5 -22.5t10.5 -58.5q73 85 153 85q55 0 85.5 -32z" />
    <glyph glyph-name="Omacron" unicode="&#x14c;" horiz-adv-x="766" 
d="M253 735q0 15 7 15h251q4 0 6 -4.5t2 -10.5t-2 -11t-6 -5h-251q-7 0 -7 16zM200.5 31.5q-72.5 43.5 -112 118t-39.5 162.5q0 103 52 176.5t133.5 110.5t166.5 37q95 0 167 -44.5t110.5 -117.5t38.5 -155q0 -91 -48 -167t-128.5 -120t-174.5 -44q-93 0 -165.5 43.5z
M516 43q51 33 80.5 96.5t29.5 151.5q0 93 -32.5 166t-93 114t-140.5 41q-104 0 -162 -70.5t-58 -194.5q0 -95 33 -172t92.5 -121t135.5 -44q64 0 115 33z" />
    <glyph glyph-name="omacron" unicode="&#x14d;" horiz-adv-x="482" 
d="M109 496q0 15 7 15h251q4 0 6 -4.5t2 -10.5t-2 -11t-6 -5h-251q-7 0 -7 16zM129 15.5q-45 28.5 -69.5 77t-24.5 105.5q0 65 32 110.5t82 68t102 22.5q59 0 104 -29t69 -76.5t24 -100.5q0 -61 -29.5 -108t-78.5 -72.5t-107 -25.5q-59 0 -104 28.5zM339 45q27 39 27 117
q0 65 -19.5 114.5t-53.5 76t-76 26.5q-49 0 -75.5 -37.5t-26.5 -110.5q0 -63 19 -114.5t52.5 -81t75.5 -29.5q50 0 77 39z" />
    <glyph glyph-name="Obreve" unicode="&#x14e;" horiz-adv-x="766" 
d="M314.5 719.5q-26.5 29.5 -31.5 83.5q-1 4 4.5 4.5t6.5 -1.5q5 -25 31.5 -43.5t60.5 -18.5q33 0 59.5 18.5t31.5 43.5q0 2 4 2q3 0 5.5 -1.5t1.5 -3.5q-5 -54 -31 -83.5t-71 -29.5t-71.5 29.5zM200.5 31.5q-72.5 43.5 -112 118t-39.5 162.5q0 103 52 176.5t133.5 110.5
t166.5 37q95 0 167 -44.5t110.5 -117.5t38.5 -155q0 -91 -48 -167t-128.5 -120t-174.5 -44q-93 0 -165.5 43.5zM516 43q51 33 80.5 96.5t29.5 151.5q0 93 -32.5 166t-93 114t-140.5 41q-104 0 -162 -70.5t-58 -194.5q0 -95 33 -172t92.5 -121t135.5 -44q64 0 115 33z" />
    <glyph glyph-name="obreve" unicode="&#x14f;" horiz-adv-x="482" 
d="M144.5 627.5q5.5 0.5 5.5 -1.5q0 -40 26.5 -68t65.5 -28q38 0 64.5 28.5t26.5 67.5q0 2 4 2q2 0 4.5 -1.5t2.5 -2.5q0 -76 -26 -115t-76 -39t-76.5 39t-26.5 115q0 3 5.5 3.5zM129 15.5q-45 28.5 -69.5 77t-24.5 105.5q0 65 32 110.5t82 68t102 22.5q59 0 104 -29
t69 -76.5t24 -100.5q0 -61 -29.5 -108t-78.5 -72.5t-107 -25.5q-59 0 -104 28.5zM339 45q27 39 27 117q0 65 -19.5 114.5t-53.5 76t-76 26.5q-49 0 -75.5 -37.5t-26.5 -110.5q0 -63 19 -114.5t52.5 -81t75.5 -29.5q50 0 77 39z" />
    <glyph glyph-name="Ohungarumlaut" unicode="&#x150;" horiz-adv-x="766" 
d="M276 673q-3 0 -4.5 4.5t0.5 6.5q51 52 90 105q3 5 25 -0.5t39 -14.5t9 -13q-75 -32 -156 -87q-1 -1 -3 -1zM409 673q-3 0 -4.5 4.5t0.5 6.5q36 37 90 105q3 5 24.5 -0.5t38 -14.5t8.5 -13q-74 -33 -154 -87q-1 -1 -3 -1zM200.5 31.5q-72.5 43.5 -112 118t-39.5 162.5
q0 103 52 176.5t133.5 110.5t166.5 37q95 0 167 -44.5t110.5 -117.5t38.5 -155q0 -91 -48 -167t-128.5 -120t-174.5 -44q-93 0 -165.5 43.5zM516 43q51 33 80.5 96.5t29.5 151.5q0 93 -32.5 166t-93 114t-140.5 41q-104 0 -162 -70.5t-58 -194.5q0 -95 33 -172t92.5 -121
t135.5 -44q64 0 115 33z" />
    <glyph glyph-name="ohungarumlaut" unicode="&#x151;" horiz-adv-x="482" 
d="M146 452q-4 0 -5.5 4.5t0.5 6.5q23 24 64 78l21 27q3 4 25.5 -1t40 -13t9.5 -11q-39 -16 -72 -36t-81 -54zM274 452q-4 0 -5.5 4.5t0.5 6.5q17 17 57 69l28 36q3 4 25.5 -1t40 -13t9.5 -11q-39 -16 -72 -36t-81 -54zM129 15.5q-45 28.5 -69.5 77t-24.5 105.5
q0 65 32 110.5t82 68t102 22.5q59 0 104 -29t69 -76.5t24 -100.5q0 -61 -29.5 -108t-78.5 -72.5t-107 -25.5q-59 0 -104 28.5zM339 45q27 39 27 117q0 65 -19.5 114.5t-53.5 76t-76 26.5q-49 0 -75.5 -37.5t-26.5 -110.5q0 -63 19 -114.5t52.5 -81t75.5 -29.5q50 0 77 39z
" />
    <glyph glyph-name="OE" unicode="&#x152;" horiz-adv-x="920" 
d="M866.5 153.5q5.5 -0.5 5.5 -3.5q-10 -72 -10 -135q0 -8 -3 -11.5t-12 -3.5h-304q-21 0 -69 -2q-46 -2 -70 -2q-103 0 -184 40t-126 109.5t-45 155.5q0 97 47 171t126.5 114.5t173.5 40.5q45 0 70 -1l78 -1h286q9 0 9 -9l2 -126q0 -3 -5.5 -3.5t-5.5 2.5q-5 44 -38.5 78.5
t-80.5 34.5h-57q-43 0 -57.5 -12t-14.5 -47v-206h109q51 0 75 17.5t24 54.5q0 2 6 2t6 -2l-1 -53q-1 -10 -1 -31l1 -45q2 -32 2 -50q0 -2 -6 -2t-6 2q0 43 -24.5 63.5t-78.5 20.5h-106v-229q0 -36 13.5 -49t53.5 -13h71q47 0 87.5 37t52.5 91q1 3 6.5 2.5zM502 537
q0 29 -7.5 44t-28 22t-60.5 7q-78 0 -138 -33.5t-94 -98.5t-34 -155q0 -87 32 -157.5t91 -111.5t137 -41q41 0 62.5 5t30.5 19.5t9 44.5v455z" />
    <glyph glyph-name="oe" unicode="&#x153;" horiz-adv-x="686" 
d="M653 59q3 0 6 -3.5t0 -6.5q-65 -61 -143 -61q-54 0 -93.5 19.5t-62.5 55.5q-26 -36 -64 -56t-83 -20q-55 0 -98.5 29t-67.5 77t-24 105q0 65 31.5 110.5t79 68t97.5 22.5t87.5 -23t59.5 -64q29 38 72.5 60.5t94.5 22.5q53 0 82.5 -26.5t29.5 -72.5q0 -13 -2.5 -19
t-9.5 -6h-60l-176 -2q-6 -28 -6 -62q0 -83 41 -131.5t110 -48.5q59 0 98 32h1zM305.5 48q24.5 43 24.5 122q0 95 -36 152.5t-95 57.5q-46 0 -72 -39.5t-26 -113.5q0 -60 18 -111t50 -81t71 -30q41 0 65.5 43zM449.5 351q-24.5 -24 -36.5 -66l162 4q0 41 -17.5 63.5
t-46.5 22.5q-37 0 -61.5 -24z" />
    <glyph glyph-name="Racute" unicode="&#x154;" horiz-adv-x="681" 
d="M158 678q-4 0 -5 4.5t2 6.5q36 20 103 66q32 22 48 32q5 3 27.5 -4t40 -16t8.5 -11q-62 -15 -113.5 -33.5t-108.5 -43.5zM693 6q0 -6 -2 -6h-145q-24 0 -90.5 85.5t-158.5 234.5q-23 -5 -44 -5q-19 0 -49 2v-236q0 -30 6 -44.5t22.5 -19.5t52.5 -5q3 0 3 -6t-3 -6
q-31 0 -49 1l-72 1l-70 -1q-19 -1 -51 -1q-3 0 -3 6t3 6q36 0 53 5t23 19.5t6 44.5v463q0 30 -6 44t-22.5 19.5t-52.5 5.5q-2 0 -2 6t2 6l50 -1q44 -2 70 -2q18 0 34 1t28 2q33 3 62 3q85 0 131 -33.5t46 -92.5q0 -47 -28 -89t-73 -68q84 -127 140.5 -198.5t100.5 -103
t86 -31.5q2 0 2 -6zM263 339q64 0 91.5 28.5t27.5 98.5q0 79 -30 112t-83 33q-26 0 -39.5 -5t-19.5 -19.5t-6 -44.5v-199q38 -4 59 -4z" />
    <glyph glyph-name="racute" unicode="&#x155;" horiz-adv-x="369" 
d="M185 472q-3 0 -5.5 1.5t-1.5 2.5l46 240q1 4 24.5 9.5t38.5 5.5q11 0 10 -4l-108 -253q0 -2 -4 -2zM326 381.5q20 -13.5 20 -32.5q0 -15 -10 -25.5t-27 -10.5q-10 0 -17 3.5t-12 8t-7 5.5q-8 8 -15.5 12.5t-18.5 4.5q-12 0 -26 -9.5t-42 -41.5v-215q0 -29 7.5 -43.5
t27.5 -20t60 -5.5q3 0 3 -6t-3 -6q-33 0 -53 1l-76 1l-56 -1q-14 -1 -38 -1q-3 0 -3 6t3 6q36 0 47.5 13.5t11.5 55.5v195q0 33 -7.5 47.5t-25.5 14.5q-19 0 -53 -14h-2q-3 0 -4.5 5t1.5 6l124 59q2 1 6 1q10 0 19.5 -22t10.5 -58q41 46 65.5 63t46.5 17q23 0 43 -13.5z" />
    <glyph glyph-name="Rcommaaccent" unicode="&#x156;" horiz-adv-x="681" 
d="M693 6q0 -6 -2 -6h-145q-24 0 -90.5 85.5t-158.5 234.5q-23 -5 -44 -5q-19 0 -49 2v-236q0 -30 6 -44.5t22.5 -19.5t52.5 -5q3 0 3 -6t-3 -6q-31 0 -49 1l-72 1l-70 -1q-19 -1 -51 -1q-3 0 -3 6t3 6q36 0 53 5t23 19.5t6 44.5v463q0 30 -6 44t-22.5 19.5t-52.5 5.5
q-2 0 -2 6t2 6l50 -1q44 -2 70 -2q18 0 34 1t28 2q33 3 62 3q85 0 131 -33.5t46 -92.5q0 -47 -28 -89t-73 -68q84 -127 140.5 -198.5t100.5 -103t86 -31.5q2 0 2 -6zM263 339q64 0 91.5 28.5t27.5 98.5q0 79 -30 112t-83 33q-26 0 -39.5 -5t-19.5 -19.5t-6 -44.5v-199
q38 -4 59 -4zM381 -100q16 -20 16 -55t-17 -64t-49 -56l-2 -1q-4 0 -6 3.5t0 5.5q46 39 46 83q0 19 -7 30q-9 -16 -34 -16q-19 0 -30.5 12.5t-11.5 32.5q0 23 14 34t36 11q29 0 45 -20z" />
    <glyph glyph-name="rcommaaccent" unicode="&#x157;" horiz-adv-x="369" 
d="M326 381.5q20 -13.5 20 -32.5q0 -15 -10 -25.5t-27 -10.5q-10 0 -17 3.5t-12 8t-7 5.5q-8 8 -15.5 12.5t-18.5 4.5q-12 0 -26 -9.5t-42 -41.5v-215q0 -29 7.5 -43.5t27.5 -20t60 -5.5q3 0 3 -6t-3 -6q-33 0 -53 1l-76 1l-56 -1q-14 -1 -38 -1q-3 0 -3 6t3 6
q36 0 47.5 13.5t11.5 55.5v195q0 33 -7.5 47.5t-25.5 14.5q-19 0 -53 -14h-2q-3 0 -4.5 5t1.5 6l124 59q2 1 6 1q10 0 19.5 -22t10.5 -58q41 46 65.5 63t46.5 17q23 0 43 -13.5zM193 -100q16 -20 16 -55t-17 -64t-49 -56l-2 -1q-4 0 -6 3.5t0 5.5q46 39 46 83q0 19 -7 30
q-9 -16 -34 -16q-19 0 -30.5 12.5t-11.5 32.5q0 23 14 34t36 11q29 0 45 -20z" />
    <glyph glyph-name="Rcaron" unicode="&#x158;" horiz-adv-x="681" 
d="M141 790.5v0.5q0 2 2.5 4.5t4.5 1.5l109 -52l108 52h1q3 0 4.5 -2.5t-0.5 -4.5l-102 -103q-4 -4 -11 -4q-8 0 -12 4l-103 103q-1 0 -1 0.5zM693 6q0 -6 -2 -6h-145q-24 0 -90.5 85.5t-158.5 234.5q-23 -5 -44 -5q-19 0 -49 2v-236q0 -30 6 -44.5t22.5 -19.5t52.5 -5
q3 0 3 -6t-3 -6q-31 0 -49 1l-72 1l-70 -1q-19 -1 -51 -1q-3 0 -3 6t3 6q36 0 53 5t23 19.5t6 44.5v463q0 30 -6 44t-22.5 19.5t-52.5 5.5q-2 0 -2 6t2 6l50 -1q44 -2 70 -2q18 0 34 1t28 2q33 3 62 3q85 0 131 -33.5t46 -92.5q0 -47 -28 -89t-73 -68q84 -127 140.5 -198.5
t100.5 -103t86 -31.5q2 0 2 -6zM263 339q64 0 91.5 28.5t27.5 98.5q0 79 -30 112t-83 33q-26 0 -39.5 -5t-19.5 -19.5t-6 -44.5v-199q38 -4 59 -4z" />
    <glyph glyph-name="rcaron" unicode="&#x159;" horiz-adv-x="369" 
d="M111 726q-1 3 4.5 4t6.5 -1l69 -147l68 147q1 2 6 1t4 -4l-67 -249q-2 -5 -11 -5t-12 5zM326 381.5q20 -13.5 20 -32.5q0 -15 -10 -25.5t-27 -10.5q-10 0 -17 3.5t-12 8t-7 5.5q-8 8 -15.5 12.5t-18.5 4.5q-12 0 -26 -9.5t-42 -41.5v-215q0 -29 7.5 -43.5t27.5 -20
t60 -5.5q3 0 3 -6t-3 -6q-33 0 -53 1l-76 1l-56 -1q-14 -1 -38 -1q-3 0 -3 6t3 6q36 0 47.5 13.5t11.5 55.5v195q0 33 -7.5 47.5t-25.5 14.5q-19 0 -53 -14h-2q-3 0 -4.5 5t1.5 6l124 59q2 1 6 1q10 0 19.5 -22t10.5 -58q41 46 65.5 63t46.5 17q23 0 43 -13.5z" />
    <glyph glyph-name="Sacute" unicode="&#x15a;" horiz-adv-x="499" 
d="M161 678q-4 0 -5 4.5t2 6.5q36 20 103 66q32 22 48 32q5 3 27.5 -4t40 -16t8.5 -11q-62 -15 -113.5 -33.5t-108.5 -43.5zM173 446.5q19 -28.5 46 -49t75 -49.5q50 -31 79.5 -53.5t50.5 -55.5t21 -78q0 -49 -25.5 -88.5t-73 -62t-110.5 -22.5q-40 0 -79 9.5t-68 27.5
q-5 3 -7 7t-2 12l-10 143q-1 4 4.5 5t6.5 -3q24 -76 67 -129t112 -53q47 0 78.5 25.5t31.5 83.5q0 44 -20 77t-48.5 55.5t-76.5 51.5q-47 30 -74.5 51.5t-46.5 53t-19 73.5q0 51 27.5 87t72 53.5t93.5 17.5q67 0 121 -23q15 -6 15 -18l5 -125q0 -4 -5 -5t-6 3
q-11 54 -47 102.5t-102 48.5q-50 0 -77.5 -30t-27.5 -76q0 -38 19 -66.5z" />
    <glyph glyph-name="sacute" unicode="&#x15b;" horiz-adv-x="338" 
d="M166 472q-3 0 -5.5 1.5t-1.5 2.5l46 240q1 4 24.5 9.5t38.5 5.5q11 0 10 -4l-108 -253q0 -2 -4 -2zM128.5 275q22.5 -21 64.5 -43q36 -19 55.5 -32.5t33.5 -34.5t14 -52q0 -51 -38.5 -87.5t-105.5 -36.5q-52 0 -98 29q-6 6 -6 12l-2 85q0 3 5.5 3.5t6.5 -2.5
q18 -50 50.5 -79t72.5 -29q28 0 43.5 14t15.5 41q0 28 -12 47.5t-29.5 31t-47.5 27.5q-33 16 -52.5 29t-33 34t-13.5 53q0 56 41 84.5t98 28.5q39 0 76 -15q9 -3 9 -11q0 -22 -1 -34l-1 -45q0 -2 -6 -2t-6 2q0 20 -16 40t-40.5 32.5t-49.5 12.5q-23 0 -36.5 -11.5
t-13.5 -37.5q0 -33 22.5 -54z" />
    <glyph glyph-name="Scircumflex" unicode="&#x15c;" horiz-adv-x="499" 
d="M249 799q5 5 12 5q6 0 11 -5l102 -104q1 0 1 -2t-2.5 -4t-3.5 -1l-108 52l-109 -52q-2 -1 -5 2.5t-1 4.5zM173 446.5q19 -28.5 46 -49t75 -49.5q50 -31 79.5 -53.5t50.5 -55.5t21 -78q0 -49 -25.5 -88.5t-73 -62t-110.5 -22.5q-40 0 -79 9.5t-68 27.5q-5 3 -7 7t-2 12
l-10 143q-1 4 4.5 5t6.5 -3q24 -76 67 -129t112 -53q47 0 78.5 25.5t31.5 83.5q0 44 -20 77t-48.5 55.5t-76.5 51.5q-47 30 -74.5 51.5t-46.5 53t-19 73.5q0 51 27.5 87t72 53.5t93.5 17.5q67 0 121 -23q15 -6 15 -18l5 -125q0 -4 -5 -5t-6 3q-11 54 -47 102.5t-102 48.5
q-50 0 -77.5 -30t-27.5 -76q0 -38 19 -66.5z" />
    <glyph glyph-name="scircumflex" unicode="&#x15d;" horiz-adv-x="338" 
d="M247.5 472.5q-5.5 -1.5 -6.5 1.5l-68 147l-69 -147q0 -2 -4 -2q-3 0 -5.5 1.5t-1.5 2.5l68 249q1 5 11 5q11 0 12 -5l67 -249q2 -2 -3.5 -3.5zM128.5 275q22.5 -21 64.5 -43q36 -19 55.5 -32.5t33.5 -34.5t14 -52q0 -51 -38.5 -87.5t-105.5 -36.5q-52 0 -98 29
q-6 6 -6 12l-2 85q0 3 5.5 3.5t6.5 -2.5q18 -50 50.5 -79t72.5 -29q28 0 43.5 14t15.5 41q0 28 -12 47.5t-29.5 31t-47.5 27.5q-33 16 -52.5 29t-33 34t-13.5 53q0 56 41 84.5t98 28.5q39 0 76 -15q9 -3 9 -11q0 -22 -1 -34l-1 -45q0 -2 -6 -2t-6 2q0 20 -16 40t-40.5 32.5
t-49.5 12.5q-23 0 -36.5 -11.5t-13.5 -37.5q0 -33 22.5 -54z" />
    <glyph glyph-name="Scedilla" unicode="&#x15e;" horiz-adv-x="499" 
d="M397 44.5q-48 -47.5 -131 -55.5q-7 -24 -7 -40q0 -15 9 -24.5t32 -23.5q25 -14 40 -32t15 -45q0 -39 -27.5 -69t-82.5 -30q-31 0 -49.5 10.5t-18.5 30.5q0 13 10 23t24 10t20.5 -6.5t12.5 -19.5t13 -20t22 -7q31 0 31 34q0 26 -18.5 46.5t-66.5 46.5q-13 7 -13 13
q0 4 5 17q15 35 33 85h-14q-40 0 -79 9.5t-68 27.5q-5 3 -7 7t-2 12l-10 143q-1 4 4.5 5t6.5 -3q24 -76 67 -129t112 -53q47 0 78.5 25.5t31.5 83.5q0 44 -20 77t-48.5 55.5t-76.5 51.5q-47 30 -74.5 51.5t-46.5 53t-19 73.5q0 51 27.5 87t72 53.5t93.5 17.5q67 0 121 -23
q15 -6 15 -18l5 -125q0 -4 -5 -5t-6 3q-11 54 -47 102.5t-102 48.5q-50 0 -77.5 -30t-27.5 -76q0 -38 19 -66.5t46 -49t75 -49.5q50 -31 79.5 -53.5t50.5 -55.5t21 -78q0 -69 -48 -116.5z" />
    <glyph glyph-name="scedilla" unicode="&#x15f;" horiz-adv-x="338" 
d="M247 -131q15 -18 15 -45q0 -39 -27.5 -69t-82.5 -30q-31 0 -49.5 10.5t-18.5 30.5q0 13 10 23t24 10t20.5 -6.5t12.5 -19.5t13 -20t22 -7q31 0 31 34q0 26 -18.5 46.5t-66.5 46.5q-13 7 -13 13q0 4 5 17q16 36 33 86h-5q-52 0 -98 29q-6 6 -6 12l-2 85q0 3 5.5 3.5
t6.5 -2.5q18 -50 50.5 -79t72.5 -29q28 0 43.5 14t15.5 41q0 28 -12 47.5t-29.5 31t-47.5 27.5q-33 16 -52.5 29t-33 34t-13.5 53q0 56 41 84.5t98 28.5q39 0 76 -15q9 -3 9 -11q0 -22 -1 -34l-1 -45q0 -2 -6 -2t-6 2q0 20 -16 40t-40.5 32.5t-49.5 12.5q-23 0 -36.5 -11.5
t-13.5 -37.5q0 -33 22.5 -54t64.5 -43q36 -19 55.5 -32.5t33.5 -34.5t14 -52q0 -47 -32.5 -82t-90.5 -41q-7 -25 -7 -41q0 -15 9 -24.5t32 -23.5q25 -14 40 -32z" />
    <glyph glyph-name="Scaron" unicode="&#x160;" horiz-adv-x="499" 
d="M145 790q-1 0 -1 0.5v0.5q0 2 2.5 4.5t4.5 1.5l109 -52l108 52h1q3 0 4.5 -2.5t-0.5 -4.5l-102 -103q-4 -4 -11 -4q-8 0 -12 4zM173 446.5q19 -28.5 46 -49t75 -49.5q50 -31 79.5 -53.5t50.5 -55.5t21 -78q0 -49 -25.5 -88.5t-73 -62t-110.5 -22.5q-40 0 -79 9.5
t-68 27.5q-5 3 -7 7t-2 12l-10 143q-1 4 4.5 5t6.5 -3q24 -76 67 -129t112 -53q47 0 78.5 25.5t31.5 83.5q0 44 -20 77t-48.5 55.5t-76.5 51.5q-47 30 -74.5 51.5t-46.5 53t-19 73.5q0 51 27.5 87t72 53.5t93.5 17.5q67 0 121 -23q15 -6 15 -18l5 -125q0 -4 -5 -5t-6 3
q-11 54 -47 102.5t-102 48.5q-50 0 -77.5 -30t-27.5 -76q0 -38 19 -66.5z" />
    <glyph glyph-name="scaron" unicode="&#x161;" horiz-adv-x="338" 
d="M96.5 730q5.5 1 6.5 -1l69 -147l68 147q1 2 6 1t4 -4l-67 -249q-2 -5 -11 -5t-12 5l-68 249q-1 3 4.5 4zM128.5 275q22.5 -21 64.5 -43q36 -19 55.5 -32.5t33.5 -34.5t14 -52q0 -51 -38.5 -87.5t-105.5 -36.5q-52 0 -98 29q-6 6 -6 12l-2 85q0 3 5.5 3.5t6.5 -2.5
q18 -50 50.5 -79t72.5 -29q28 0 43.5 14t15.5 41q0 28 -12 47.5t-29.5 31t-47.5 27.5q-33 16 -52.5 29t-33 34t-13.5 53q0 56 41 84.5t98 28.5q39 0 76 -15q9 -3 9 -11q0 -22 -1 -34l-1 -45q0 -2 -6 -2t-6 2q0 20 -16 40t-40.5 32.5t-49.5 12.5q-23 0 -36.5 -11.5
t-13.5 -37.5q0 -33 22.5 -54z" />
    <glyph glyph-name="uni0162" unicode="&#x162;" horiz-adv-x="637" 
d="M595.5 654q5.5 0 5.5 -4q-3 -28 -6.5 -90t-3.5 -100q0 -2 -5.5 -2t-5.5 2q-7 77 -40 111t-98 34q-37 0 -53 -4.5t-22 -17t-6 -41.5v-461q0 -31 6.5 -45t25.5 -19t61 -5q2 0 2 -6t-2 -6q-34 0 -54 1l-74 1q-10 -38 -10 -52q0 -16 8.5 -26.5t30.5 -22.5q25 -14 40 -32
t15 -45q0 -39 -27.5 -69t-82.5 -30q-31 0 -49.5 10.5t-18.5 30.5q0 13 10 23t24 10t20.5 -6.5t12.5 -19.5t13 -20t22 -7q31 0 31 34q0 26 -18.5 46.5t-66.5 46.5q-13 7 -13 13q0 4 5 17q17 40 38 99l-70 -1q-19 -1 -53 -1q-3 0 -3 6t3 6q41 0 60 5t26 19.5t7 44.5v463
q0 28 -6 40.5t-22 16.5t-53 4q-62 0 -97 -34.5t-52 -110.5q-1 -2 -6.5 -2t-5.5 2q4 29 9 92t5 95q0 5 6 5t6 -5q0 -22 55 -22q85 -3 201 -3q59 0 125 2l68 1q37 0 54 5t22 20q1 4 6.5 4z" />
    <glyph glyph-name="uni0163" unicode="&#x163;" horiz-adv-x="338" 
d="M315 58q4 0 6 -4.5t-1 -6.5q-37 -31 -68 -45t-65 -14q-7 -28 -7 -38q0 -16 9 -25.5t33 -23.5q25 -14 40 -32t15 -45q0 -39 -27.5 -69t-82.5 -30q-31 0 -49.5 10.5t-18.5 30.5q0 13 10 23t24 10t20.5 -6.5t12.5 -19.5t13 -20t22 -7q31 0 31 34q0 26 -18.5 46.5t-66.5 46.5
q-13 7 -13 13q0 4 5 17q16 36 33 86q-37 3 -60.5 23t-23.5 61v231q0 35 -9.5 45t-42.5 10q-3 0 -3 8q0 7 3 7q44 1 71 21.5t35 56.5q1 3 8 3t7 -3v-77q49 1 136 10q3 0 5 -7t2 -16t-3 -17.5t-7 -7.5q-63 13 -133 15v-245q0 -40 20 -59.5t57 -19.5q44 0 79 29z" />
    <glyph glyph-name="Tcaron" unicode="&#x164;" horiz-adv-x="637" 
d="M204 790q-1 0 -1 0.5v0.5q0 2 2.5 4.5t4.5 1.5l109 -52l108 52h1q3 0 4.5 -2.5t-0.5 -4.5l-102 -103q-4 -4 -11 -4q-8 0 -12 4zM102 570.5q-35 -34.5 -52 -110.5q-1 -2 -6.5 -2t-5.5 2q4 29 9 92t5 95q0 5 6 5t6 -5q0 -22 55 -22q85 -3 201 -3q59 0 125 2l68 1q37 0 54 5
t22 20q1 4 6.5 4t5.5 -4q-3 -28 -6.5 -90t-3.5 -100q0 -2 -5.5 -2t-5.5 2q-7 77 -40 111t-98 34q-37 0 -53 -4.5t-22 -17t-6 -41.5v-461q0 -31 6.5 -45t25.5 -19t61 -5q2 0 2 -6t-2 -6q-35 0 -55 1l-79 1l-77 -1q-20 -1 -56 -1q-3 0 -3 6t3 6q41 0 60 5t26 19.5t7 44.5v463
q0 28 -6 40.5t-22 16.5t-53 4q-62 0 -97 -34.5z" />
    <glyph glyph-name="tcaron" unicode="&#x165;" horiz-adv-x="338" 
d="M213 428.5q-5 0.5 -5 2.5l-8 272q0 5 15.5 -1t30.5 -15.5t14 -15.5l-41 -241q-1 -2 -6 -1.5zM315 58q4 0 6 -4.5t-1 -6.5q-37 -31 -68 -45t-65 -14q-42 0 -70.5 19.5t-28.5 65.5v231q0 35 -9.5 45t-42.5 10q-3 0 -3 8q0 7 3 7q44 1 71 21.5t35 56.5q1 3 8 3t7 -3v-77
q49 1 136 10q3 0 5 -7t2 -16t-3 -17.5t-7 -7.5q-63 13 -133 15v-245q0 -40 20 -59.5t57 -19.5q44 0 79 29z" />
    <glyph glyph-name="Tbar" unicode="&#x166;" horiz-adv-x="632" 
d="M595.5 654q5.5 0 5.5 -4q-3 -28 -6.5 -90t-3.5 -100q0 -2 -5.5 -2t-5.5 2q-7 77 -40 111t-98 34q-37 0 -53 -4.5t-22 -17t-6 -41.5v-208h97q2 0 3.5 -3.5t1.5 -7.5t-1.5 -8t-3.5 -4h-97v-230q0 -31 6.5 -45t25.5 -19t61 -5q2 0 2 -6t-2 -6q-35 0 -55 1l-79 1l-77 -1
q-20 -1 -56 -1q-3 0 -3 6t3 6q41 0 60 5t26 19.5t7 44.5v230h-96q-4 0 -4 12q0 11 4 11h96v210q0 28 -6 40.5t-22 16.5t-53 4q-62 0 -97 -34.5t-52 -110.5q-1 -2 -6.5 -2t-5.5 2q4 29 9 92t5 95q0 5 6 5t6 -5q0 -22 55 -22q85 -3 201 -3q59 0 125 2l68 1q37 0 54 5t22 20
q1 4 6.5 4z" />
    <glyph glyph-name="tbar" unicode="&#x167;" horiz-adv-x="339" 
d="M315 58q4 0 6 -4.5t-1 -6.5q-37 -31 -68 -45t-65 -14q-42 0 -70.5 19.5t-28.5 65.5v131h-37q-1 0 -2.5 4t-1.5 8t1.5 7.5t2.5 3.5h37v77q0 35 -9.5 45t-42.5 10q-3 0 -3 8q0 7 3 7q44 1 71 21.5t35 56.5q1 3 8 3t7 -3v-77q49 1 136 10q3 0 5 -7t2 -16t-3 -17.5t-7 -7.5
q-63 13 -133 15v-125h123q4 0 4 -11q0 -12 -4 -12h-123v-97q0 -40 20 -59.5t57 -19.5q44 0 79 29z" />
    <glyph glyph-name="Utilde" unicode="&#x168;" horiz-adv-x="761" 
d="M259 697q-3 0 -5.5 2.5t-1.5 4.5q45 69 86 69q16 0 49 -11q5 -1 28.5 -7.5t46.5 -6.5q17 0 27.5 6.5t22.5 20.5h1q3 0 5.5 -2.5t0.5 -4.5q-26 -40 -43 -54t-38 -14q-16 0 -35 5t-25 6q-39 13 -68 13q-19 0 -27 -5.5t-23 -21.5h-1zM729 6q0 -6 -3 -6l-82 1l-58 -1
q-12 0 -15.5 3t-3.5 16v74q-59 -55 -115.5 -80t-122.5 -25q-64 0 -115 24t-80.5 69t-29.5 105v358q0 30 -6 44t-22.5 19.5t-52.5 5.5q-3 0 -3 6t3 6l50 -1q44 -2 70 -2q29 0 73 2l48 1q3 0 3 -6t-3 -6q-35 0 -52 -6t-23 -20.5t-6 -44.5v-321q0 -98 48 -149.5t130 -51.5
q54 0 102.5 22.5t103.5 73.5v426q0 30 -6 44.5t-22.5 20.5t-52.5 6q-2 0 -2 6t2 6l50 -1q44 -2 70 -2q27 0 69 2l51 1q3 0 3 -6t-3 -6q-36 0 -53 -5.5t-23 -19.5t-6 -44v-463q0 -30 6 -44.5t23 -19.5t53 -5q3 0 3 -6z" />
    <glyph glyph-name="utilde" unicode="&#x169;" horiz-adv-x="497" 
d="M116 477q-3 0 -5 2.5t0 4.5q45 67 85 67q14 0 50 -10q46 -14 74 -14q17 0 27.5 6.5t22.5 20.5h1q3 0 5.5 -2.5t0.5 -4.5q-26 -40 -43 -54t-37 -14t-60 12q-4 1 -25.5 7t-43.5 6q-16 0 -25 -5t-15.5 -12t-9.5 -10h-2zM490 60q4 0 6 -4.5t-1 -6.5l-124 -59q-2 -1 -5 -1
q-9 0 -18 23.5t-9 61.5q-74 -83 -154 -83q-51 0 -80.5 32.5t-29.5 90.5v151q0 38 -7 54.5t-23 16.5q-14 0 -31 -8h-2q-3 0 -4.5 5t1.5 6l118 55l4 1q4 0 8 -3t4 -7v-233q0 -113 84 -113q28 0 58 14t54 39v173q0 38 -7 54.5t-23 16.5q-13 0 -32 -8h-2q-3 0 -4 5t2 6l118 55
l4 1q4 0 8 -3t4 -7v-275q0 -34 7.5 -49t25.5 -15q16 0 49 14h1z" />
    <glyph glyph-name="Umacron" unicode="&#x16a;" horiz-adv-x="761" 
d="M250 735q0 15 7 15h251q4 0 6 -4.5t2 -10.5t-2 -11t-6 -5h-251q-7 0 -7 16zM729 6q0 -6 -3 -6l-82 1l-58 -1q-12 0 -15.5 3t-3.5 16v74q-59 -55 -115.5 -80t-122.5 -25q-64 0 -115 24t-80.5 69t-29.5 105v358q0 30 -6 44t-22.5 19.5t-52.5 5.5q-3 0 -3 6t3 6l50 -1
q44 -2 70 -2q29 0 73 2l48 1q3 0 3 -6t-3 -6q-35 0 -52 -6t-23 -20.5t-6 -44.5v-321q0 -98 48 -149.5t130 -51.5q54 0 102.5 22.5t103.5 73.5v426q0 30 -6 44.5t-22.5 20.5t-52.5 6q-2 0 -2 6t2 6l50 -1q44 -2 70 -2q27 0 69 2l51 1q3 0 3 -6t-3 -6q-36 0 -53 -5.5
t-23 -19.5t-6 -44v-463q0 -30 6 -44.5t23 -19.5t53 -5q3 0 3 -6z" />
    <glyph glyph-name="umacron" unicode="&#x16b;" horiz-adv-x="497" 
d="M111 496q0 15 7 15h251q4 0 6 -4.5t2 -10.5t-2 -11t-6 -5h-251q-7 0 -7 16zM490 60q4 0 6 -4.5t-1 -6.5l-124 -59q-2 -1 -5 -1q-9 0 -18 23.5t-9 61.5q-74 -83 -154 -83q-51 0 -80.5 32.5t-29.5 90.5v151q0 38 -7 54.5t-23 16.5q-14 0 -31 -8h-2q-3 0 -4.5 5t1.5 6
l118 55l4 1q4 0 8 -3t4 -7v-233q0 -113 84 -113q28 0 58 14t54 39v173q0 38 -7 54.5t-23 16.5q-13 0 -32 -8h-2q-3 0 -4 5t2 6l118 55l4 1q4 0 8 -3t4 -7v-275q0 -34 7.5 -49t25.5 -15q16 0 49 14h1z" />
    <glyph glyph-name="Ubreve" unicode="&#x16c;" horiz-adv-x="761" 
d="M311.5 719.5q-26.5 29.5 -31.5 83.5q-1 4 4.5 4.5t6.5 -1.5q5 -25 31.5 -43.5t60.5 -18.5q33 0 59.5 18.5t31.5 43.5q0 2 4 2q3 0 5.5 -1.5t1.5 -3.5q-5 -54 -31 -83.5t-71 -29.5t-71.5 29.5zM729 6q0 -6 -3 -6l-82 1l-58 -1q-12 0 -15.5 3t-3.5 16v74
q-59 -55 -115.5 -80t-122.5 -25q-64 0 -115 24t-80.5 69t-29.5 105v358q0 30 -6 44t-22.5 19.5t-52.5 5.5q-3 0 -3 6t3 6l50 -1q44 -2 70 -2q29 0 73 2l48 1q3 0 3 -6t-3 -6q-35 0 -52 -6t-23 -20.5t-6 -44.5v-321q0 -98 48 -149.5t130 -51.5q54 0 102.5 22.5t103.5 73.5
v426q0 30 -6 44.5t-22.5 20.5t-52.5 6q-2 0 -2 6t2 6l50 -1q44 -2 70 -2q27 0 69 2l51 1q3 0 3 -6t-3 -6q-36 0 -53 -5.5t-23 -19.5t-6 -44v-463q0 -30 6 -44.5t23 -19.5t53 -5q3 0 3 -6z" />
    <glyph glyph-name="ubreve" unicode="&#x16d;" horiz-adv-x="497" 
d="M167.5 509q-26.5 39 -26.5 115q0 3 5.5 3.5t5.5 -1.5q0 -40 26.5 -68t65.5 -28q38 0 64.5 28.5t26.5 67.5q0 2 4 2q2 0 4.5 -1.5t2.5 -2.5q0 -76 -26 -115t-76 -39t-76.5 39zM490 60q4 0 6 -4.5t-1 -6.5l-124 -59q-2 -1 -5 -1q-9 0 -18 23.5t-9 61.5q-74 -83 -154 -83
q-51 0 -80.5 32.5t-29.5 90.5v151q0 38 -7 54.5t-23 16.5q-14 0 -31 -8h-2q-3 0 -4.5 5t1.5 6l118 55l4 1q4 0 8 -3t4 -7v-233q0 -113 84 -113q28 0 58 14t54 39v173q0 38 -7 54.5t-23 16.5q-13 0 -32 -8h-2q-3 0 -4 5t2 6l118 55l4 1q4 0 8 -3t4 -7v-275q0 -34 7.5 -49
t25.5 -15q16 0 49 14h1z" />
    <glyph glyph-name="Uring" unicode="&#x16e;" horiz-adv-x="761" 
d="M306.5 700.5q-25.5 23.5 -25.5 55.5q0 36 32.5 57t71.5 21q38 0 66 -23.5t28 -56.5q0 -35 -32 -56t-72 -21q-43 0 -68.5 23.5zM342 810.5q-7 -11.5 -7 -34.5q0 -34 15.5 -61t40.5 -27q33 0 33 48q0 35 -17 60.5t-42 25.5q-16 0 -23 -11.5zM729 6q0 -6 -3 -6l-82 1l-58 -1
q-12 0 -15.5 3t-3.5 16v74q-59 -55 -115.5 -80t-122.5 -25q-64 0 -115 24t-80.5 69t-29.5 105v358q0 30 -6 44t-22.5 19.5t-52.5 5.5q-3 0 -3 6t3 6l50 -1q44 -2 70 -2q29 0 73 2l48 1q3 0 3 -6t-3 -6q-35 0 -52 -6t-23 -20.5t-6 -44.5v-321q0 -98 48 -149.5t130 -51.5
q54 0 102.5 22.5t103.5 73.5v426q0 30 -6 44.5t-22.5 20.5t-52.5 6q-2 0 -2 6t2 6l50 -1q44 -2 70 -2q27 0 69 2l51 1q3 0 3 -6t-3 -6q-36 0 -53 -5.5t-23 -19.5t-6 -44v-463q0 -30 6 -44.5t23 -19.5t53 -5q3 0 3 -6z" />
    <glyph glyph-name="uring" unicode="&#x16f;" horiz-adv-x="497" 
d="M166.5 491.5q-25.5 23.5 -25.5 55.5q0 36 32.5 57t71.5 21q38 0 66 -23.5t28 -56.5q0 -35 -32 -56t-72 -21q-43 0 -68.5 23.5zM202 601.5q-7 -11.5 -7 -34.5q0 -34 15.5 -61t40.5 -27q33 0 33 48q0 35 -17 60.5t-42 25.5q-16 0 -23 -11.5zM490 60q4 0 6 -4.5t-1 -6.5
l-124 -59q-2 -1 -5 -1q-9 0 -18 23.5t-9 61.5q-74 -83 -154 -83q-51 0 -80.5 32.5t-29.5 90.5v151q0 38 -7 54.5t-23 16.5q-14 0 -31 -8h-2q-3 0 -4.5 5t1.5 6l118 55l4 1q4 0 8 -3t4 -7v-233q0 -113 84 -113q28 0 58 14t54 39v173q0 38 -7 54.5t-23 16.5q-13 0 -32 -8h-2
q-3 0 -4 5t2 6l118 55l4 1q4 0 8 -3t4 -7v-275q0 -34 7.5 -49t25.5 -15q16 0 49 14h1z" />
    <glyph glyph-name="Uhungarumlaut" unicode="&#x170;" horiz-adv-x="761" 
d="M274 673q-3 0 -4.5 4.5t0.5 6.5q51 52 90 105q3 5 25 -0.5t39 -14.5t9 -13q-75 -32 -156 -87q-1 -1 -3 -1zM407 673q-3 0 -4.5 4.5t0.5 6.5q36 37 90 105q3 5 24.5 -0.5t38 -14.5t8.5 -13q-74 -33 -154 -87q-1 -1 -3 -1zM729 6q0 -6 -3 -6l-82 1l-58 -1q-12 0 -15.5 3
t-3.5 16v74q-59 -55 -115.5 -80t-122.5 -25q-64 0 -115 24t-80.5 69t-29.5 105v358q0 30 -6 44t-22.5 19.5t-52.5 5.5q-3 0 -3 6t3 6l50 -1q44 -2 70 -2q29 0 73 2l48 1q3 0 3 -6t-3 -6q-35 0 -52 -6t-23 -20.5t-6 -44.5v-321q0 -98 48 -149.5t130 -51.5q54 0 102.5 22.5
t103.5 73.5v426q0 30 -6 44.5t-22.5 20.5t-52.5 6q-2 0 -2 6t2 6l50 -1q44 -2 70 -2q27 0 69 2l51 1q3 0 3 -6t-3 -6q-36 0 -53 -5.5t-23 -19.5t-6 -44v-463q0 -30 6 -44.5t23 -19.5t53 -5q3 0 3 -6z" />
    <glyph glyph-name="uhungarumlaut" unicode="&#x171;" horiz-adv-x="497" 
d="M148 452q-4 0 -5.5 4.5t0.5 6.5q23 24 64 78l21 27q3 4 25.5 -1t40 -13t9.5 -11q-39 -16 -72 -36t-81 -54zM276 452q-4 0 -5.5 4.5t0.5 6.5q17 17 57 69l28 36q3 4 25.5 -1t40 -13t9.5 -11q-39 -16 -72 -36t-81 -54zM490 60q4 0 6 -4.5t-1 -6.5l-124 -59q-2 -1 -5 -1
q-9 0 -18 23.5t-9 61.5q-74 -83 -154 -83q-51 0 -80.5 32.5t-29.5 90.5v151q0 38 -7 54.5t-23 16.5q-14 0 -31 -8h-2q-3 0 -4.5 5t1.5 6l118 55l4 1q4 0 8 -3t4 -7v-233q0 -113 84 -113q28 0 58 14t54 39v173q0 38 -7 54.5t-23 16.5q-13 0 -32 -8h-2q-3 0 -4 5t2 6l118 55
l4 1q4 0 8 -3t4 -7v-275q0 -34 7.5 -49t25.5 -15q16 0 49 14h1z" />
    <glyph glyph-name="Uogonek" unicode="&#x172;" horiz-adv-x="758" 
d="M726 6q0 -6 -3 -6l-95 1q-113 0 -113 -132q0 -53 24.5 -81.5t69.5 -28.5q19 0 31 5t25 14h1q3 0 5.5 -3t0.5 -5q-27 -24 -53.5 -34.5t-55.5 -10.5q-55 0 -88 28t-33 76q0 39 16 65t48 59q29 30 43.5 52.5t14.5 54.5v34q-60 -56 -116 -81t-119 -25q-65 0 -116 24t-80 69
t-29 105v358q0 30 -6 44t-22.5 19.5t-52.5 5.5q-3 0 -3 6t3 6l50 -1q44 -2 70 -2q29 0 73 2l48 1q3 0 3 -6t-3 -6q-35 0 -52 -6t-23 -20.5t-6 -44.5v-321q0 -98 47 -149.5t128 -51.5q54 0 102 21.5t104 72.5v428q0 30 -6 44.5t-22.5 20.5t-52.5 6q-2 0 -2 6t2 6l50 -1
q42 -2 69 -2q28 0 70 2l51 1q3 0 3 -6t-3 -6q-36 0 -53 -5.5t-23 -19.5t-6 -44v-463q0 -30 6 -44.5t23 -19.5t53 -5q3 0 3 -6z" />
    <glyph glyph-name="uogonek" unicode="&#x173;" horiz-adv-x="497" 
d="M490 60q4 0 6 -4.5t-1 -6.5l-48 -23q-70 -40 -101 -80.5t-31 -93.5q0 -46 21.5 -70.5t63.5 -24.5q20 0 33.5 5.5t28.5 15.5h2q3 0 5.5 -3t-0.5 -5q-52 -45 -113 -45q-54 0 -82 25.5t-28 70.5q0 43 29.5 86.5t85.5 83.5q-9 6 -15.5 28t-6.5 55q-74 -83 -154 -83
q-51 0 -80.5 32.5t-29.5 90.5v151q0 38 -7 54.5t-23 16.5q-14 0 -31 -8h-2q-3 0 -4.5 5t1.5 6l118 55l4 1q4 0 8 -3t4 -7v-233q0 -113 84 -113q28 0 58 14t54 39v173q0 38 -7 54.5t-23 16.5q-13 0 -32 -8h-2q-3 0 -4 5t2 6l118 55l4 1q4 0 8 -3t4 -7v-275q0 -34 7.5 -49
t25.5 -15q16 0 49 14h1z" />
    <glyph glyph-name="Wcircumflex" unicode="&#x174;" horiz-adv-x="915" 
d="M357 650.5q-3 3.5 -1 4.5l103 103q5 5 12 5q6 0 11 -5l102 -103q1 0 1 -2t-2.5 -4t-3.5 -1l-108 51l-109 -51q-2 -1 -5 2.5zM922 619q0 -6 -3 -6q-36 0 -65.5 -22.5t-42.5 -68.5l-150 -521q0 -4 -11 -4q-10 0 -11 4l-192 499l-152 -499q0 -4 -11 -4q-9 0 -12 4l-189 541
q-14 41 -32.5 56t-49.5 15q-3 0 -3 6t3 6l31 -1q26 -2 49 -2q57 0 111 2q16 1 40 1q3 0 3 -6t-3 -6q-69 0 -69 -44q0 -12 6 -30l141 -404l150 490q2 3 12 3t11 -3l190 -495l112 392q5 20 5 32q0 59 -89 59q-2 0 -2 6t2 6l53 -1q44 -2 77 -2q19 0 47 2l41 1q3 0 3 -6z" />
    <glyph glyph-name="wcircumflex" unicode="&#x175;" horiz-adv-x="671" 
d="M273 472q-3 0 -5.5 1.5t-1.5 2.5l68 249q1 5 11 5q11 0 12 -5l67 -249q2 -2 -3.5 -3.5t-6.5 1.5l-68 147l-69 -147q0 -2 -4 -2zM675 380q0 -6 -3 -6q-26 0 -45.5 -18t-36.5 -61l-114 -294q-1 -4 -11 -4q-9 0 -12 4l-132 285l-103 -285q-1 -4 -11 -4q-9 0 -12 4l-130 302
q-18 43 -33 57t-36 14q-3 0 -3 6t3 6q19 0 30 -1l47 -1l65 1q15 1 41 1q3 0 3 -6t-3 -6q-26 0 -40.5 -5.5t-14.5 -18.5q0 -7 4 -15l103 -234l103 285q1 4 11 4t11 -4l135 -290l77 203q7 21 7 31q0 44 -74 44q-2 0 -2 6t2 6q27 0 41 -1l60 -1l38 1q10 1 32 1q3 0 3 -6z" />
    <glyph glyph-name="Ycircumflex" unicode="&#x176;" horiz-adv-x="612" 
d="M207 690.5q-3 3.5 -1 4.5l103 104q5 5 12 5q6 0 11 -5l102 -104q1 0 1 -2t-2.5 -4t-3.5 -1l-108 52l-109 -52q-2 -1 -5 2.5zM619 619q0 -6 -2 -6q-34 0 -73.5 -30.5t-70.5 -80.5l-124 -195v-226q0 -31 5.5 -45t22 -19t52.5 -5q3 0 3 -6t-3 -6q-31 0 -49 1l-72 1l-70 -1
q-18 -1 -51 -1q-3 0 -3 6t3 6q36 0 53 5t23 19.5t6 44.5v209l-159 237q-32 48 -56.5 67t-52.5 19q-3 0 -3 6t3 6q11 0 35 -2l33 -1q33 0 91 2l58 1q2 0 2 -6t-2 -6q-47 0 -47 -24q0 -11 11 -28l154 -230l112 177q24 39 24 64q0 20 -14 30.5t-41 10.5q-3 0 -3 6t3 6l49 -1
q40 -2 73 -2q17 0 41 2l37 1q2 0 2 -6z" />
    <glyph glyph-name="ycircumflex" unicode="&#x177;" horiz-adv-x="489" 
d="M187 472q-3 0 -5.5 1.5t-1.5 2.5l68 249q1 5 11 5q11 0 12 -5l67 -249q2 -2 -3.5 -3.5t-6.5 1.5l-68 147l-69 -147q0 -2 -4 -2zM413 392q4 -3 4 -7v-455q0 -95 -52.5 -153t-151.5 -58q-58 0 -98 21.5t-40 56.5q0 17 11 26.5t27 9.5q17 0 28 -9.5t24 -28.5
q18 -26 37.5 -40.5t54.5 -14.5q43 0 67.5 35.5t24.5 130.5v168q-74 -83 -157 -83q-52 0 -80.5 32.5t-28.5 90.5v151q0 38 -7 54.5t-23 16.5q-15 0 -32 -8h-2q-3 0 -4.5 5t1.5 6l119 55l3 1q4 0 8.5 -3t4.5 -7v-233q0 -57 20.5 -84.5t62.5 -27.5q29 0 59.5 14t55.5 39v172
q0 38 -7 54.5t-23 16.5q-14 0 -31 -8h-2q-3 0 -4.5 5t1.5 6l118 55l4 1q4 0 8 -3z" />
    <glyph glyph-name="Ydieresis" unicode="&#x178;" horiz-adv-x="612" 
d="M199 724q-12 12 -12 34q0 21 12 32.5t34 11.5t33.5 -11.5t11.5 -32.5q0 -22 -11.5 -34t-33.5 -12t-34 12zM374 724q-12 12 -12 34q0 21 12 32.5t34 11.5t33.5 -11.5t11.5 -32.5q0 -22 -11.5 -34t-33.5 -12t-34 12zM619 619q0 -6 -2 -6q-34 0 -73.5 -30.5t-70.5 -80.5
l-124 -195v-226q0 -31 5.5 -45t22 -19t52.5 -5q3 0 3 -6t-3 -6q-31 0 -49 1l-72 1l-70 -1q-18 -1 -51 -1q-3 0 -3 6t3 6q36 0 53 5t23 19.5t6 44.5v209l-159 237q-32 48 -56.5 67t-52.5 19q-3 0 -3 6t3 6q11 0 35 -2l33 -1q33 0 91 2l58 1q2 0 2 -6t-2 -6q-47 0 -47 -24
q0 -11 11 -28l154 -230l112 177q24 39 24 64q0 20 -14 30.5t-41 10.5q-3 0 -3 6t3 6l49 -1q40 -2 73 -2q17 0 41 2l37 1q2 0 2 -6z" />
    <glyph glyph-name="Zacute" unicode="&#x179;" horiz-adv-x="598" 
d="M216 678q-4 0 -5 4.5t2 6.5q36 20 103 66q32 22 48 32q5 3 27.5 -4t40 -16t8.5 -11q-62 -15 -113.5 -33.5t-108.5 -43.5zM438 600q3 5 2.5 6.5t-7.5 1.5q-157 0 -221 -6.5t-93.5 -29.5t-52.5 -81q-2 -2 -4 -2q-3 0 -6 1.5t-2 2.5l40 162q0 1 4 1q10 0 8 -3q-1 -3 -1 -8
q0 -12 11.5 -16t46.5 -4h365q5 0 7.5 -5t-0.5 -8l-376 -585q-4 -5 -3 -6.5t7 -1.5h238q63 0 102 31.5t50 90.5q1 2 6 2t5 -2l-14 -133q0 -3 -2.5 -6.5t-6.5 -3.5q-149 2 -479 2q-4 0 -6 4.5t1 8.5z" />
    <glyph glyph-name="zacute" unicode="&#x17a;" horiz-adv-x="405" 
d="M201 472q-3 0 -5.5 1.5t-1.5 2.5l46 240q1 4 24.5 9.5t38.5 5.5q11 0 10 -4l-108 -253q0 -2 -4 -2zM273 366q2 3 0.5 5t-5.5 2q-103 0 -152 -20t-66 -75q0 -2 -4 -2q-3 0 -5.5 1.5t-1.5 2.5l36 138q1 2 7 1.5t5 -2.5q-1 -4 -1 -10q0 -12 11 -16.5t38 -4.5h218q4 0 6.5 -4
t1.5 -8l-234 -351q-3 -7 5 -7q86 0 129.5 8t65 29.5t34.5 66.5q1 2 6 2t5 -2l-2 -109q0 -4 -2.5 -7.5t-6.5 -3.5h-315q-4 0 -6.5 4t-0.5 8z" />
    <glyph glyph-name="Zdotaccent" unicode="&#x17b;" horiz-adv-x="598" 
d="M278.5 726q-13.5 13 -13.5 36q0 22 13.5 34.5t36.5 12.5q22 0 34.5 -12.5t12.5 -34.5q0 -23 -12.5 -36t-34.5 -13q-23 0 -36.5 13zM438 600q3 5 2.5 6.5t-7.5 1.5q-157 0 -221 -6.5t-93.5 -29.5t-52.5 -81q-2 -2 -4 -2q-3 0 -6 1.5t-2 2.5l40 162q0 1 4 1q10 0 8 -3
q-1 -3 -1 -8q0 -12 11.5 -16t46.5 -4h365q5 0 7.5 -5t-0.5 -8l-376 -585q-4 -5 -3 -6.5t7 -1.5h238q63 0 102 31.5t50 90.5q1 2 6 2t5 -2l-14 -133q0 -3 -2.5 -6.5t-6.5 -3.5q-149 2 -479 2q-4 0 -6 4.5t1 8.5z" />
    </font>
</defs>
</svg>
